  0
SECTION
  2
HEADER
  9
$ACADVER
  1
AC1015
  9
$ACADMAINTVER
 70
     6
  9
$DWGCODEPAGE
  3
ANSI_949
  9
$INSBASE
 10
0.0
 20
0.0
 30
0.0
  9
$EXTMIN
 10
-54.54946716083426
 20
-49.97180738881174
 30
0.0
  9
$EXTMAX
 10
28.60815763942833
 20
40.37500000000003
 30
0.0
  9
$LIMMIN
 10
0.0
 20
0.0
  9
$LIMMAX
 10
420.0
 20
297.0
  9
$ORTHOMODE
 70
     0
  9
$REGENMODE
 70
     1
  9
$FILLMODE
 70
     1
  9
$QTEXTMODE
 70
     0
  9
$MIRRTEXT
 70
     1
  9
$LTSCALE
 40
1.0
  9
$ATTMODE
 70
     1
  9
$TEXTSIZE
 40
3.5
  9
$TRACEWID
 40
1.0
  9
$TEXTSTYLE
  7
Standard
  9
$CLAYER
  8
0
  9
$CELTYPE
  6
ByLayer
  9
$CECOLOR
 62
   256
  9
$CELTSCALE
 40
1.0
  9
$DISPSILH
 70
     0
  9
$DIMSCALE
 40
1.0
  9
$DIMASZ
 40
3.302
  9
$DIMEXO
 40
1.0
  9
$DIMDLI
 40
3.75
  9
$DIMRND
 40
0.0
  9
$DIMDLE
 40
0.0
  9
$DIMEXE
 40
1.0
  9
$DIMTP
 40
0.0
  9
$DIMTM
 40
0.0
  9
$DIMTXT
 40
3.5
  9
$DIMCEN
 40
2.5
  9
$DIMTSZ
 40
0.0
  9
$DIMTOL
 70
     0
  9
$DIMLIM
 70
     0
  9
$DIMTIH
 70
     1
  9
$DIMTOH
 70
     1
  9
$DIMSE1
 70
     0
  9
$DIMSE2
 70
     0
  9
$DIMTAD
 70
     1
  9
$DIMZIN
 70
     0
  9
$DIMBLK
  1

  9
$DIMASO
 70
     1
  9
$DIMSHO
 70
     1
  9
$DIMPOST
  1

  9
$DIMAPOST
  1

  9
$DIMALT
 70
     0
  9
$DIMALTD
 70
     3
  9
$DIMALTF
 40
0.0393700787401575
  9
$DIMLFAC
 40
1.0
  9
$DIMTOFL
 70
     1
  9
$DIMTVP
 40
0.0
  9
$DIMTIX
 70
     0
  9
$DIMSOXD
 70
     0
  9
$DIMSAH
 70
     0
  9
$DIMBLK1
  1

  9
$DIMBLK2
  1

  9
$DIMSTYLE
  2
ISO-25
  9
$DIMCLRD
 70
     0
  9
$DIMCLRE
 70
     0
  9
$DIMCLRT
 70
     0
  9
$DIMTFAC
 40
1.0
  9
$DIMGAP
 40
1.524
  9
$DIMJUST
 70
     0
  9
$DIMSD1
 70
     0
  9
$DIMSD2
 70
     0
  9
$DIMTOLJ
 70
     0
  9
$DIMTZIN
 70
     0
  9
$DIMALTZ
 70
     0
  9
$DIMALTTZ
 70
     0
  9
$DIMUPT
 70
     0
  9
$DIMDEC
 70
     2
  9
$DIMTDEC
 70
     2
  9
$DIMALTU
 70
     2
  9
$DIMALTTD
 70
     3
  9
$DIMTXSTY
  7
Standard
  9
$DIMAUNIT
 70
     0
  9
$DIMADEC
 70
     2
  9
$DIMALTRND
 40
0.0
  9
$DIMAZIN
 70
     0
  9
$DIMDSEP
 70
    44
  9
$DIMATFIT
 70
     3
  9
$DIMFRAC
 70
     0
  9
$DIMLDRBLK
  1

  9
$DIMLUNIT
 70
     2
  9
$DIMLWD
 70
    -2
  9
$DIMLWE
 70
    -2
  9
$DIMTMOVE
 70
     0
  9
$LUNITS
 70
     2
  9
$LUPREC
 70
     2
  9
$SKETCHINC
 40
1.0
  9
$FILLETRAD
 40
10.0
  9
$AUNITS
 70
     0
  9
$AUPREC
 70
     2
  9
$MENU
  1
.
  9
$ELEVATION
 40
0.0
  9
$PELEVATION
 40
0.0
  9
$THICKNESS
 40
0.0
  9
$LIMCHECK
 70
     0
  9
$CHAMFERA
 40
0.0
  9
$CHAMFERB
 40
0.0
  9
$CHAMFERC
 40
0.0
  9
$CHAMFERD
 40
0.0
  9
$SKPOLY
 70
     0
  9
$TDCREATE
 40
2458260.77383441
  9
$TDUCREATE
 40
2458260.39883441
  9
$TDUPDATE
 40
2459677.748566979
  9
$TDUUPDATE
 40
2459677.373566979
  9
$TDINDWG
 40
0.002913206
  9
$TDUSRTIMER
 40
0.000413831
  9
$USRTIMER
 70
     1
  9
$ANGBASE
 50
0.0
  9
$ANGDIR
 70
     0
  9
$PDMODE
 70
     0
  9
$PDSIZE
 40
-1.0
  9
$PLINEWID
 40
0.0
  9
$SPLFRAME
 70
     0
  9
$SPLINETYPE
 70
     6
  9
$SPLINESEGS
 70
     8
  9
$HANDSEED
  5
18C
  9
$SURFTAB1
 70
     6
  9
$SURFTAB2
 70
     6
  9
$SURFTYPE
 70
     6
  9
$SURFU
 70
     6
  9
$SURFV
 70
     6
  9
$UCSBASE
  2

  9
$UCSNAME
  2

  9
$UCSORG
 10
0.0
 20
0.0
 30
0.0
  9
$UCSXDIR
 10
1.0
 20
0.0
 30
0.0
  9
$UCSYDIR
 10
0.0
 20
1.0
 30
0.0
  9
$UCSORTHOREF
  2

  9
$UCSORTHOVIEW
 70
     0
  9
$UCSORGTOP
 10
0.0
 20
0.0
 30
0.0
  9
$UCSORGBOTTOM
 10
0.0
 20
0.0
 30
0.0
  9
$UCSORGLEFT
 10
0.0
 20
0.0
 30
0.0
  9
$UCSORGRIGHT
 10
0.0
 20
0.0
 30
0.0
  9
$UCSORGFRONT
 10
0.0
 20
0.0
 30
0.0
  9
$UCSORGBACK
 10
0.0
 20
0.0
 30
0.0
  9
$PUCSBASE
  2

  9
$PUCSNAME
  2

  9
$PUCSORG
 10
0.0
 20
0.0
 30
0.0
  9
$PUCSXDIR
 10
1.0
 20
0.0
 30
0.0
  9
$PUCSYDIR
 10
0.0
 20
1.0
 30
0.0
  9
$PUCSORTHOREF
  2

  9
$PUCSORTHOVIEW
 70
     0
  9
$PUCSORGTOP
 10
0.0
 20
0.0
 30
0.0
  9
$PUCSORGBOTTOM
 10
0.0
 20
0.0
 30
0.0
  9
$PUCSORGLEFT
 10
0.0
 20
0.0
 30
0.0
  9
$PUCSORGRIGHT
 10
0.0
 20
0.0
 30
0.0
  9
$PUCSORGFRONT
 10
0.0
 20
0.0
 30
0.0
  9
$PUCSORGBACK
 10
0.0
 20
0.0
 30
0.0
  9
$USERI1
 70
     0
  9
$USERI2
 70
     0
  9
$USERI3
 70
     0
  9
$USERI4
 70
     0
  9
$USERI5
 70
     0
  9
$USERR1
 40
0.0
  9
$USERR2
 40
0.0
  9
$USERR3
 40
0.0
  9
$USERR4
 40
0.0
  9
$USERR5
 40
0.0
  9
$WORLDVIEW
 70
     1
  9
$SHADEDGE
 70
     3
  9
$SHADEDIF
 70
    70
  9
$TILEMODE
 70
     1
  9
$MAXACTVP
 70
    64
  9
$PINSBASE
 10
0.0
 20
0.0
 30
0.0
  9
$PLIMCHECK
 70
     0
  9
$PEXTMIN
 10
1.000000000000000E+20
 20
1.000000000000000E+20
 30
1.000000000000000E+20
  9
$PEXTMAX
 10
-1.000000000000000E+20
 20
-1.000000000000000E+20
 30
-1.000000000000000E+20
  9
$PLIMMIN
 10
0.0
 20
0.0
  9
$PLIMMAX
 10
0.0
 20
0.0
  9
$UNITMODE
 70
     0
  9
$VISRETAIN
 70
     1
  9
$PLINEGEN
 70
     0
  9
$PSLTSCALE
 70
     1
  9
$TREEDEPTH
 70
  3020
  9
$CMLSTYLE
  2
Standard
  9
$CMLJUST
 70
     0
  9
$CMLSCALE
 40
20.0
  9
$PROXYGRAPHICS
 70
     1
  9
$MEASUREMENT
 70
     1
  9
$CELWEIGHT
370
    -1
  9
$ENDCAPS
280
     0
  9
$JOINSTYLE
280
     0
  9
$LWDISPLAY
290
     1
  9
$INSUNITS
 70
     4
  9
$HYPERLINKBASE
  1

  9
$STYLESHEET
  1

  9
$XEDIT
290
     1
  9
$CEPSNTYPE
380
     0
  9
$PSTYLEMODE
290
     1
  9
$FINGERPRINTGUID
  2
{21714455-BE5E-41F3-8E9F-2CD4406C6411}
  9
$VERSIONGUID
  2
{FAEB1C32-E019-11D5-929B-00C0DF256EC4}
  9
$EXTNAMES
290
     1
  9
$PSVPSCALE
 40
0.0
  9
$OLESTARTUP
290
     0
  0
ENDSEC
  0
SECTION
  2
CLASSES
  0
CLASS
  1
ACDBDICTIONARYWDFLT
  2
AcDbDictionaryWithDefault
  3
ObjectDBX Classes
 90
        0
280
     0
281
     0
  0
CLASS
  1
VISUALSTYLE
  2
AcDbVisualStyle
  3
ObjectDBX Classes
 90
     4095
280
     0
281
     0
  0
CLASS
  1
MATERIAL
  2
AcDbMaterial
  3
ObjectDBX Classes
 90
     1153
280
     0
281
     0
  0
CLASS
  1
SCALE
  2
AcDbScale
  3
ObjectDBX Classes
 90
     1153
280
     0
281
     0
  0
CLASS
  1
TABLESTYLE
  2
AcDbTableStyle
  3
ObjectDBX Classes
 90
     4095
280
     0
281
     0
  0
CLASS
  1
MLEADERSTYLE
  2
AcDbMLeaderStyle
  3
ACDB_MLEADERSTYLE_CLASS
 90
     4095
280
     0
281
     0
  0
CLASS
  1
SUN
  2
AcDbSun
  3
SCENEOE
 90
     1153
280
     0
281
     0
  0
CLASS
  1
ACDBPLACEHOLDER
  2
AcDbPlaceHolder
  3
ObjectDBX Classes
 90
        0
280
     0
281
     0
  0
CLASS
  1
LAYOUT
  2
AcDbLayout
  3
ObjectDBX Classes
 90
        0
280
     0
281
     0
  0
CLASS
  1
DICTIONARYVAR
  2
AcDbDictionaryVar
  3
ObjectDBX Classes
 90
        0
280
     0
281
     0
  0
ENDSEC
  0
SECTION
  2
TABLES
  0
TABLE
  2
VPORT
  5
8
330
0
100
AcDbSymbolTable
 70
     1
  0
VPORT
  5
29
330
8
100
AcDbSymbolTableRecord
100
AcDbViewportTableRecord
  2
*Active
 70
     0
 10
0.0
 20
0.0
 11
1.0
 21
1.0
 12
3.760959724419273
 22
-5.523511096818408
 13
0.0
 23
0.0
 14
10.0
 24
10.0
 15
10.0
 25
10.0
 16
0.0
 26
0.0
 36
1.0
 17
0.0
 27
0.0
 37
0.0
 40
35.48067519230614
 41
1.531481481481481
 42
50.0
 43
0.0
 44
0.0
 50
0.0
 51
0.0
 71
    16
 72
  2000
 73
     1
 74
     3
 75
     0
 76
     0
 77
     0
 78
     0
281
     0
 65
     1
110
0.0
120
0.0
130
0.0
111
1.0
121
0.0
131
0.0
112
0.0
122
1.0
132
0.0
 79
     0
146
0.0
  0
ENDTAB
  0
TABLE
  2
LTYPE
  5
5
330
0
100
AcDbSymbolTable
 70
     6
  0
LTYPE
  5
14
330
5
100
AcDbSymbolTableRecord
100
AcDbLinetypeTableRecord
  2
ByBlock
 70
     0
  3

 72
    65
 73
     0
 40
0.0
  0
LTYPE
  5
15
330
5
100
AcDbSymbolTableRecord
100
AcDbLinetypeTableRecord
  2
ByLayer
 70
     0
  3

 72
    65
 73
     0
 40
0.0
  0
LTYPE
  5
16
330
5
100
AcDbSymbolTableRecord
100
AcDbLinetypeTableRecord
  2
Continuous
 70
     0
  3
Solid line
 72
    65
 73
     0
 40
0.0
  0
LTYPE
  5
6E
330
5
100
AcDbSymbolTableRecord
100
AcDbLinetypeTableRecord
  2
HIDDEN
 70
     0
  3
Hidden __ __ __ __ __ __ __ __ __ __ __ __ __ __
 72
    65
 73
     2
 40
1.905
 49
1.27
 74
     0
 49
-0.635
 74
     0
  0
LTYPE
  5
6F
330
5
100
AcDbSymbolTableRecord
100
AcDbLinetypeTableRecord
  2
PHANTOM
 70
     0
  3
Phantom ______  __  __  ______  __  __  ______
 72
    65
 73
     6
 40
12.7
 49
6.35
 74
     0
 49
-1.27
 74
     0
 49
1.27
 74
     0
 49
-1.27
 74
     0
 49
1.27
 74
     0
 49
-1.27
 74
     0
  0
LTYPE
  5
70
330
5
100
AcDbSymbolTableRecord
100
AcDbLinetypeTableRecord
  2
CENTER
 70
     0
  3
Center ____ _ ____ _ ____ _ ____ _ ____ _ ____
 72
    65
 73
     4
 40
10.16
 49
6.35
 74
     0
 49
-1.27
 74
     0
 49
1.27
 74
     0
 49
-1.27
 74
     0
  0
LTYPE
  5
71
330
5
100
AcDbSymbolTableRecord
100
AcDbLinetypeTableRecord
  2
CENTERX2
 70
     0
  3
Center (2x) ________  __  ________  __  _____
 72
    65
 73
     4
 40
20.32
 49
12.7
 74
     0
 49
-2.54
 74
     0
 49
2.54
 74
     0
 49
-2.54
 74
     0
  0
LTYPE
  5
72
330
5
100
AcDbSymbolTableRecord
100
AcDbLinetypeTableRecord
  2
DOT2
 70
     0
  3
Dot (.5x) ........................................
 72
    65
 73
     2
 40
0.635
 49
0.0
 74
     0
 49
-0.635
 74
     0
  0
ENDTAB
  0
TABLE
  2
LAYER
  5
2
330
0
100
AcDbSymbolTable
 70
    17
  0
LAYER
  5
10
330
2
100
AcDbSymbolTableRecord
100
AcDbLayerTableRecord
  2
0
 70
     0
 62
     7
  6
Continuous
370
    -3
390
F
  0
LAYER
  5
73
330
2
100
AcDbSymbolTableRecord
100
AcDbLayerTableRecord
  2
FORMAT
 70
     0
 62
     2
  6
Continuous
370
    -3
390
F
  0
LAYER
  5
74
330
2
100
AcDbSymbolTableRecord
100
AcDbLayerTableRecord
  2
외형선
 70
     0
 62
   100
  6
Continuous
370
    35
390
F
  0
LAYER
  5
75
330
2
100
AcDbSymbolTableRecord
100
AcDbLayerTableRecord
  2
숨은선
 70
     0
 62
     2
  6
HIDDEN
370
    25
390
F
  0
LAYER
  5
76
330
2
100
AcDbSymbolTableRecord
100
AcDbLayerTableRecord
  2
중심선
 70
     0
 62
     1
  6
CENTERX2
370
    -3
390
F
  0
LAYER
  5
77
330
2
100
AcDbSymbolTableRecord
100
AcDbLayerTableRecord
  2
파단선
 70
     0
 62
     4
  6
Continuous
370
    -3
390
F
  0
LAYER
  5
78
330
2
100
AcDbSymbolTableRecord
100
AcDbLayerTableRecord
  2
해칭선
 70
     0
 62
   100
  6
Continuous
370
    -3
390
F
  0
LAYER
  5
79
330
2
100
AcDbSymbolTableRecord
100
AcDbLayerTableRecord
  2
가는실선
 70
     0
 62
     4
  6
Continuous
370
    -3
390
F
  0
LAYER
  5
7A
330
2
100
AcDbSymbolTableRecord
100
AcDbLayerTableRecord
  2
치수_보조선
 70
     0
 62
     4
  6
Continuous
370
    -3
390
F
  0
LAYER
  5
7B
330
2
100
AcDbSymbolTableRecord
100
AcDbLayerTableRecord
  2
치수문자_일반주서
 70
     0
 62
     7
  6
Continuous
370
    25
390
F
  0
LAYER
  5
7C
330
2
100
AcDbSymbolTableRecord
100
AcDbLayerTableRecord
  2
개별주서
 70
     0
 62
   100
  6
Continuous
370
    35
390
F
  0
LAYER
  5
7D
330
2
100
AcDbSymbolTableRecord
100
AcDbLayerTableRecord
  2
중간선
 70
     0
 62
     2
  6
Continuous
370
    25
390
F
  0
LAYER
  5
7E
330
2
100
AcDbSymbolTableRecord
100
AcDbLayerTableRecord
  2
윤곽선
 70
     0
 62
     3
  6
Continuous
370
    50
390
F
  0
LAYER
  5
7F
330
2
100
AcDbSymbolTableRecord
100
AcDbLayerTableRecord
  2
중심마크
 70
     0
 62
   100
  6
Continuous
370
    35
390
F
  0
LAYER
  5
80
330
2
100
AcDbSymbolTableRecord
100
AcDbLayerTableRecord
  2
가상선
 70
     0
 62
     4
  6
PHANTOM
370
    -3
390
F
  0
LAYER
  5
81
330
2
100
AcDbSymbolTableRecord
100
AcDbLayerTableRecord
  2
특수지정선
 70
     0
 62
     5
  6
CENTERX2
370
    70
390
F
  0
LAYER
  5
14F
330
2
100
AcDbSymbolTableRecord
100
AcDbLayerTableRecord
  2
Defpoints
 70
     0
 62
     7
  6
Continuous
290
     0
370
    -3
390
F
  0
ENDTAB
  0
TABLE
  2
STYLE
  5
3
330
0
100
AcDbSymbolTable
 70
     2
  0
STYLE
  5
11
330
3
100
AcDbSymbolTableRecord
100
AcDbTextStyleTableRecord
  2
Standard
 70
     0
 40
0.0
 41
1.0
 50
0.0
 71
     0
 42
3.5
  3
txt
  4

  0
STYLE
  5
97
330
3
100
AcDbSymbolTableRecord
100
AcDbTextStyleTableRecord
  2
SLDTEXTSTYLE0
 70
     0
 40
0.0
 41
0.75
 50
0.0
 71
     0
 42
3.5
  3
TXT
  4

  0
ENDTAB
  0
TABLE
  2
VIEW
  5
6
330
0
100
AcDbSymbolTable
 70
     0
  0
ENDTAB
  0
TABLE
  2
UCS
  5
7
330
0
100
AcDbSymbolTable
 70
     0
  0
ENDTAB
  0
TABLE
  2
APPID
  5
9
330
0
100
AcDbSymbolTable
 70
     2
  0
APPID
  5
12
330
9
100
AcDbSymbolTableRecord
100
AcDbRegAppTableRecord
  2
ACAD
 70
     0
  0
APPID
  5
154
330
9
100
AcDbSymbolTableRecord
100
AcDbRegAppTableRecord
  2
PE_URL
 70
     0
  0
ENDTAB
  0
TABLE
  2
DIMSTYLE
  5
A
330
0
100
AcDbSymbolTable
 70
     5
100
AcDbDimStyleTable
  0
DIMSTYLE
105
27
330
A
100
AcDbSymbolTableRecord
100
AcDbDimStyleTableRecord
  2
ISO-25
 70
     0
 41
2.5
 42
0.625
 43
3.75
 44
1.25
 73
     0
 74
     0
 77
     1
 78
     8
140
2.5
141
2.5
143
0.03937007874016
147
0.625
171
     3
172
     1
178
     0
271
     2
272
     2
274
     3
278
    44
283
     0
284
     8
340
11
  0
DIMSTYLE
105
E7
102
{ACAD_REACTORS
330
E6
102
}
330
A
100
AcDbSymbolTableRecord
100
AcDbDimStyleTableRecord
  2
SLDDIMSTYLE0
 70
     0
 41
3.302
 44
0.0
 45
0.000000001
 73
     0
 74
     0
 77
     1
 78
    12
 79
     3
140
3.5
147
0.875
172
     1
173
     1
178
     0
271
     1
272
     1
276
     2
284
    12
289
     0
340
97
  0
DIMSTYLE
105
F5
102
{ACAD_REACTORS
330
F4
102
}
330
A
100
AcDbSymbolTableRecord
100
AcDbDimStyleTableRecord
  2
SLDDIMSTYLE1
 70
     0
 41
3.302
 44
0.0
 45
0.000000001
 73
     0
 74
     0
 77
     1
 78
    12
 79
     3
140
3.5
147
0.875
173
     1
178
     0
271
     2
272
     2
276
     2
284
    12
340
97
  0
DIMSTYLE
105
100
102
{ACAD_REACTORS
330
FF
330
11A
102
}
330
A
100
AcDbSymbolTableRecord
100
AcDbDimStyleTableRecord
  2
SLDDIMSTYLE2
 70
     0
 41
3.302
 44
0.0
 45
0.000000001
 73
     0
 74
     0
 77
     1
 78
    12
 79
     3
140
3.5
147
0.875
172
     1
173
     1
178
     0
271
     2
272
     2
276
     2
284
    12
289
     0
340
97
  0
DIMSTYLE
105
10E
102
{ACAD_REACTORS
330
10D
102
}
330
A
100
AcDbSymbolTableRecord
100
AcDbDimStyleTableRecord
  2
SLDDIMSTYLE3
 70
     0
 41
3.302
 44
0.0
 45
0.000000001
 73
     0
 74
     0
 77
     1
 78
     4
 79
     1
140
3.5
147
0.875
172
     1
173
     1
178
     0
271
     2
272
     2
276
     2
284
    12
289
     0
340
97
  0
ENDTAB
  0
TABLE
  2
BLOCK_RECORD
  5
1
330
0
100
AcDbSymbolTable
 70
     8
  0
BLOCK_RECORD
  5
1F
102
{ACAD_XDICTIONARY
360
189
102
}
330
1
100
AcDbSymbolTableRecord
100
AcDbBlockTableRecord
  2
*Model_Space
340
22
  0
BLOCK_RECORD
  5
1B
330
1
100
AcDbSymbolTableRecord
100
AcDbBlockTableRecord
  2
*Paper_Space
340
1E
  0
BLOCK_RECORD
  5
23
330
1
100
AcDbSymbolTableRecord
100
AcDbBlockTableRecord
  2
*Paper_Space0
340
26
  0
BLOCK_RECORD
  5
82
330
1
100
AcDbSymbolTableRecord
100
AcDbBlockTableRecord
  2
블럭10
340
0
102
{BLKREFS
331
DF
102
}
  0
BLOCK_RECORD
  5
E8
330
1
100
AcDbSymbolTableRecord
100
AcDbBlockTableRecord
  2
_D
340
0
  0
BLOCK_RECORD
  5
F6
330
1
100
AcDbSymbolTableRecord
100
AcDbBlockTableRecord
  2
_D_1
340
0
  0
BLOCK_RECORD
  5
101
330
1
100
AcDbSymbolTableRecord
100
AcDbBlockTableRecord
  2
_D_2
340
0
  0
BLOCK_RECORD
  5
10F
330
1
100
AcDbSymbolTableRecord
100
AcDbBlockTableRecord
  2
_D_3
340
0
  0
BLOCK_RECORD
  5
11B
330
1
100
AcDbSymbolTableRecord
100
AcDbBlockTableRecord
  2
_D_4
340
0
  0
BLOCK_RECORD
  5
126
330
1
100
AcDbSymbolTableRecord
100
AcDbBlockTableRecord
  2
SW_DOWELSYMBOL_0
340
0
102
{BLKREFS
331
12C
102
}
  0
ENDTAB
  0
ENDSEC
  0
SECTION
  2
BLOCKS
  0
BLOCK
  5
20
330
1F
100
AcDbEntity
  8
0
100
AcDbBlockBegin
  2
*Model_Space
 70
     0
 10
0.0
 20
0.0
 30
0.0
  3
*Model_Space
  1

  0
ENDBLK
  5
21
330
1F
100
AcDbEntity
  8
0
100
AcDbBlockEnd
  0
BLOCK
  5
1C
330
1B
100
AcDbEntity
 67
     1
  8
0
100
AcDbBlockBegin
  2
*Paper_Space
 70
     0
 10
0.0
 20
0.0
 30
0.0
  3
*Paper_Space
  1

  0
ENDBLK
  5
1D
330
1B
100
AcDbEntity
 67
     1
  8
0
100
AcDbBlockEnd
  0
BLOCK
  5
24
330
23
100
AcDbEntity
  8
0
100
AcDbBlockBegin
  2
*Paper_Space0
 70
     0
 10
0.0
 20
0.0
 30
0.0
  3
*Paper_Space0
  1

  0
ENDBLK
  5
25
330
23
100
AcDbEntity
  8
0
100
AcDbBlockEnd
  0
BLOCK
  5
83
330
82
100
AcDbEntity
  8
0
100
AcDbBlockBegin
  2
블럭10
 70
     2
 10
0.0
 20
0.0
 30
0.0
  3
블럭10
  1

  0
ELLIPSE
  5
85
330
82
100
AcDbEntity
  8
중심선
100
AcDbEllipse
 10
20.54032771741204
 20
12.0471743016438
 30
0.0
 11
6.600054785286829
 21
-1.261213355974178E-13
 31
0.0
210
0.0
220
0.0
230
1.0
 40
0.636358354079598
 41
0.9219305317359503
 42
6.513795318482858
  0
ELLIPSE
  5
86
330
82
100
AcDbEntity
  8
중심선
100
AcDbEllipse
 10
20.54032771746488
 20
12.04717430159265
 30
0.0
 11
3.960054785062283
 21
1.540847449632565E-10
 31
0.0
210
0.0
220
0.0
230
1.0
 40
0.3939339440162632
 41
1.131841032648279
 42
5.62031148352944
  0
LINE
  5
87
330
82
100
AcDbEntity
  8
중심선
100
AcDbLine
 10
2.268634060543552
 20
16.24717430164393
 30
0.0
 11
5.714909304380834
 21
16.24717430164393
 31
0.0
  0
LINE
  5
88
330
82
100
AcDbEntity
  8
중심선
100
AcDbLine
 10
5.245725140726316
 20
7.84717430164391
 30
0.0
 11
8.692000384563599
 21
7.84717430164391
 31
0.0
  0
LINE
  5
89
330
82
100
AcDbEntity
  8
중심선
100
AcDbLine
 10
15.74043728645272
 20
16.24717430164393
 30
0.0
 11
8.692000384563599
 21
7.84717430164391
 31
0.0
  0
LINE
  5
8A
330
82
100
AcDbEntity
  8
중심선
100
AcDbLine
 10
0.1404042013395286
 20
13.71084872107135
 30
0.0
 11
3.58671253028996
 21
13.71088815037384
 31
0.0
  0
LINE
  5
8B
330
82
100
AcDbEntity
  8
중심선
100
AcDbLine
 10
2.750260043222114
 20
10.84717430164391
 30
0.0
 11
6.196535287059397
 21
10.84717430164391
 31
0.0
  0
LINE
  5
8C
330
82
100
AcDbEntity
  8
중심선
100
AcDbLine
 10
12.29416204261559
 20
16.24717430164393
 30
0.0
 11
5.245725140726316
 21
7.84717430164391
 31
0.0
  0
LINE
  5
8D
330
82
100
AcDbEntity
  8
중심선
100
AcDbLine
 10
10.72767329541681
 20
16.24717430164393
 30
0.0
 11
6.196535287059397
 21
10.84717430164391
 31
0.0
  0
LINE
  5
8E
330
82
100
AcDbEntity
  8
중심선
100
AcDbLine
 10
7.28139805157953
 20
16.24717430164393
 30
0.0
 11
2.750260043222114
 21
10.84717430164391
 31
0.0
  0
LINE
  5
8F
330
82
100
AcDbEntity
  8
중심선
100
AcDbLine
 10
5.714909304380834
 20
16.24717430164393
 30
0.0
 11
3.58671253028996
 21
13.71088815037384
 31
0.0
  0
LINE
  5
90
330
82
100
AcDbEntity
  8
중심선
100
AcDbLine
 10
2.268634060543552
 20
16.24717430164393
 30
0.0
 11
0.1404042013395286
 21
13.71084872107135
 31
0.0
  0
LINE
  5
91
330
82
100
AcDbEntity
  8
중심선
100
AcDbLine
 10
7.28139805157953
 20
16.24717430164393
 30
0.0
 11
10.72767329541681
 21
16.24717430164393
 31
0.0
  0
LINE
  5
92
330
82
100
AcDbEntity
  8
중심선
100
AcDbLine
 10
12.29416204261559
 20
16.24717430164393
 30
0.0
 11
15.74043728645272
 21
16.24717430164393
 31
0.0
  0
LINE
  5
93
330
82
100
AcDbEntity
  8
중심선
100
AcDbLine
 10
19.22036997980202
 20
11.08717430171403
 30
0.0
 11
23.66174974927406
 21
11.08717430171406
 31
0.0
  0
LINE
  5
94
330
82
100
AcDbEntity
  8
중심선
100
AcDbLine
 10
19.22039502424796
 20
13.00717430171391
 30
0.0
 11
19.22036997980202
 21
11.08717430171403
 31
0.0
  0
LINE
  5
95
330
82
100
AcDbEntity
  8
중심선
100
AcDbLine
 10
19.22039502424796
 20
13.00717430171391
 30
0.0
 11
26.96566020931264
 21
13.00717430171391
 31
0.0
  0
LINE
  5
96
330
82
100
AcDbEntity
  8
중심선
100
AcDbLine
 10
22.22332737316547
 20
13.45928029700563
 30
0.0
 11
24.52862924686651
 21
15.39360700705356
 31
0.0
  0
ATTDEF
  5
98
330
82
100
AcDbEntity
  8
FORMAT
 62
     2
100
AcDbText
 10
-16.11926103943555
 20
2.075366912832191
 30
0.0
 40
4.233333333333333
  1
SEME7301208E [ 4 FLUTE ]
 41
0.75
  7
SLDTEXTSTYLE0
 11
-16.11926103943555
 21
-0.0412997538344756
 31
0.0
100
AcDbAttributeDefinition
  3

  2
AUTOATTR0
 70
     0
 74
     1
  0
ENDBLK
  5
84
330
82
100
AcDbEntity
  8
0
100
AcDbBlockEnd
  0
BLOCK
  5
E9
330
E8
100
AcDbEntity
  8
0
100
AcDbBlockBegin
  2
_D
 70
     0
 10
0.0
 20
0.0
 30
0.0
  3
_D
  1

  0
LINE
  5
EB
330
E8
100
AcDbEntity
  8
치수문자_일반주서
 62
     0
370
    -2
100
AcDbLine
 10
13.38067240078565
 20
-0.6000000000000051
 30
0.0
 11
28.05782430609499
 21
-0.5999999999999499
 31
0.0
  0
LINE
  5
EC
330
E8
100
AcDbEntity
  8
치수문자_일반주서
 62
     0
370
    -2
100
AcDbLine
 10
13.38067240078565
 20
0.6000000000000024
 30
0.0
 11
28.05782430609499
 21
0.6000000000000565
 31
0.0
  0
LINE
  5
ED
330
E8
100
AcDbEntity
  8
치수문자_일반주서
 62
     0
370
    -2
100
AcDbLine
 10
28.05782430609499
 20
0.6000000000000565
 30
0.0
 11
28.05782430609494
 21
15.95400000000006
 31
0.0
  0
LINE
  5
EE
330
E8
100
AcDbEntity
  8
치수문자_일반주서
 62
     0
370
    -2
100
AcDbLine
 10
28.05782430609499
 20
-0.5999999999999499
 30
0.0
 11
28.05782430609499
 21
0.6000000000000565
 31
0.0
  0
LINE
  5
EF
330
E8
100
AcDbEntity
  8
치수문자_일반주서
 62
     0
370
    -2
100
AcDbLine
 10
28.057824306095
 20
-3.90199999999995
 30
0.0
 11
28.05782430609501
 21
-7.20399999999995
 31
0.0
  0
LINE
  5
F0
330
E8
100
AcDbEntity
  8
치수문자_일반주서
 62
     0
370
    -2
100
AcDbLine
 10
28.05782430609498
 20
3.902000000000057
 30
0.0
 11
28.05782430609496
 21
7.204000000000057
 31
0.0
  0
SOLID
  5
F1
330
E8
100
AcDbEntity
  8
치수문자_일반주서
 62
     0
100
AcDbTrace
 10
28.60815763942833
 20
-3.901999999999948
 30
0.0
 11
27.50749097276167
 21
-3.901999999999952
 31
0.0
 12
28.05782430609499
 22
-0.5999999999999499
 32
0.0
 13
28.05782430609499
 23
-0.5999999999999499
 33
0.0
  0
SOLID
  5
F2
330
E8
100
AcDbEntity
  8
치수문자_일반주서
 62
     0
100
AcDbTrace
 10
27.50749097276164
 20
3.902000000000055
 30
0.0
 11
28.60815763942831
 21
3.902000000000058
 31
0.0
 12
28.05782430609499
 22
0.6000000000000565
 32
0.0
 13
28.05782430609499
 23
0.6000000000000565
 33
0.0
  0
MTEXT
  5
F3
330
E8
100
AcDbEntity
  8
치수문자_일반주서
 62
     0
100
AcDbMText
 10
23.68282430609495
 20
11.57900000000005
 30
0.0
 40
3.5
 41
0.0
 71
     2
 72
     1
  1
\A1;%%c1.2
  7
SLDTEXTSTYLE0
 11
-2.960594732333732E-15
 21
1.0
 31
0.0
 73
     1
 44
1.0
  0
POINT
  5
151
330
E8
100
AcDbEntity
  8
Defpoints
 62
     0
100
AcDbPoint
 10
13.31817240078565
 20
-0.6000000000000053
 30
0.0
  0
POINT
  5
152
330
E8
100
AcDbEntity
  8
Defpoints
 62
     0
100
AcDbPoint
 10
13.31817240078565
 20
0.6000000000000022
 30
0.0
  0
POINT
  5
153
330
E8
100
AcDbEntity
  8
Defpoints
 62
     0
100
AcDbPoint
 10
28.05782430609499
 20
0.6000000000000573
 30
0.0
  0
ENDBLK
  5
EA
330
E8
100
AcDbEntity
  8
0
100
AcDbBlockEnd
  0
BLOCK
  5
F7
330
F6
100
AcDbEntity
  8
0
100
AcDbBlockBegin
  2
_D_1
 70
     0
 10
0.0
 20
0.0
 30
0.0
  3
_D_1
  1

  0
LINE
  5
F9
330
F6
100
AcDbEntity
  8
치수문자_일반주서
 62
     0
370
    -2
100
AcDbLine
 10
-36.68182759921436
 20
1.562499999999991
 30
0.0
 11
-36.68182759921436
 21
36.00000000000003
 31
0.0
  0
LINE
  5
FA
330
F6
100
AcDbEntity
  8
치수문자_일반주서
 62
     0
370
    -2
100
AcDbLine
 10
13.31817240078565
 20
0.0024999999999995
 30
0.0
 11
13.31817240078565
 21
36.00000000000003
 31
0.0
  0
LINE
  5
FB
330
F6
100
AcDbEntity
  8
치수문자_일반주서
 62
     0
370
    -2
100
AcDbLine
 10
-33.37982759921436
 20
36.00000000000003
 30
0.0
 11
10.01617240078565
 21
36.00000000000003
 31
0.0
  0
SOLID
  5
FC
330
F6
100
AcDbEntity
  8
치수문자_일반주서
 62
     0
100
AcDbTrace
 10
-33.37982759921436
 20
36.55033333333336
 30
0.0
 11
-33.37982759921436
 21
35.44966666666669
 31
0.0
 12
-36.68182759921436
 22
36.00000000000003
 32
0.0
 13
-36.68182759921436
 23
36.00000000000003
 33
0.0
  0
SOLID
  5
FD
330
F6
100
AcDbEntity
  8
치수문자_일반주서
 62
     0
100
AcDbTrace
 10
10.01617240078565
 20
35.44966666666669
 30
0.0
 11
10.01617240078565
 21
36.55033333333336
 31
0.0
 12
13.31817240078565
 22
36.00000000000003
 32
0.0
 13
13.31817240078565
 23
36.00000000000003
 33
0.0
  0
MTEXT
  5
FE
330
F6
100
AcDbEntity
  8
치수문자_일반주서
 62
     0
100
AcDbMText
 10
-11.68182759921435
 20
40.37500000000003
 30
0.0
 40
3.5
 41
0.0
 71
     2
 72
     1
  1
\A1;50
  7
SLDTEXTSTYLE0
 73
     1
 44
1.0
  0
POINT
  5
15A
330
F6
100
AcDbEntity
  8
Defpoints
 62
     0
100
AcDbPoint
 10
-36.68182759921436
 20
1.499999999999991
 30
0.0
  0
POINT
  5
15B
330
F6
100
AcDbEntity
  8
Defpoints
 62
     0
100
AcDbPoint
 10
13.31817240078565
 20
-0.0600000000000005
 30
0.0
  0
POINT
  5
15C
330
F6
100
AcDbEntity
  8
Defpoints
 62
     0
100
AcDbPoint
 10
13.31817240078565
 20
36.00000000000003
 30
0.0
  0
ENDBLK
  5
F8
330
F6
100
AcDbEntity
  8
0
100
AcDbBlockEnd
  0
BLOCK
  5
102
330
101
100
AcDbEntity
  8
0
100
AcDbBlockBegin
  2
_D_2
 70
     0
 10
0.0
 20
0.0
 30
0.0
  3
_D_2
  1

  0
LINE
  5
104
330
101
100
AcDbEntity
  8
치수문자_일반주서
 62
     0
370
    -2
100
AcDbLine
 10
-36.24432759921437
 20
1.999999999999974
 30
0.0
 11
-50.17446716083426
 21
1.999999999999921
 31
0.0
  0
LINE
  5
105
330
101
100
AcDbEntity
  8
치수문자_일반주서
 62
     0
370
    -2
100
AcDbLine
 10
-36.24432759921437
 20
-2.000000000000003
 30
0.0
 11
-50.17446716083425
 21
-2.000000000000055
 31
0.0
  0
LINE
  5
106
330
101
100
AcDbEntity
  8
치수문자_일반주서
 62
     0
370
    -2
100
AcDbLine
 10
-50.17446716083425
 20
-1.302000000000079
 30
0.0
 11
-50.17446716083426
 21
1.301999999999945
 31
0.0
  0
SOLID
  5
107
330
101
100
AcDbEntity
  8
치수문자_일반주서
 62
     0
100
AcDbTrace
 10
-49.62413382750091
 20
-1.302000000000077
 30
0.0
 11
-50.72480049416758
 21
-1.302000000000081
 31
0.0
 12
-50.17446716083426
 22
1.999999999999921
 32
0.0
 13
-50.17446716083426
 23
1.999999999999921
 33
0.0
  0
SOLID
  5
108
330
101
100
AcDbEntity
  8
치수문자_일반주서
 62
     0
100
AcDbTrace
 10
-50.7248004941676
 20
1.301999999999943
 30
0.0
 11
-49.62413382750093
 21
1.301999999999947
 31
0.0
 12
-50.17446716083425
 22
-2.000000000000055
 32
0.0
 13
-50.17446716083425
 23
-2.000000000000055
 33
0.0
  0
MTEXT
  5
109
330
101
100
AcDbEntity
  8
치수문자_일반주서
 62
     0
100
AcDbMText
 10
-54.54946716083425
 20
-0.7264638992031254
 30
0.0
 40
3.5
 41
0.0
 71
     2
 72
     1
  1
\A1;%%c4
  7
SLDTEXTSTYLE0
 11
-3.552713678800522E-15
 21
1.0
 31
0.0
 73
     1
 44
1.0
  0
POINT
  5
10A
330
101
100
AcDbEntity
  8
Defpoints
 62
     0
100
AcDbPoint
 10
-36.18182759921437
 20
1.999999999999974
 30
0.0
  0
POINT
  5
10B
330
101
100
AcDbEntity
  8
Defpoints
 62
     0
100
AcDbPoint
 10
-36.18182759921437
 20
-2.000000000000002
 30
0.0
  0
POINT
  5
10C
330
101
100
AcDbEntity
  8
Defpoints
 62
     0
100
AcDbPoint
 10
-50.17446716083425
 20
-2.000000000000055
 30
0.0
  0
ENDBLK
  5
103
330
101
100
AcDbEntity
  8
0
100
AcDbBlockEnd
  0
BLOCK
  5
110
330
10F
100
AcDbEntity
  8
0
100
AcDbBlockBegin
  2
_D_3
 70
     0
 10
0.0
 20
0.0
 30
0.0
  3
_D_3
  1

  0
LINE
  5
112
330
10F
100
AcDbEntity
  8
치수문자_일반주서
 62
     0
370
    -2
100
AcDbLine
 10
11.51817240078565
 20
0.5981229458249195
 30
0.0
 11
11.51817240078565
 21
18.2788560432532
 31
0.0
  0
LINE
  5
113
330
10F
100
AcDbEntity
  8
치수문자_일반주서
 62
     0
370
    -2
100
AcDbLine
 10
13.31817240078565
 20
0.0635287097116473
 30
0.0
 11
13.31817240078565
 21
18.2788560432532
 31
0.0
  0
LINE
  5
114
330
10F
100
AcDbEntity
  8
치수문자_일반주서
 62
     0
370
    -2
100
AcDbLine
 10
13.31817240078565
 20
18.2788560432532
 30
0.0
 11
28.23467240078564
 21
18.2788560432532
 31
0.0
  0
LINE
  5
115
330
10F
100
AcDbEntity
  8
치수문자_일반주서
 62
     0
370
    -2
100
AcDbLine
 10
11.51817240078565
 20
18.2788560432532
 30
0.0
 11
13.31817240078565
 21
18.2788560432532
 31
0.0
  0
LINE
  5
116
330
10F
100
AcDbEntity
  8
치수문자_일반주서
 62
     0
370
    -2
100
AcDbLine
 10
8.216172400785652
 20
18.2788560432532
 30
0.0
 11
4.914172400785652
 21
18.2788560432532
 31
0.0
  0
LINE
  5
117
330
10F
100
AcDbEntity
  8
치수문자_일반주서
 62
     0
370
    -2
100
AcDbLine
 10
16.62017240078564
 20
18.2788560432532
 30
0.0
 11
19.92217240078564
 21
18.2788560432532
 31
0.0
  0
SOLID
  5
118
330
10F
100
AcDbEntity
  8
치수문자_일반주서
 62
     0
100
AcDbTrace
 10
8.216172400785652
 20
17.72852270991986
 30
0.0
 11
8.216172400785652
 21
18.82918937658653
 31
0.0
 12
11.51817240078565
 22
18.2788560432532
 32
0.0
 13
11.51817240078565
 23
18.2788560432532
 33
0.0
  0
SOLID
  5
119
330
10F
100
AcDbEntity
  8
치수문자_일반주서
 62
     0
100
AcDbTrace
 10
16.62017240078564
 20
18.82918937658653
 30
0.0
 11
16.62017240078564
 21
17.72852270991986
 31
0.0
 12
13.31817240078565
 22
18.2788560432532
 32
0.0
 13
13.31817240078565
 23
18.2788560432532
 33
0.0
  0
MTEXT
  5
156
330
10F
100
AcDbEntity
  8
치수문자_일반주서
 62
     0
100
AcDbMText
 10
24.07842240078564
 20
22.6538560432532
 30
0.0
 40
3.5
 41
0.0
 71
     2
 72
     1
  1
\A1;1.80
  7
SLDTEXTSTYLE0
 73
     1
 44
1.0
  0
POINT
  5
157
330
10F
100
AcDbEntity
  8
Defpoints
 62
     0
100
AcDbPoint
 10
11.51817240078565
 20
0.5356229458249195
 30
0.0
  0
POINT
  5
158
330
10F
100
AcDbEntity
  8
Defpoints
 62
     0
100
AcDbPoint
 10
13.31817240078565
 20
0.0010287097116473
 30
0.0
  0
POINT
  5
159
330
10F
100
AcDbEntity
  8
Defpoints
 62
     0
100
AcDbPoint
 10
13.31817240078565
 20
18.2788560432532
 30
0.0
  0
ENDBLK
  5
111
330
10F
100
AcDbEntity
  8
0
100
AcDbBlockEnd
  0
BLOCK
  5
11C
330
11B
100
AcDbEntity
  8
0
100
AcDbBlockBegin
  2
_D_4
 70
     0
 10
0.0
 20
0.0
 30
0.0
  3
_D_4
  1

  0
LINE
  5
11E
330
11B
100
AcDbEntity
  8
치수문자_일반주서
 62
     0
370
    -2
100
AcDbLine
 10
13.31817240078565
 20
0.6594924622639711
 30
0.0
 11
13.31817240078565
 21
25.29678198861815
 31
0.0
  0
LINE
  5
11F
330
11B
100
AcDbEntity
  8
치수문자_일반주서
 62
     0
370
    -2
100
AcDbLine
 10
5.318172400785641
 20
0.637499999999998
 30
0.0
 11
5.318172400785641
 21
25.29678198861815
 31
0.0
  0
LINE
  5
120
330
11B
100
AcDbEntity
  8
치수문자_일반주서
 62
     0
370
    -2
100
AcDbLine
 10
10.01617240078565
 20
25.29678198861815
 30
0.0
 11
8.620172400785641
 21
25.29678198861815
 31
0.0
  0
SOLID
  5
121
330
11B
100
AcDbEntity
  8
치수문자_일반주서
 62
     0
100
AcDbTrace
 10
10.01617240078565
 20
24.74644865528481
 30
0.0
 11
10.01617240078565
 21
25.84711532195148
 31
0.0
 12
13.31817240078565
 22
25.29678198861815
 32
0.0
 13
13.31817240078565
 23
25.29678198861815
 33
0.0
  0
SOLID
  5
122
330
11B
100
AcDbEntity
  8
치수문자_일반주서
 62
     0
100
AcDbTrace
 10
8.620172400785641
 20
25.84711532195148
 30
0.0
 11
8.620172400785641
 21
24.74644865528481
 31
0.0
 12
5.318172400785641
 22
25.29678198861815
 32
0.0
 13
5.318172400785641
 23
25.29678198861815
 33
0.0
  0
MTEXT
  5
123
330
11B
100
AcDbEntity
  8
치수문자_일반주서
 62
     0
100
AcDbMText
 10
10.45296577697866
 20
29.67178198861815
 30
0.0
 40
3.5
 41
0.0
 71
     2
 72
     1
  1
\A1;8
  7
SLDTEXTSTYLE0
 73
     1
 44
1.0
  0
POINT
  5
124
330
11B
100
AcDbEntity
  8
Defpoints
 62
     0
100
AcDbPoint
 10
13.31817240078565
 20
0.5969924622639711
 30
0.0
  0
POINT
  5
125
330
11B
100
AcDbEntity
  8
Defpoints
 62
     0
100
AcDbPoint
 10
5.318172400785641
 20
0.574999999999998
 30
0.0
  0
POINT
  5
150
330
11B
100
AcDbEntity
  8
Defpoints
 62
     0
100
AcDbPoint
 10
5.318172400785641
 20
25.29678198861815
 30
0.0
  0
ENDBLK
  5
11D
330
11B
100
AcDbEntity
  8
0
100
AcDbBlockEnd
  0
BLOCK
  5
127
330
126
100
AcDbEntity
  8
0
100
AcDbBlockBegin
  2
SW_DOWELSYMBOL_0
 70
     0
 10
0.0
 20
0.0
 30
0.0
  3
SW_DOWELSYMBOL_0
  1

  0
CIRCLE
  5
129
330
126
100
AcDbEntity
  8
해칭선
 62
     0
100
AcDbCircle
 10
0.0
 20
0.0
 30
0.0
 40
3.000000000000003
  0
HATCH
  5
12A
330
126
100
AcDbEntity
  8
0
  6
Continuous
 62
     0
370
    18
100
AcDbHatch
 10
0.0
 20
0.0
 30
0.0
210
0.0
220
0.0
230
1.0
  2
SOLID
 70
     1
 71
     0
 91
        1
 92
        0
 93
        3
 72
     2
 10
-0.0000000000000017
 20
-0.0000000000000035
 40
3.000000000000003
 50
0.0
 51
90.0
 73
     1
 72
     1
 10
-0.0000000000000017
 20
2.999999999999999
 11
-0.0000000000000017
 21
-0.0000000000000036
 72
     1
 10
-0.0000000000000017
 20
-0.0000000000000035
 11
3.000000000000001
 21
-0.0000000000000035
 97
        0
 75
     0
 76
     1
 98
        1
 10
0.0
 20
0.0
  0
HATCH
  5
12B
330
126
100
AcDbEntity
  8
0
  6
Continuous
 62
     0
370
    18
100
AcDbHatch
 10
0.0
 20
0.0
 30
0.0
210
0.0
220
0.0
230
1.0
  2
SOLID
 70
     1
 71
     0
 91
        1
 92
        0
 93
        3
 72
     2
 10
-0.0000000000000017
 20
-0.0000000000000035
 40
3.000000000000003
 50
180.0
 51
270.0000000000007
 73
     1
 72
     1
 10
-0.0000000000000017
 20
-3.000000000000006
 11
-0.0000000000000017
 21
-0.0000000000000036
 72
     1
 10
-0.0000000000000017
 20
-0.0000000000000035
 11
-3.000000000000004
 21
-0.0000000000000035
 97
        0
 75
     0
 76
     1
 98
        1
 10
0.0
 20
0.0
  0
ENDBLK
  5
128
330
126
100
AcDbEntity
  8
0
100
AcDbBlockEnd
  0
ENDSEC
  0
SECTION
  2
ENTITIES
  0
LINE
  5
99
330
1F
100
AcDbEntity
  8
0
  6
Continuous
 62
     4
370
    25
100
AcDbLine
 10
-0.0000000000000004
 20
2.000000000000001
 30
0.0
 11
-36.18182759921436
 21
1.999999999999987
 31
0.0
  0
LINE
  5
9A
330
1F
100
AcDbEntity
  8
0
  6
Continuous
 62
     4
370
    25
100
AcDbLine
 10
-36.18182759921436
 20
-2.000000000000006
 30
0.0
 11
0.0
 21
-1.999999999999992
 31
0.0
  0
LINE
  5
9B
330
1F
100
AcDbEntity
  8
0
  6
Continuous
 62
     4
370
    25
100
AcDbLine
 10
-36.18182759921436
 20
1.99999999999999
 30
0.0
 11
-36.68182759921436
 21
1.499999999999991
 31
0.0
  0
LINE
  5
9C
330
1F
100
AcDbEntity
  8
0
  6
Continuous
 62
     4
370
    25
100
AcDbLine
 10
-36.68182759921436
 20
-1.500000000000011
 30
0.0
 11
-36.18182759921436
 21
-2.00000000000001
 31
0.0
  0
LINE
  5
9D
330
1F
100
AcDbEntity
  8
0
  6
Continuous
 62
     4
370
    25
100
AcDbLine
 10
0.0
 20
-1.999999999999992
 30
0.0
 11
5.318172400785641
 21
-0.5749999999999844
 31
0.0
  0
LINE
  5
9E
330
1F
100
AcDbEntity
  8
0
  6
Continuous
 62
     4
370
    25
100
AcDbLine
 10
5.318172400785641
 20
0.574999999999998
 30
0.0
 11
-0.0000000000000004
 21
2.000000000000001
 31
0.0
  0
LINE
  5
9F
330
1F
100
AcDbEntity
  8
0
  6
Continuous
 62
     4
370
    25
100
AcDbLine
 10
11.00171391019625
 20
0.5749999999999996
 30
0.0
 11
5.318172400785641
 21
0.5749999999999975
 31
0.0
  0
LINE
  5
A0
330
1F
100
AcDbEntity
  8
0
  6
Continuous
 62
     4
370
    25
100
AcDbLine
 10
5.318172400785641
 20
-0.5749999999999843
 30
0.0
 11
11.00171391019624
 21
-0.5749999999999822
 31
0.0
  0
LINE
  5
A1
330
1F
100
AcDbEntity
  8
0
  6
Continuous
 62
     1
370
    25
100
AcDbLine
 10
13.14072669967595
 20
-0.6000000000000005
 30
0.0
 11
13.23248352038112
 21
-0.6000000000000005
 31
0.0
1001
PE_URL
1000

  0
LINE
  5
A2
330
1F
100
AcDbEntity
  8
0
  6
Continuous
 62
     1
370
    25
100
AcDbLine
 10
12.0672710815955
 20
0.5999999999999992
 30
0.0
 11
11.88888647573775
 21
0.5999999999999992
 31
0.0
  0
LINE
  5
A3
330
1F
100
AcDbEntity
  8
0
  6
Continuous
 62
     1
370
    25
100
AcDbLine
 10
11.88888647573774
 20
-0.6000000000000005
 30
0.0
 11
12.0672710815955
 21
-0.6000000000000005
 31
0.0
  0
LINE
  5
A4
330
1F
100
AcDbEntity
  8
0
  6
Continuous
 62
     1
370
    25
100
AcDbLine
 10
13.23248352038112
 20
0.5999999999999992
 30
0.0
 11
13.14072669967595
 21
0.5999999999999992
 31
0.0
1001
PE_URL
1000

  0
LINE
  5
A5
330
1F
100
AcDbEntity
  8
0
  6
Continuous
 62
     4
370
    25
100
AcDbLine
 10
0.0
 20
1.999999999999992
 30
0.0
 11
0.0
 21
-1.999999999999992
 31
0.0
  0
LINE
  5
A6
330
1F
100
AcDbEntity
  8
0
  6
Continuous
 62
     4
370
    25
100
AcDbLine
 10
-36.18182759921436
 20
1.999999999999991
 30
0.0
 11
-36.18182759921436
 21
-2.000000000000009
 31
0.0
  0
LINE
  5
A7
330
1F
100
AcDbEntity
  8
0
  6
Continuous
 62
     4
370
    25
100
AcDbLine
 10
-36.68182759921436
 20
1.499999999999991
 30
0.0
 11
-36.68182759921436
 21
-1.500000000000011
 31
0.0
  0
LINE
  5
A8
330
1F
100
AcDbEntity
  8
0
  6
Continuous
 62
     4
370
    25
100
AcDbLine
 10
5.318172400785641
 20
0.5749999999999977
 30
0.0
 11
5.318172400785641
 21
-0.5749999999999844
 31
0.0
  0
SPLINE
  5
A9
330
1F
100
AcDbEntity
  8
0
  6
Continuous
 62
     4
370
    25
100
AcDbSpline
210
0.0
220
0.0
230
1.0
 70
    24
 71
     3
 72
    14
 73
    10
 74
     0
 42
0.000000001
 43
0.00000001
 40
0.0
 40
0.0
 40
0.0
 40
0.0
 40
0.25
 40
0.25
 40
0.5
 40
0.5
 40
0.75
 40
0.75
 40
1.0
 40
1.0
 40
1.0
 40
1.0
 10
11.51817240078565
 20
0.2551953505319373
 30
0.0
 10
11.51817240078565
 20
0.2323553370329254
 30
0.0
 10
11.51817240078565
 20
0.2047725751375777
 30
0.0
 10
11.51817240078565
 20
0.1301481146340812
 30
0.0
 10
11.51817240078565
 20
0.0835518423951882
 30
0.0
 10
11.51817240078565
 20
-0.027857695557152
 30
0.0
 10
11.51817240078565
 20
-0.0929376589825602
 30
0.0
 10
11.51817240078565
 20
-0.2258322464924054
 30
0.0
 10
11.51817240078565
 20
-0.2929280854496919
 30
0.0
 10
11.51817240078565
 20
-0.3475363252148657
 30
0.0
  0
SPLINE
  5
AA
330
1F
100
AcDbEntity
  8
0
  6
Continuous
 62
     4
370
    25
100
AcDbSpline
210
0.0
220
0.0
230
1.0
 70
     8
 71
     3
 72
    14
 73
    10
 74
     0
 42
0.000000001
 43
0.00000001
 40
0.0
 40
0.0
 40
0.0
 40
0.0
 40
0.25
 40
0.25
 40
0.5
 40
0.5
 40
0.75
 40
0.75
 40
1.0
 40
1.0
 40
1.0
 40
1.0
 10
11.51817240078205
 20
-0.3475363252128126
 30
0.0
 10
11.45634456654729
 20
-0.3122124645152916
 30
0.0
 10
11.39349934272569
 20
-0.2735589973542089
 30
0.0
 10
11.27075398938326
 20
-0.1926949569765829
 30
0.0
 10
11.21241621204066
 20
-0.1508933161495194
 30
0.0
 10
11.09022117345366
 20
-0.0641220155684371
 30
0.0
 10
11.02743766342098
 20
-0.0193781303223849
 30
0.0
 10
10.90346271827749
 20
0.0692928713921115
 30
0.0
 10
10.84374912107652
 20
0.1128553798487159
 30
0.0
 10
10.78372838354678
 20
0.1551323463115831
 30
0.0
  0
LINE
  5
AB
330
1F
100
AcDbEntity
  8
0
  6
Continuous
 62
     4
370
    25
100
AcDbLine
 10
10.79008415367885
 20
0.1507264732934191
 30
0.0
 11
10.78736834278293
 21
0.1526090961227743
 31
0.0
  0
SPLINE
  5
AC
330
1F
100
AcDbEntity
  8
0
  6
Continuous
 62
     4
370
    25
100
AcDbSpline
210
0.0
220
0.0
230
1.0
 70
     8
 71
     3
 72
    10
 73
     6
 74
     0
 42
0.000000001
 43
0.00000001
 40
0.0
 40
0.0
 40
0.0
 40
0.0
 40
0.5
 40
0.5
 40
1.0
 40
1.0
 40
1.0
 40
1.0
 10
11.51817240078206
 20
0.2551953505341412
 30
0.0
 10
11.42518024888868
 20
0.3149559849016506
 30
0.0
 10
11.32994149251511
 20
0.3698450928877355
 30
0.0
 10
11.15152961669437
 20
0.4608217268373901
 30
0.0
 10
11.05715657587483
 20
0.4988068042130236
 30
0.0
 10
10.96394406728809
 20
0.525815138383968
 30
0.0
  0
SPLINE
  5
AD
330
1F
100
AcDbEntity
  8
0
  6
Continuous
 62
     4
370
    25
100
AcDbSpline
210
0.0
220
0.0
230
1.0
 70
     8
 71
     3
 72
    14
 73
    10
 74
     0
 42
0.000000001
 43
0.00000001
 40
0.0000000000000004
 40
0.0000000000000004
 40
0.0000000000000004
 40
0.0000000000000004
 40
0.0000514808473846
 40
0.0000514808473846
 40
0.0000514808473846
 40
0.0001028875534114
 40
0.0001028875534114
 40
0.0001028875534114
 40
0.0001587596474825
 40
0.0001587596474825
 40
0.0001587596474825
 40
0.0001587596474825
 10
10.78372838354741
 20
-0.5536776635624684
 30
0.0
 10
10.76987813582984
 20
-0.5509442497275419
 30
0.0
 10
10.75759817348593
 20
-0.5472540893291333
 30
0.0
 10
10.74787654533259
 20
-0.5425723761620915
 30
0.0
 10
10.73816211214109
 20
-0.5378941279236675
 30
0.0
 10
10.73075051072427
 20
-0.5320893499338304
 30
0.0
 10
10.72595433758992
 20
-0.5254003605788458
 30
0.0
 10
10.72073777667418
 20
-0.5181250768354362
 30
0.0
 10
10.71847874682674
 20
-0.5096381692441028
 30
0.0
 10
10.71847874682654
 20
-0.5004541639252466
 30
0.0
  0
SPLINE
  5
AE
330
1F
100
AcDbEntity
  8
0
  6
Continuous
 62
     4
370
    25
100
AcDbSpline
210
0.0
220
0.0
230
1.0
 70
     8
 71
     3
 72
    10
 73
     6
 74
     0
 42
0.000000001
 43
0.00000001
 40
0.0
 40
0.0
 40
0.0
 40
0.0
 40
0.2017538131684486
 40
0.5104930599028762
 40
1.0
 40
1.0
 40
1.0
 40
1.0
 10
11.44352000296712
 20
-0.4845579389253384
 30
0.0
 10
11.39898628864511
 20
-0.5014693834069794
 30
0.0
 10
11.28630364966025
 20
-0.5442600246604485
 30
0.0
 10
11.0678395926371
 20
-0.5851333007955518
 30
0.0
 10
10.89172610896547
 20
-0.5656347323582537
 30
0.0
 10
10.78372838354678
 20
-0.5536776635623457
 30
0.0
  0
LINE
  5
AF
330
1F
100
AcDbEntity
  8
0
  6
Continuous
 62
     4
370
    25
100
AcDbLine
 10
11.44352000296712
 20
0.4845579389253379
 30
0.0
 11
11.51817240078206
 21
0.5152672443167315
 31
0.0
  0
SPLINE
  5
B0
330
1F
100
AcDbEntity
  8
0
  6
Continuous
 62
     4
370
    25
100
AcDbSpline
210
0.0
220
0.0
230
1.0
 70
     8
 71
     3
 72
    10
 73
     6
 74
     0
 42
0.000000001
 43
0.00000001
 40
0.0
 40
0.0
 40
0.0
 40
0.0
 40
0.4019009455211388
 40
0.7962636628288654
 40
1.0
 40
1.0
 40
1.0
 40
1.0
 10
11.51817240078205
 20
0.4580867850719615
 30
0.0
 10
11.44868013034104
 20
0.4843962800842793
 30
0.0
 10
11.31099901658324
 20
0.5365217978247797
 30
0.0
 10
11.14008255837295
 20
0.5766085764687389
 30
0.0
 10
11.03687165186294
 20
0.567685453285165
 30
0.0
 10
11.00171391019625
 20
0.5646458824650235
 30
0.0
  0
LINE
  5
B1
330
1F
100
AcDbEntity
  8
0
  6
Continuous
 62
     4
370
    25
100
AcDbLine
 10
11.51817240078565
 20
0.4580867850704038
 30
0.0
 11
11.51817240078565
 21
0.3783721784349718
 31
0.0
  0
SPLINE
  5
B2
330
1F
100
AcDbEntity
  8
0
  6
Continuous
 62
     4
370
    25
100
AcDbSpline
210
0.0
220
0.0
230
1.0
 70
     8
 71
     3
 72
    12
 73
     8
 74
     0
 42
0.000000001
 43
0.00000001
 40
0.0
 40
0.0
 40
0.0
 40
0.0
 40
0.25
 40
0.25
 40
0.5
 40
0.5
 40
1.0
 40
1.0
 40
1.0
 40
1.0
 10
10.71847874683227
 20
0.4541502815804951
 30
0.0
 10
10.71847874683227
 20
0.4722717580322791
 30
0.0
 10
10.72431732585541
 20
0.4884416559679429
 30
0.0
 10
10.75088900999765
 20
0.5138131109992725
 30
0.0
 10
10.77162717049368
 20
0.5231305177744333
 30
0.0
 10
10.84844448066583
 20
0.5406230752730025
 30
0.0
 10
10.91572326770896
 20
0.5397871201358738
 30
0.0
 10
10.96394406728809
 20
0.5258151383839664
 30
0.0
  0
LINE
  5
B3
330
1F
100
AcDbEntity
  8
0
  6
Continuous
 62
     4
370
    25
100
AcDbLine
 10
10.71847874683227
 20
0.4541502815804952
 30
0.0
 11
10.71847874683227
 21
0.2831441855498581
 31
0.0
  0
SPLINE
  5
B4
330
1F
100
AcDbEntity
  8
0
  6
Continuous
 62
     4
370
    25
100
AcDbSpline
210
0.0
220
0.0
230
1.0
 70
     8
 71
     3
 72
    14
 73
    10
 74
     0
 42
0.000000001
 43
0.00000001
 40
0.0000000000000004
 40
0.0000000000000004
 40
0.0000000000000004
 40
0.0000000000000004
 40
0.0000514808473846
 40
0.0000514808473846
 40
0.0000514808473846
 40
0.0001028875534114
 40
0.0001028875534114
 40
0.0001028875534114
 40
0.0001587596474825
 40
0.0001587596474825
 40
0.0001587596474825
 40
0.0001587596474825
 10
10.78372838354741
 20
0.1551323463111456
 30
0.0
 10
10.76987813582984
 20
0.1648880821177579
 30
0.0
 10
10.75759817348593
 20
0.1770252155844777
 30
0.0
 10
10.74787654533259
 20
0.1903686335135184
 30
0.0
 10
10.73816211214109
 20
0.2037021759997474
 30
0.0
 10
10.73075051072427
 20
0.2185794134503206
 30
0.0
 10
10.72595433758991
 20
0.2336224755959957
 30
0.0
 10
10.72073777667418
 20
0.2499840721947385
 30
0.0
 10
10.71847874682674
 20
0.2669115594239017
 30
0.0
 10
10.71847874682654
 20
0.2831441855484038
 30
0.0
  0
LINE
  5
B5
330
1F
100
AcDbEntity
  8
0
  6
Continuous
 62
     4
370
    25
100
AcDbLine
 10
11.51817240078565
 20
-0.3475363252148656
 30
0.0
 11
11.51817240078565
 21
-0.4590870550858089
 31
0.0
  0
SPLINE
  5
B6
330
1F
100
AcDbEntity
  8
0
  6
Continuous
 62
     4
370
    25
100
AcDbSpline
210
0.0
220
0.0
230
1.0
 70
     8
 71
     3
 72
    10
 73
     6
 74
     0
 42
0.000000001
 43
0.00000001
 40
0.0
 40
0.0
 40
0.0
 40
0.0
 40
0.5
 40
0.5
 40
1.0
 40
1.0
 40
1.0
 40
1.0
 10
11.51817240078206
 20
-0.515267244316734
 30
0.0
 10
11.42518024888868
 20
-0.4856697175890611
 30
0.0
 10
11.32994149251511
 20
-0.4451585554817986
 30
0.0
 10
11.15152961669437
 20
-0.3501354999516395
 30
0.0
 10
11.05715657587483
 20
-0.2937194807254594
 30
0.0
 10
10.96394406728809
 20
-0.2326874303572324
 30
0.0
  0
SPLINE
  5
B7
330
1F
100
AcDbEntity
  8
0
  6
Continuous
 62
     4
370
    25
100
AcDbSpline
210
0.0
220
0.0
230
1.0
 70
     8
 71
     3
 72
    12
 73
     8
 74
     0
 42
0.000000001
 43
0.00000001
 40
0.0
 40
0.0
 40
0.0
 40
0.0
 40
0.2499999999999999
 40
0.2499999999999999
 40
0.4999999999999998
 40
0.4999999999999998
 40
1.0
 40
1.0
 40
1.0
 40
1.0
 10
10.71847874683227
 20
-0.352664885890758
 30
0.0
 10
10.71847874683227
 20
-0.329328642441272
 30
0.0
 10
10.72431732585542
 20
-0.3044980235448466
 30
0.0
 10
10.75088900999765
 20
-0.2594039024237586
 30
0.0
 10
10.77162717049368
 20
-0.2391247164272146
 30
0.0
 10
10.84844448066584
 20
-0.1980817129765776
 30
0.0
 10
10.91572326770896
 20
-0.2011142615483321
 30
0.0
 10
10.96394406728809
 20
-0.2326874303572288
 30
0.0
  0
LINE
  5
B8
330
1F
100
AcDbEntity
  8
0
  6
Continuous
 62
     4
370
    25
100
AcDbLine
 10
10.71847874683227
 20
-0.352664885890758
 30
0.0
 11
10.71847874683227
 21
-0.5004541639244249
 31
0.0
  0
SPLINE
  5
B9
330
1F
100
AcDbEntity
  8
0
  6
Continuous
 62
     4
370
    25
100
AcDbSpline
210
0.0
220
0.0
230
1.0
 70
    24
 71
     3
 72
    10
 73
     6
 74
     0
 42
0.000000001
 43
0.00000001
 40
0.0
 40
0.0
 40
0.0
 40
0.0
 40
0.4863632773131695
 40
0.975394003553473
 40
1.0
 40
1.0
 40
1.0
 40
1.0
 10
11.51817240078565
 20
0.5152672443178821
 30
0.0
 10
11.51817240078565
 20
0.507408065499774
 30
0.0
 10
11.51817240078565
 20
0.4916466043664722
 30
0.0
 10
11.51817240078565
 20
0.4757566520044313
 30
0.0
 10
11.51817240078565
 20
0.469025320387717
 30
0.0
 10
11.51817240078565
 20
0.4687028529422922
 30
0.0
  0
SPLINE
  5
BA
330
1F
100
AcDbEntity
  8
0
  6
Continuous
 62
     1
370
    25
100
AcDbSpline
210
0.0
220
0.0
230
1.0
 70
     8
 71
     3
 72
    13
 73
     9
 74
     0
 42
0.000000001
 43
0.00000001
 40
0.0
 40
0.0
 40
0.0
 40
0.0
 40
0.1966241372419608
 40
0.3934760296677838
 40
0.5915433778312856
 40
0.746921278147405
 40
0.9011754147520541
 40
1.0
 40
1.0
 40
1.0
 40
1.0
 10
11.51817240078069
 20
0.2703850216423385
 30
0.0
 10
11.62445474960668
 20
0.1944146058982618
 30
0.0
 10
11.8371425570469
 20
0.0423857757734782
 30
0.0
 10
12.15678337306299
 20
-0.2043609498382733
 30
0.0
 10
12.45521117276983
 20
-0.4003733840166471
 30
0.0
 10
12.72995854593534
 20
-0.5289530775759601
 30
0.0
 10
12.94978240313774
 20
-0.594674418603273
 30
0.0
 10
13.08710404103621
 20
-0.5934644068137844
 30
0.0
 10
13.14072669967595
 20
-0.5929919099070278
 30
0.0
  0
SPLINE
  5
BB
330
1F
100
AcDbEntity
  8
0
  6
Continuous
 62
     1
370
    25
100
AcDbSpline
210
0.0
220
0.0
230
1.0
 70
     8
 71
     3
 72
    16
 73
    12
 74
     0
 42
0.000000001
 43
0.00000001
 40
0.0
 40
0.0
 40
0.0
 40
0.0
 40
0.1502719916424272
 40
0.3029360154052836
 40
0.4028093094463839
 40
0.5033883106395728
 40
0.6029074654582701
 40
0.7031207755604099
 40
0.8020294891995801
 40
0.9016282921266237
 40
1.0
 40
1.0
 40
1.0
 40
1.0
 10
11.51817240078069
 20
-0.3397002336805202
 30
0.0
 10
11.57543820078418
 20
-0.3709626977192331
 30
0.0
 10
11.69088135877023
 20
-0.4339852622312801
 30
0.0
 10
11.8452312239124
 20
-0.4947335600260936
 30
0.0
 10
11.98090453398461
 20
-0.5334829460609588
 30
0.0
 10
12.09473221826368
 20
-0.5557830649821226
 30
0.0
 10
12.20955367473375
 20
-0.5660793614205363
 30
0.0
 10
12.32428584021332
 20
-0.5648304473603138
 30
0.0
 10
12.43871639324331
 20
-0.5519991429181891
 30
0.0
 10
12.55125126256714
 20
-0.5281012291486123
 30
0.0
 10
12.6272278604249
 20
-0.503634421928933
 30
0.0
 10
12.66498069371032
 20
-0.4914768455167828
 30
0.0
  0
SPLINE
  5
BC
330
1F
100
AcDbEntity
  8
0
  6
Continuous
 62
     4
370
    25
100
AcDbSpline
210
0.0
220
0.0
230
1.0
 70
    24
 71
     3
 72
    14
 73
    10
 74
     0
 42
0.000000001
 43
0.00000001
 40
0.0
 40
0.0
 40
0.0
 40
0.0
 40
0.25
 40
0.25
 40
0.5
 40
0.5
 40
0.75
 40
0.75
 40
1.0
 40
1.0
 40
1.0
 40
1.0
 10
11.51817240078565
 20
0.2703850216533474
 30
0.0
 10
11.51817240078565
 20
0.247091603218566
 30
0.0
 10
11.51817240078565
 20
0.2224346451986305
 30
0.0
 10
11.51817240078565
 20
0.1510491534635124
 30
0.0
 10
11.51817240078565
 20
0.1057039119256609
 30
0.0
 10
11.51817240078565
 20
-0.0056284482561068
 30
0.0
 10
11.51817240078565
 20
-0.0720111790257411
 30
0.0
 10
11.51817240078565
 20
-0.2103256291569788
 30
0.0
 10
11.51817240078565
 20
-0.2814972585285127
 30
0.0
 10
11.51817240078565
 20
-0.3397002336826649
 30
0.0
  0
ELLIPSE
  5
BD
330
1F
100
AcDbEntity
  8
0
  6
Continuous
 62
     1
370
    25
100
AcDbEllipse
 10
13.23248352038112
 20
-0.0000000000000003
 30
0.0
 11
0.8568888040452656
 21
1.049386131099239E-16
 31
0.0
210
0.0
220
0.0
230
1.0
 40
0.7002075382097122
 41
4.007103121891991
 42
4.772012155476389
1001
PE_URL
1000

  0
LINE
  5
BE
330
1F
100
AcDbEntity
  8
0
  6
Continuous
 62
     4
370
    25
100
AcDbLine
 10
11.51817240078565
 20
0.2703850216420614
 30
0.0
 11
11.51817240078565
 21
0.3822981188404372
 31
0.0
  0
SPLINE
  5
BF
330
1F
100
AcDbEntity
  8
0
  6
Continuous
 62
     1
370
    25
100
AcDbSpline
210
0.0
220
0.0
230
1.0
 70
     8
 71
     3
 72
    17
 73
    13
 74
     0
 42
0.000000001
 43
0.00000001
 40
0.0
 40
0.0
 40
0.0
 40
0.0
 40
0.0769705665269685
 40
0.126194532270042
 40
0.2495620932683108
 40
0.3756449493846492
 40
0.5012876319629517
 40
0.5394384944359556
 40
0.7705686725009622
 40
0.8853797552059086
 40
0.9400991606809167
 40
1.0
 40
1.0
 40
1.0
 40
1.0
 10
12.71080488485503
 20
-0.4336337143079679
 30
0.0
 10
12.68009924263425
 20
-0.417273722173299
 30
0.0
 10
12.62975682821608
 20
-0.3904512412103618
 30
0.0
 10
12.53036235909894
 20
-0.3312567441604793
 30
0.0
 10
12.41276572433287
 20
-0.2523271643457059
 30
0.0
 10
12.26289505717584
 20
-0.146781552554724
 30
0.0
 10
12.14712582079851
 20
-0.0612047701540231
 30
0.0
 10
11.99141125123544
 20
0.0585529851474378
 30
0.0
 10
11.83719681415761
 20
0.1726521912536284
 30
0.0
 10
11.67818046445817
 20
0.2821366143639044
 30
0.0
 10
11.5876472930728
 20
0.3412968435412521
 30
0.0
 10
11.54201825517156
 20
0.3682252587269777
 30
0.0
 10
11.51817240078069
 20
0.3822981188404369
 30
0.0
  0
ELLIPSE
  5
C0
330
1F
100
AcDbEntity
  8
0
  6
Continuous
 62
     1
370
    25
100
AcDbEllipse
 10
13.31966787795362
 20
-0.0000000000000003
 30
0.0
 11
0.8568746795565438
 21
0.5999588519789125
 31
0.0
210
0.0
220
0.0
230
1.0
 40
0.0082005002038638
 41
3.858590114786046
 42
3.91636666347725
1001
PE_URL
1000

  0
SPLINE
  5
C1
330
1F
100
AcDbEntity
  8
0
  6
Continuous
 62
     1
370
    25
100
AcDbSpline
210
0.0
220
0.0
230
1.0
 70
     8
 71
     3
 72
    16
 73
    12
 74
     0
 42
0.000000001
 43
0.00000001
 40
0.0
 40
0.0
 40
0.0
 40
0.0
 40
0.2499999999999998
 40
0.2499999999999998
 40
0.3749999999999998
 40
0.3749999999999998
 40
0.4999999999999998
 40
0.4999999999999998
 40
0.75
 40
0.75
 40
1.0
 40
1.0
 40
1.0
 40
1.0
 10
11.51817240078067
 20
0.4515115001657182
 30
0.0
 10
11.62707269306966
 20
0.4053732353722557
 30
0.0
 10
11.73043375707907
 20
0.3476492091904393
 30
0.0
 10
11.89481661589229
 20
0.2475613003879498
 30
0.0
 10
11.94980040808352
 20
0.21219299714738
 30
0.0
 10
12.0567885941963
 20
0.1396936051376434
 30
0.0
 10
12.10827081668534
 20
0.1027090086815627
 30
0.0
 10
12.27026234949949
 20
-0.0113307009580056
 30
0.0
 10
12.38262891070081
 20
-0.0901217679413343
 30
0.0
 10
12.59108231942891
 20
-0.2349976929446951
 30
0.0
 10
12.7037811315404
 20
-0.3047634599257767
 30
0.0
 10
12.8116229113442
 20
-0.3633441252806547
 30
0.0
  0
LINE
  5
C2
330
1F
100
AcDbEntity
  8
0
  6
Continuous
 62
     4
370
    25
100
AcDbLine
 10
11.51817240078565
 20
0.4515115001636087
 30
0.0
 11
11.51817240078565
 21
0.3822981188375746
 31
0.0
  0
SPLINE
  5
C3
330
1F
100
AcDbEntity
  8
0
  6
Continuous
 62
     1
370
    25
100
AcDbSpline
210
0.0
220
0.0
230
1.0
 70
     8
 71
     3
 72
     8
 73
     4
 74
     0
 42
0.000000001
 43
0.00000001
 40
0.0
 40
0.0
 40
0.0
 40
0.0
 40
1.0
 40
1.0
 40
1.0
 40
1.0
 10
12.71080488485503
 20
-0.433633714307967
 30
0.0
 10
12.74513958261073
 20
-0.4096096861844339
 30
0.0
 10
12.77875962955273
 20
-0.3861683766496073
 30
0.0
 10
12.81162291134434
 20
-0.3633441252807357
 30
0.0
1001
PE_URL
1000

  0
SPLINE
  5
C4
330
1F
100
AcDbEntity
  8
0
  6
Continuous
 62
     1
370
    25
100
AcDbSpline
210
0.0
220
0.0
230
1.0
 70
     8
 71
     3
 72
    22
 73
    18
 74
     0
 42
0.000000001
 43
0.00000001
 40
0.0
 40
0.0
 40
0.0
 40
0.0
 40
0.125
 40
0.125
 40
0.25
 40
0.25
 40
0.375
 40
0.375
 40
0.5
 40
0.5
 40
0.625
 40
0.625
 40
0.75
 40
0.75
 40
0.875
 40
0.875
 40
1.0
 40
1.0
 40
1.0
 40
1.0
 10
13.23446907618322
 20
-0.0700673124808069
 30
0.0
 10
13.16303944461649
 20
-0.0165724754306387
 30
0.0
 10
13.08933126029737
 20
0.0383412545998144
 30
0.0
 10
12.94528706732386
 20
0.1450945391322728
 30
0.0
 10
12.87712178079222
 20
0.1964230821802663
 30
0.0
 10
12.73377693057557
 20
0.2948204136832588
 30
0.0
 10
12.6600465923167
 20
0.3414474943505024
 30
0.0
 10
12.51640700395862
 20
0.4245235863437314
 30
0.0
 10
12.44828151276479
 20
0.4607854046581731
 30
0.0
 10
12.30449963560687
 20
0.5226490951317536
 30
0.0
 10
12.23077380484038
 20
0.5477575342534299
 30
0.0
 10
12.08758772010033
 20
0.5836774156608722
 30
0.0
 10
12.01938178537451
 20
0.5946200545564228
 30
0.0
 10
11.87521194417289
 20
0.602325168745296
 30
0.0
 10
11.8015172768196
 20
0.5987944010810036
 30
0.0
 10
11.65883307366041
 20
0.5774933153561819
 30
0.0
 10
11.59042654801503
 20
0.5599888075385318
 30
0.0
 10
11.518172400784
 20
0.5356229458048524
 30
0.0
  0
SPLINE
  5
C5
330
1F
100
AcDbEntity
  8
0
  6
Continuous
 62
     4
370
    25
100
AcDbSpline
210
0.0
220
0.0
230
1.0
 70
    24
 71
     3
 72
     9
 73
     5
 74
     0
 42
0.000000001
 43
0.00000001
 40
0.0
 40
0.0
 40
0.0
 40
0.0
 40
0.6567440575870822
 40
1.0
 40
1.0
 40
1.0
 40
1.0
 10
11.51817240078565
 20
0.5356229458258657
 30
0.0
 10
11.51817240078565
 20
0.519567882784229
 30
0.0
 10
11.51817240078565
 20
0.4951214293201142
 30
0.0
 10
11.51817240078565
 20
0.4754538622216462
 30
0.0
 10
11.51817240078565
 20
0.4687028529422922
 30
0.0
  0
SPLINE
  5
C6
330
1F
100
AcDbEntity
  8
0
  6
Continuous
 62
     1
370
    25
100
AcDbSpline
210
0.0
220
0.0
230
1.0
 70
     8
 71
     3
 72
    14
 73
    10
 74
     0
 42
0.000000001
 43
0.00000001
 40
0.0
 40
0.0
 40
0.0
 40
0.0
 40
0.25
 40
0.25
 40
0.5
 40
0.5
 40
0.75
 40
0.75
 40
1.0
 40
1.0
 40
1.0
 40
1.0
 10
13.23446907618335
 20
-0.0700673124809149
 30
0.0
 10
13.23262349977675
 20
-0.0702946934451619
 30
0.0
 10
13.22158799005254
 20
-0.076967373641341
 30
0.0
 10
13.16843732864597
 20
-0.1123620730877967
 30
0.0
 10
13.12601680023674
 20
-0.1413872219187144
 30
0.0
 10
13.02950896496803
 20
-0.2084236080383421
 30
0.0
 10
12.97726937752489
 20
-0.2451216530759129
 30
0.0
 10
12.88518643292787
 20
-0.310381590420649
 30
0.0
 10
12.84454159115026
 20
-0.3394947336240882
 30
0.0
 10
12.81162291134282
 20
-0.3633441252818262
 30
0.0
1001
PE_URL
1000

  0
LINE
  5
C7
330
1F
100
AcDbEntity
  8
0
  6
Continuous
 62
     1
370
    25
100
AcDbLine
 10
13.27669045178933
 20
-0.0309540266131532
 30
0.0
 11
12.67700405395614
 21
0.3889509097114759
 31
0.0
1001
PE_URL
1000

  0
SPLINE
  5
C8
330
1F
100
AcDbEntity
  8
0
  6
Continuous
 62
     1
370
    25
100
AcDbSpline
210
0.0
220
0.0
230
1.0
 70
     8
 71
     3
 72
    11
 73
     7
 74
     0
 42
0.000000001
 43
0.00000001
 40
0.0
 40
0.0
 40
0.0
 40
0.0
 40
0.4623953263426154
 40
0.4883780692580883
 40
0.9290517333557798
 40
1.0
 40
1.0
 40
1.0
 40
1.0
 10
12.71080488485503
 20
0.4146827725086668
 30
0.0
 10
12.61152216985923
 20
0.4638253896797659
 30
0.0
 10
12.50666059817366
 20
0.515729410168346
 30
0.0
 10
12.30828913071455
 20
0.5771261411206483
 30
0.0
 10
12.1914266886948
 20
0.6026311164535098
 30
0.0
 10
12.08239136264898
 20
0.5983677197646593
 30
0.0
 10
12.0672710815955
 20
0.5977765007669672
 30
0.0
  0
ELLIPSE
  5
C9
330
1F
100
AcDbEntity
  8
0
  6
Continuous
 62
     1
370
    25
100
AcDbEllipse
 10
13.31966787795362
 20
-0.0000000000000005
 30
0.0
 11
0.8567683309929189
 21
0.02052926689864179
 31
0.0
210
0.0
220
0.0
230
1.0
 40
0.6998959537353
 41
2.344308122070602
 42
2.402084670762033
1001
PE_URL
1000

  0
ELLIPSE
  5
CA
330
1F
100
AcDbEntity
  8
0
  6
Continuous
 62
     1
370
    25
100
AcDbEllipse
 10
13.31966787795362
 20
-0.0000000000000003
 30
0.0
 11
0.8568746795565438
 21
0.5999588519789125
 31
0.0
210
0.0
220
0.0
230
1.0
 40
0.0082005002038638
 41
4.607054662025437
 42
4.656348152053002
1001
PE_URL
1000

  0
SPLINE
  5
CB
330
1F
100
AcDbEntity
  8
0
  6
Continuous
 62
     1
370
    25
100
AcDbSpline
210
0.0
220
0.0
230
1.0
 70
     8
 71
     3
 72
    10
 73
     6
 74
     0
 42
0.000000001
 43
0.00000001
 40
0.0
 40
0.0
 40
0.0
 40
0.0
 40
0.1147548288324846
 40
0.5542157618320449
 40
1.0
 40
1.0
 40
1.0
 40
1.0
 10
12.66498069371032
 20
0.4914768455167846
 30
0.0
 10
12.68677386543044
 20
0.50202921541478
 30
0.0
 10
12.79202537763683
 20
0.5529925585843128
 30
0.0
 10
12.98084736896807
 20
0.5987590179490351
 30
0.0
 10
13.1495268812549
 20
0.5968540521356699
 30
0.0
 10
13.23446907617268
 20
0.5958947656447566
 30
0.0
1001
PE_URL
1000

  0
SPLINE
  5
CC
330
1F
100
AcDbEntity
  8
0
  6
Continuous
 62
     1
370
    25
100
AcDbSpline
210
0.0
220
0.0
230
1.0
 70
     8
 71
     3
 72
    14
 73
    10
 74
     0
 42
0.000000001
 43
0.00000001
 40
0.0
 40
0.0
 40
0.0
 40
0.0
 40
0.25
 40
0.25
 40
0.5
 40
0.5
 40
0.75
 40
0.75
 40
1.0
 40
1.0
 40
1.0
 40
1.0
 10
13.23446907618335
 20
0.5958947656438156
 30
0.0
 10
13.23262349977676
 20
0.534875090045533
 30
0.0
 10
13.22158799005262
 20
0.4743972879726896
 30
0.0
 10
13.1684373286465
 20
0.369701977215128
 30
0.0
 10
13.12601680023761
 20
0.3305987389726424
 30
0.0
 10
13.02950896496937
 20
0.2991224150563453
 30
0.0
 10
12.97726937752643
 20
0.305648897654096
 30
0.0
 10
12.88518643292951
 20
0.3499308134786555
 30
0.0
 10
12.8445415911519
 20
0.387111045959168
 30
0.0
 10
12.81162291134433
 20
0.4327122949125327
 30
0.0
1001
PE_URL
1000

  0
SPLINE
  5
CD
330
1F
100
AcDbEntity
  8
0
  6
Continuous
 62
     1
370
    25
100
AcDbSpline
210
0.0
220
0.0
230
1.0
 70
     8
 71
     3
 72
    12
 73
     8
 74
     0
 42
0.000000001
 43
0.00000001
 40
0.0
 40
0.0
 40
0.0
 40
0.0
 40
0.1362229719139888
 40
0.4005564127605185
 40
0.6630605362395393
 40
0.9273431486305015
 40
1.0
 40
1.0
 40
1.0
 40
1.0
 10
12.37934248237477
 20
0.556764425161434
 30
0.0
 10
12.39900528082276
 20
0.5548669898887196
 30
0.0
 10
12.45682269517288
 20
0.5492876822609023
 30
0.0
 10
12.55143698440863
 20
0.5272631596816243
 30
0.0
 10
12.66584439125923
 20
0.4928775095249311
 30
0.0
 10
12.7525850598861
 20
0.4591890610732952
 30
0.0
 10
12.80115039428271
 20
0.4374089154450619
 30
0.0
 10
12.81162291134433
 20
0.4327122949125332
 30
0.0
1001
PE_URL
1000

  0
SPLINE
  5
CE
330
1F
100
AcDbEntity
  8
0
  6
Continuous
 62
     1
370
    25
100
AcDbSpline
210
0.0
220
0.0
230
1.0
 70
     8
 71
     3
 72
    14
 73
    10
 74
     0
 42
0.000000001
 43
0.00000001
 40
0.0
 40
0.0
 40
0.0
 40
0.0
 40
0.3047972362933825
 40
0.4770413613295166
 40
0.4783913150072996
 40
0.4901787801131638
 40
0.5239493469089962
 40
0.6533564118499681
 40
1.0
 40
1.0
 40
1.0
 40
1.0
 10
12.37429951229058
 20
-0.553603454526811
 30
0.0
 10
12.28681709239767
 20
-0.5738029698850259
 30
0.0
 10
12.14989743661067
 20
-0.6054174438935898
 30
0.0
 10
12.01460852443201
 20
-0.599781084499614
 30
0.0
 10
11.96181927781823
 20
-0.5946413467707261
 30
0.0
 10
11.94840224931927
 20
-0.5932820943935432
 30
0.0
 10
11.89840543885319
 20
-0.5872554571760337
 30
0.0
 10
11.75242939072166
 20
-0.5617488387150406
 30
0.0
 10
11.61687697347816
 20
-0.5042823145362524
 30
0.0
 10
11.51817240078069
 20
-0.4624371831190339
 30
0.0
  0
LINE
  5
CF
330
1F
100
AcDbEntity
  8
0
  6
Continuous
 62
     4
370
    25
100
AcDbLine
 10
11.51817240078565
 20
-0.3397002336833152
 30
0.0
 11
11.51817240078565
 21
-0.4624371831214004
 31
0.0
  0
ELLIPSE
  5
D0
330
1F
100
AcDbEntity
  8
0
  6
Continuous
 62
     1
370
    25
100
AcDbEllipse
 10
13.31966787795362
 20
-0.0000000000000005
 30
0.0
 11
0.8567683309929189
 21
0.02052926689864179
 31
0.0
210
0.0
220
0.0
230
1.0
 40
0.6998959537353
 41
1.596197377551537
 42
1.653620123521668
1001
PE_URL
1000

  0
LINE
  5
D1
330
1F
100
AcDbEntity
  8
0
  6
Continuous
 62
     1
370
    25
100
AcDbLine
 10
13.27658528119009
 20
-0.0406203647369352
 30
0.0
 11
13.28354368653392
 21
0.5989338389970995
 31
0.0
1001
PE_URL
1000

  0
SPLINE
  5
D4
330
1F
100
AcDbEntity
  8
0
  6
Continuous
 62
     1
370
    25
100
AcDbSpline
210
0.0
220
0.0
230
1.0
 70
     8
 71
     3
 72
     8
 73
     4
 74
     0
 42
0.000000001
 43
0.00000001
 40
0.0
 40
0.0
 40
0.0
 40
0.0
 40
1.0
 40
1.0
 40
1.0
 40
1.0
 10
12.71080488485503
 20
0.4146827725086649
 30
0.0
 10
12.74513958261073
 20
0.4158886258724434
 30
0.0
 10
12.77875962955273
 20
0.4218059183826961
 30
0.0
 10
12.81162291134434
 20
0.4327122949125285
 30
0.0
1001
PE_URL
1000

  0
LINE
  5
D6
330
1F
100
AcDbEntity
  8
0
  6
Continuous
 62
     1
370
    25
100
AcDbLine
 10
13.27658528119009
 20
-0.0406203647369352
 30
0.0
 11
13.28354368653392
 21
-0.5989338389971003
 31
0.0
1001
PE_URL
1000

  0
SPLINE
  5
D7
330
1F
100
AcDbEntity
  8
0
  6
Continuous
 62
     1
370
    25
100
AcDbSpline
210
0.0
220
0.0
230
1.0
 70
     8
 71
     3
 72
     9
 73
     5
 74
     0
 42
0.000000001
 43
0.00000001
 40
0.0
 40
0.0
 40
0.0
 40
0.0
 40
0.8600845839506115
 40
1.0
 40
1.0
 40
1.0
 40
1.0
 10
11.51817240078069
 20
-0.5356229458037364
 30
0.0
 10
11.62443168928455
 20
-0.5703116689746032
 30
0.0
 10
11.74797685040787
 20
-0.6106434268251296
 30
0.0
 10
11.87159095663535
 20
-0.5955674798462384
 30
0.0
 10
11.88888647573774
 20
-0.5934581224523481
 30
0.0
  0
LINE
  5
D8
330
1F
100
AcDbEntity
  8
0
  6
Continuous
 62
     4
370
    25
100
AcDbLine
 10
11.51817240078565
 20
-0.535622945803879
 30
0.0
 11
11.51817240078565
 21
-0.4624371831190339
 31
0.0
  0
ELLIPSE
  5
D9
330
1F
100
AcDbEntity
  8
0
  6
Continuous
 62
     1
370
    25
100
AcDbEllipse
 10
13.23248352038112
 20
-0.0000000000000007
 30
0.0
 11
0.8568888040452656
 21
0.0
 31
0.0
210
0.0
220
0.0
230
1.0
 40
0.7002075382097122
 41
1.511173151703211
 42
1.570796326794897
1001
PE_URL
1000

  0
LINE
  5
DD
330
1F
100
AcDbEntity
  8
중심선
100
AcDbLine
 10
-39.68182759921436
 20
-0.000000000000005
 30
0.0
 11
14.77531050985568
 21
0.0000000000000021
 31
0.0
  0
CIRCLE
  5
DE
330
1F
100
AcDbEntity
  8
해칭선
100
AcDbCircle
 10
0.0
 20
0.0
 30
0.0
 40
3.000000000000003
  0
INSERT
  5
DF
330
1F
100
AcDbEntity
  8
0
  6
Continuous
 62
     7
100
AcDbBlockReference
 66
     1
  2
블럭10
 10
-29.5152729321252
 20
-52.04717430164394
 30
0.0
  0
ATTRIB
  5
E0
330
DF
100
AcDbEntity
  8
FORMAT
 62
     2
100
AcDbText
 10
-45.63453397156076
 20
-49.97180738881174
 30
0.0
 40
4.233333333333333
  1
SEME7301208E [ 4 FLUTE ]
 41
0.75
  7
SLDTEXTSTYLE0
 11
-45.63453397156076
 21
-52.08847405547841
 31
0.0
100
AcDbAttribute
  2
AUTOATTR0
 70
     0
 74
     1
  0
SEQEND
  5
E1
330
DF
100
AcDbEntity
  8
0
  6
Continuous
 62
     7
  0
HATCH
  5
E2
330
1F
100
AcDbEntity
  8
중심선
100
AcDbHatch
 10
0.0
 20
0.0
 30
0.0
210
0.0
220
0.0
230
1.0
  2
SOLID
 70
     1
 71
     0
 91
        1
 92
        0
 93
        4
 72
     1
 10
-23.80036362774435
 20
-35.8
 11
-27.24663887158164
 21
-35.8
 72
     1
 10
-27.24663887158164
 20
-35.8
 11
-29.37486873078566
 21
-38.3363255805726
 72
     1
 10
-29.37486873078566
 20
-38.3363255805726
 11
-25.92856040183523
 21
-38.33628615127011
 72
     1
 10
-25.92856040183523
 20
-38.33628615127011
 11
-23.80036362774435
 21
-35.8
 97
        0
 75
     0
 76
     1
 98
        1
 10
-3.875054920989808
 20
-0.0000000000000073
  0
HATCH
  5
E3
330
1F
100
AcDbEntity
  8
중심선
100
AcDbHatch
 10
0.0
 20
0.0
 30
0.0
210
0.0
220
0.0
230
1.0
  2
SOLID
 70
     1
 71
     0
 91
        1
 92
        0
 93
        4
 72
     1
 10
-18.78759963670838
 20
-35.79999999999998
 11
-22.23387488054568
 21
-35.80000000000003
 72
     1
 10
-22.23387488054568
 20
-35.80000000000003
 11
-26.76501288890307
 21
-41.20000000000002
 72
     1
 10
-26.76501288890307
 20
-41.20000000000002
 11
-23.31873764506579
 21
-41.20000000000002
 72
     1
 10
-23.31873764506579
 20
-41.20000000000002
 11
-18.78759963670838
 21
-35.79999999999998
 97
        0
 75
     0
 76
     1
 98
        1
 10
-3.875054920989808
 20
-0.0000000000000073
  0
HATCH
  5
E4
330
1F
100
AcDbEntity
  8
중심선
100
AcDbHatch
 10
0.0
 20
0.0
 30
0.0
210
0.0
220
0.0
230
1.0
  2
SOLID
 70
     1
 71
     0
 91
        1
 92
        0
 93
        4
 72
     1
 10
-13.77483564567251
 20
-35.79999999999998
 11
-17.22111088950965
 21
-35.80000000000003
 72
     1
 10
-17.22111088950965
 20
-35.80000000000003
 11
-24.26954779139887
 21
-44.20000000000002
 72
     1
 10
-24.26954779139887
 20
-44.20000000000002
 11
-20.82327254756159
 21
-44.20000000000002
 72
     1
 10
-20.82327254756159
 20
-44.20000000000002
 11
-13.77483564567251
 21
-35.79999999999998
 97
        0
 75
     0
 76
     1
 98
        1
 10
-3.875054920989808
 20
-0.0000000000000073
  0
HATCH
  5
E5
330
1F
100
AcDbEntity
  8
중심선
100
AcDbHatch
 10
0.0
 20
0.0
 30
0.0
210
0.0
220
0.0
230
1.0
  2
SOLID
 70
     1
 71
     0
 91
        1
 92
        0
 93
        6
 72
     3
 10
-8.974945214660309
 20
-40.00000000005128
 11
3.960054785062284
 21
1.540882976769353E-10
 40
0.3939339440162627
 50
17.09539180608436
 51
320.0019657685081
 73
     0
 72
     1
 10
-7.291945558959712
 20
-38.58789400463831
 11
-4.986643685258647
 21
-36.65356729459039
 72
     3
 10
-8.974945214713156
 20
-40.00000000000016
 11
6.600054785286829
 21
-1.278976924368180E-13
 40
0.636358354079598
 50
39.99873849337385
 51
368.4976242363724
 73
     1
 72
     1
 10
-2.549612722812546
 20
-39.03999999993002
 11
-10.29487790787723
 21
-39.03999999993002
 72
     1
 10
-10.29487790787723
 20
-39.03999999993002
 11
-10.29490295232317
 21
-40.95999999992992
 72
     1
 10
-10.29490295232317
 20
-40.95999999992992
 11
-5.85352318285113
 21
-40.95999999992989
 97
        0
 75
     0
 76
     1
 98
        1
 10
-3.875054920989808
 20
-0.0000000000000073
  0
DIMENSION
  5
E6
330
1F
100
AcDbEntity
  8
치수문자_일반주서
100
AcDbDimension
  2
_D
 10
28.05782430609499
 20
0.6000000000000565
 30
0.0
 11
28.05782430609495
 21
11.57900000000006
 31
0.0
 70
   160
  1
%%c<>
 71
     2
 42
1.200000000000008
 52
-270.0
  3
SLDDIMSTYLE0
100
AcDbAlignedDimension
 13
13.31817240078565
 23
-0.6000000000000053
 33
0.0
 14
13.31817240078565
 24
0.6000000000000022
 34
0.0
 50
90.0000000000002
100
AcDbRotatedDimension
  0
DIMENSION
  5
F4
330
1F
100
AcDbEntity
  8
치수문자_일반주서
100
AcDbDimension
  2
_D_1
 10
13.31817240078565
 20
36.00000000000003
 30
0.0
 11
-11.68182759921435
 21
36.00000000000003
 31
0.0
 70
   160
  1
<>
 71
     2
 42
50.0
  3
SLDDIMSTYLE1
100
AcDbAlignedDimension
 13
-36.68182759921436
 23
1.499999999999991
 33
0.0
 14
13.31817240078565
 24
-0.0600000000000005
 34
0.0
100
AcDbRotatedDimension
  0
DIMENSION
  5
FF
330
1F
100
AcDbEntity
  8
치수문자_일반주서
100
AcDbDimension
  2
_D_2
 10
-50.17446716083425
 20
-2.000000000000055
 30
0.0
 11
-50.17446716083425
 21
-0.7264638992031099
 31
0.0
 70
   160
  1
%%c<>
 71
     2
 42
3.999999999999976
 52
-270.0
  3
SLDDIMSTYLE2
100
AcDbAlignedDimension
 13
-36.18182759921437
 23
1.999999999999974
 33
0.0
 14
-36.18182759921437
 24
-2.000000000000002
 34
0.0
 50
90.0000000000002
100
AcDbRotatedDimension
  0
DIMENSION
  5
10D
330
1F
100
AcDbEntity
  8
치수문자_일반주서
100
AcDbDimension
  2
_D_3
 10
13.31817240078565
 20
18.2788560432532
 30
0.0
 11
24.07842240078564
 21
18.2788560432532
 31
0.0
 70
   160
  1
<>
 71
     2
 42
1.799999999999996
  3
SLDDIMSTYLE3
100
AcDbAlignedDimension
 13
11.51817240078565
 23
0.5356229458249195
 33
0.0
 14
13.31817240078565
 24
0.0010287097116473
 34
0.0
 50
-0.0000000000002262
100
AcDbRotatedDimension
  0
DIMENSION
  5
11A
330
1F
100
AcDbEntity
  8
치수문자_일반주서
100
AcDbDimension
  2
_D_4
 10
5.318172400785641
 20
25.29678198861815
 30
0.0
 11
10.45296577697866
 21
25.29678198861815
 31
0.0
 70
   160
  1
<>
 71
     2
 42
8.000000000000004
  3
SLDDIMSTYLE2
100
AcDbAlignedDimension
 13
13.31817240078565
 23
0.5969924622639711
 33
0.0
 14
5.318172400785641
 24
0.574999999999998
 34
0.0
100
AcDbRotatedDimension
  0
INSERT
  5
12C
330
1F
100
AcDbEntity
  8
해칭선
100
AcDbBlockReference
  2
SW_DOWELSYMBOL_0
 10
0.0
 20
0.0
 30
0.0
  0
ENDSEC
  0
SECTION
  2
OBJECTS
  0
DICTIONARY
  5
C
330
0
100
AcDbDictionary
281
     1
  3
ACAD_DETAILVIEWSTYLE
350
187
  3
ACAD_GROUP
350
D
  3
ACAD_LAYOUT
350
1A
  3
ACAD_MLINESTYLE
350
17
  3
ACAD_PLOTSETTINGS
350
19
  3
ACAD_PLOTSTYLENAME
350
E
  3
ACAD_SCALELIST
350
47
  3
ACAD_SECTIONVIEWSTYLE
350
188
  3
AcDbVariableDictionary
350
182
  3
APPDATA
350
14E
  3
DWGPROPS
350
18B
  0
DICTIONARY
  5
189
330
1F
100
AcDbDictionary
280
     1
281
     1
  3
DIM_BOUNDING_BOXES_V1
360
18A
  0
DICTIONARY
  5
187
102
{ACAD_REACTORS
330
C
102
}
330
C
100
AcDbDictionary
281
     1
  0
DICTIONARY
  5
D
102
{ACAD_REACTORS
330
C
102
}
330
C
100
AcDbDictionary
281
     1
  0
DICTIONARY
  5
1A
102
{ACAD_REACTORS
330
C
102
}
330
C
100
AcDbDictionary
281
     1
  3
Layout1
350
1E
  3
Layout2
350
26
  3
Model
350
22
  0
DICTIONARY
  5
17
102
{ACAD_REACTORS
330
C
102
}
330
C
100
AcDbDictionary
281
     1
  3
Standard
350
18
  0
DICTIONARY
  5
19
102
{ACAD_REACTORS
330
C
102
}
330
C
100
AcDbDictionary
281
     1
  0
ACDBDICTIONARYWDFLT
  5
E
102
{ACAD_REACTORS
330
C
102
}
330
C
100
AcDbDictionary
281
     1
  3
Normal
350
F
100
AcDbDictionaryWithDefault
340
F
  0
DICTIONARY
  5
47
102
{ACAD_REACTORS
330
C
102
}
330
C
100
AcDbDictionary
281
     1
  3
A0
350
48
  3
A1
350
49
  3
A2
350
4A
  3
A3
350
4B
  3
A4
350
4C
  3
A5
350
4D
  3
A6
350
4E
  3
A7
350
4F
  3
A8
350
50
  3
A9
350
51
  3
B0
350
52
  3
B1
350
53
  3
B2
350
54
  3
B3
350
55
  3
B4
350
56
  3
B5
350
57
  3
B6
350
58
  3
B7
350
59
  3
B8
350
5A
  3
B9
350
5B
  3
C0
350
5C
  3
C1
350
5D
  3
C2
350
5E
  3
C3
350
5F
  3
C4
350
60
  3
C5
350
61
  3
C6
350
62
  3
C7
350
63
  3
C8
350
64
  3
C9
350
65
  3
D0
350
66
  3
D1
350
67
  3
D2
350
68
  0
DICTIONARY
  5
188
102
{ACAD_REACTORS
330
C
102
}
330
C
100
AcDbDictionary
281
     1
  0
DICTIONARY
  5
182
102
{ACAD_REACTORS
330
C
102
}
330
C
100
AcDbDictionary
281
     1
  0
DICTIONARY
  5
14E
102
{ACAD_REACTORS
330
C
102
}
330
C
100
AcDbDictionary
281
     1
  0
XRECORD
  5
18B
102
{ACAD_REACTORS
330
C
102
}
330
C
100
AcDbXrecord
280
     1
  1
DWGPROPS COOKIE
  2

  3

  4

  6

  7

  8
12016016
  9

300
=
301
=
302
=
303
=
304
=
305
=
306
=
307
=
308
=
309
=
 40
0.0
 41
2458260.39883441
 42
2459677.373566979
  1

 90
        0
  0
DICTIONARY
  5
18A
102
{ACAD_REACTORS
330
189
102
}
330
189
100
AcDbDictionary
281
     1
  0
LAYOUT
  5
1E
102
{ACAD_REACTORS
330
1A
102
}
330
1A
100
AcDbPlotSettings
  1

  2
none_device
  4

  6

 40
0.0
 41
0.0
 42
0.0
 43
0.0
 44
0.0
 45
0.0
 46
0.0
 47
0.0
 48
0.0
 49
0.0
140
0.0
141
0.0
142
1.0
143
1.0
 70
   688
 72
     1
 73
     0
 74
     5
  7

 75
    16
147
1.0
148
0.0
149
0.0
100
AcDbLayout
  1
Layout1
 70
     1
 71
     1
 10
0.0
 20
0.0
 11
420.0
 21
297.0
 12
0.0
 22
0.0
 32
0.0
 14
1.000000000000000E+20
 24
1.000000000000000E+20
 34
1.000000000000000E+20
 15
-1.000000000000000E+20
 25
-1.000000000000000E+20
 35
-1.000000000000000E+20
146
0.0
 13
0.0
 23
0.0
 33
0.0
 16
1.0
 26
0.0
 36
0.0
 17
0.0
 27
1.0
 37
0.0
 76
     0
330
1B
  0
LAYOUT
  5
26
102
{ACAD_REACTORS
330
1A
102
}
330
1A
100
AcDbPlotSettings
  1

  2
none_device
  4

  6

 40
0.0
 41
0.0
 42
0.0
 43
0.0
 44
0.0
 45
0.0
 46
0.0
 47
0.0
 48
0.0
 49
0.0
140
0.0
141
0.0
142
1.0
143
1.0
 70
   688
 72
     1
 73
     0
 74
     5
  7

 75
    16
147
1.0
148
0.0
149
0.0
100
AcDbLayout
  1
Layout2
 70
     1
 71
     2
 10
0.0
 20
0.0
 11
0.0
 21
0.0
 12
0.0
 22
0.0
 32
0.0
 14
0.0
 24
0.0
 34
0.0
 15
0.0
 25
0.0
 35
0.0
146
0.0
 13
0.0
 23
0.0
 33
0.0
 16
1.0
 26
0.0
 36
0.0
 17
0.0
 27
1.0
 37
0.0
 76
     0
330
23
  0
LAYOUT
  5
22
102
{ACAD_REACTORS
330
1A
102
}
330
1A
100
AcDbPlotSettings
  1

  2
none_device
  4
ANSI_A_(11.00_x_8.50_Inches)
  6

 40
6.35
 41
19.05
 42
6.35000508
 43
19.05000254
 44
279.4
 45
215.9
 46
162.2260605084696
 47
100.8537443875621
 48
0.0
 49
0.0
140
0.0
141
0.0
142
0.0922419125129433
143
1.0
 70
  1696
 72
     0
 73
     0
 74
     0
  7

 75
     0
147
0.0235690232323232
148
0.0
149
0.0
100
AcDbLayout
  1
Model
 70
     1
 71
     0
 10
0.0
 20
0.0
 11
420.0
 21
297.0
 12
0.0
 22
0.0
 32
0.0
 14
-54.54946716083426
 24
-49.97180738881174
 34
0.0
 15
28.60815763942833
 25
40.37500000000003
 35
0.0
146
0.0
 13
0.0
 23
0.0
 33
0.0
 16
1.0
 26
0.0
 36
0.0
 17
0.0
 27
1.0
 37
0.0
 76
     0
330
1F
331
29
  0
MLINESTYLE
  5
18
102
{ACAD_REACTORS
330
17
102
}
330
17
100
AcDbMlineStyle
  2
Standard
 70
     0
  3

 62
   256
 51
90.0
 52
90.0
 71
     2
 49
0.5
 62
   256
  6
BYLAYER
 49
-0.5
 62
   256
  6
BYLAYER
  0
ACDBPLACEHOLDER
  5
F
102
{ACAD_REACTORS
330
E
102
}
330
E
  0
SCALE
  5
48
102
{ACAD_REACTORS
330
47
102
}
330
47
100
AcDbScale
 70
     0
300
1:1
140
1.0
141
1.0
290
     1
  0
SCALE
  5
49
102
{ACAD_REACTORS
330
47
102
}
330
47
100
AcDbScale
 70
     0
300
1:2
140
1.0
141
2.0
290
     0
  0
SCALE
  5
4A
102
{ACAD_REACTORS
330
47
102
}
330
47
100
AcDbScale
 70
     0
300
1:4
140
1.0
141
4.0
290
     0
  0
SCALE
  5
4B
102
{ACAD_REACTORS
330
47
102
}
330
47
100
AcDbScale
 70
     0
300
1:5
140
1.0
141
5.0
290
     0
  0
SCALE
  5
4C
102
{ACAD_REACTORS
330
47
102
}
330
47
100
AcDbScale
 70
     0
300
1:8
140
1.0
141
8.0
290
     0
  0
SCALE
  5
4D
102
{ACAD_REACTORS
330
47
102
}
330
47
100
AcDbScale
 70
     0
300
1:10
140
1.0
141
10.0
290
     0
  0
SCALE
  5
4E
102
{ACAD_REACTORS
330
47
102
}
330
47
100
AcDbScale
 70
     0
300
1:16
140
1.0
141
16.0
290
     0
  0
SCALE
  5
4F
102
{ACAD_REACTORS
330
47
102
}
330
47
100
AcDbScale
 70
     0
300
1:20
140
1.0
141
20.0
290
     0
  0
SCALE
  5
50
102
{ACAD_REACTORS
330
47
102
}
330
47
100
AcDbScale
 70
     0
300
1:30
140
1.0
141
30.0
290
     0
  0
SCALE
  5
51
102
{ACAD_REACTORS
330
47
102
}
330
47
100
AcDbScale
 70
     0
300
1:40
140
1.0
141
40.0
290
     0
  0
SCALE
  5
52
102
{ACAD_REACTORS
330
47
102
}
330
47
100
AcDbScale
 70
     0
300
1:50
140
1.0
141
50.0
290
     0
  0
SCALE
  5
53
102
{ACAD_REACTORS
330
47
102
}
330
47
100
AcDbScale
 70
     0
300
1:100
140
1.0
141
100.0
290
     0
  0
SCALE
  5
54
102
{ACAD_REACTORS
330
47
102
}
330
47
100
AcDbScale
 70
     0
300
2:1
140
2.0
141
1.0
290
     0
  0
SCALE
  5
55
102
{ACAD_REACTORS
330
47
102
}
330
47
100
AcDbScale
 70
     0
300
4:1
140
4.0
141
1.0
290
     0
  0
SCALE
  5
56
102
{ACAD_REACTORS
330
47
102
}
330
47
100
AcDbScale
 70
     0
300
8:1
140
8.0
141
1.0
290
     0
  0
SCALE
  5
57
102
{ACAD_REACTORS
330
47
102
}
330
47
100
AcDbScale
 70
     0
300
10:1
140
10.0
141
1.0
290
     0
  0
SCALE
  5
58
102
{ACAD_REACTORS
330
47
102
}
330
47
100
AcDbScale
 70
     0
300
100:1
140
100.0
141
1.0
290
     0
  0
SCALE
  5
59
102
{ACAD_REACTORS
330
47
102
}
330
47
100
AcDbScale
 70
     0
300
1/128" = 1'-0"
140
0.0078125
141
12.0
290
     0
  0
SCALE
  5
5A
102
{ACAD_REACTORS
330
47
102
}
330
47
100
AcDbScale
 70
     0
300
1/64" = 1'-0"
140
0.015625
141
12.0
290
     0
  0
SCALE
  5
5B
102
{ACAD_REACTORS
330
47
102
}
330
47
100
AcDbScale
 70
     0
300
1/32" = 1'-0"
140
0.03125
141
12.0
290
     0
  0
SCALE
  5
5C
102
{ACAD_REACTORS
330
47
102
}
330
47
100
AcDbScale
 70
     0
300
1/16" = 1'-0"
140
0.0625
141
12.0
290
     0
  0
SCALE
  5
5D
102
{ACAD_REACTORS
330
47
102
}
330
47
100
AcDbScale
 70
     0
300
3/32" = 1'-0"
140
0.09375
141
12.0
290
     0
  0
SCALE
  5
5E
102
{ACAD_REACTORS
330
47
102
}
330
47
100
AcDbScale
 70
     0
300
1/8" = 1'-0"
140
0.125
141
12.0
290
     0
  0
SCALE
  5
5F
102
{ACAD_REACTORS
330
47
102
}
330
47
100
AcDbScale
 70
     0
300
3/16" = 1'-0"
140
0.1875
141
12.0
290
     0
  0
SCALE
  5
60
102
{ACAD_REACTORS
330
47
102
}
330
47
100
AcDbScale
 70
     0
300
1/4" = 1'-0"
140
0.25
141
12.0
290
     0
  0
SCALE
  5
61
102
{ACAD_REACTORS
330
47
102
}
330
47
100
AcDbScale
 70
     0
300
3/8" = 1'-0"
140
0.375
141
12.0
290
     0
  0
SCALE
  5
62
102
{ACAD_REACTORS
330
47
102
}
330
47
100
AcDbScale
 70
     0
300
1/2" = 1'-0"
140
0.5
141
12.0
290
     0
  0
SCALE
  5
63
102
{ACAD_REACTORS
330
47
102
}
330
47
100
AcDbScale
 70
     0
300
3/4" = 1'-0"
140
0.75
141
12.0
290
     0
  0
SCALE
  5
64
102
{ACAD_REACTORS
330
47
102
}
330
47
100
AcDbScale
 70
     0
300
1" = 1'-0"
140
1.0
141
12.0
290
     0
  0
SCALE
  5
65
102
{ACAD_REACTORS
330
47
102
}
330
47
100
AcDbScale
 70
     0
300
1-1/2" = 1'-0"
140
1.5
141
12.0
290
     0
  0
SCALE
  5
66
102
{ACAD_REACTORS
330
47
102
}
330
47
100
AcDbScale
 70
     0
300
3" = 1'-0"
140
3.0
141
12.0
290
     0
  0
SCALE
  5
67
102
{ACAD_REACTORS
330
47
102
}
330
47
100
AcDbScale
 70
     0
300
6" = 1'-0"
140
6.0
141
12.0
290
     0
  0
SCALE
  5
68
102
{ACAD_REACTORS
330
47
102
}
330
47
100
AcDbScale
 70
     0
300
1'-0" = 1'-0"
140
12.0
141
12.0
290
     0
  0
ENDSEC
  0
EOF
