  0
SECTION
  2
HEADER
  9
$ACADVER
  1
AC1015
  9
$ACADMAINTVER
 70
     6
  9
$DWGCODEPAGE
  3
ANSI_949
  9
$INSBASE
 10
0.0
 20
0.0
 30
0.0
  9
$EXTMIN
 10
-52.54946716083421
 20
-49.97180738881174
 30
0.0
  9
$EXTMAX
 10
47.94578762077025
 20
40.37500000000004
 30
0.0
  9
$LIMMIN
 10
0.0
 20
0.0
  9
$LIMMAX
 10
420.0
 20
297.0
  9
$ORTHOMODE
 70
     0
  9
$REGENMODE
 70
     1
  9
$FILLMODE
 70
     1
  9
$QTEXTMODE
 70
     0
  9
$MIRRTEXT
 70
     1
  9
$LTSCALE
 40
1.0
  9
$ATTMODE
 70
     1
  9
$TEXTSIZE
 40
3.5
  9
$TRACEWID
 40
1.0
  9
$TEXTSTYLE
  7
Standard
  9
$CLAYER
  8
0
  9
$CELTYPE
  6
ByLayer
  9
$CECOLOR
 62
   256
  9
$CELTSCALE
 40
1.0
  9
$DISPSILH
 70
     0
  9
$DIMSCALE
 40
1.0
  9
$DIMASZ
 40
3.302
  9
$DIMEXO
 40
1.0
  9
$DIMDLI
 40
3.75
  9
$DIMRND
 40
0.0
  9
$DIMDLE
 40
0.0
  9
$DIMEXE
 40
1.0
  9
$DIMTP
 40
0.0
  9
$DIMTM
 40
0.0
  9
$DIMTXT
 40
3.5
  9
$DIMCEN
 40
2.5
  9
$DIMTSZ
 40
0.0
  9
$DIMTOL
 70
     0
  9
$DIMLIM
 70
     0
  9
$DIMTIH
 70
     1
  9
$DIMTOH
 70
     1
  9
$DIMSE1
 70
     0
  9
$DIMSE2
 70
     0
  9
$DIMTAD
 70
     1
  9
$DIMZIN
 70
     0
  9
$DIMBLK
  1

  9
$DIMASO
 70
     1
  9
$DIMSHO
 70
     1
  9
$DIMPOST
  1

  9
$DIMAPOST
  1

  9
$DIMALT
 70
     0
  9
$DIMALTD
 70
     3
  9
$DIMALTF
 40
0.0393700787401575
  9
$DIMLFAC
 40
1.0
  9
$DIMTOFL
 70
     1
  9
$DIMTVP
 40
0.0
  9
$DIMTIX
 70
     0
  9
$DIMSOXD
 70
     0
  9
$DIMSAH
 70
     0
  9
$DIMBLK1
  1

  9
$DIMBLK2
  1

  9
$DIMSTYLE
  2
ISO-25
  9
$DIMCLRD
 70
     0
  9
$DIMCLRE
 70
     0
  9
$DIMCLRT
 70
     0
  9
$DIMTFAC
 40
1.0
  9
$DIMGAP
 40
1.524
  9
$DIMJUST
 70
     0
  9
$DIMSD1
 70
     0
  9
$DIMSD2
 70
     0
  9
$DIMTOLJ
 70
     0
  9
$DIMTZIN
 70
     0
  9
$DIMALTZ
 70
     0
  9
$DIMALTTZ
 70
     0
  9
$DIMUPT
 70
     0
  9
$DIMDEC
 70
     2
  9
$DIMTDEC
 70
     2
  9
$DIMALTU
 70
     2
  9
$DIMALTTD
 70
     3
  9
$DIMTXSTY
  7
Standard
  9
$DIMAUNIT
 70
     0
  9
$DIMADEC
 70
     2
  9
$DIMALTRND
 40
0.0
  9
$DIMAZIN
 70
     0
  9
$DIMDSEP
 70
    44
  9
$DIMATFIT
 70
     3
  9
$DIMFRAC
 70
     0
  9
$DIMLDRBLK
  1

  9
$DIMLUNIT
 70
     2
  9
$DIMLWD
 70
    -2
  9
$DIMLWE
 70
    -2
  9
$DIMTMOVE
 70
     0
  9
$LUNITS
 70
     2
  9
$LUPREC
 70
     2
  9
$SKETCHINC
 40
1.0
  9
$FILLETRAD
 40
10.0
  9
$AUNITS
 70
     0
  9
$AUPREC
 70
     2
  9
$MENU
  1
.
  9
$ELEVATION
 40
0.0
  9
$PELEVATION
 40
0.0
  9
$THICKNESS
 40
0.0
  9
$LIMCHECK
 70
     0
  9
$CHAMFERA
 40
0.0
  9
$CHAMFERB
 40
0.0
  9
$CHAMFERC
 40
0.0
  9
$CHAMFERD
 40
0.0
  9
$SKPOLY
 70
     0
  9
$TDCREATE
 40
2458260.775157697
  9
$TDUCREATE
 40
2458260.400157697
  9
$TDUPDATE
 40
2459677.751574607
  9
$TDUUPDATE
 40
2459677.376574607
  9
$TDINDWG
 40
0.0016906481
  9
$TDUSRTIMER
 40
0.000323831
  9
$USRTIMER
 70
     1
  9
$ANGBASE
 50
0.0
  9
$ANGDIR
 70
     0
  9
$PDMODE
 70
     0
  9
$PDSIZE
 40
-1.0
  9
$PLINEWID
 40
0.0
  9
$SPLFRAME
 70
     0
  9
$SPLINETYPE
 70
     6
  9
$SPLINESEGS
 70
     8
  9
$HANDSEED
  5
199
  9
$SURFTAB1
 70
     6
  9
$SURFTAB2
 70
     6
  9
$SURFTYPE
 70
     6
  9
$SURFU
 70
     6
  9
$SURFV
 70
     6
  9
$UCSBASE
  2

  9
$UCSNAME
  2

  9
$UCSORG
 10
0.0
 20
0.0
 30
0.0
  9
$UCSXDIR
 10
1.0
 20
0.0
 30
0.0
  9
$UCSYDIR
 10
0.0
 20
1.0
 30
0.0
  9
$UCSORTHOREF
  2

  9
$UCSORTHOVIEW
 70
     0
  9
$UCSORGTOP
 10
0.0
 20
0.0
 30
0.0
  9
$UCSORGBOTTOM
 10
0.0
 20
0.0
 30
0.0
  9
$UCSORGLEFT
 10
0.0
 20
0.0
 30
0.0
  9
$UCSORGRIGHT
 10
0.0
 20
0.0
 30
0.0
  9
$UCSORGFRONT
 10
0.0
 20
0.0
 30
0.0
  9
$UCSORGBACK
 10
0.0
 20
0.0
 30
0.0
  9
$PUCSBASE
  2

  9
$PUCSNAME
  2

  9
$PUCSORG
 10
0.0
 20
0.0
 30
0.0
  9
$PUCSXDIR
 10
1.0
 20
0.0
 30
0.0
  9
$PUCSYDIR
 10
0.0
 20
1.0
 30
0.0
  9
$PUCSORTHOREF
  2

  9
$PUCSORTHOVIEW
 70
     0
  9
$PUCSORGTOP
 10
0.0
 20
0.0
 30
0.0
  9
$PUCSORGBOTTOM
 10
0.0
 20
0.0
 30
0.0
  9
$PUCSORGLEFT
 10
0.0
 20
0.0
 30
0.0
  9
$PUCSORGRIGHT
 10
0.0
 20
0.0
 30
0.0
  9
$PUCSORGFRONT
 10
0.0
 20
0.0
 30
0.0
  9
$PUCSORGBACK
 10
0.0
 20
0.0
 30
0.0
  9
$USERI1
 70
     0
  9
$USERI2
 70
     0
  9
$USERI3
 70
     0
  9
$USERI4
 70
     0
  9
$USERI5
 70
     0
  9
$USERR1
 40
0.0
  9
$USERR2
 40
0.0
  9
$USERR3
 40
0.0
  9
$USERR4
 40
0.0
  9
$USERR5
 40
0.0
  9
$WORLDVIEW
 70
     1
  9
$SHADEDGE
 70
     3
  9
$SHADEDIF
 70
    70
  9
$TILEMODE
 70
     1
  9
$MAXACTVP
 70
    64
  9
$PINSBASE
 10
0.0
 20
0.0
 30
0.0
  9
$PLIMCHECK
 70
     0
  9
$PEXTMIN
 10
1.000000000000000E+20
 20
1.000000000000000E+20
 30
1.000000000000000E+20
  9
$PEXTMAX
 10
-1.000000000000000E+20
 20
-1.000000000000000E+20
 30
-1.000000000000000E+20
  9
$PLIMMIN
 10
0.0
 20
0.0
  9
$PLIMMAX
 10
0.0
 20
0.0
  9
$UNITMODE
 70
     0
  9
$VISRETAIN
 70
     1
  9
$PLINEGEN
 70
     0
  9
$PSLTSCALE
 70
     1
  9
$TREEDEPTH
 70
  3020
  9
$CMLSTYLE
  2
Standard
  9
$CMLJUST
 70
     0
  9
$CMLSCALE
 40
20.0
  9
$PROXYGRAPHICS
 70
     1
  9
$MEASUREMENT
 70
     1
  9
$CELWEIGHT
370
    -1
  9
$ENDCAPS
280
     0
  9
$JOINSTYLE
280
     0
  9
$LWDISPLAY
290
     1
  9
$INSUNITS
 70
     4
  9
$HYPERLINKBASE
  1

  9
$STYLESHEET
  1

  9
$XEDIT
290
     1
  9
$CEPSNTYPE
380
     0
  9
$PSTYLEMODE
290
     1
  9
$FINGERPRINTGUID
  2
{B32A7A0F-E868-4E10-890D-5492129ACA6E}
  9
$VERSIONGUID
  2
{FAEB1C32-E019-11D5-929B-00C0DF256EC4}
  9
$EXTNAMES
290
     1
  9
$PSVPSCALE
 40
0.0
  9
$OLESTARTUP
290
     0
  0
ENDSEC
  0
SECTION
  2
CLASSES
  0
CLASS
  1
ACDBDICTIONARYWDFLT
  2
AcDbDictionaryWithDefault
  3
ObjectDBX Classes
 90
        0
280
     0
281
     0
  0
CLASS
  1
VISUALSTYLE
  2
AcDbVisualStyle
  3
ObjectDBX Classes
 90
     4095
280
     0
281
     0
  0
CLASS
  1
MATERIAL
  2
AcDbMaterial
  3
ObjectDBX Classes
 90
     1153
280
     0
281
     0
  0
CLASS
  1
SCALE
  2
AcDbScale
  3
ObjectDBX Classes
 90
     1153
280
     0
281
     0
  0
CLASS
  1
TABLESTYLE
  2
AcDbTableStyle
  3
ObjectDBX Classes
 90
     4095
280
     0
281
     0
  0
CLASS
  1
MLEADERSTYLE
  2
AcDbMLeaderStyle
  3
ACDB_MLEADERSTYLE_CLASS
 90
     4095
280
     0
281
     0
  0
CLASS
  1
SUN
  2
AcDbSun
  3
SCENEOE
 90
     1153
280
     0
281
     0
  0
CLASS
  1
ACDBPLACEHOLDER
  2
AcDbPlaceHolder
  3
ObjectDBX Classes
 90
        0
280
     0
281
     0
  0
CLASS
  1
LAYOUT
  2
AcDbLayout
  3
ObjectDBX Classes
 90
        0
280
     0
281
     0
  0
CLASS
  1
DICTIONARYVAR
  2
AcDbDictionaryVar
  3
ObjectDBX Classes
 90
        0
280
     0
281
     0
  0
ENDSEC
  0
SECTION
  2
TABLES
  0
TABLE
  2
VPORT
  5
8
330
0
100
AcDbSymbolTable
 70
     1
  0
VPORT
  5
29
330
8
100
AcDbSymbolTableRecord
100
AcDbViewportTableRecord
  2
*Active
 70
     0
 10
0.0
 20
0.0
 11
1.0
 21
1.0
 12
-37.90046928876005
 22
4.909945204789615
 13
0.0
 23
0.0
 14
10.0
 24
10.0
 15
10.0
 25
10.0
 16
0.0
 26
0.0
 36
1.0
 17
0.0
 27
0.0
 37
0.0
 40
86.62274216871606
 41
1.531481481481481
 42
50.0
 43
0.0
 44
0.0
 50
0.0
 51
0.0
 71
    16
 72
  2000
 73
     1
 74
     3
 75
     0
 76
     0
 77
     0
 78
     0
281
     0
 65
     1
110
0.0
120
0.0
130
0.0
111
1.0
121
0.0
131
0.0
112
0.0
122
1.0
132
0.0
 79
     0
146
0.0
  0
ENDTAB
  0
TABLE
  2
LTYPE
  5
5
330
0
100
AcDbSymbolTable
 70
     6
  0
LTYPE
  5
14
330
5
100
AcDbSymbolTableRecord
100
AcDbLinetypeTableRecord
  2
ByBlock
 70
     0
  3

 72
    65
 73
     0
 40
0.0
  0
LTYPE
  5
15
330
5
100
AcDbSymbolTableRecord
100
AcDbLinetypeTableRecord
  2
ByLayer
 70
     0
  3

 72
    65
 73
     0
 40
0.0
  0
LTYPE
  5
16
330
5
100
AcDbSymbolTableRecord
100
AcDbLinetypeTableRecord
  2
Continuous
 70
     0
  3
Solid line
 72
    65
 73
     0
 40
0.0
  0
LTYPE
  5
6E
330
5
100
AcDbSymbolTableRecord
100
AcDbLinetypeTableRecord
  2
HIDDEN
 70
     0
  3
Hidden __ __ __ __ __ __ __ __ __ __ __ __ __ __
 72
    65
 73
     2
 40
1.905
 49
1.27
 74
     0
 49
-0.635
 74
     0
  0
LTYPE
  5
6F
330
5
100
AcDbSymbolTableRecord
100
AcDbLinetypeTableRecord
  2
PHANTOM
 70
     0
  3
Phantom ______  __  __  ______  __  __  ______
 72
    65
 73
     6
 40
12.7
 49
6.35
 74
     0
 49
-1.27
 74
     0
 49
1.27
 74
     0
 49
-1.27
 74
     0
 49
1.27
 74
     0
 49
-1.27
 74
     0
  0
LTYPE
  5
70
330
5
100
AcDbSymbolTableRecord
100
AcDbLinetypeTableRecord
  2
CENTER
 70
     0
  3
Center ____ _ ____ _ ____ _ ____ _ ____ _ ____
 72
    65
 73
     4
 40
10.16
 49
6.35
 74
     0
 49
-1.27
 74
     0
 49
1.27
 74
     0
 49
-1.27
 74
     0
  0
LTYPE
  5
71
330
5
100
AcDbSymbolTableRecord
100
AcDbLinetypeTableRecord
  2
CENTERX2
 70
     0
  3
Center (2x) ________  __  ________  __  _____
 72
    65
 73
     4
 40
20.32
 49
12.7
 74
     0
 49
-2.54
 74
     0
 49
2.54
 74
     0
 49
-2.54
 74
     0
  0
LTYPE
  5
72
330
5
100
AcDbSymbolTableRecord
100
AcDbLinetypeTableRecord
  2
DOT2
 70
     0
  3
Dot (.5x) ........................................
 72
    65
 73
     2
 40
0.635
 49
0.0
 74
     0
 49
-0.635
 74
     0
  0
ENDTAB
  0
TABLE
  2
LAYER
  5
2
330
0
100
AcDbSymbolTable
 70
    17
  0
LAYER
  5
10
330
2
100
AcDbSymbolTableRecord
100
AcDbLayerTableRecord
  2
0
 70
     0
 62
     7
  6
Continuous
370
    -3
390
F
  0
LAYER
  5
73
330
2
100
AcDbSymbolTableRecord
100
AcDbLayerTableRecord
  2
FORMAT
 70
     0
 62
     2
  6
Continuous
370
    -3
390
F
  0
LAYER
  5
74
330
2
100
AcDbSymbolTableRecord
100
AcDbLayerTableRecord
  2
외형선
 70
     0
 62
   100
  6
Continuous
370
    35
390
F
  0
LAYER
  5
75
330
2
100
AcDbSymbolTableRecord
100
AcDbLayerTableRecord
  2
숨은선
 70
     0
 62
     2
  6
HIDDEN
370
    25
390
F
  0
LAYER
  5
76
330
2
100
AcDbSymbolTableRecord
100
AcDbLayerTableRecord
  2
중심선
 70
     0
 62
     1
  6
CENTERX2
370
    -3
390
F
  0
LAYER
  5
77
330
2
100
AcDbSymbolTableRecord
100
AcDbLayerTableRecord
  2
파단선
 70
     0
 62
     4
  6
Continuous
370
    -3
390
F
  0
LAYER
  5
78
330
2
100
AcDbSymbolTableRecord
100
AcDbLayerTableRecord
  2
해칭선
 70
     0
 62
   100
  6
Continuous
370
    -3
390
F
  0
LAYER
  5
79
330
2
100
AcDbSymbolTableRecord
100
AcDbLayerTableRecord
  2
가는실선
 70
     0
 62
     4
  6
Continuous
370
    -3
390
F
  0
LAYER
  5
7A
330
2
100
AcDbSymbolTableRecord
100
AcDbLayerTableRecord
  2
치수_보조선
 70
     0
 62
     4
  6
Continuous
370
    -3
390
F
  0
LAYER
  5
7B
330
2
100
AcDbSymbolTableRecord
100
AcDbLayerTableRecord
  2
치수문자_일반주서
 70
     0
 62
     7
  6
Continuous
370
    25
390
F
  0
LAYER
  5
7C
330
2
100
AcDbSymbolTableRecord
100
AcDbLayerTableRecord
  2
개별주서
 70
     0
 62
   100
  6
Continuous
370
    35
390
F
  0
LAYER
  5
7D
330
2
100
AcDbSymbolTableRecord
100
AcDbLayerTableRecord
  2
중간선
 70
     0
 62
     2
  6
Continuous
370
    25
390
F
  0
LAYER
  5
7E
330
2
100
AcDbSymbolTableRecord
100
AcDbLayerTableRecord
  2
윤곽선
 70
     0
 62
     3
  6
Continuous
370
    50
390
F
  0
LAYER
  5
7F
330
2
100
AcDbSymbolTableRecord
100
AcDbLayerTableRecord
  2
중심마크
 70
     0
 62
   100
  6
Continuous
370
    35
390
F
  0
LAYER
  5
80
330
2
100
AcDbSymbolTableRecord
100
AcDbLayerTableRecord
  2
가상선
 70
     0
 62
     4
  6
PHANTOM
370
    -3
390
F
  0
LAYER
  5
81
330
2
100
AcDbSymbolTableRecord
100
AcDbLayerTableRecord
  2
특수지정선
 70
     0
 62
     5
  6
CENTERX2
370
    70
390
F
  0
LAYER
  5
15D
330
2
100
AcDbSymbolTableRecord
100
AcDbLayerTableRecord
  2
Defpoints
 70
     0
 62
     7
  6
Continuous
290
     0
370
    -3
390
F
  0
ENDTAB
  0
TABLE
  2
STYLE
  5
3
330
0
100
AcDbSymbolTable
 70
     2
  0
STYLE
  5
11
330
3
100
AcDbSymbolTableRecord
100
AcDbTextStyleTableRecord
  2
Standard
 70
     0
 40
0.0
 41
1.0
 50
0.0
 71
     0
 42
3.5
  3
txt
  4

  0
STYLE
  5
97
330
3
100
AcDbSymbolTableRecord
100
AcDbTextStyleTableRecord
  2
SLDTEXTSTYLE0
 70
     0
 40
0.0
 41
0.75
 50
0.0
 71
     0
 42
3.5
  3
TXT
  4

  0
ENDTAB
  0
TABLE
  2
VIEW
  5
6
330
0
100
AcDbSymbolTable
 70
     0
  0
ENDTAB
  0
TABLE
  2
UCS
  5
7
330
0
100
AcDbSymbolTable
 70
     0
  0
ENDTAB
  0
TABLE
  2
APPID
  5
9
330
0
100
AcDbSymbolTable
 70
     2
  0
APPID
  5
12
330
9
100
AcDbSymbolTableRecord
100
AcDbRegAppTableRecord
  2
ACAD
 70
     0
  0
APPID
  5
15B
330
9
100
AcDbSymbolTableRecord
100
AcDbRegAppTableRecord
  2
PE_URL
 70
     0
  0
ENDTAB
  0
TABLE
  2
DIMSTYLE
  5
A
330
0
100
AcDbSymbolTable
 70
     5
100
AcDbDimStyleTable
  0
DIMSTYLE
105
27
330
A
100
AcDbSymbolTableRecord
100
AcDbDimStyleTableRecord
  2
ISO-25
 70
     0
 41
2.5
 42
0.625
 43
3.75
 44
1.25
 73
     0
 74
     0
 77
     1
 78
     8
140
2.5
141
2.5
143
0.03937007874016
147
0.625
171
     3
172
     1
178
     0
271
     2
272
     2
274
     3
278
    44
283
     0
284
     8
340
11
  0
DIMSTYLE
105
F5
102
{ACAD_REACTORS
330
F4
102
}
330
A
100
AcDbSymbolTableRecord
100
AcDbDimStyleTableRecord
  2
SLDDIMSTYLE0
 70
     0
 41
3.302
 44
0.0
 45
0.000000001
 73
     0
 74
     0
 77
     1
 78
    12
 79
     3
140
3.5
147
0.875
172
     1
173
     1
178
     0
271
     1
272
     1
276
     2
284
    12
289
     0
340
97
  0
DIMSTYLE
105
103
102
{ACAD_REACTORS
330
102
330
128
102
}
330
A
100
AcDbSymbolTableRecord
100
AcDbDimStyleTableRecord
  2
SLDDIMSTYLE1
 70
     0
 41
3.302
 44
0.0
 45
0.000000001
 73
     0
 74
     0
 77
     1
 78
    12
 79
     3
140
3.5
147
0.875
173
     1
178
     0
271
     2
272
     2
276
     2
284
    12
340
97
  0
DIMSTYLE
105
10E
102
{ACAD_REACTORS
330
10D
102
}
330
A
100
AcDbSymbolTableRecord
100
AcDbDimStyleTableRecord
  2
SLDDIMSTYLE2
 70
     0
 41
3.302
 44
0.0
 45
0.000000001
 73
     0
 74
     0
 77
     1
 78
    12
 79
     3
140
3.5
147
0.875
172
     1
173
     1
178
     0
271
     2
272
     2
276
     2
284
    12
289
     0
340
97
  0
DIMSTYLE
105
11C
102
{ACAD_REACTORS
330
11B
102
}
330
A
100
AcDbSymbolTableRecord
100
AcDbDimStyleTableRecord
  2
SLDDIMSTYLE3
 70
     0
 41
3.302
 44
0.0
 45
0.000000001
 73
     0
 74
     0
 77
     1
 78
     4
 79
     1
140
3.5
147
0.875
172
     1
173
     1
178
     0
271
     2
272
     2
276
     2
284
    12
289
     0
340
97
  0
ENDTAB
  0
TABLE
  2
BLOCK_RECORD
  5
1
330
0
100
AcDbSymbolTable
 70
     8
  0
BLOCK_RECORD
  5
1F
102
{ACAD_XDICTIONARY
360
196
102
}
330
1
100
AcDbSymbolTableRecord
100
AcDbBlockTableRecord
  2
*Model_Space
340
22
  0
BLOCK_RECORD
  5
1B
330
1
100
AcDbSymbolTableRecord
100
AcDbBlockTableRecord
  2
*Paper_Space
340
1E
  0
BLOCK_RECORD
  5
23
330
1
100
AcDbSymbolTableRecord
100
AcDbBlockTableRecord
  2
*Paper_Space0
340
26
  0
BLOCK_RECORD
  5
82
330
1
100
AcDbSymbolTableRecord
100
AcDbBlockTableRecord
  2
블럭10
340
0
102
{BLKREFS
331
ED
102
}
  0
BLOCK_RECORD
  5
F6
330
1
100
AcDbSymbolTableRecord
100
AcDbBlockTableRecord
  2
_D
340
0
  0
BLOCK_RECORD
  5
104
330
1
100
AcDbSymbolTableRecord
100
AcDbBlockTableRecord
  2
_D_1
340
0
  0
BLOCK_RECORD
  5
10F
330
1
100
AcDbSymbolTableRecord
100
AcDbBlockTableRecord
  2
_D_2
340
0
  0
BLOCK_RECORD
  5
11D
330
1
100
AcDbSymbolTableRecord
100
AcDbBlockTableRecord
  2
_D_3
340
0
  0
BLOCK_RECORD
  5
129
330
1
100
AcDbSymbolTableRecord
100
AcDbBlockTableRecord
  2
_D_4
340
0
  0
BLOCK_RECORD
  5
132
330
1
100
AcDbSymbolTableRecord
100
AcDbBlockTableRecord
  2
SW_DOWELSYMBOL_0
340
0
102
{BLKREFS
331
138
102
}
  0
ENDTAB
  0
ENDSEC
  0
SECTION
  2
BLOCKS
  0
BLOCK
  5
20
330
1F
100
AcDbEntity
  8
0
100
AcDbBlockBegin
  2
*Model_Space
 70
     0
 10
0.0
 20
0.0
 30
0.0
  3
*Model_Space
  1

  0
ENDBLK
  5
21
330
1F
100
AcDbEntity
  8
0
100
AcDbBlockEnd
  0
BLOCK
  5
1C
330
1B
100
AcDbEntity
 67
     1
  8
0
100
AcDbBlockBegin
  2
*Paper_Space
 70
     0
 10
0.0
 20
0.0
 30
0.0
  3
*Paper_Space
  1

  0
ENDBLK
  5
1D
330
1B
100
AcDbEntity
 67
     1
  8
0
100
AcDbBlockEnd
  0
BLOCK
  5
24
330
23
100
AcDbEntity
  8
0
100
AcDbBlockBegin
  2
*Paper_Space0
 70
     0
 10
0.0
 20
0.0
 30
0.0
  3
*Paper_Space0
  1

  0
ENDBLK
  5
25
330
23
100
AcDbEntity
  8
0
100
AcDbBlockEnd
  0
BLOCK
  5
83
330
82
100
AcDbEntity
  8
0
100
AcDbBlockBegin
  2
블럭10
 70
     2
 10
0.0
 20
0.0
 30
0.0
  3
블럭10
  1

  0
ELLIPSE
  5
85
330
82
100
AcDbEntity
  8
중심선
100
AcDbEllipse
 10
20.54032771741204
 20
12.0471743016438
 30
0.0
 11
6.600054785286829
 21
-1.261213355974178E-13
 31
0.0
210
0.0
220
0.0
230
1.0
 40
0.636358354079598
 41
0.9219305317359503
 42
6.513795318482858
  0
ELLIPSE
  5
86
330
82
100
AcDbEntity
  8
중심선
100
AcDbEllipse
 10
20.54032771746488
 20
12.04717430159265
 30
0.0
 11
3.960054785062283
 21
1.540847449632565E-10
 31
0.0
210
0.0
220
0.0
230
1.0
 40
0.3939339440162632
 41
1.131841032648279
 42
5.62031148352944
  0
LINE
  5
87
330
82
100
AcDbEntity
  8
중심선
100
AcDbLine
 10
2.268634060543552
 20
16.24717430164393
 30
0.0
 11
5.714909304380834
 21
16.24717430164393
 31
0.0
  0
LINE
  5
88
330
82
100
AcDbEntity
  8
중심선
100
AcDbLine
 10
5.245725140726316
 20
7.84717430164391
 30
0.0
 11
8.692000384563599
 21
7.84717430164391
 31
0.0
  0
LINE
  5
89
330
82
100
AcDbEntity
  8
중심선
100
AcDbLine
 10
15.74043728645272
 20
16.24717430164393
 30
0.0
 11
8.692000384563599
 21
7.84717430164391
 31
0.0
  0
LINE
  5
8A
330
82
100
AcDbEntity
  8
중심선
100
AcDbLine
 10
0.1404042013395286
 20
13.71084872107135
 30
0.0
 11
3.58671253028996
 21
13.71088815037384
 31
0.0
  0
LINE
  5
8B
330
82
100
AcDbEntity
  8
중심선
100
AcDbLine
 10
2.750260043222114
 20
10.84717430164391
 30
0.0
 11
6.196535287059397
 21
10.84717430164391
 31
0.0
  0
LINE
  5
8C
330
82
100
AcDbEntity
  8
중심선
100
AcDbLine
 10
12.29416204261559
 20
16.24717430164393
 30
0.0
 11
5.245725140726316
 21
7.84717430164391
 31
0.0
  0
LINE
  5
8D
330
82
100
AcDbEntity
  8
중심선
100
AcDbLine
 10
10.72767329541681
 20
16.24717430164393
 30
0.0
 11
6.196535287059397
 21
10.84717430164391
 31
0.0
  0
LINE
  5
8E
330
82
100
AcDbEntity
  8
중심선
100
AcDbLine
 10
7.28139805157953
 20
16.24717430164393
 30
0.0
 11
2.750260043222114
 21
10.84717430164391
 31
0.0
  0
LINE
  5
8F
330
82
100
AcDbEntity
  8
중심선
100
AcDbLine
 10
5.714909304380834
 20
16.24717430164393
 30
0.0
 11
3.58671253028996
 21
13.71088815037384
 31
0.0
  0
LINE
  5
90
330
82
100
AcDbEntity
  8
중심선
100
AcDbLine
 10
2.268634060543552
 20
16.24717430164393
 30
0.0
 11
0.1404042013395286
 21
13.71084872107135
 31
0.0
  0
LINE
  5
91
330
82
100
AcDbEntity
  8
중심선
100
AcDbLine
 10
7.28139805157953
 20
16.24717430164393
 30
0.0
 11
10.72767329541681
 21
16.24717430164393
 31
0.0
  0
LINE
  5
92
330
82
100
AcDbEntity
  8
중심선
100
AcDbLine
 10
12.29416204261559
 20
16.24717430164393
 30
0.0
 11
15.74043728645272
 21
16.24717430164393
 31
0.0
  0
LINE
  5
93
330
82
100
AcDbEntity
  8
중심선
100
AcDbLine
 10
19.22036997980202
 20
11.08717430171403
 30
0.0
 11
23.66174974927406
 21
11.08717430171406
 31
0.0
  0
LINE
  5
94
330
82
100
AcDbEntity
  8
중심선
100
AcDbLine
 10
19.22039502424796
 20
13.00717430171391
 30
0.0
 11
19.22036997980202
 21
11.08717430171403
 31
0.0
  0
LINE
  5
95
330
82
100
AcDbEntity
  8
중심선
100
AcDbLine
 10
19.22039502424796
 20
13.00717430171391
 30
0.0
 11
26.96566020931264
 21
13.00717430171391
 31
0.0
  0
LINE
  5
96
330
82
100
AcDbEntity
  8
중심선
100
AcDbLine
 10
22.22332737316547
 20
13.45928029700563
 30
0.0
 11
24.52862924686651
 21
15.39360700705356
 31
0.0
  0
ATTDEF
  5
98
330
82
100
AcDbEntity
  8
FORMAT
 62
     2
100
AcDbText
 10
-16.11926103943555
 20
2.075366912832191
 30
0.0
 40
4.233333333333333
  1
SEME7301230E [ 4 FLUTE ]
 41
0.75
  7
SLDTEXTSTYLE0
 11
-16.11926103943555
 21
-0.0412997538344756
 31
0.0
100
AcDbAttributeDefinition
  3

  2
AUTOATTR0
 70
     0
 74
     1
  0
ENDBLK
  5
84
330
82
100
AcDbEntity
  8
0
100
AcDbBlockEnd
  0
BLOCK
  5
F7
330
F6
100
AcDbEntity
  8
0
100
AcDbBlockBegin
  2
_D
 70
     0
 10
0.0
 20
0.0
 30
0.0
  3
_D
  1

  0
LINE
  5
F9
330
F6
100
AcDbEntity
  8
치수문자_일반주서
 62
     0
370
    -2
100
AcDbLine
 10
35.38067240078567
 20
-0.6000000000000026
 30
0.0
 11
47.39545428743689
 21
-0.5999999999999588
 31
0.0
  0
LINE
  5
FA
330
F6
100
AcDbEntity
  8
치수문자_일반주서
 62
     0
370
    -2
100
AcDbLine
 10
35.38067240078567
 20
0.6000000000000049
 30
0.0
 11
47.39545428743688
 21
0.6000000000000494
 31
0.0
  0
LINE
  5
FB
330
F6
100
AcDbEntity
  8
치수문자_일반주서
 62
     0
370
    -2
100
AcDbLine
 10
47.39545428743688
 20
0.6000000000000494
 30
0.0
 11
47.39545428743679
 21
15.95400000000005
 31
0.0
  0
LINE
  5
FC
330
F6
100
AcDbEntity
  8
치수문자_일반주서
 62
     0
370
    -2
100
AcDbLine
 10
47.39545428743689
 20
-0.5999999999999588
 30
0.0
 11
47.39545428743688
 21
0.6000000000000494
 31
0.0
  0
LINE
  5
FD
330
F6
100
AcDbEntity
  8
치수문자_일반주서
 62
     0
370
    -2
100
AcDbLine
 10
47.39545428743691
 20
-3.901999999999959
 30
0.0
 11
47.39545428743693
 21
-7.203999999999959
 31
0.0
  0
LINE
  5
FE
330
F6
100
AcDbEntity
  8
치수문자_일반주서
 62
     0
370
    -2
100
AcDbLine
 10
47.39545428743686
 20
3.902000000000049
 30
0.0
 11
47.39545428743684
 21
7.204000000000049
 31
0.0
  0
SOLID
  5
FF
330
F6
100
AcDbEntity
  8
치수문자_일반주서
 62
     0
100
AcDbTrace
 10
47.94578762077025
 20
-3.901999999999956
 30
0.0
 11
46.84512095410358
 21
-3.901999999999962
 31
0.0
 12
47.39545428743689
 22
-0.5999999999999588
 32
0.0
 13
47.39545428743689
 23
-0.5999999999999588
 33
0.0
  0
SOLID
  5
100
330
F6
100
AcDbEntity
  8
치수문자_일반주서
 62
     0
100
AcDbTrace
 10
46.84512095410353
 20
3.902000000000046
 30
0.0
 11
47.9457876207702
 21
3.902000000000053
 31
0.0
 12
47.39545428743688
 22
0.6000000000000494
 32
0.0
 13
47.39545428743688
 23
0.6000000000000494
 33
0.0
  0
MTEXT
  5
101
330
F6
100
AcDbEntity
  8
치수문자_일반주서
 62
     0
100
AcDbMText
 10
43.02045428743682
 20
11.57900000000002
 30
0.0
 40
3.5
 41
0.0
 71
     2
 72
     1
  1
\A1;%%c1.2
  7
SLDTEXTSTYLE0
 11
-5.921189464667465E-15
 21
1.0
 31
0.0
 73
     1
 44
1.0
  0
POINT
  5
15E
330
F6
100
AcDbEntity
  8
Defpoints
 62
     0
100
AcDbPoint
 10
35.31817240078567
 20
-0.6000000000000029
 30
0.0
  0
POINT
  5
15F
330
F6
100
AcDbEntity
  8
Defpoints
 62
     0
100
AcDbPoint
 10
35.31817240078567
 20
0.6000000000000046
 30
0.0
  0
POINT
  5
160
330
F6
100
AcDbEntity
  8
Defpoints
 62
     0
100
AcDbPoint
 10
47.39545428743688
 20
0.6000000000000497
 30
0.0
  0
ENDBLK
  5
F8
330
F6
100
AcDbEntity
  8
0
100
AcDbBlockEnd
  0
BLOCK
  5
105
330
104
100
AcDbEntity
  8
0
100
AcDbBlockBegin
  2
_D_1
 70
     0
 10
0.0
 20
0.0
 30
0.0
  3
_D_1
  1

  0
LINE
  5
107
330
104
100
AcDbEntity
  8
치수문자_일반주서
 62
     0
370
    -2
100
AcDbLine
 10
-34.68182759921434
 20
1.562499999999993
 30
0.0
 11
-34.68182759921433
 21
36.00000000000003
 31
0.0
  0
LINE
  5
108
330
104
100
AcDbEntity
  8
치수문자_일반주서
 62
     0
370
    -2
100
AcDbLine
 10
35.31817240078567
 20
0.0025000000000006
 30
0.0
 11
35.31817240078568
 21
36.00000000000003
 31
0.0
  0
LINE
  5
109
330
104
100
AcDbEntity
  8
치수문자_일반주서
 62
     0
370
    -2
100
AcDbLine
 10
-31.37982759921433
 20
36.00000000000003
 30
0.0
 11
32.01617240078568
 21
36.00000000000003
 31
0.0
  0
SOLID
  5
10A
330
104
100
AcDbEntity
  8
치수문자_일반주서
 62
     0
100
AcDbTrace
 10
-31.37982759921433
 20
36.55033333333336
 30
0.0
 11
-31.37982759921433
 21
35.44966666666669
 31
0.0
 12
-34.68182759921433
 22
36.00000000000003
 32
0.0
 13
-34.68182759921433
 23
36.00000000000003
 33
0.0
  0
SOLID
  5
10B
330
104
100
AcDbEntity
  8
치수문자_일반주서
 62
     0
100
AcDbTrace
 10
32.01617240078568
 20
35.44966666666669
 30
0.0
 11
32.01617240078568
 21
36.55033333333336
 31
0.0
 12
35.31817240078568
 22
36.00000000000003
 32
0.0
 13
35.31817240078568
 23
36.00000000000003
 33
0.0
  0
MTEXT
  5
10C
330
104
100
AcDbEntity
  8
치수문자_일반주서
 62
     0
100
AcDbMText
 10
0.3181724007856701
 20
40.37500000000003
 30
0.0
 40
3.5
 41
0.0
 71
     2
 72
     1
  1
\A1;70
  7
SLDTEXTSTYLE0
 73
     1
 44
1.0
  0
POINT
  5
16C
330
104
100
AcDbEntity
  8
Defpoints
 62
     0
100
AcDbPoint
 10
-34.68182759921434
 20
1.499999999999993
 30
0.0
  0
POINT
  5
16D
330
104
100
AcDbEntity
  8
Defpoints
 62
     0
100
AcDbPoint
 10
35.31817240078567
 20
-0.0599999999999994
 30
0.0
  0
POINT
  5
16E
330
104
100
AcDbEntity
  8
Defpoints
 62
     0
100
AcDbPoint
 10
35.31817240078567
 20
36.00000000000003
 30
0.0
  0
ENDBLK
  5
106
330
104
100
AcDbEntity
  8
0
100
AcDbBlockEnd
  0
BLOCK
  5
110
330
10F
100
AcDbEntity
  8
0
100
AcDbBlockBegin
  2
_D_2
 70
     0
 10
0.0
 20
0.0
 30
0.0
  3
_D_2
  1

  0
LINE
  5
112
330
10F
100
AcDbEntity
  8
치수문자_일반주서
 62
     0
370
    -2
100
AcDbLine
 10
-34.24432759921434
 20
2.000000000000003
 30
0.0
 11
-48.17446716083421
 21
1.99999999999995
 31
0.0
  0
LINE
  5
113
330
10F
100
AcDbEntity
  8
치수문자_일반주서
 62
     0
370
    -2
100
AcDbLine
 10
-34.24432759921434
 20
-2.0
 30
0.0
 11
-48.1744671608342
 21
-2.000000000000053
 31
0.0
  0
LINE
  5
114
330
10F
100
AcDbEntity
  8
치수문자_일반주서
 62
     0
370
    -2
100
AcDbLine
 10
-48.1744671608342
 20
-1.30200000000005
 30
0.0
 11
-48.17446716083421
 21
1.301999999999947
 31
0.0
  0
SOLID
  5
115
330
10F
100
AcDbEntity
  8
치수문자_일반주서
 62
     0
100
AcDbTrace
 10
-47.62413382750086
 20
-1.302000000000048
 30
0.0
 11
-48.72480049416753
 21
-1.302000000000052
 31
0.0
 12
-48.17446716083421
 22
1.99999999999995
 32
0.0
 13
-48.17446716083421
 23
1.99999999999995
 33
0.0
  0
SOLID
  5
116
330
10F
100
AcDbEntity
  8
치수문자_일반주서
 62
     0
100
AcDbTrace
 10
-48.72480049416755
 20
1.301999999999945
 30
0.0
 11
-47.62413382750088
 21
1.301999999999949
 31
0.0
 12
-48.1744671608342
 22
-2.000000000000053
 32
0.0
 13
-48.1744671608342
 23
-2.000000000000053
 33
0.0
  0
MTEXT
  5
117
330
10F
100
AcDbEntity
  8
치수문자_일반주서
 62
     0
100
AcDbMText
 10
-52.5494671608342
 20
-0.7264638992030952
 30
0.0
 40
3.5
 41
0.0
 71
     2
 72
     1
  1
\A1;%%c4
  7
SLDTEXTSTYLE0
 11
-3.552713678800499E-15
 21
1.0
 31
0.0
 73
     1
 44
1.0
  0
POINT
  5
118
330
10F
100
AcDbEntity
  8
Defpoints
 62
     0
100
AcDbPoint
 10
-34.18182759921434
 20
2.000000000000003
 30
0.0
  0
POINT
  5
119
330
10F
100
AcDbEntity
  8
Defpoints
 62
     0
100
AcDbPoint
 10
-34.18182759921434
 20
-2.0
 30
0.0
  0
POINT
  5
11A
330
10F
100
AcDbEntity
  8
Defpoints
 62
     0
100
AcDbPoint
 10
-48.1744671608342
 20
-2.000000000000052
 30
0.0
  0
ENDBLK
  5
111
330
10F
100
AcDbEntity
  8
0
100
AcDbBlockEnd
  0
BLOCK
  5
11E
330
11D
100
AcDbEntity
  8
0
100
AcDbBlockBegin
  2
_D_3
 70
     0
 10
0.0
 20
0.0
 30
0.0
  3
_D_3
  1

  0
LINE
  5
120
330
11D
100
AcDbEntity
  8
치수문자_일반주서
 62
     0
370
    -2
100
AcDbLine
 10
33.51817240078567
 20
0.598122945824922
 30
0.0
 11
33.51817240078567
 21
16.29202629471356
 31
0.0
  0
LINE
  5
121
330
11D
100
AcDbEntity
  8
치수문자_일반주서
 62
     0
370
    -2
100
AcDbLine
 10
35.31817240078567
 20
0.067253677920376
 30
0.0
 11
35.31817240078567
 21
16.29202629471356
 31
0.0
  0
LINE
  5
122
330
11D
100
AcDbEntity
  8
치수문자_일반주서
 62
     0
370
    -2
100
AcDbLine
 10
33.51817240078567
 20
16.29202629471356
 30
0.0
 11
18.60167240078567
 21
16.29202629471356
 31
0.0
  0
LINE
  5
123
330
11D
100
AcDbEntity
  8
치수문자_일반주서
 62
     0
370
    -2
100
AcDbLine
 10
33.51817240078567
 20
16.29202629471356
 30
0.0
 11
35.31817240078567
 21
16.29202629471356
 31
0.0
  0
LINE
  5
124
330
11D
100
AcDbEntity
  8
치수문자_일반주서
 62
     0
370
    -2
100
AcDbLine
 10
30.21617240078567
 20
16.29202629471356
 30
0.0
 11
26.91417240078567
 21
16.29202629471356
 31
0.0
  0
LINE
  5
125
330
11D
100
AcDbEntity
  8
치수문자_일반주서
 62
     0
370
    -2
100
AcDbLine
 10
38.62017240078567
 20
16.29202629471356
 30
0.0
 11
41.92217240078567
 21
16.29202629471356
 31
0.0
  0
SOLID
  5
126
330
11D
100
AcDbEntity
  8
치수문자_일반주서
 62
     0
100
AcDbTrace
 10
30.21617240078567
 20
15.74169296138023
 30
0.0
 11
30.21617240078567
 21
16.84235962804689
 31
0.0
 12
33.51817240078567
 22
16.29202629471356
 32
0.0
 13
33.51817240078567
 23
16.29202629471356
 33
0.0
  0
SOLID
  5
127
330
11D
100
AcDbEntity
  8
치수문자_일반주서
 62
     0
100
AcDbTrace
 10
38.62017240078567
 20
16.84235962804689
 30
0.0
 11
38.62017240078567
 21
15.74169296138023
 31
0.0
 12
35.31817240078567
 22
16.29202629471356
 32
0.0
 13
35.31817240078567
 23
16.29202629471356
 33
0.0
  0
MTEXT
  5
168
330
11D
100
AcDbEntity
  8
치수문자_일반주서
 62
     0
100
AcDbMText
 10
22.75792240078567
 20
20.66702629471356
 30
0.0
 40
3.5
 41
0.0
 71
     2
 72
     1
  1
\A1;1.80
  7
SLDTEXTSTYLE0
 73
     1
 44
1.0
  0
POINT
  5
169
330
11D
100
AcDbEntity
  8
Defpoints
 62
     0
100
AcDbPoint
 10
33.51817240078567
 20
0.535622945824922
 30
0.0
  0
POINT
  5
16A
330
11D
100
AcDbEntity
  8
Defpoints
 62
     0
100
AcDbPoint
 10
35.31817240078567
 20
0.004753677920376
 30
0.0
  0
POINT
  5
16B
330
11D
100
AcDbEntity
  8
Defpoints
 62
     0
100
AcDbPoint
 10
35.31817240078567
 20
16.29202629471356
 30
0.0
  0
ENDBLK
  5
11F
330
11D
100
AcDbEntity
  8
0
100
AcDbBlockEnd
  0
BLOCK
  5
12A
330
129
100
AcDbEntity
  8
0
100
AcDbBlockBegin
  2
_D_4
 70
     0
 10
0.0
 20
0.0
 30
0.0
  3
_D_4
  1

  0
LINE
  5
12C
330
129
100
AcDbEntity
  8
치수문자_일반주서
 62
     0
370
    -2
100
AcDbLine
 10
35.31817240078567
 20
0.633743249674182
 30
0.0
 11
35.31817240078567
 21
25.27103277602837
 31
0.0
  0
LINE
  5
12D
330
129
100
AcDbEntity
  8
치수문자_일반주서
 62
     0
370
    -2
100
AcDbLine
 10
5.318172400785674
 20
0.6374999999999948
 30
0.0
 11
5.318172400785674
 21
25.27103277602837
 31
0.0
  0
LINE
  5
12E
330
129
100
AcDbEntity
  8
치수문자_일반주서
 62
     0
370
    -2
100
AcDbLine
 10
32.01617240078567
 20
25.27103277602837
 30
0.0
 11
8.620172400785673
 21
25.27103277602837
 31
0.0
  0
SOLID
  5
12F
330
129
100
AcDbEntity
  8
치수문자_일반주서
 62
     0
100
AcDbTrace
 10
32.01617240078567
 20
24.72069944269503
 30
0.0
 11
32.01617240078567
 21
25.8213661093617
 31
0.0
 12
35.31817240078567
 22
25.27103277602837
 32
0.0
 13
35.31817240078567
 23
25.27103277602837
 33
0.0
  0
SOLID
  5
130
330
129
100
AcDbEntity
  8
치수문자_일반주서
 62
     0
100
AcDbTrace
 10
8.620172400785673
 20
25.8213661093617
 30
0.0
 11
8.620172400785673
 21
24.72069944269503
 31
0.0
 12
5.318172400785674
 22
25.27103277602837
 32
0.0
 13
5.318172400785674
 23
25.27103277602837
 33
0.0
  0
MTEXT
  5
131
330
129
100
AcDbEntity
  8
치수문자_일반주서
 62
     0
100
AcDbMText
 10
20.99213928175075
 20
29.64603277602837
 30
0.0
 40
3.5
 41
0.0
 71
     2
 72
     1
  1
\A1;30
  7
SLDTEXTSTYLE0
 73
     1
 44
1.0
  0
POINT
  5
16F
330
129
100
AcDbEntity
  8
Defpoints
 62
     0
100
AcDbPoint
 10
35.31817240078567
 20
0.571243249674182
 30
0.0
  0
POINT
  5
170
330
129
100
AcDbEntity
  8
Defpoints
 62
     0
100
AcDbPoint
 10
5.318172400785674
 20
0.5749999999999948
 30
0.0
  0
POINT
  5
171
330
129
100
AcDbEntity
  8
Defpoints
 62
     0
100
AcDbPoint
 10
5.318172400785674
 20
25.27103277602837
 30
0.0
  0
ENDBLK
  5
12B
330
129
100
AcDbEntity
  8
0
100
AcDbBlockEnd
  0
BLOCK
  5
133
330
132
100
AcDbEntity
  8
0
100
AcDbBlockBegin
  2
SW_DOWELSYMBOL_0
 70
     0
 10
0.0
 20
0.0
 30
0.0
  3
SW_DOWELSYMBOL_0
  1

  0
CIRCLE
  5
135
330
132
100
AcDbEntity
  8
해칭선
 62
     0
100
AcDbCircle
 10
0.0
 20
0.0
 30
0.0
 40
3.000000000000003
  0
HATCH
  5
136
330
132
100
AcDbEntity
  8
0
  6
Continuous
 62
     0
370
    18
100
AcDbHatch
 10
0.0
 20
0.0
 30
0.0
210
0.0
220
0.0
230
1.0
  2
SOLID
 70
     1
 71
     0
 91
        1
 92
        0
 93
        3
 72
     2
 10
-0.0000000000000017
 20
-0.0000000000000035
 40
3.000000000000003
 50
0.0
 51
90.0
 73
     1
 72
     1
 10
-0.0000000000000017
 20
2.999999999999999
 11
-0.0000000000000017
 21
-0.0000000000000036
 72
     1
 10
-0.0000000000000017
 20
-0.0000000000000035
 11
3.000000000000001
 21
-0.0000000000000035
 97
        0
 75
     0
 76
     1
 98
        1
 10
0.0
 20
0.0
  0
HATCH
  5
137
330
132
100
AcDbEntity
  8
0
  6
Continuous
 62
     0
370
    18
100
AcDbHatch
 10
0.0
 20
0.0
 30
0.0
210
0.0
220
0.0
230
1.0
  2
SOLID
 70
     1
 71
     0
 91
        1
 92
        0
 93
        3
 72
     2
 10
-0.0000000000000017
 20
-0.0000000000000035
 40
3.000000000000003
 50
180.0
 51
270.0000000000007
 73
     1
 72
     1
 10
-0.0000000000000017
 20
-3.000000000000006
 11
-0.0000000000000017
 21
-0.0000000000000036
 72
     1
 10
-0.0000000000000017
 20
-0.0000000000000035
 11
-3.000000000000004
 21
-0.0000000000000035
 97
        0
 75
     0
 76
     1
 98
        1
 10
0.0
 20
0.0
  0
ENDBLK
  5
134
330
132
100
AcDbEntity
  8
0
100
AcDbBlockEnd
  0
ENDSEC
  0
SECTION
  2
ENTITIES
  0
LINE
  5
99
330
1F
100
AcDbEntity
  8
0
  6
Continuous
 62
     4
370
    25
100
AcDbLine
 10
0.0
 20
2.000000000000001
 30
0.0
 11
-34.18182759921434
 21
1.99999999999999
 31
0.0
  0
LINE
  5
9A
330
1F
100
AcDbEntity
  8
0
  6
Continuous
 62
     4
370
    25
100
AcDbLine
 10
-34.18182759921434
 20
-2.000000000000003
 30
0.0
 11
0.0
 21
-1.999999999999992
 31
0.0
  0
LINE
  5
9B
330
1F
100
AcDbEntity
  8
0
  6
Continuous
 62
     4
370
    25
100
AcDbLine
 10
-34.18182759921434
 20
1.999999999999993
 30
0.0
 11
-34.68182759921434
 21
1.499999999999993
 31
0.0
  0
LINE
  5
9C
330
1F
100
AcDbEntity
  8
0
  6
Continuous
 62
     4
370
    25
100
AcDbLine
 10
-34.68182759921434
 20
-1.500000000000006
 30
0.0
 11
-34.18182759921434
 21
-2.000000000000007
 31
0.0
  0
LINE
  5
9D
330
1F
100
AcDbEntity
  8
0
  6
Continuous
 62
     4
370
    25
100
AcDbLine
 10
0.0
 20
-1.999999999999992
 30
0.0
 11
5.318172400785674
 21
-0.5749999999999829
 31
0.0
  0
LINE
  5
9E
330
1F
100
AcDbEntity
  8
0
  6
Continuous
 62
     4
370
    25
100
AcDbLine
 10
5.318172400785674
 20
0.5749999999999951
 30
0.0
 11
0.0
 21
2.000000000000001
 31
0.0
  0
LINE
  5
9F
330
1F
100
AcDbEntity
  8
0
  6
Continuous
 62
     4
370
    25
100
AcDbLine
 10
33.00171391019627
 20
0.5750000000000024
 30
0.0
 11
5.318172400785674
 21
0.574999999999994
 31
0.0
  0
LINE
  5
A0
330
1F
100
AcDbEntity
  8
0
  6
Continuous
 62
     4
370
    25
100
AcDbLine
 10
5.318172400785674
 20
-0.5749999999999822
 30
0.0
 11
33.00171391019625
 21
-0.5749999999999738
 31
0.0
  0
LINE
  5
A1
330
1F
100
AcDbEntity
  8
0
  6
Continuous
 62
     1
370
    25
100
AcDbLine
 10
35.14114173549523
 20
-0.5999999999999981
 30
0.0
 11
35.15816613428282
 21
-0.5999999999999981
 31
0.0
1001
PE_URL
1000

  0
LINE
  5
A2
330
1F
100
AcDbEntity
  8
0
  6
Continuous
 62
     1
370
    25
100
AcDbLine
 10
35.16324127153253
 20
-0.0182142633179289
 30
0.0
 11
35.11989804034633
 21
0.0154988117252049
 31
0.0
1001
PE_URL
1000

  0
SPLINE
  5
A3
330
1F
100
AcDbEntity
  8
0
  6
Continuous
 62
     1
370
    25
100
AcDbSpline
210
0.0
220
0.0
230
1.0
 70
     8
 71
     3
 72
     9
 73
     5
 74
     0
 42
0.000000001
 43
0.00000001
 40
0.0511614648834543
 40
0.0511614648834543
 40
0.0511614648834543
 40
0.0511614648834543
 40
0.6513999249497039
 40
0.9999999999999999
 40
0.9999999999999999
 40
0.9999999999999999
 40
0.9999999999999999
 10
35.29304117698166
 20
-0.1152723245419017
 30
0.0
 10
35.26567296978592
 20
-0.0957502342229575
 30
0.0
 10
35.22240976509649
 20
-0.0647404801522349
 30
0.0
 10
35.17913885707944
 20
-0.0307150803532411
 30
0.0
 10
35.16324127153253
 20
-0.0182142633179289
 30
0.0
1001
PE_URL
1000

  0
LINE
  5
A4
330
1F
100
AcDbEntity
  8
0
  6
Continuous
 62
     4
370
    25
100
AcDbLine
 10
33.82001275690001
 20
0.2699342077724157
 30
0.0
 11
33.86698815683854
 21
0.2516036593859488
 31
0.0
  0
LINE
  5
A5
330
1F
100
AcDbEntity
  8
0
  6
Continuous
 62
     1
370
    25
100
AcDbLine
 10
33.90748408883785
 20
0.6000000000000016
 30
0.0
 11
33.88902502066927
 21
0.6000000000000016
 31
0.0
  0
LINE
  5
A6
330
1F
100
AcDbEntity
  8
0
  6
Continuous
 62
     4
370
    25
100
AcDbLine
 10
34.45705836499361
 20
0.4627316142513105
 30
0.0
 11
34.45703891559001
 21
0.4627525621004368
 31
0.0
  0
LINE
  5
A7
330
1F
100
AcDbEntity
  8
0
  6
Continuous
 62
     4
370
    25
100
AcDbLine
 10
34.45703891559001
 20
-0.4627525621004321
 30
0.0
 11
34.4570583649936
 21
-0.4627316142513058
 31
0.0
  0
LINE
  5
A8
330
1F
100
AcDbEntity
  8
0
  6
Continuous
 62
     1
370
    25
100
AcDbLine
 10
33.88902502066927
 20
-0.5999999999999981
 30
0.0
 11
33.90779764336972
 21
-0.5999999999999981
 31
0.0
  0
LINE
  5
AA
330
1F
100
AcDbEntity
  8
0
  6
Continuous
 62
     1
370
    25
100
AcDbLine
 10
35.15928892795684
 20
0.6000000000000016
 30
0.0
 11
35.14114173549523
 21
0.6000000000000016
 31
0.0
1001
PE_URL
1000

  0
LINE
  5
AB
330
1F
100
AcDbEntity
  8
0
  6
Continuous
 62
     4
370
    25
100
AcDbLine
 10
0.0
 20
1.999999999999992
 30
0.0
 11
0.0
 21
-1.999999999999992
 31
0.0
  0
LINE
  5
AC
330
1F
100
AcDbEntity
  8
0
  6
Continuous
 62
     4
370
    25
100
AcDbLine
 10
-34.18182759921434
 20
1.999999999999994
 30
0.0
 11
-34.18182759921434
 21
-2.000000000000005
 31
0.0
  0
LINE
  5
AD
330
1F
100
AcDbEntity
  8
0
  6
Continuous
 62
     4
370
    25
100
AcDbLine
 10
-34.68182759921434
 20
1.499999999999993
 30
0.0
 11
-34.68182759921434
 21
-1.500000000000006
 31
0.0
  0
LINE
  5
AE
330
1F
100
AcDbEntity
  8
0
  6
Continuous
 62
     4
370
    25
100
AcDbLine
 10
5.318172400785674
 20
0.5749999999999948
 30
0.0
 11
5.318172400785674
 21
-0.5749999999999829
 31
0.0
  0
SPLINE
  5
AF
330
1F
100
AcDbEntity
  8
0
  6
Continuous
 62
     4
370
    25
100
AcDbSpline
210
0.0
220
0.0
230
1.0
 70
    24
 71
     3
 72
    14
 73
    10
 74
     0
 42
0.000000001
 43
0.00000001
 40
0.0
 40
0.0
 40
0.0
 40
0.0
 40
0.25
 40
0.25
 40
0.5
 40
0.5
 40
0.75
 40
0.75
 40
1.0
 40
1.0
 40
1.0
 40
1.0
 10
33.51817240078567
 20
0.2551953505319362
 30
0.0
 10
33.51817240078567
 20
0.2323553370329246
 30
0.0
 10
33.51817240078567
 20
0.2047725751375765
 30
0.0
 10
33.51817240078567
 20
0.1301481146340799
 30
0.0
 10
33.51817240078567
 20
0.0835518423951874
 30
0.0
 10
33.51817240078567
 20
-0.0278576955571519
 30
0.0
 10
33.51817240078567
 20
-0.0929376589825594
 30
0.0
 10
33.51817240078567
 20
-0.225832246492403
 30
0.0
 10
33.51817240078567
 20
-0.2929280854496886
 30
0.0
 10
33.51817240078567
 20
-0.347536325214862
 30
0.0
  0
SPLINE
  5
B0
330
1F
100
AcDbEntity
  8
0
  6
Continuous
 62
     4
370
    25
100
AcDbSpline
210
0.0
220
0.0
230
1.0
 70
     8
 71
     3
 72
    14
 73
    10
 74
     0
 42
0.000000001
 43
0.00000001
 40
0.0
 40
0.0
 40
0.0
 40
0.0
 40
0.2499999999999999
 40
0.2499999999999999
 40
0.4999999999999999
 40
0.4999999999999999
 40
0.7499999999999999
 40
0.7499999999999999
 40
1.0
 40
1.0
 40
1.0
 40
1.0
 10
33.51817240078208
 20
-0.3475363252128078
 30
0.0
 10
33.45634456654732
 20
-0.3122124645152869
 30
0.0
 10
33.39349934272571
 20
-0.2735589973542043
 30
0.0
 10
33.27075398938328
 20
-0.1926949569765789
 30
0.0
 10
33.21241621204068
 20
-0.1508933161495154
 30
0.0
 10
33.09022117345367
 20
-0.0641220155684336
 30
0.0
 10
33.027437663421
 20
-0.0193781303223816
 30
0.0
 10
32.90346271827751
 20
0.0692928713921144
 30
0.0
 10
32.84374912107654
 20
0.1128553798487189
 30
0.0
 10
32.7837283835468
 20
0.1551323463115857
 30
0.0
  0
LINE
  5
B1
330
1F
100
AcDbEntity
  8
0
  6
Continuous
 62
     4
370
    25
100
AcDbLine
 10
32.79088216492393
 20
0.1529384883634159
 30
0.0
 11
32.78372838354711
 21
0.1551323463113669
 31
0.0
  0
SPLINE
  5
B2
330
1F
100
AcDbEntity
  8
0
  6
Continuous
 62
     4
370
    25
100
AcDbSpline
210
0.0
220
0.0
230
1.0
 70
     8
 71
     3
 72
    10
 73
     6
 74
     0
 42
0.000000001
 43
0.00000001
 40
0.0
 40
0.0
 40
0.0
 40
0.0
 40
0.5
 40
0.5
 40
1.0
 40
1.0
 40
1.0
 40
1.0
 10
33.51817240078208
 20
0.2551953505341444
 30
0.0
 10
33.42518024888871
 20
0.3149559849016536
 30
0.0
 10
33.32994149251513
 20
0.3698450928877384
 30
0.0
 10
33.15152961669439
 20
0.4608217268373928
 30
0.0
 10
33.05715657587486
 20
0.4988068042130261
 30
0.0
 10
32.96394406728811
 20
0.5258151383839705
 30
0.0
  0
SPLINE
  5
B3
330
1F
100
AcDbEntity
  8
0
  6
Continuous
 62
     4
370
    25
100
AcDbSpline
210
0.0
220
0.0
230
1.0
 70
     8
 71
     3
 72
    14
 73
    10
 74
     0
 42
0.000000001
 43
0.00000001
 40
0.0000000000000004
 40
0.0000000000000004
 40
0.0000000000000004
 40
0.0000000000000004
 40
0.0000514808473846
 40
0.0000514808473846
 40
0.0000514808473846
 40
0.0001028875534114
 40
0.0001028875534114
 40
0.0001028875534114
 40
0.0001587596474825
 40
0.0001587596474825
 40
0.0001587596474825
 40
0.0001587596474825
 10
32.78372838354743
 20
-0.5536776635624634
 30
0.0
 10
32.76987813582986
 20
-0.5509442497275369
 30
0.0
 10
32.75759817348595
 20
-0.5472540893291249
 30
0.0
 10
32.74787654533262
 20
-0.5425723761620829
 30
0.0
 10
32.73816211214113
 20
-0.5378941279236588
 30
0.0
 10
32.73075051072431
 20
-0.5320893499338215
 30
0.0
 10
32.72595433758994
 20
-0.5254003605788367
 30
0.0
 10
32.72073777667421
 20
-0.5181250768354273
 30
0.0
 10
32.71847874682676
 20
-0.5096381692440939
 30
0.0
 10
32.71847874682658
 20
-0.5004541639252378
 30
0.0
  0
SPLINE
  5
B4
330
1F
100
AcDbEntity
  8
0
  6
Continuous
 62
     4
370
    25
100
AcDbSpline
210
0.0
220
0.0
230
1.0
 70
     8
 71
     3
 72
     9
 73
     5
 74
     0
 42
0.000000001
 43
0.00000001
 40
0.0
 40
0.0
 40
0.0
 40
0.0
 40
0.5028429726787423
 40
1.0
 40
1.0
 40
1.0
 40
1.0
 10
33.43450971384885
 20
-0.4808514307849812
 30
0.0
 10
33.32533098537107
 20
-0.5193959547146085
 30
0.0
 10
33.10820807740601
 20
-0.5960491566561472
 30
0.0
 10
32.89147750877638
 20
-0.5677478547081355
 30
0.0
 10
32.78372838354682
 20
-0.5536776635623406
 30
0.0
  0
LINE
  5
B5
330
1F
100
AcDbEntity
  8
0
  6
Continuous
 62
     4
370
    25
100
AcDbLine
 10
33.43450971384887
 20
0.4808514307849856
 30
0.0
 11
33.51817240078208
 21
0.5152672443167338
 31
0.0
  0
SPLINE
  5
B6
330
1F
100
AcDbEntity
  8
0
  6
Continuous
 62
     4
370
    25
100
AcDbSpline
210
0.0
220
0.0
230
1.0
 70
     8
 71
     3
 72
     9
 73
     5
 74
     0
 42
0.000000001
 43
0.00000001
 40
0.0
 40
0.0
 40
0.0
 40
0.0
 40
0.7958016364446281
 40
1.0
 40
1.0
 40
1.0
 40
1.0
 10
33.51817240078208
 20
0.4580867850719625
 30
0.0
 10
33.3810734729814
 20
0.5129502353205966
 30
0.0
 10
33.20879570736483
 20
0.5818913479498006
 30
0.0
 10
33.03682919135234
 20
0.5675702310917274
 30
0.0
 10
33.00171391019627
 20
0.5646458824650237
 30
0.0
  0
LINE
  5
B7
330
1F
100
AcDbEntity
  8
0
  6
Continuous
 62
     4
370
    25
100
AcDbLine
 10
33.51817240078567
 20
0.4580867850704049
 30
0.0
 11
33.51817240078567
 21
0.2820866916901772
 31
0.0
  0
SPLINE
  5
B8
330
1F
100
AcDbEntity
  8
0
  6
Continuous
 62
     4
370
    25
100
AcDbSpline
210
0.0
220
0.0
230
1.0
 70
     8
 71
     3
 72
    12
 73
     8
 74
     0
 42
0.000000001
 43
0.00000001
 40
0.0
 40
0.0
 40
0.0
 40
0.0
 40
0.25
 40
0.25
 40
0.5
 40
0.5
 40
1.0
 40
1.0
 40
1.0
 40
1.0
 10
32.71847874683229
 20
0.4541502815804901
 30
0.0
 10
32.71847874683229
 20
0.4722717580322742
 30
0.0
 10
32.72431732585544
 20
0.4884416559679434
 30
0.0
 10
32.75088900999768
 20
0.5138131109992741
 30
0.0
 10
32.7716271704937
 20
0.5231305177744352
 30
0.0
 10
32.84844448066586
 20
0.5406230752730053
 30
0.0
 10
32.91572326770898
 20
0.5397871201358766
 30
0.0
 10
32.96394406728811
 20
0.5258151383839689
 30
0.0
  0
LINE
  5
B9
330
1F
100
AcDbEntity
  8
0
  6
Continuous
 62
     4
370
    25
100
AcDbLine
 10
32.71847874683229
 20
0.4541502815804905
 30
0.0
 11
32.71847874683229
 21
0.2831441855498606
 31
0.0
  0
SPLINE
  5
BA
330
1F
100
AcDbEntity
  8
0
  6
Continuous
 62
     4
370
    25
100
AcDbSpline
210
0.0
220
0.0
230
1.0
 70
     8
 71
     3
 72
    14
 73
    10
 74
     0
 42
0.000000001
 43
0.00000001
 40
0.0000000000000004
 40
0.0000000000000004
 40
0.0000000000000004
 40
0.0000000000000004
 40
0.0000514808473846
 40
0.0000514808473846
 40
0.0000514808473846
 40
0.0001028875534114
 40
0.0001028875534114
 40
0.0001028875534114
 40
0.0001587596474825
 40
0.0001587596474825
 40
0.0001587596474825
 40
0.0001587596474825
 10
32.78372838354743
 20
0.1551323463111477
 30
0.0
 10
32.76987813582986
 20
0.1648880821177601
 30
0.0
 10
32.75759817348595
 20
0.1770252155844802
 30
0.0
 10
32.74787654533262
 20
0.1903686335135209
 30
0.0
 10
32.73816211214113
 20
0.2037021759997499
 30
0.0
 10
32.73075051072431
 20
0.218579413450323
 30
0.0
 10
32.72595433758994
 20
0.2336224755959981
 30
0.0
 10
32.72073777667421
 20
0.2499840721947414
 30
0.0
 10
32.71847874682676
 20
0.266911559423905
 30
0.0
 10
32.71847874682658
 20
0.2831441855484076
 30
0.0
  0
LINE
  5
BB
330
1F
100
AcDbEntity
  8
0
  6
Continuous
 62
     4
370
    25
100
AcDbLine
 10
33.51817240078567
 20
-0.347536325214861
 30
0.0
 11
33.51817240078567
 21
-0.5152672443178786
 31
0.0
  0
SPLINE
  5
BC
330
1F
100
AcDbEntity
  8
0
  6
Continuous
 62
     4
370
    25
100
AcDbSpline
210
0.0
220
0.0
230
1.0
 70
     8
 71
     3
 72
    10
 73
     6
 74
     0
 42
0.000000001
 43
0.00000001
 40
0.0
 40
0.0
 40
0.0
 40
0.0
 40
0.5
 40
0.5
 40
1.0
 40
1.0
 40
1.0
 40
1.0
 10
33.51817240078208
 20
-0.5152672443167314
 30
0.0
 10
33.42518024888871
 20
-0.4856697175890584
 30
0.0
 10
33.32994149251513
 20
-0.445158555481796
 30
0.0
 10
33.15152961669439
 20
-0.350135499951637
 30
0.0
 10
33.05715657587486
 20
-0.2937194807254569
 30
0.0
 10
32.96394406728811
 20
-0.2326874303572299
 30
0.0
  0
SPLINE
  5
BD
330
1F
100
AcDbEntity
  8
0
  6
Continuous
 62
     4
370
    25
100
AcDbSpline
210
0.0
220
0.0
230
1.0
 70
     8
 71
     3
 72
    12
 73
     8
 74
     0
 42
0.000000001
 43
0.00000001
 40
0.0
 40
0.0
 40
0.0
 40
0.0
 40
0.2500000000000002
 40
0.2500000000000002
 40
0.5000000000000003
 40
0.5000000000000003
 40
1.0
 40
1.0
 40
1.0
 40
1.0
 10
32.71847874683229
 20
-0.3526648858907554
 30
0.0
 10
32.71847874683229
 20
-0.3293286424412697
 30
0.0
 10
32.72431732585544
 20
-0.3044980235448446
 30
0.0
 10
32.75088900999768
 20
-0.2594039024237563
 30
0.0
 10
32.77162717049372
 20
-0.2391247164272123
 30
0.0
 10
32.84844448066586
 20
-0.1980817129765742
 30
0.0
 10
32.91572326770898
 20
-0.2011142615483284
 30
0.0
 10
32.96394406728811
 20
-0.2326874303572254
 30
0.0
  0
LINE
  5
BE
330
1F
100
AcDbEntity
  8
0
  6
Continuous
 62
     4
370
    25
100
AcDbLine
 10
32.71847874683229
 20
-0.3526648858907557
 30
0.0
 11
32.71847874683229
 21
-0.5004541639244171
 31
0.0
  0
SPLINE
  5
BF
330
1F
100
AcDbEntity
  8
0
  6
Continuous
 62
     4
370
    25
100
AcDbSpline
210
0.0
220
0.0
230
1.0
 70
    24
 71
     3
 72
     9
 73
     5
 74
     0
 42
0.000000001
 43
0.00000001
 40
0.0
 40
0.0
 40
0.0
 40
0.0
 40
0.746673206116285
 40
0.9999999999999999
 40
0.9999999999999999
 40
0.9999999999999999
 40
0.9999999999999999
 10
33.51817240078567
 20
0.515267244317881
 30
0.0
 10
33.51817240078567
 20
0.4986454242942908
 30
0.0
 10
33.51817240078567
 20
0.4763842531588672
 30
0.0
 10
33.51817240078567
 20
0.4617851332986877
 30
0.0
 10
33.51817240078567
 20
0.4580867850709844
 30
0.0
  0
SPLINE
  5
C0
330
1F
100
AcDbEntity
  8
0
  6
Continuous
 62
     1
370
    25
100
AcDbSpline
210
0.0
220
0.0
230
1.0
 70
     8
 71
     3
 72
    12
 73
     8
 74
     0
 42
0.000000001
 43
0.00000001
 40
0.0
 40
0.0
 40
0.0
 40
0.0
 40
0.203228765703579
 40
0.4065518244388154
 40
0.6106836443179717
 40
0.8510547769806719
 40
1.0
 40
1.0
 40
1.0
 40
1.0
 10
33.51817240078071
 20
0.2703850216423409
 30
0.0
 10
33.62798094358712
 20
0.1918611050636806
 30
0.0
 10
33.84764897759972
 20
0.0347768387856539
 30
0.0
 10
34.17755096250062
 20
-0.2206281726388782
 30
0.0
 10
34.52809734593923
 20
-0.442674676936057
 30
0.0
 10
34.84962639922183
 20
-0.5879365199109201
 30
0.0
 10
35.06047497700291
 20
-0.5844622184025152
 30
0.0
 10
35.14114173549523
 20
-0.5831330150298516
 30
0.0
  0
SPLINE
  5
C1
330
1F
100
AcDbEntity
  8
0
  6
Continuous
 62
     1
370
    25
100
AcDbSpline
210
0.0
220
0.0
230
1.0
 70
     8
 71
     3
 72
    11
 73
     7
 74
     0
 42
0.000000001
 43
0.00000001
 40
0.0
 40
0.0
 40
0.0
 40
0.0
 40
0.3506847587313903
 40
0.6019828093051787
 40
0.8532238831463077
 40
1.0
 40
1.0
 40
1.0
 40
1.0
 10
33.51817240078071
 20
-0.2523875546466536
 30
0.0
 10
33.64041420398623
 20
-0.3082879962028419
 30
0.0
 10
33.85025356049091
 20
-0.4042462721516679
 30
0.0
 10
34.14625229527282
 20
-0.4660795158819055
 30
0.0
 10
34.37317906561692
 20
-0.4785248642707512
 30
0.0
 10
34.51141383676756
 20
-0.4518145591195737
 30
0.0
 10
34.56239043626626
 20
-0.4419646456944196
 30
0.0
  0
SPLINE
  5
C2
330
1F
100
AcDbEntity
  8
0
  6
Continuous
 62
     4
370
    25
100
AcDbSpline
210
0.0
220
0.0
230
1.0
 70
    24
 71
     3
 72
    14
 73
    10
 74
     0
 42
0.000000001
 43
0.00000001
 40
0.0
 40
0.0
 40
0.0
 40
0.0
 40
0.2500000000000001
 40
0.2500000000000001
 40
0.5000000000000001
 40
0.5000000000000001
 40
0.75
 40
0.75
 40
1.0
 40
1.0
 40
1.0
 40
1.0
 10
33.51817240078567
 20
0.2703850216533497
 30
0.0
 10
33.51817240078567
 20
0.2497769021157308
 30
0.0
 10
33.51817240078567
 20
0.2284394211252402
 30
0.0
 10
33.51817240078567
 20
0.1690016802903228
 30
0.0
 10
33.51817240078567
 20
0.1320946071638014
 30
0.0
 10
33.51817240078567
 20
0.0418019853614948
 30
0.0
 10
33.51817240078567
 20
-0.0118398277767966
 30
0.0
 10
33.51817240078567
 20
-0.129358987709045
 30
0.0
 10
33.51817240078567
 20
-0.1931133132807513
 30
0.0
 10
33.51817240078567
 20
-0.2523875546476959
 30
0.0
  0
LINE
  5
C3
330
1F
100
AcDbEntity
  8
0
  6
Continuous
 62
     4
370
    25
100
AcDbLine
 10
33.51817240078567
 20
0.2703850216420637
 30
0.0
 11
33.51817240078567
 21
0.2820866916901772
 31
0.0
  0
SPLINE
  5
C4
330
1F
100
AcDbEntity
  8
0
  6
Continuous
 62
     1
370
    25
100
AcDbSpline
210
0.0
220
0.0
230
1.0
 70
     8
 71
     3
 72
    21
 73
    17
 74
     0
 42
0.000000001
 43
0.00000001
 40
0.0
 40
0.0
 40
0.0
 40
0.0
 40
0.0474585890794221
 40
0.1255505147392645
 40
0.1883795575081535
 40
0.2498835046959848
 40
0.3757318241267442
 40
0.4380674138132118
 40
0.4997912222845978
 40
0.56275236505069
 40
0.6259725770570194
 40
0.6880454788773391
 40
0.749916831600957
 40
0.7812950526867314
 40
0.8910058362380551
 40
1.0
 40
1.0
 40
1.0
 40
1.0
 10
35.29864601028351
 20
-0.5906954689289918
 30
0.0
 10
35.27054632955344
 20
-0.5937611996830137
 30
0.0
 10
35.19620932442749
 20
-0.601871513994619
 30
0.0
 10
35.08392524369528
 20
-0.5997309226101507
 30
0.0
 10
34.96337504731768
 20
-0.5844087844196826
 30
0.0
 10
34.81633689547851
 20
-0.5492500702813893
 30
0.0
 10
34.66682203820503
 20
-0.4933453398809834
 30
0.0
 10
34.5183614147936
 20
-0.4187397098600782
 30
0.0
 10
34.40843678223098
 20
-0.3534596257322719
 30
0.0
 10
34.29643990724786
 20
-0.2825509076120221
 30
0.0
 10
34.18417902355992
 20
-0.2061481209366959
 30
0.0
 10
34.07348179482496
 20
-0.1250553771734227
 30
0.0
 10
33.98185074384229
 20
-0.0553504730781167
 30
0.0
 10
33.86102844258149
 20
0.0347256901801312
 30
0.0
 10
33.71216282063168
 20
0.1471206597978368
 30
0.0
 10
33.58269446652605
 20
0.2371963966444963
 30
0.0
 10
33.51817240078071
 20
0.282086691690177
 30
0.0
  0
SPLINE
  5
C5
330
1F
100
AcDbEntity
  8
0
  6
Continuous
 62
     1
370
    25
100
AcDbSpline
210
0.0
220
0.0
230
1.0
 70
     8
 71
     3
 72
    22
 73
    18
 74
     0
 42
0.000000001
 43
0.00000001
 40
0.0
 40
0.0
 40
0.0
 40
0.0
 40
0.125
 40
0.125
 40
0.25
 40
0.25
 40
0.375
 40
0.375
 40
0.5
 40
0.5
 40
0.625
 40
0.625
 40
0.75
 40
0.75
 40
0.875
 40
0.875
 40
1.0
 40
1.0
 40
1.0
 40
1.0
 10
35.28965489861483
 20
-0.1114537633946857
 30
0.0
 10
35.21737344428172
 20
-0.0571709922531508
 30
0.0
 10
35.14161790810573
 20
-0.0005861922491954
 30
0.0
 10
34.99172990258994
 20
0.1107642106485616
 30
0.0
 10
34.92014305150208
 20
0.1648828764660099
 30
0.0
 10
34.77408071528897
 20
0.2682745779100483
 30
0.0
 10
34.69805476200243
 20
0.3178371293821074
 30
0.0
 10
34.54868302899989
 20
0.4068628000761233
 30
0.0
 10
34.47799378706341
 20
0.4459365658238349
 30
0.0
 10
34.33065379663329
 20
0.5128040576017974
 30
0.0
 10
34.25448420368924
 20
0.5403132540441248
 30
0.0
 10
34.10586805139856
 20
0.5802168414061823
 30
0.0
 10
34.03552493756641
 20
0.5926814219075103
 30
0.0
 10
33.88713577884322
 20
0.6025780351651175
 30
0.0
 10
33.81095013683681
 20
0.5996865540824865
 30
0.0
 10
33.66332482758745
 20
0.5786334292332772
 30
0.0
 10
33.59277453841168
 20
0.5607806072005411
 30
0.0
 10
33.51817240078403
 20
0.5356229458048547
 30
0.0
  0
SPLINE
  5
C6
330
1F
100
AcDbEntity
  8
0
  6
Continuous
 62
     1
370
    25
100
AcDbSpline
210
0.0
220
0.0
230
1.0
 70
     8
 71
     3
 72
    14
 73
    10
 74
     0
 42
0.000000001
 43
0.00000001
 40
0.0
 40
0.0
 40
0.0
 40
0.0
 40
0.2500000000000002
 40
0.2500000000000002
 40
0.5000000000000002
 40
0.5000000000000002
 40
0.7500000000000002
 40
0.7500000000000002
 40
1.0
 40
1.0
 40
1.0
 40
1.0
 10
35.28965489861483
 20
-0.1114537633946938
 30
0.0
 10
35.28630467513347
 20
-0.1067165027966419
 30
0.0
 10
35.2761700812231
 20
-0.1067820630084833
 30
0.0
 10
35.2365970981479
 20
-0.1219159073070019
 30
0.0
 10
35.20586805981934
 20
-0.1379162431137678
 30
0.0
 10
35.1320248232055
 20
-0.1828431270329676
 30
0.0
 10
35.08883441645054
 20
-0.2117227042874926
 30
0.0
 10
35.00655298412767
 20
-0.2704496052429498
 30
0.0
 10
34.96700029822593
 20
-0.3005201591460018
 30
0.0
 10
34.93236301771125
 20
-0.3284707302848585
 30
0.0
1001
PE_URL
1000

  0
SPLINE
  5
C7
330
1F
100
AcDbEntity
  8
0
  6
Continuous
 62
     1
370
    25
100
AcDbSpline
210
0.0
220
0.0
230
1.0
 70
     8
 71
     3
 72
    20
 73
    16
 74
     0
 42
0.000000001
 43
0.00000001
 40
0.0
 40
0.0
 40
0.0
 40
0.0
 40
0.125
 40
0.125
 40
0.2500000000000001
 40
0.2500000000000001
 40
0.5000000000000001
 40
0.5000000000000001
 40
0.6250000000000001
 40
0.6250000000000001
 40
0.75
 40
0.75
 40
0.875
 40
0.875
 40
1.0
 40
1.0
 40
1.0
 40
1.0
 10
33.51817240078069
 20
0.3964359318938009
 30
0.0
 10
33.57780050900553
 20
0.3776663182552365
 30
0.0
 10
33.63489794881339
 20
0.3559066765088758
 30
0.0
 10
33.75111879033759
 20
0.3067571315150672
 30
0.0
 10
33.81127662028935
 20
0.27916029295041
 30
0.0
 10
33.99133519225892
 20
0.1901096216724364
 30
0.0
 10
34.10461389739226
 20
0.1236235197747906
 30
0.0
 10
34.28414908730385
 20
0.0193447282804537
 30
0.0
 10
34.34463247864426
 20
-0.015988749300825
 30
0.0
 10
34.46242694986455
 20
-0.0851981728485564
 30
0.0
 10
34.51868734273298
 20
-0.1188805438154095
 30
0.0
 10
34.63690771197595
 20
-0.1848389636838247
 30
0.0
 10
34.69744965134908
 20
-0.2168128694014688
 30
0.0
 10
34.81693407729881
 20
-0.2763559377809365
 30
0.0
 10
34.87452534890558
 20
-0.3037265456518112
 30
0.0
 10
34.93236301771133
 20
-0.3284707302848907
 30
0.0
  0
SPLINE
  5
C8
330
1F
100
AcDbEntity
  8
0
  6
Continuous
 62
     4
370
    25
100
AcDbSpline
210
0.0
220
0.0
230
1.0
 70
    24
 71
     3
 72
     9
 73
     5
 74
     0
 42
0.000000001
 43
0.00000001
 40
0.0
 40
0.0
 40
0.0
 40
0.0
 40
0.5333123849629177
 40
1.0
 40
1.0
 40
1.0
 40
1.0
 10
33.51817240078567
 20
0.5356229458258687
 30
0.0
 10
33.51817240078567
 20
0.5193496905973204
 30
0.0
 10
33.51817240078567
 20
0.488836138526558
 30
0.0
 10
33.51817240078567
 20
0.4678709697064773
 30
0.0
 10
33.51817240078567
 20
0.4580867850709841
 30
0.0
  0
SPLINE
  5
C9
330
1F
100
AcDbEntity
  8
0
  6
Continuous
 62
     1
370
    25
100
AcDbSpline
210
0.0
220
0.0
230
1.0
 70
     8
 71
     3
 72
    17
 73
    13
 74
     0
 42
0.000000001
 43
0.00000001
 40
0.0035189878782966
 40
0.0035189878782966
 40
0.0035189878782966
 40
0.0035189878782966
 40
0.1065929274582149
 40
0.2136695999185225
 40
0.320261625173578
 40
0.4267291172652537
 40
0.5302092315157902
 40
0.6315840845611884
 40
0.7468401021403062
 40
0.8536604363231564
 40
0.9600564775043595
 40
1.0
 40
1.0
 40
1.0
 40
1.0
 10
35.29375458994795
 20
-0.1015840212250592
 30
0.0
 10
35.24599666008329
 20
-0.0657305702002647
 30
0.0
 10
35.1486196987134
 20
0.0073679981658372
 30
0.0
 10
35.00124745004415
 20
0.1174826868221518
 30
0.0
 10
34.85282061572063
 20
0.2251966530875017
 30
0.0
 10
34.70685622968826
 20
0.3248286693971356
 30
0.0
 10
34.56103953705653
 20
0.4097061333863334
 30
0.0
 10
34.41424292405465
 20
0.4862433350308883
 30
0.0
 10
34.26335343563314
 20
0.54437682886275
 30
0.0
 10
34.11097206540416
 20
0.5832027547830908
 30
0.0
 10
33.99391666737259
 20
0.599776171697058
 30
0.0
 10
33.92601728858236
 20
0.5987927155829285
 30
0.0
 10
33.90748408883785
 20
0.5985242803052003
 30
0.0
  0
ELLIPSE
  5
CA
330
1F
100
AcDbEntity
  8
0
  6
Continuous
 62
     1
370
    25
100
AcDbEllipse
 10
35.33009798798936
 20
0.0000000000000021
 30
0.0
 11
0.8559903270344122
 21
0.5973607961694174
 31
0.0
210
0.0
220
0.0
230
1.0
 40
0.065671982452762
 41
4.619376089928537
 42
4.62372043024575
1001
PE_URL
1000

  0
SPLINE
  5
CB
330
1F
100
AcDbEntity
  8
0
  6
Continuous
 62
     1
370
    25
100
AcDbSpline
210
0.0
220
0.0
230
1.0
 70
     8
 71
     3
 72
    10
 73
     6
 74
     0
 42
0.000000001
 43
0.00000001
 40
0.0
 40
0.0
 40
0.0
 40
0.0
 40
0.4396763288491739
 40
0.7153300705015292
 40
1.0
 40
1.0
 40
1.0
 40
1.0
 10
34.46248168279868
 20
0.458206165973902
 30
0.0
 10
34.53126090730161
 20
0.4494426066837588
 30
0.0
 10
34.64316105812735
 20
0.4351847604602182
 30
0.0
 10
34.80054833269281
 20
0.3882616335898224
 30
0.0
 10
34.88795596295697
 20
0.3536773665667138
 30
0.0
 10
34.93236301771125
 20
0.3361069847282951
 30
0.0
  0
SPLINE
  5
CC
330
1F
100
AcDbEntity
  8
0
  6
Continuous
 62
     1
370
    25
100
AcDbSpline
210
0.0
220
0.0
230
1.0
 70
     8
 71
     3
 72
     8
 73
     4
 74
     0
 42
0.000000001
 43
0.00000001
 40
0.0
 40
0.0
 40
0.0
 40
0.0
 40
1.0
 40
1.0
 40
1.0
 40
1.0
 10
34.77890710399814
 20
0.317597625905588
 30
0.0
 10
34.82964964561238
 20
0.3142061665693067
 30
0.0
 10
34.88215814802628
 20
0.3198212881303438
 30
0.0
 10
34.93236301771125
 20
0.3361069847282963
 30
0.0
1001
PE_URL
1000

  0
SPLINE
  5
CD
330
1F
100
AcDbEntity
  8
0
  6
Continuous
 62
     1
370
    25
100
AcDbSpline
210
0.0
220
0.0
230
1.0
 70
    24
 71
     3
 72
    10
 73
     6
 74
     0
 42
0.000000001
 43
0.00000001
 40
0.0
 40
0.0
 40
0.0
 40
0.0
 40
0.5
 40
0.5
 40
0.9614775094474876
 40
0.9614775094474876
 40
0.9614775094474876
 40
0.9614775094474876
 10
34.77890710399835
 20
0.3175976259053785
 30
0.0
 10
34.85677409964116
 20
0.263074568578547
 30
0.0
 10
34.94947480354128
 20
0.1981648369103337
 30
0.0
 10
35.12583257173562
 20
0.0746777981988154
 30
0.0
 10
35.21102471573801
 20
0.0150256167720862
 30
0.0
 10
35.29670529857599
 20
-0.0449685732092588
 30
0.0
1001
PE_URL
1000

  0
SPLINE
  5
D0
330
1F
100
AcDbEntity
  8
0
  6
Continuous
 62
     1
370
    25
100
AcDbSpline
210
0.0
220
0.0
230
1.0
 70
     8
 71
     3
 72
    10
 73
     6
 74
     0
 42
0.000000001
 43
0.00000001
 40
0.0
 40
0.0
 40
0.0
 40
0.0
 40
0.5
 40
0.5
 40
1.0
 40
1.0
 40
1.0
 40
1.0
 10
34.77890710399835
 20
-0.4343763794836873
 30
0.0
 10
34.85677409964116
 20
-0.4940102790730047
 30
0.0
 10
34.94947480354128
 20
-0.5239582684793508
 30
0.0
 10
35.13289850972416
 20
-0.5596543658098426
 30
0.0
 10
35.22525159247532
 20
-0.5638558146996712
 30
0.0
 10
35.31817240078567
 20
-0.5559749723682711
 30
0.0
1001
PE_URL
1000

  0
LINE
  5
D1
330
1F
100
AcDbEntity
  8
0
  6
Continuous
 62
     1
370
    25
100
AcDbLine
 10
35.31817240078567
 20
-0.5712432496741768
 30
0.0
 11
35.31817240078567
 21
-0.555974972368271
 31
0.0
1001
PE_URL
1000

  0
SPLINE
  5
D2
330
1F
100
AcDbEntity
  8
0
  6
Continuous
 62
     1
370
    25
100
AcDbSpline
210
0.0
220
0.0
230
1.0
 70
     8
 71
     3
 72
     8
 73
     4
 74
     0
 42
0.000000001
 43
0.00000001
 40
0.0
 40
0.0
 40
0.0
 40
0.0
 40
0.0000321444292743
 40
0.0000321444292743
 40
0.0000321444292743
 40
0.0000321444292743
 10
35.29864601028351
 20
-0.5906954689289903
 30
0.0
 10
35.30503380372787
 20
-0.5840411756468697
 30
0.0
 10
35.31154314762947
 20
-0.5775512341564196
 30
0.0
 10
35.31817240078567
 20
-0.5712432496741766
 30
0.0
1001
PE_URL
1000

  0
LINE
  5
D3
330
1F
100
AcDbEntity
  8
0
  6
Continuous
 62
     4
370
    25
100
AcDbLine
 10
33.51817240078567
 20
0.3964359318922323
 30
0.0
 11
33.51817240078567
 21
0.2940966916901771
 31
0.0
  0
SPLINE
  5
D4
330
1F
100
AcDbEntity
  8
0
  6
Continuous
 62
     1
370
    25
100
AcDbSpline
210
0.0
220
0.0
230
1.0
 70
     8
 71
     3
 72
     8
 73
     4
 74
     0
 42
0.000000001
 43
0.00000001
 40
0.0
 40
0.0
 40
0.0
 40
0.0
 40
1.0
 40
1.0
 40
1.0
 40
1.0
 10
34.77890710399814
 20
-0.4343763794833783
 30
0.0
 10
34.82964964561238
 20
-0.3980202541116172
 30
0.0
 10
34.88215814802628
 20
-0.361681229895555
 30
0.0
 10
34.93236301771125
 20
-0.3284707302848576
 30
0.0
1001
PE_URL
1000

  0
SPLINE
  5
D6
330
1F
100
AcDbEntity
  8
0
  6
Continuous
 62
     1
370
    25
100
AcDbSpline
210
0.0
220
0.0
230
1.0
 70
     8
 71
     3
 72
    20
 73
    16
 74
     0
 42
0.000000001
 43
0.00000001
 40
0.0
 40
0.0
 40
0.0
 40
0.0
 40
0.0512458674069667
 40
0.0654047190784951
 40
0.2462929870351691
 40
0.3816356292070479
 40
0.5254531718509873
 40
0.5851547905499342
 40
0.6449555268244481
 40
0.7048554727465383
 40
0.7648547199314875
 40
0.7780651935865491
 40
0.8179203490598829
 40
0.8818204829711735
 40
0.9999999999999999
 40
0.9999999999999999
 40
0.9999999999999999
 40
0.9999999999999999
 10
34.45671851320503
 20
-0.4620883607468995
 30
0.0
 10
34.44080129177594
 20
-0.4700109047943331
 30
0.0
 10
34.42048626055963
 20
-0.4801223887837513
 30
0.0
 10
34.3436476980735
 20
-0.5138798096162378
 30
0.0
 10
34.23932460151008
 20
-0.5514633362487327
 30
0.0
 10
34.09533952586847
 20
-0.5858216597676001
 30
0.0
 10
33.99007565114026
 20
-0.598366905430818
 30
0.0
 10
33.90748958014269
 20
-0.6004883821576573
 30
0.0
 10
33.85122749665698
 20
-0.5990007559299969
 30
0.0
 10
33.79485467177536
 20
-0.5945432815067955
 30
0.0
 10
33.75291348141049
 20
-0.5891231494209405
 30
0.0
 10
33.71755657774774
 20
-0.5833412112516021
 30
0.0
 10
33.68115049378112
 20
-0.5764277333790536
 30
0.0
 10
33.61218501300215
 20
-0.5604305932039736
 30
0.0
 10
33.55517498485533
 20
-0.5417065758939058
 30
0.0
 10
33.51817240078071
 20
-0.5295536784607328
 30
0.0
  0
LINE
  5
D7
330
1F
100
AcDbEntity
  8
0
  6
Continuous
 62
     4
370
    25
100
AcDbLine
 10
33.51817240078567
 20
-0.3360263252148612
 30
0.0
 11
33.51817240078567
 21
-0.371222232205401
 31
0.0
  0
LINE
  5
D8
330
1F
100
AcDbEntity
  8
0
  6
Continuous
 62
     4
370
    25
100
AcDbLine
 10
33.51817240078567
 20
-0.4920096316917589
 30
0.0
 11
33.51817240078567
 21
-0.529553678462479
 31
0.0
  0
SPLINE
  5
D9
330
1F
100
AcDbEntity
  8
0
  6
Continuous
 62
     1
370
    25
100
AcDbSpline
210
0.0
220
0.0
230
1.0
 70
     8
 71
     3
 72
     9
 73
     5
 74
     0
 42
0.000000001
 43
0.00000001
 40
0.0
 40
0.0
 40
0.0
 40
0.0
 40
0.4630134759927847
 40
1.0
 40
1.0
 40
1.0
 40
1.0
 10
34.56239043626626
 20
0.4419646456944249
 30
0.0
 10
34.67463758869606
 20
0.4944928902048659
 30
0.0
 10
34.91706498714079
 20
0.6079415201779157
 30
0.0
 10
35.15948084808316
 20
0.5959804463369113
 30
0.0
 10
35.28965489861483
 20
0.5895575108716369
 30
0.0
1001
PE_URL
1000

  0
SPLINE
  5
DA
330
1F
100
AcDbEntity
  8
0
  6
Continuous
 62
     1
370
    25
100
AcDbSpline
210
0.0
220
0.0
230
1.0
 70
     8
 71
     3
 72
    14
 73
    10
 74
     0
 42
0.000000001
 43
0.00000001
 40
0.0
 40
0.0
 40
0.0
 40
0.0
 40
0.2500000000000002
 40
0.2500000000000002
 40
0.5000000000000001
 40
0.5000000000000001
 40
0.7500000000000001
 40
0.7500000000000001
 40
1.0
 40
1.0
 40
1.0
 40
1.0
 10
35.28965489861483
 20
0.5895575108716351
 30
0.0
 10
35.28630467513347
 20
0.5389945098940554
 30
0.0
 10
35.2761700812231
 20
0.4884718383172842
 30
0.0
 10
35.2365970981479
 20
0.3970551909565243
 30
0.0
 10
35.20586805981934
 20
0.3562995952380338
 30
0.0
 10
35.1320248232055
 20
0.3044509815347307
 30
0.0
 10
35.08883441645054
 20
0.2926403285956988
 30
0.0
 10
35.00655298412767
 20
0.2965296981752402
 30
0.0
 10
34.96700029822593
 20
0.3114953812013503
 30
0.0
 10
34.93236301771125
 20
0.3361069847282948
 30
0.0
1001
PE_URL
1000

  0
ELLIPSE
  5
DB
330
1F
100
AcDbEntity
  8
0
  6
Continuous
 62
     1
370
    25
100
AcDbEllipse
 10
35.33009798798936
 20
0.0000000000000019
 30
0.0
 11
0.8501895497015431
 21
0.1570024457507907
 31
0.0
210
0.0
220
0.0
230
1.0
 40
0.6811355428882542
 41
1.482382911265597
 42
1.492884945380721
1001
PE_URL
1000

  0
SPLINE
  5
DC
330
1F
100
AcDbEntity
  8
0
  6
Continuous
 62
     1
370
    25
100
AcDbSpline
210
0.0
220
0.0
230
1.0
 70
     8
 71
     3
 72
     8
 73
     4
 74
     0
 42
0.000000001
 43
0.00000001
 40
0.0
 40
0.0
 40
0.0
 40
0.0
 40
0.0000321444292743
 40
0.0000321444292743
 40
0.0000321444292743
 40
0.0000321444292743
 10
35.29864601028351
 20
0.5906954689289955
 30
0.0
 10
35.30503380372787
 20
0.584041175646875
 30
0.0
 10
35.31154314762947
 20
0.5775512341564248
 30
0.0
 10
35.31817240078567
 20
0.5712432496741818
 30
0.0
1001
PE_URL
1000

  0
LINE
  5
DD
330
1F
100
AcDbEntity
  8
0
  6
Continuous
 62
     1
370
    25
100
AcDbLine
 10
35.31817240078567
 20
0.3669221833430316
 30
0.0
 11
35.31817240078567
 21
0.571243249674182
 31
0.0
1001
PE_URL
1000

  0
LINE
  5
DE
330
1F
100
AcDbEntity
  8
0
  6
Continuous
 62
     1
370
    25
100
AcDbLine
 10
35.29304117698166
 20
-0.1152723245419022
 30
0.0
 11
35.31817240078567
 21
0.3669221833430316
 31
0.0
1001
PE_URL
1000

  0
LINE
  5
E2
330
1F
100
AcDbEntity
  8
0
  6
Continuous
 62
     1
370
    25
100
AcDbLine
 10
35.29246639526411
 20
-0.1095167855680789
 30
0.0
 11
35.31817240078567
 21
-0.3669221833430119
 31
0.0
1001
PE_URL
1000

  0
LINE
  5
E3
330
1F
100
AcDbEntity
  8
0
  6
Continuous
 62
     1
370
    25
100
AcDbLine
 10
35.31817240078567
 20
-0.3669221833430119
 30
0.0
 11
35.31817240078567
 21
-0.5559749723682711
 31
0.0
1001
PE_URL
1000

  0
SPLINE
  5
E4
330
1F
100
AcDbEntity
  8
0
  6
Continuous
 62
     1
370
    25
100
AcDbSpline
210
0.0
220
0.0
230
1.0
 70
     8
 71
     3
 72
     9
 73
     5
 74
     0
 42
0.000000001
 43
0.00000001
 40
0.0
 40
0.0
 40
0.0
 40
0.0
 40
0.8882793130685988
 40
1.0
 40
1.0
 40
1.0
 40
1.0
 10
33.51817240078071
 20
-0.5356229458037342
 30
0.0
 10
33.62797020870477
 20
-0.5718518051852872
 30
0.0
 10
33.75157750914356
 20
-0.6126372415323286
 30
0.0
 10
33.87521244113812
 20
-0.5962125652373631
 30
0.0
 10
33.88902502066927
 20
-0.5943775891190637
 30
0.0
  0
LINE
  5
E6
330
1F
100
AcDbEntity
  8
0
  6
Continuous
 62
     1
370
    25
100
AcDbLine
 10
35.29864601028345
 20
0.5906954689290022
 30
0.0
 11
35.15928892795684
 21
0.5799842466018763
 31
0.0
1001
PE_URL
1000

  0
LINE
  5
EB
330
1F
100
AcDbEntity
  8
중심선
100
AcDbLine
 10
-37.68182759921433
 20
-0.000000000000003
 30
0.0
 11
36.80108485727676
 21
0.0000000000000041
 31
0.0
  0
CIRCLE
  5
EC
330
1F
100
AcDbEntity
  8
해칭선
100
AcDbCircle
 10
0.0
 20
0.0
 30
0.0
 40
3.000000000000003
  0
INSERT
  5
ED
330
1F
100
AcDbEntity
  8
0
  6
Continuous
 62
     7
100
AcDbBlockReference
 66
     1
  2
블럭10
 10
-17.51527293212521
 20
-52.04717430164394
 30
0.0
  0
ATTRIB
  5
EE
330
ED
100
AcDbEntity
  8
FORMAT
 62
     2
100
AcDbText
 10
-33.63453397156076
 20
-49.97180738881174
 30
0.0
 40
4.233333333333333
  1
SEME7301230E [ 4 FLUTE ]
 41
0.75
  7
SLDTEXTSTYLE0
 11
-33.63453397156076
 21
-52.08847405547841
 31
0.0
100
AcDbAttribute
  2
AUTOATTR0
 70
     0
 74
     1
  0
SEQEND
  5
EF
330
ED
100
AcDbEntity
  8
0
  6
Continuous
 62
     7
  0
HATCH
  5
F0
330
1F
100
AcDbEntity
  8
중심선
100
AcDbHatch
 10
0.0
 20
0.0
 30
0.0
210
0.0
220
0.0
230
1.0
  2
SOLID
 70
     1
 71
     0
 91
        1
 92
        0
 93
        4
 72
     1
 10
-11.80036362774437
 20
-35.8
 11
-15.24663887158165
 21
-35.8
 72
     1
 10
-15.24663887158165
 20
-35.8
 11
-17.37486873078567
 21
-38.3363255805726
 72
     1
 10
-17.37486873078567
 20
-38.3363255805726
 11
-13.92856040183524
 21
-38.33628615127011
 72
     1
 10
-13.92856040183524
 20
-38.33628615127011
 11
-11.80036362774437
 21
-35.8
 97
        0
 75
     0
 76
     1
 98
        1
 10
18.12494507901019
 20
-0.0000000000000053
  0
HATCH
  5
F1
330
1F
100
AcDbEntity
  8
중심선
100
AcDbHatch
 10
0.0
 20
0.0
 30
0.0
210
0.0
220
0.0
230
1.0
  2
SOLID
 70
     1
 71
     0
 91
        1
 92
        0
 93
        4
 72
     1
 10
-6.787599636708414
 20
-35.8
 11
-10.23387488054567
 21
-35.8
 72
     1
 10
-10.23387488054567
 20
-35.8
 11
-14.76501288890309
 21
-41.20000000000002
 72
     1
 10
-14.76501288890309
 20
-41.20000000000002
 11
-11.3187376450658
 21
-41.20000000000002
 72
     1
 10
-11.3187376450658
 20
-41.20000000000002
 11
-6.787599636708414
 21
-35.8
 97
        0
 75
     0
 76
     1
 98
        1
 10
18.12494507901019
 20
-0.0000000000000053
  0
HATCH
  5
F2
330
1F
100
AcDbEntity
  8
중심선
100
AcDbHatch
 10
0.0
 20
0.0
 30
0.0
210
0.0
220
0.0
230
1.0
  2
SOLID
 70
     1
 71
     0
 91
        1
 92
        0
 93
        4
 72
     1
 10
-1.774835645672521
 20
-35.8
 11
-5.221110889509607
 21
-35.8
 72
     1
 10
-5.221110889509607
 20
-35.8
 11
-12.26954779139889
 21
-44.20000000000002
 72
     1
 10
-12.26954779139889
 20
-44.20000000000002
 11
-8.8232725475616
 21
-44.20000000000002
 72
     1
 10
-8.8232725475616
 20
-44.20000000000002
 11
-1.774835645672521
 21
-35.8
 97
        0
 75
     0
 76
     1
 98
        1
 10
18.12494507901019
 20
-0.0000000000000053
  0
HATCH
  5
F3
330
1F
100
AcDbEntity
  8
중심선
100
AcDbHatch
 10
0.0
 20
0.0
 30
0.0
210
0.0
220
0.0
230
1.0
  2
SOLID
 70
     1
 71
     0
 91
        1
 92
        0
 93
        6
 72
     3
 10
3.02505478533968
 20
-40.00000000005128
 11
3.960054785062283
 21
1.540882976769353E-10
 40
0.3939339440162628
 50
17.09539180608436
 51
320.0019657685082
 73
     0
 72
     1
 10
4.708054441040247
 20
-38.58789400463834
 11
7.013356314741312
 21
-36.65356729459041
 72
     3
 10
3.025054785286834
 20
-40.00000000000016
 11
6.600054785286829
 21
-1.278976924368180E-13
 40
0.636358354079598
 50
39.99873849337393
 51
368.4976242363724
 73
     1
 72
     1
 10
9.450387277187442
 20
-39.03999999993002
 11
1.705122092122757
 21
-39.03999999993002
 72
     1
 10
1.705122092122757
 20
-39.03999999993002
 11
1.705097047676823
 21
-40.95999999992992
 72
     1
 10
1.705097047676823
 20
-40.95999999992992
 11
6.146476817148859
 21
-40.95999999992989
 97
        0
 75
     0
 76
     1
 98
        1
 10
18.12494507901019
 20
-0.0000000000000053
  0
DIMENSION
  5
F4
330
1F
100
AcDbEntity
  8
치수문자_일반주서
100
AcDbDimension
  2
_D
 10
47.39545428743688
 20
0.6000000000000494
 30
0.0
 11
47.39545428743682
 21
11.57900000000005
 31
0.0
 70
   160
  1
%%c<>
 71
     2
 42
1.200000000000008
 52
-270.0
  3
SLDDIMSTYLE0
100
AcDbAlignedDimension
 13
35.31817240078567
 23
-0.6000000000000029
 33
0.0
 14
35.31817240078567
 24
0.6000000000000046
 34
0.0
 50
90.0000000000002
100
AcDbRotatedDimension
  0
DIMENSION
  5
102
330
1F
100
AcDbEntity
  8
치수문자_일반주서
100
AcDbDimension
  2
_D_1
 10
35.31817240078568
 20
36.00000000000003
 30
0.0
 11
0.3181724007856701
 21
36.00000000000003
 31
0.0
 70
   160
  1
<>
 71
     2
 42
70.0
  3
SLDDIMSTYLE1
100
AcDbAlignedDimension
 13
-34.68182759921434
 23
1.499999999999993
 33
0.0
 14
35.31817240078567
 24
-0.0599999999999994
 34
0.0
100
AcDbRotatedDimension
  0
DIMENSION
  5
10D
330
1F
100
AcDbEntity
  8
치수문자_일반주서
100
AcDbDimension
  2
_D_2
 10
-48.1744671608342
 20
-2.000000000000053
 30
0.0
 11
-48.1744671608342
 21
-0.7264638992030797
 31
0.0
 70
   160
  1
%%c<>
 71
     2
 42
4.000000000000004
 52
-270.0
  3
SLDDIMSTYLE2
100
AcDbAlignedDimension
 13
-34.18182759921434
 23
2.000000000000003
 33
0.0
 14
-34.18182759921434
 24
-2.0
 34
0.0
 50
90.0000000000002
100
AcDbRotatedDimension
  0
DIMENSION
  5
11B
330
1F
100
AcDbEntity
  8
치수문자_일반주서
100
AcDbDimension
  2
_D_3
 10
35.31817240078567
 20
16.29202629471356
 30
0.0
 11
22.75792240078567
 21
16.29202629471356
 31
0.0
 70
   160
  1
<>
 71
     2
 42
1.799999999999999
  3
SLDDIMSTYLE3
100
AcDbAlignedDimension
 13
33.51817240078567
 23
0.535622945824922
 33
0.0
 14
35.31817240078567
 24
0.004753677920376
 34
0.0
 50
-0.0000000000002262
100
AcDbRotatedDimension
  0
DIMENSION
  5
128
330
1F
100
AcDbEntity
  8
치수문자_일반주서
100
AcDbDimension
  2
_D_4
 10
5.318172400785674
 20
25.27103277602837
 30
0.0
 11
20.99213928175075
 21
25.27103277602837
 31
0.0
 70
   160
  1
<>
 71
     2
 42
30.0
  3
SLDDIMSTYLE1
100
AcDbAlignedDimension
 13
35.31817240078567
 23
0.571243249674182
 33
0.0
 14
5.318172400785674
 24
0.5749999999999948
 34
0.0
 50
-0.0000000000000068
100
AcDbRotatedDimension
  0
INSERT
  5
138
330
1F
100
AcDbEntity
  8
해칭선
100
AcDbBlockReference
  2
SW_DOWELSYMBOL_0
 10
0.0
 20
0.0
 30
0.0
  0
ENDSEC
  0
SECTION
  2
OBJECTS
  0
DICTIONARY
  5
C
330
0
100
AcDbDictionary
281
     1
  3
ACAD_DETAILVIEWSTYLE
350
166
  3
ACAD_GROUP
350
D
  3
ACAD_LAYOUT
350
1A
  3
ACAD_MLINESTYLE
350
17
  3
ACAD_PLOTSETTINGS
350
19
  3
ACAD_PLOTSTYLENAME
350
E
  3
ACAD_SCALELIST
350
47
  3
ACAD_SECTIONVIEWSTYLE
350
167
  3
AcDbVariableDictionary
350
161
  3
APPDATA
350
15A
  3
DWGPROPS
350
198
  0
DICTIONARY
  5
196
330
1F
100
AcDbDictionary
280
     1
281
     1
  3
DIM_BOUNDING_BOXES_V1
360
197
  0
DICTIONARY
  5
166
102
{ACAD_REACTORS
330
C
102
}
330
C
100
AcDbDictionary
281
     1
  0
DICTIONARY
  5
D
102
{ACAD_REACTORS
330
C
102
}
330
C
100
AcDbDictionary
281
     1
  0
DICTIONARY
  5
1A
102
{ACAD_REACTORS
330
C
102
}
330
C
100
AcDbDictionary
281
     1
  3
Layout1
350
1E
  3
Layout2
350
26
  3
Model
350
22
  0
DICTIONARY
  5
17
102
{ACAD_REACTORS
330
C
102
}
330
C
100
AcDbDictionary
281
     1
  3
Standard
350
18
  0
DICTIONARY
  5
19
102
{ACAD_REACTORS
330
C
102
}
330
C
100
AcDbDictionary
281
     1
  0
ACDBDICTIONARYWDFLT
  5
E
102
{ACAD_REACTORS
330
C
102
}
330
C
100
AcDbDictionary
281
     1
  3
Normal
350
F
100
AcDbDictionaryWithDefault
340
F
  0
DICTIONARY
  5
47
102
{ACAD_REACTORS
330
C
102
}
330
C
100
AcDbDictionary
281
     1
  3
A0
350
48
  3
A1
350
49
  3
A2
350
4A
  3
A3
350
4B
  3
A4
350
4C
  3
A5
350
4D
  3
A6
350
4E
  3
A7
350
4F
  3
A8
350
50
  3
A9
350
51
  3
B0
350
52
  3
B1
350
53
  3
B2
350
54
  3
B3
350
55
  3
B4
350
56
  3
B5
350
57
  3
B6
350
58
  3
B7
350
59
  3
B8
350
5A
  3
B9
350
5B
  3
C0
350
5C
  3
C1
350
5D
  3
C2
350
5E
  3
C3
350
5F
  3
C4
350
60
  3
C5
350
61
  3
C6
350
62
  3
C7
350
63
  3
C8
350
64
  3
C9
350
65
  3
D0
350
66
  3
D1
350
67
  3
D2
350
68
  0
DICTIONARY
  5
167
102
{ACAD_REACTORS
330
C
102
}
330
C
100
AcDbDictionary
281
     1
  0
DICTIONARY
  5
161
102
{ACAD_REACTORS
330
C
102
}
330
C
100
AcDbDictionary
281
     1
  0
DICTIONARY
  5
15A
102
{ACAD_REACTORS
330
C
102
}
330
C
100
AcDbDictionary
281
     1
  0
XRECORD
  5
198
102
{ACAD_REACTORS
330
C
102
}
330
C
100
AcDbXrecord
280
     1
  1
DWGPROPS COOKIE
  2

  3

  4

  6

  7

  8
12016016
  9

300
=
301
=
302
=
303
=
304
=
305
=
306
=
307
=
308
=
309
=
 40
0.0
 41
2458260.400157697
 42
2459677.376574607
  1

 90
        0
  0
DICTIONARY
  5
197
102
{ACAD_REACTORS
330
196
102
}
330
196
100
AcDbDictionary
281
     1
  0
LAYOUT
  5
1E
102
{ACAD_REACTORS
330
1A
102
}
330
1A
100
AcDbPlotSettings
  1

  2
none_device
  4

  6

 40
0.0
 41
0.0
 42
0.0
 43
0.0
 44
0.0
 45
0.0
 46
0.0
 47
0.0
 48
0.0
 49
0.0
140
0.0
141
0.0
142
1.0
143
1.0
 70
   688
 72
     1
 73
     0
 74
     5
  7

 75
    16
147
1.0
148
0.0
149
0.0
100
AcDbLayout
  1
Layout1
 70
     1
 71
     1
 10
0.0
 20
0.0
 11
420.0
 21
297.0
 12
0.0
 22
0.0
 32
0.0
 14
1.000000000000000E+20
 24
1.000000000000000E+20
 34
1.000000000000000E+20
 15
-1.000000000000000E+20
 25
-1.000000000000000E+20
 35
-1.000000000000000E+20
146
0.0
 13
0.0
 23
0.0
 33
0.0
 16
1.0
 26
0.0
 36
0.0
 17
0.0
 27
1.0
 37
0.0
 76
     0
330
1B
  0
LAYOUT
  5
26
102
{ACAD_REACTORS
330
1A
102
}
330
1A
100
AcDbPlotSettings
  1

  2
none_device
  4

  6

 40
0.0
 41
0.0
 42
0.0
 43
0.0
 44
0.0
 45
0.0
 46
0.0
 47
0.0
 48
0.0
 49
0.0
140
0.0
141
0.0
142
1.0
143
1.0
 70
   688
 72
     1
 73
     0
 74
     5
  7

 75
    16
147
1.0
148
0.0
149
0.0
100
AcDbLayout
  1
Layout2
 70
     1
 71
     2
 10
0.0
 20
0.0
 11
0.0
 21
0.0
 12
0.0
 22
0.0
 32
0.0
 14
0.0
 24
0.0
 34
0.0
 15
0.0
 25
0.0
 35
0.0
146
0.0
 13
0.0
 23
0.0
 33
0.0
 16
1.0
 26
0.0
 36
0.0
 17
0.0
 27
1.0
 37
0.0
 76
     0
330
23
  0
LAYOUT
  5
22
102
{ACAD_REACTORS
330
1A
102
}
330
1A
100
AcDbPlotSettings
  1

  2
none_device
  4
ANSI_A_(11.00_x_8.50_Inches)
  6

 40
6.35
 41
19.05
 42
6.35000508
 43
19.05000254
 44
279.4
 45
215.9
 46
185.6555062867572
 47
100.8537443875621
 48
0.0
 49
0.0
140
0.0
141
0.0
142
0.0922419125129433
143
1.0
 70
  1696
 72
     0
 73
     0
 74
     0
  7

 75
     0
147
0.0235690232323232
148
0.0
149
0.0
100
AcDbLayout
  1
Model
 70
     1
 71
     0
 10
0.0
 20
0.0
 11
420.0
 21
297.0
 12
0.0
 22
0.0
 32
0.0
 14
-52.54946716083421
 24
-49.97180738881174
 34
0.0
 15
47.94578762077025
 25
40.37500000000004
 35
0.0
146
0.0
 13
0.0
 23
0.0
 33
0.0
 16
1.0
 26
0.0
 36
0.0
 17
0.0
 27
1.0
 37
0.0
 76
     0
330
1F
331
29
  0
MLINESTYLE
  5
18
102
{ACAD_REACTORS
330
17
102
}
330
17
100
AcDbMlineStyle
  2
Standard
 70
     0
  3

 62
   256
 51
90.0
 52
90.0
 71
     2
 49
0.5
 62
   256
  6
BYLAYER
 49
-0.5
 62
   256
  6
BYLAYER
  0
ACDBPLACEHOLDER
  5
F
102
{ACAD_REACTORS
330
E
102
}
330
E
  0
SCALE
  5
48
102
{ACAD_REACTORS
330
47
102
}
330
47
100
AcDbScale
 70
     0
300
1:1
140
1.0
141
1.0
290
     1
  0
SCALE
  5
49
102
{ACAD_REACTORS
330
47
102
}
330
47
100
AcDbScale
 70
     0
300
1:2
140
1.0
141
2.0
290
     0
  0
SCALE
  5
4A
102
{ACAD_REACTORS
330
47
102
}
330
47
100
AcDbScale
 70
     0
300
1:4
140
1.0
141
4.0
290
     0
  0
SCALE
  5
4B
102
{ACAD_REACTORS
330
47
102
}
330
47
100
AcDbScale
 70
     0
300
1:5
140
1.0
141
5.0
290
     0
  0
SCALE
  5
4C
102
{ACAD_REACTORS
330
47
102
}
330
47
100
AcDbScale
 70
     0
300
1:8
140
1.0
141
8.0
290
     0
  0
SCALE
  5
4D
102
{ACAD_REACTORS
330
47
102
}
330
47
100
AcDbScale
 70
     0
300
1:10
140
1.0
141
10.0
290
     0
  0
SCALE
  5
4E
102
{ACAD_REACTORS
330
47
102
}
330
47
100
AcDbScale
 70
     0
300
1:16
140
1.0
141
16.0
290
     0
  0
SCALE
  5
4F
102
{ACAD_REACTORS
330
47
102
}
330
47
100
AcDbScale
 70
     0
300
1:20
140
1.0
141
20.0
290
     0
  0
SCALE
  5
50
102
{ACAD_REACTORS
330
47
102
}
330
47
100
AcDbScale
 70
     0
300
1:30
140
1.0
141
30.0
290
     0
  0
SCALE
  5
51
102
{ACAD_REACTORS
330
47
102
}
330
47
100
AcDbScale
 70
     0
300
1:40
140
1.0
141
40.0
290
     0
  0
SCALE
  5
52
102
{ACAD_REACTORS
330
47
102
}
330
47
100
AcDbScale
 70
     0
300
1:50
140
1.0
141
50.0
290
     0
  0
SCALE
  5
53
102
{ACAD_REACTORS
330
47
102
}
330
47
100
AcDbScale
 70
     0
300
1:100
140
1.0
141
100.0
290
     0
  0
SCALE
  5
54
102
{ACAD_REACTORS
330
47
102
}
330
47
100
AcDbScale
 70
     0
300
2:1
140
2.0
141
1.0
290
     0
  0
SCALE
  5
55
102
{ACAD_REACTORS
330
47
102
}
330
47
100
AcDbScale
 70
     0
300
4:1
140
4.0
141
1.0
290
     0
  0
SCALE
  5
56
102
{ACAD_REACTORS
330
47
102
}
330
47
100
AcDbScale
 70
     0
300
8:1
140
8.0
141
1.0
290
     0
  0
SCALE
  5
57
102
{ACAD_REACTORS
330
47
102
}
330
47
100
AcDbScale
 70
     0
300
10:1
140
10.0
141
1.0
290
     0
  0
SCALE
  5
58
102
{ACAD_REACTORS
330
47
102
}
330
47
100
AcDbScale
 70
     0
300
100:1
140
100.0
141
1.0
290
     0
  0
SCALE
  5
59
102
{ACAD_REACTORS
330
47
102
}
330
47
100
AcDbScale
 70
     0
300
1/128" = 1'-0"
140
0.0078125
141
12.0
290
     0
  0
SCALE
  5
5A
102
{ACAD_REACTORS
330
47
102
}
330
47
100
AcDbScale
 70
     0
300
1/64" = 1'-0"
140
0.015625
141
12.0
290
     0
  0
SCALE
  5
5B
102
{ACAD_REACTORS
330
47
102
}
330
47
100
AcDbScale
 70
     0
300
1/32" = 1'-0"
140
0.03125
141
12.0
290
     0
  0
SCALE
  5
5C
102
{ACAD_REACTORS
330
47
102
}
330
47
100
AcDbScale
 70
     0
300
1/16" = 1'-0"
140
0.0625
141
12.0
290
     0
  0
SCALE
  5
5D
102
{ACAD_REACTORS
330
47
102
}
330
47
100
AcDbScale
 70
     0
300
3/32" = 1'-0"
140
0.09375
141
12.0
290
     0
  0
SCALE
  5
5E
102
{ACAD_REACTORS
330
47
102
}
330
47
100
AcDbScale
 70
     0
300
1/8" = 1'-0"
140
0.125
141
12.0
290
     0
  0
SCALE
  5
5F
102
{ACAD_REACTORS
330
47
102
}
330
47
100
AcDbScale
 70
     0
300
3/16" = 1'-0"
140
0.1875
141
12.0
290
     0
  0
SCALE
  5
60
102
{ACAD_REACTORS
330
47
102
}
330
47
100
AcDbScale
 70
     0
300
1/4" = 1'-0"
140
0.25
141
12.0
290
     0
  0
SCALE
  5
61
102
{ACAD_REACTORS
330
47
102
}
330
47
100
AcDbScale
 70
     0
300
3/8" = 1'-0"
140
0.375
141
12.0
290
     0
  0
SCALE
  5
62
102
{ACAD_REACTORS
330
47
102
}
330
47
100
AcDbScale
 70
     0
300
1/2" = 1'-0"
140
0.5
141
12.0
290
     0
  0
SCALE
  5
63
102
{ACAD_REACTORS
330
47
102
}
330
47
100
AcDbScale
 70
     0
300
3/4" = 1'-0"
140
0.75
141
12.0
290
     0
  0
SCALE
  5
64
102
{ACAD_REACTORS
330
47
102
}
330
47
100
AcDbScale
 70
     0
300
1" = 1'-0"
140
1.0
141
12.0
290
     0
  0
SCALE
  5
65
102
{ACAD_REACTORS
330
47
102
}
330
47
100
AcDbScale
 70
     0
300
1-1/2" = 1'-0"
140
1.5
141
12.0
290
     0
  0
SCALE
  5
66
102
{ACAD_REACTORS
330
47
102
}
330
47
100
AcDbScale
 70
     0
300
3" = 1'-0"
140
3.0
141
12.0
290
     0
  0
SCALE
  5
67
102
{ACAD_REACTORS
330
47
102
}
330
47
100
AcDbScale
 70
     0
300
6" = 1'-0"
140
6.0
141
12.0
290
     0
  0
SCALE
  5
68
102
{ACAD_REACTORS
330
47
102
}
330
47
100
AcDbScale
 70
     0
300
1'-0" = 1'-0"
140
12.0
141
12.0
290
     0
  0
ENDSEC
  0
EOF
