  0
SECTION
  2
HEADER
  9
$ACADVER
  1
AC1015
  9
$ACADMAINTVER
 70
     6
  9
$DWGCODEPAGE
  3
ANSI_949
  9
$INSBASE
 10
0.0
 20
0.0
 30
0.0
  9
$EXTMIN
 10
-56.10927478196959
 20
-49.97180738881175
 30
0.0
  9
$EXTMAX
 10
27.54986477965031
 20
40.37500000000002
 30
0.0
  9
$LIMMIN
 10
0.0
 20
0.0
  9
$LIMMAX
 10
420.0
 20
297.0
  9
$ORTHOMODE
 70
     0
  9
$REGENMODE
 70
     1
  9
$FILLMODE
 70
     1
  9
$QTEXTMODE
 70
     0
  9
$MIRRTEXT
 70
     1
  9
$LTSCALE
 40
1.0
  9
$ATTMODE
 70
     1
  9
$TEXTSIZE
 40
3.5
  9
$TRACEWID
 40
1.0
  9
$TEXTSTYLE
  7
Standard
  9
$CLAYER
  8
0
  9
$CELTYPE
  6
ByLayer
  9
$CECOLOR
 62
   256
  9
$CELTSCALE
 40
1.0
  9
$DISPSILH
 70
     0
  9
$DIMSCALE
 40
1.0
  9
$DIMASZ
 40
3.302
  9
$DIMEXO
 40
1.0
  9
$DIMDLI
 40
3.75
  9
$DIMRND
 40
0.0
  9
$DIMDLE
 40
0.0
  9
$DIMEXE
 40
1.0
  9
$DIMTP
 40
0.0
  9
$DIMTM
 40
0.0
  9
$DIMTXT
 40
3.5
  9
$DIMCEN
 40
2.5
  9
$DIMTSZ
 40
0.0
  9
$DIMTOL
 70
     0
  9
$DIMLIM
 70
     0
  9
$DIMTIH
 70
     1
  9
$DIMTOH
 70
     1
  9
$DIMSE1
 70
     0
  9
$DIMSE2
 70
     0
  9
$DIMTAD
 70
     1
  9
$DIMZIN
 70
     0
  9
$DIMBLK
  1

  9
$DIMASO
 70
     1
  9
$DIMSHO
 70
     1
  9
$DIMPOST
  1

  9
$DIMAPOST
  1

  9
$DIMALT
 70
     0
  9
$DIMALTD
 70
     3
  9
$DIMALTF
 40
0.0393700787401575
  9
$DIMLFAC
 40
1.0
  9
$DIMTOFL
 70
     1
  9
$DIMTVP
 40
0.0
  9
$DIMTIX
 70
     0
  9
$DIMSOXD
 70
     0
  9
$DIMSAH
 70
     0
  9
$DIMBLK1
  1

  9
$DIMBLK2
  1

  9
$DIMSTYLE
  2
ISO-25
  9
$DIMCLRD
 70
     0
  9
$DIMCLRE
 70
     0
  9
$DIMCLRT
 70
     0
  9
$DIMTFAC
 40
1.0
  9
$DIMGAP
 40
1.524
  9
$DIMJUST
 70
     0
  9
$DIMSD1
 70
     0
  9
$DIMSD2
 70
     0
  9
$DIMTOLJ
 70
     0
  9
$DIMTZIN
 70
     0
  9
$DIMALTZ
 70
     0
  9
$DIMALTTZ
 70
     0
  9
$DIMUPT
 70
     0
  9
$DIMDEC
 70
     2
  9
$DIMTDEC
 70
     2
  9
$DIMALTU
 70
     2
  9
$DIMALTTD
 70
     3
  9
$DIMTXSTY
  7
Standard
  9
$DIMAUNIT
 70
     0
  9
$DIMADEC
 70
     2
  9
$DIMALTRND
 40
0.0
  9
$DIMAZIN
 70
     0
  9
$DIMDSEP
 70
    44
  9
$DIMATFIT
 70
     3
  9
$DIMFRAC
 70
     0
  9
$DIMLDRBLK
  1

  9
$DIMLUNIT
 70
     2
  9
$DIMLWD
 70
    -2
  9
$DIMLWE
 70
    -2
  9
$DIMTMOVE
 70
     0
  9
$LUNITS
 70
     2
  9
$LUPREC
 70
     2
  9
$SKETCHINC
 40
1.0
  9
$FILLETRAD
 40
10.0
  9
$AUNITS
 70
     0
  9
$AUPREC
 70
     2
  9
$MENU
  1
.
  9
$ELEVATION
 40
0.0
  9
$PELEVATION
 40
0.0
  9
$THICKNESS
 40
0.0
  9
$LIMCHECK
 70
     0
  9
$CHAMFERA
 40
0.0
  9
$CHAMFERB
 40
0.0
  9
$CHAMFERC
 40
0.0
  9
$CHAMFERD
 40
0.0
  9
$SKPOLY
 70
     0
  9
$TDCREATE
 40
2458260.775913866
  9
$TDUCREATE
 40
2458260.400913866
  9
$TDUPDATE
 40
2459677.742577361
  9
$TDUUPDATE
 40
2459677.367577361
  9
$TDINDWG
 40
0.0016319444
  9
$TDUSRTIMER
 40
0.0003910301
  9
$USRTIMER
 70
     1
  9
$ANGBASE
 50
0.0
  9
$ANGDIR
 70
     0
  9
$PDMODE
 70
     0
  9
$PDSIZE
 40
-1.0
  9
$PLINEWID
 40
0.0
  9
$SPLFRAME
 70
     0
  9
$SPLINETYPE
 70
     6
  9
$SPLINESEGS
 70
     8
  9
$HANDSEED
  5
191
  9
$SURFTAB1
 70
     6
  9
$SURFTAB2
 70
     6
  9
$SURFTYPE
 70
     6
  9
$SURFU
 70
     6
  9
$SURFV
 70
     6
  9
$UCSBASE
  2

  9
$UCSNAME
  2

  9
$UCSORG
 10
0.0
 20
0.0
 30
0.0
  9
$UCSXDIR
 10
1.0
 20
0.0
 30
0.0
  9
$UCSYDIR
 10
0.0
 20
1.0
 30
0.0
  9
$UCSORTHOREF
  2

  9
$UCSORTHOVIEW
 70
     0
  9
$UCSORGTOP
 10
0.0
 20
0.0
 30
0.0
  9
$UCSORGBOTTOM
 10
0.0
 20
0.0
 30
0.0
  9
$UCSORGLEFT
 10
0.0
 20
0.0
 30
0.0
  9
$UCSORGRIGHT
 10
0.0
 20
0.0
 30
0.0
  9
$UCSORGFRONT
 10
0.0
 20
0.0
 30
0.0
  9
$UCSORGBACK
 10
0.0
 20
0.0
 30
0.0
  9
$PUCSBASE
  2

  9
$PUCSNAME
  2

  9
$PUCSORG
 10
0.0
 20
0.0
 30
0.0
  9
$PUCSXDIR
 10
1.0
 20
0.0
 30
0.0
  9
$PUCSYDIR
 10
0.0
 20
1.0
 30
0.0
  9
$PUCSORTHOREF
  2

  9
$PUCSORTHOVIEW
 70
     0
  9
$PUCSORGTOP
 10
0.0
 20
0.0
 30
0.0
  9
$PUCSORGBOTTOM
 10
0.0
 20
0.0
 30
0.0
  9
$PUCSORGLEFT
 10
0.0
 20
0.0
 30
0.0
  9
$PUCSORGRIGHT
 10
0.0
 20
0.0
 30
0.0
  9
$PUCSORGFRONT
 10
0.0
 20
0.0
 30
0.0
  9
$PUCSORGBACK
 10
0.0
 20
0.0
 30
0.0
  9
$USERI1
 70
     0
  9
$USERI2
 70
     0
  9
$USERI3
 70
     0
  9
$USERI4
 70
     0
  9
$USERI5
 70
     0
  9
$USERR1
 40
0.0
  9
$USERR2
 40
0.0
  9
$USERR3
 40
0.0
  9
$USERR4
 40
0.0
  9
$USERR5
 40
0.0
  9
$WORLDVIEW
 70
     1
  9
$SHADEDGE
 70
     3
  9
$SHADEDIF
 70
    70
  9
$TILEMODE
 70
     1
  9
$MAXACTVP
 70
    64
  9
$PINSBASE
 10
0.0
 20
0.0
 30
0.0
  9
$PLIMCHECK
 70
     0
  9
$PEXTMIN
 10
1.000000000000000E+20
 20
1.000000000000000E+20
 30
1.000000000000000E+20
  9
$PEXTMAX
 10
-1.000000000000000E+20
 20
-1.000000000000000E+20
 30
-1.000000000000000E+20
  9
$PLIMMIN
 10
0.0
 20
0.0
  9
$PLIMMAX
 10
0.0
 20
0.0
  9
$UNITMODE
 70
     0
  9
$VISRETAIN
 70
     1
  9
$PLINEGEN
 70
     0
  9
$PSLTSCALE
 70
     1
  9
$TREEDEPTH
 70
  3020
  9
$CMLSTYLE
  2
Standard
  9
$CMLJUST
 70
     0
  9
$CMLSCALE
 40
20.0
  9
$PROXYGRAPHICS
 70
     1
  9
$MEASUREMENT
 70
     1
  9
$CELWEIGHT
370
    -1
  9
$ENDCAPS
280
     0
  9
$JOINSTYLE
280
     0
  9
$LWDISPLAY
290
     1
  9
$INSUNITS
 70
     4
  9
$HYPERLINKBASE
  1

  9
$STYLESHEET
  1

  9
$XEDIT
290
     1
  9
$CEPSNTYPE
380
     0
  9
$PSTYLEMODE
290
     1
  9
$FINGERPRINTGUID
  2
{908E4BD0-E4EF-4496-B167-3014E65E5456}
  9
$VERSIONGUID
  2
{FAEB1C32-E019-11D5-929B-00C0DF256EC4}
  9
$EXTNAMES
290
     1
  9
$PSVPSCALE
 40
0.0
  9
$OLESTARTUP
290
     0
  0
ENDSEC
  0
SECTION
  2
CLASSES
  0
CLASS
  1
ACDBDICTIONARYWDFLT
  2
AcDbDictionaryWithDefault
  3
ObjectDBX Classes
 90
        0
280
     0
281
     0
  0
CLASS
  1
VISUALSTYLE
  2
AcDbVisualStyle
  3
ObjectDBX Classes
 90
     4095
280
     0
281
     0
  0
CLASS
  1
MATERIAL
  2
AcDbMaterial
  3
ObjectDBX Classes
 90
     1153
280
     0
281
     0
  0
CLASS
  1
SCALE
  2
AcDbScale
  3
ObjectDBX Classes
 90
     1153
280
     0
281
     0
  0
CLASS
  1
TABLESTYLE
  2
AcDbTableStyle
  3
ObjectDBX Classes
 90
     4095
280
     0
281
     0
  0
CLASS
  1
MLEADERSTYLE
  2
AcDbMLeaderStyle
  3
ACDB_MLEADERSTYLE_CLASS
 90
     4095
280
     0
281
     0
  0
CLASS
  1
SUN
  2
AcDbSun
  3
SCENEOE
 90
     1153
280
     0
281
     0
  0
CLASS
  1
ACDBPLACEHOLDER
  2
AcDbPlaceHolder
  3
ObjectDBX Classes
 90
        0
280
     0
281
     0
  0
CLASS
  1
LAYOUT
  2
AcDbLayout
  3
ObjectDBX Classes
 90
        0
280
     0
281
     0
  0
ENDSEC
  0
SECTION
  2
TABLES
  0
TABLE
  2
VPORT
  5
8
330
0
100
AcDbSymbolTable
 70
     1
  0
VPORT
  5
29
330
8
100
AcDbSymbolTableRecord
100
AcDbViewportTableRecord
  2
*Active
 70
     0
 10
0.0
 20
0.0
 11
1.0
 21
1.0
 12
-15.57596125252937
 22
3.320554395086639
 13
0.0
 23
0.0
 14
10.0
 24
10.0
 15
10.0
 25
10.0
 16
0.0
 26
0.0
 36
1.0
 17
0.0
 27
0.0
 37
0.0
 40
55.43855498797832
 41
1.531481481481481
 42
50.0
 43
0.0
 44
0.0
 50
0.0
 51
0.0
 71
    16
 72
  2000
 73
     1
 74
     3
 75
     0
 76
     0
 77
     0
 78
     0
281
     0
 65
     1
110
0.0
120
0.0
130
0.0
111
1.0
121
0.0
131
0.0
112
0.0
122
1.0
132
0.0
 79
     0
146
0.0
  0
ENDTAB
  0
TABLE
  2
LTYPE
  5
5
330
0
100
AcDbSymbolTable
 70
     6
  0
LTYPE
  5
14
330
5
100
AcDbSymbolTableRecord
100
AcDbLinetypeTableRecord
  2
ByBlock
 70
     0
  3

 72
    65
 73
     0
 40
0.0
  0
LTYPE
  5
15
330
5
100
AcDbSymbolTableRecord
100
AcDbLinetypeTableRecord
  2
ByLayer
 70
     0
  3

 72
    65
 73
     0
 40
0.0
  0
LTYPE
  5
16
330
5
100
AcDbSymbolTableRecord
100
AcDbLinetypeTableRecord
  2
Continuous
 70
     0
  3
Solid line
 72
    65
 73
     0
 40
0.0
  0
LTYPE
  5
6E
330
5
100
AcDbSymbolTableRecord
100
AcDbLinetypeTableRecord
  2
HIDDEN
 70
     0
  3
Hidden __ __ __ __ __ __ __ __ __ __ __ __ __ __
 72
    65
 73
     2
 40
1.905
 49
1.27
 74
     0
 49
-0.635
 74
     0
  0
LTYPE
  5
6F
330
5
100
AcDbSymbolTableRecord
100
AcDbLinetypeTableRecord
  2
PHANTOM
 70
     0
  3
Phantom ______  __  __  ______  __  __  ______
 72
    65
 73
     6
 40
12.7
 49
6.35
 74
     0
 49
-1.27
 74
     0
 49
1.27
 74
     0
 49
-1.27
 74
     0
 49
1.27
 74
     0
 49
-1.27
 74
     0
  0
LTYPE
  5
70
330
5
100
AcDbSymbolTableRecord
100
AcDbLinetypeTableRecord
  2
CENTER
 70
     0
  3
Center ____ _ ____ _ ____ _ ____ _ ____ _ ____
 72
    65
 73
     4
 40
10.16
 49
6.35
 74
     0
 49
-1.27
 74
     0
 49
1.27
 74
     0
 49
-1.27
 74
     0
  0
LTYPE
  5
71
330
5
100
AcDbSymbolTableRecord
100
AcDbLinetypeTableRecord
  2
CENTERX2
 70
     0
  3
Center (2x) ________  __  ________  __  _____
 72
    65
 73
     4
 40
20.32
 49
12.7
 74
     0
 49
-2.54
 74
     0
 49
2.54
 74
     0
 49
-2.54
 74
     0
  0
LTYPE
  5
72
330
5
100
AcDbSymbolTableRecord
100
AcDbLinetypeTableRecord
  2
DOT2
 70
     0
  3
Dot (.5x) ........................................
 72
    65
 73
     2
 40
0.635
 49
0.0
 74
     0
 49
-0.635
 74
     0
  0
ENDTAB
  0
TABLE
  2
LAYER
  5
2
330
0
100
AcDbSymbolTable
 70
    17
  0
LAYER
  5
10
330
2
100
AcDbSymbolTableRecord
100
AcDbLayerTableRecord
  2
0
 70
     0
 62
     7
  6
Continuous
370
    -3
390
F
  0
LAYER
  5
73
330
2
100
AcDbSymbolTableRecord
100
AcDbLayerTableRecord
  2
FORMAT
 70
     0
 62
     2
  6
Continuous
370
    -3
390
F
  0
LAYER
  5
74
330
2
100
AcDbSymbolTableRecord
100
AcDbLayerTableRecord
  2
외형선
 70
     0
 62
   100
  6
Continuous
370
    35
390
F
  0
LAYER
  5
75
330
2
100
AcDbSymbolTableRecord
100
AcDbLayerTableRecord
  2
숨은선
 70
     0
 62
     2
  6
HIDDEN
370
    25
390
F
  0
LAYER
  5
76
330
2
100
AcDbSymbolTableRecord
100
AcDbLayerTableRecord
  2
중심선
 70
     0
 62
     1
  6
CENTERX2
370
    -3
390
F
  0
LAYER
  5
77
330
2
100
AcDbSymbolTableRecord
100
AcDbLayerTableRecord
  2
파단선
 70
     0
 62
     4
  6
Continuous
370
    -3
390
F
  0
LAYER
  5
78
330
2
100
AcDbSymbolTableRecord
100
AcDbLayerTableRecord
  2
해칭선
 70
     0
 62
   100
  6
Continuous
370
    -3
390
F
  0
LAYER
  5
79
330
2
100
AcDbSymbolTableRecord
100
AcDbLayerTableRecord
  2
가는실선
 70
     0
 62
     4
  6
Continuous
370
    -3
390
F
  0
LAYER
  5
7A
330
2
100
AcDbSymbolTableRecord
100
AcDbLayerTableRecord
  2
치수_보조선
 70
     0
 62
     4
  6
Continuous
370
    -3
390
F
  0
LAYER
  5
7B
330
2
100
AcDbSymbolTableRecord
100
AcDbLayerTableRecord
  2
치수문자_일반주서
 70
     0
 62
     7
  6
Continuous
370
    25
390
F
  0
LAYER
  5
7C
330
2
100
AcDbSymbolTableRecord
100
AcDbLayerTableRecord
  2
개별주서
 70
     0
 62
   100
  6
Continuous
370
    35
390
F
  0
LAYER
  5
7D
330
2
100
AcDbSymbolTableRecord
100
AcDbLayerTableRecord
  2
중간선
 70
     0
 62
     2
  6
Continuous
370
    25
390
F
  0
LAYER
  5
7E
330
2
100
AcDbSymbolTableRecord
100
AcDbLayerTableRecord
  2
윤곽선
 70
     0
 62
     3
  6
Continuous
370
    50
390
F
  0
LAYER
  5
7F
330
2
100
AcDbSymbolTableRecord
100
AcDbLayerTableRecord
  2
중심마크
 70
     0
 62
   100
  6
Continuous
370
    35
390
F
  0
LAYER
  5
80
330
2
100
AcDbSymbolTableRecord
100
AcDbLayerTableRecord
  2
가상선
 70
     0
 62
     4
  6
PHANTOM
370
    -3
390
F
  0
LAYER
  5
81
330
2
100
AcDbSymbolTableRecord
100
AcDbLayerTableRecord
  2
특수지정선
 70
     0
 62
     5
  6
CENTERX2
370
    70
390
F
  0
LAYER
  5
158
330
2
100
AcDbSymbolTableRecord
100
AcDbLayerTableRecord
  2
Defpoints
 70
     0
 62
     7
  6
Continuous
290
     0
370
    -3
390
F
  0
ENDTAB
  0
TABLE
  2
STYLE
  5
3
330
0
100
AcDbSymbolTable
 70
     2
  0
STYLE
  5
11
330
3
100
AcDbSymbolTableRecord
100
AcDbTextStyleTableRecord
  2
Standard
 70
     0
 40
0.0
 41
1.0
 50
0.0
 71
     0
 42
3.5
  3
txt
  4

  0
STYLE
  5
97
330
3
100
AcDbSymbolTableRecord
100
AcDbTextStyleTableRecord
  2
SLDTEXTSTYLE0
 70
     0
 40
0.0
 41
0.75
 50
0.0
 71
     0
 42
3.5
  3
TXT
  4

  0
ENDTAB
  0
TABLE
  2
VIEW
  5
6
330
0
100
AcDbSymbolTable
 70
     0
  0
ENDTAB
  0
TABLE
  2
UCS
  5
7
330
0
100
AcDbSymbolTable
 70
     0
  0
ENDTAB
  0
TABLE
  2
APPID
  5
9
330
0
100
AcDbSymbolTable
 70
     2
  0
APPID
  5
12
330
9
100
AcDbSymbolTableRecord
100
AcDbRegAppTableRecord
  2
ACAD
 70
     0
  0
APPID
  5
160
330
9
100
AcDbSymbolTableRecord
100
AcDbRegAppTableRecord
  2
PE_URL
 70
     0
  0
ENDTAB
  0
TABLE
  2
DIMSTYLE
  5
A
330
0
100
AcDbSymbolTable
 70
     5
100
AcDbDimStyleTable
  0
DIMSTYLE
105
27
330
A
100
AcDbSymbolTableRecord
100
AcDbDimStyleTableRecord
  2
ISO-25
 70
     0
 41
2.5
 42
0.625
 43
3.75
 44
1.25
 73
     0
 74
     0
 77
     1
 78
     8
140
2.5
141
2.5
143
0.03937007874016
147
0.625
171
     3
172
     1
178
     0
271
     2
272
     2
274
     3
278
    44
283
     0
284
     8
340
11
  0
DIMSTYLE
105
F0
102
{ACAD_REACTORS
330
EF
102
}
330
A
100
AcDbSymbolTableRecord
100
AcDbDimStyleTableRecord
  2
SLDDIMSTYLE0
 70
     0
 41
3.302
 44
0.0
 45
0.000000001
 73
     0
 74
     0
 77
     1
 78
    12
 79
     3
140
3.5
147
0.875
172
     1
173
     1
178
     0
271
     1
272
     1
276
     2
284
    12
289
     0
340
97
  0
DIMSTYLE
105
FE
102
{ACAD_REACTORS
330
FD
102
}
330
A
100
AcDbSymbolTableRecord
100
AcDbDimStyleTableRecord
  2
SLDDIMSTYLE1
 70
     0
 41
3.302
 44
0.0
 45
0.000000001
 73
     0
 74
     0
 77
     1
 78
    12
 79
     3
140
3.5
147
0.875
173
     1
178
     0
271
     2
272
     2
276
     2
284
    12
340
97
  0
DIMSTYLE
105
109
102
{ACAD_REACTORS
330
108
330
123
102
}
330
A
100
AcDbSymbolTableRecord
100
AcDbDimStyleTableRecord
  2
SLDDIMSTYLE2
 70
     0
 41
3.302
 44
0.0
 45
0.000000001
 73
     0
 74
     0
 77
     1
 78
    12
 79
     3
140
3.5
147
0.875
172
     1
173
     1
178
     0
271
     2
272
     2
276
     2
284
    12
289
     0
340
97
  0
DIMSTYLE
105
117
102
{ACAD_REACTORS
330
116
102
}
330
A
100
AcDbSymbolTableRecord
100
AcDbDimStyleTableRecord
  2
SLDDIMSTYLE3
 70
     0
 41
3.302
 44
0.0
 45
0.000000001
 73
     0
 74
     0
 77
     1
 78
     4
 79
     1
140
3.5
147
0.875
172
     1
173
     1
178
     0
271
     2
272
     2
276
     2
284
    12
289
     0
340
97
  0
ENDTAB
  0
TABLE
  2
BLOCK_RECORD
  5
1
330
0
100
AcDbSymbolTable
 70
     8
  0
BLOCK_RECORD
  5
1F
102
{ACAD_XDICTIONARY
360
18E
102
}
330
1
100
AcDbSymbolTableRecord
100
AcDbBlockTableRecord
  2
*Model_Space
340
22
  0
BLOCK_RECORD
  5
1B
330
1
100
AcDbSymbolTableRecord
100
AcDbBlockTableRecord
  2
*Paper_Space
340
1E
  0
BLOCK_RECORD
  5
23
330
1
100
AcDbSymbolTableRecord
100
AcDbBlockTableRecord
  2
*Paper_Space0
340
26
  0
BLOCK_RECORD
  5
82
330
1
100
AcDbSymbolTableRecord
100
AcDbBlockTableRecord
  2
블럭10
340
0
102
{BLKREFS
331
E8
102
}
  0
BLOCK_RECORD
  5
F1
330
1
100
AcDbSymbolTableRecord
100
AcDbBlockTableRecord
  2
_D
340
0
  0
BLOCK_RECORD
  5
FF
330
1
100
AcDbSymbolTableRecord
100
AcDbBlockTableRecord
  2
_D_1
340
0
  0
BLOCK_RECORD
  5
10A
330
1
100
AcDbSymbolTableRecord
100
AcDbBlockTableRecord
  2
_D_2
340
0
  0
BLOCK_RECORD
  5
118
330
1
100
AcDbSymbolTableRecord
100
AcDbBlockTableRecord
  2
_D_3
340
0
  0
BLOCK_RECORD
  5
124
330
1
100
AcDbSymbolTableRecord
100
AcDbBlockTableRecord
  2
_D_4
340
0
  0
BLOCK_RECORD
  5
12F
330
1
100
AcDbSymbolTableRecord
100
AcDbBlockTableRecord
  2
SW_DOWELSYMBOL_0
340
0
102
{BLKREFS
331
135
102
}
  0
ENDTAB
  0
ENDSEC
  0
SECTION
  2
BLOCKS
  0
BLOCK
  5
20
330
1F
100
AcDbEntity
  8
0
100
AcDbBlockBegin
  2
*Model_Space
 70
     0
 10
0.0
 20
0.0
 30
0.0
  3
*Model_Space
  1

  0
ENDBLK
  5
21
330
1F
100
AcDbEntity
  8
0
100
AcDbBlockEnd
  0
BLOCK
  5
1C
330
1B
100
AcDbEntity
 67
     1
  8
0
100
AcDbBlockBegin
  2
*Paper_Space
 70
     0
 10
0.0
 20
0.0
 30
0.0
  3
*Paper_Space
  1

  0
ENDBLK
  5
1D
330
1B
100
AcDbEntity
 67
     1
  8
0
100
AcDbBlockEnd
  0
BLOCK
  5
24
330
23
100
AcDbEntity
  8
0
100
AcDbBlockBegin
  2
*Paper_Space0
 70
     0
 10
0.0
 20
0.0
 30
0.0
  3
*Paper_Space0
  1

  0
ENDBLK
  5
25
330
23
100
AcDbEntity
  8
0
100
AcDbBlockEnd
  0
BLOCK
  5
83
330
82
100
AcDbEntity
  8
0
100
AcDbBlockBegin
  2
블럭10
 70
     2
 10
0.0
 20
0.0
 30
0.0
  3
블럭10
  1

  0
ELLIPSE
  5
85
330
82
100
AcDbEntity
  8
중심선
100
AcDbEllipse
 10
20.54032771741204
 20
12.0471743016438
 30
0.0
 11
6.600054785286829
 21
-1.261213355974178E-13
 31
0.0
210
0.0
220
0.0
230
1.0
 40
0.636358354079598
 41
0.9219305317359503
 42
6.513795318482858
  0
ELLIPSE
  5
86
330
82
100
AcDbEntity
  8
중심선
100
AcDbEllipse
 10
20.54032771746488
 20
12.04717430159265
 30
0.0
 11
3.960054785062283
 21
1.540847449632565E-10
 31
0.0
210
0.0
220
0.0
230
1.0
 40
0.3939339440162632
 41
1.131841032648279
 42
5.62031148352944
  0
LINE
  5
87
330
82
100
AcDbEntity
  8
중심선
100
AcDbLine
 10
2.268634060543552
 20
16.24717430164393
 30
0.0
 11
5.714909304380834
 21
16.24717430164393
 31
0.0
  0
LINE
  5
88
330
82
100
AcDbEntity
  8
중심선
100
AcDbLine
 10
5.245725140726316
 20
7.84717430164391
 30
0.0
 11
8.692000384563599
 21
7.84717430164391
 31
0.0
  0
LINE
  5
89
330
82
100
AcDbEntity
  8
중심선
100
AcDbLine
 10
15.74043728645272
 20
16.24717430164393
 30
0.0
 11
8.692000384563599
 21
7.84717430164391
 31
0.0
  0
LINE
  5
8A
330
82
100
AcDbEntity
  8
중심선
100
AcDbLine
 10
0.1404042013395286
 20
13.71084872107135
 30
0.0
 11
3.58671253028996
 21
13.71088815037384
 31
0.0
  0
LINE
  5
8B
330
82
100
AcDbEntity
  8
중심선
100
AcDbLine
 10
2.750260043222114
 20
10.84717430164391
 30
0.0
 11
6.196535287059397
 21
10.84717430164391
 31
0.0
  0
LINE
  5
8C
330
82
100
AcDbEntity
  8
중심선
100
AcDbLine
 10
12.29416204261559
 20
16.24717430164393
 30
0.0
 11
5.245725140726316
 21
7.84717430164391
 31
0.0
  0
LINE
  5
8D
330
82
100
AcDbEntity
  8
중심선
100
AcDbLine
 10
10.72767329541681
 20
16.24717430164393
 30
0.0
 11
6.196535287059397
 21
10.84717430164391
 31
0.0
  0
LINE
  5
8E
330
82
100
AcDbEntity
  8
중심선
100
AcDbLine
 10
7.28139805157953
 20
16.24717430164393
 30
0.0
 11
2.750260043222114
 21
10.84717430164391
 31
0.0
  0
LINE
  5
8F
330
82
100
AcDbEntity
  8
중심선
100
AcDbLine
 10
5.714909304380834
 20
16.24717430164393
 30
0.0
 11
3.58671253028996
 21
13.71088815037384
 31
0.0
  0
LINE
  5
90
330
82
100
AcDbEntity
  8
중심선
100
AcDbLine
 10
2.268634060543552
 20
16.24717430164393
 30
0.0
 11
0.1404042013395286
 21
13.71084872107135
 31
0.0
  0
LINE
  5
91
330
82
100
AcDbEntity
  8
중심선
100
AcDbLine
 10
7.28139805157953
 20
16.24717430164393
 30
0.0
 11
10.72767329541681
 21
16.24717430164393
 31
0.0
  0
LINE
  5
92
330
82
100
AcDbEntity
  8
중심선
100
AcDbLine
 10
12.29416204261559
 20
16.24717430164393
 30
0.0
 11
15.74043728645272
 21
16.24717430164393
 31
0.0
  0
LINE
  5
93
330
82
100
AcDbEntity
  8
중심선
100
AcDbLine
 10
19.22036997980202
 20
11.08717430171403
 30
0.0
 11
23.66174974927406
 21
11.08717430171406
 31
0.0
  0
LINE
  5
94
330
82
100
AcDbEntity
  8
중심선
100
AcDbLine
 10
19.22039502424796
 20
13.00717430171391
 30
0.0
 11
19.22036997980202
 21
11.08717430171403
 31
0.0
  0
LINE
  5
95
330
82
100
AcDbEntity
  8
중심선
100
AcDbLine
 10
19.22039502424796
 20
13.00717430171391
 30
0.0
 11
26.96566020931264
 21
13.00717430171391
 31
0.0
  0
LINE
  5
96
330
82
100
AcDbEntity
  8
중심선
100
AcDbLine
 10
22.22332737316547
 20
13.45928029700563
 30
0.0
 11
24.52862924686651
 21
15.39360700705356
 31
0.0
  0
ATTDEF
  5
98
330
82
100
AcDbEntity
  8
FORMAT
 62
     2
100
AcDbText
 10
-16.11926103943555
 20
2.075366912832191
 30
0.0
 40
4.233333333333333
  1
SEME7301507E [ 4 FLUTE ]
 41
0.75
  7
SLDTEXTSTYLE0
 11
-16.11926103943555
 21
-0.0412997538344756
 31
0.0
100
AcDbAttributeDefinition
  3

  2
AUTOATTR0
 70
     0
 74
     1
  0
ENDBLK
  5
84
330
82
100
AcDbEntity
  8
0
100
AcDbBlockEnd
  0
BLOCK
  5
F2
330
F1
100
AcDbEntity
  8
0
100
AcDbBlockBegin
  2
_D
 70
     0
 10
0.0
 20
0.0
 30
0.0
  3
_D
  1

  0
LINE
  5
F4
330
F1
100
AcDbEntity
  8
치수문자_일반주서
 62
     0
370
    -2
100
AcDbLine
 10
11.82086477965031
 20
-0.7348469228349557
 30
0.0
 11
24.78598760952568
 21
-0.7348469228349082
 31
0.0
  0
LINE
  5
F5
330
F1
100
AcDbEntity
  8
치수문자_일반주서
 62
     0
370
    -2
100
AcDbLine
 10
11.82086477965031
 20
0.7348469228349516
 30
0.0
 11
24.78598760952568
 21
0.7348469228349988
 31
0.0
  0
LINE
  5
F6
330
F1
100
AcDbEntity
  8
치수문자_일반주서
 62
     0
370
    -2
100
AcDbLine
 10
24.78598760952568
 20
0.7348469228349988
 30
0.0
 11
24.78598760952564
 21
16.088846922835
 31
0.0
  0
LINE
  5
F7
330
F1
100
AcDbEntity
  8
치수문자_일반주서
 62
     0
370
    -2
100
AcDbLine
 10
24.78598760952568
 20
-0.7348469228349082
 30
0.0
 11
24.78598760952568
 21
0.7348469228349988
 31
0.0
  0
LINE
  5
F8
330
F1
100
AcDbEntity
  8
치수문자_일반주서
 62
     0
370
    -2
100
AcDbLine
 10
24.78598760952569
 20
-4.036846922834908
 30
0.0
 11
24.78598760952569
 21
-7.338846922834907
 31
0.0
  0
LINE
  5
F9
330
F1
100
AcDbEntity
  8
치수문자_일반주서
 62
     0
370
    -2
100
AcDbLine
 10
24.78598760952567
 20
4.036846922834998
 30
0.0
 11
24.78598760952566
 21
7.338846922834998
 31
0.0
  0
SOLID
  5
FA
330
F1
100
AcDbEntity
  8
치수문자_일반주서
 62
     0
100
AcDbTrace
 10
25.33632094285902
 20
-4.036846922834907
 30
0.0
 11
24.23565427619235
 21
-4.036846922834909
 31
0.0
 12
24.78598760952568
 22
-0.7348469228349082
 32
0.0
 13
24.78598760952568
 23
-0.7348469228349082
 33
0.0
  0
SOLID
  5
FB
330
F1
100
AcDbEntity
  8
치수문자_일반주서
 62
     0
100
AcDbTrace
 10
24.23565427619234
 20
4.036846922834997
 30
0.0
 11
25.336320942859
 21
4.036846922834999
 31
0.0
 12
24.78598760952568
 22
0.7348469228349988
 32
0.0
 13
24.78598760952568
 23
0.7348469228349988
 33
0.0
  0
MTEXT
  5
FC
330
F1
100
AcDbEntity
  8
치수문자_일반주서
 62
     0
100
AcDbMText
 10
20.41098760952565
 20
11.71384692283499
 30
0.0
 40
3.5
 41
0.0
 71
     2
 72
     1
  1
\A1;%%c1.5
  7
SLDTEXTSTYLE0
 11
-2.417315476463143E-15
 21
1.0
 31
0.0
 73
     1
 44
1.0
  0
POINT
  5
15A
330
F1
100
AcDbEntity
  8
Defpoints
 62
     0
100
AcDbPoint
 10
11.75836477965031
 20
-0.7348469228349559
 30
0.0
  0
POINT
  5
15B
330
F1
100
AcDbEntity
  8
Defpoints
 62
     0
100
AcDbPoint
 10
11.75836477965031
 20
0.7348469228349513
 30
0.0
  0
POINT
  5
15C
330
F1
100
AcDbEntity
  8
Defpoints
 62
     0
100
AcDbPoint
 10
24.78598760952567
 20
0.734846922835
 30
0.0
  0
ENDBLK
  5
F3
330
F1
100
AcDbEntity
  8
0
100
AcDbBlockEnd
  0
BLOCK
  5
100
330
FF
100
AcDbEntity
  8
0
100
AcDbBlockBegin
  2
_D_1
 70
     0
 10
0.0
 20
0.0
 30
0.0
  3
_D_1
  1

  0
LINE
  5
102
330
FF
100
AcDbEntity
  8
치수문자_일반주서
 62
     0
370
    -2
100
AcDbLine
 10
-38.2416352203497
 20
1.562499999999992
 30
0.0
 11
-38.24163522034971
 21
36.00000000000003
 31
0.0
  0
LINE
  5
103
330
FF
100
AcDbEntity
  8
치수문자_일반주서
 62
     0
370
    -2
100
AcDbLine
 10
11.75836477965031
 20
-0.0125000000000046
 30
0.0
 11
11.7583647796503
 21
36.00000000000003
 31
0.0
  0
LINE
  5
104
330
FF
100
AcDbEntity
  8
치수문자_일반주서
 62
     0
370
    -2
100
AcDbLine
 10
-34.93963522034971
 20
36.00000000000003
 30
0.0
 11
8.456364779650304
 21
36.00000000000003
 31
0.0
  0
SOLID
  5
105
330
FF
100
AcDbEntity
  8
치수문자_일반주서
 62
     0
100
AcDbTrace
 10
-34.93963522034971
 20
36.55033333333336
 30
0.0
 11
-34.93963522034971
 21
35.44966666666669
 31
0.0
 12
-38.24163522034971
 22
36.00000000000003
 32
0.0
 13
-38.24163522034971
 23
36.00000000000003
 33
0.0
  0
SOLID
  5
106
330
FF
100
AcDbEntity
  8
치수문자_일반주서
 62
     0
100
AcDbTrace
 10
8.456364779650304
 20
35.44966666666669
 30
0.0
 11
8.456364779650304
 21
36.55033333333336
 31
0.0
 12
11.7583647796503
 22
36.00000000000003
 32
0.0
 13
11.7583647796503
 23
36.00000000000003
 33
0.0
  0
MTEXT
  5
107
330
FF
100
AcDbEntity
  8
치수문자_일반주서
 62
     0
100
AcDbMText
 10
-13.24163522034969
 20
40.37500000000003
 30
0.0
 40
3.5
 41
0.0
 71
     2
 72
     1
  1
\A1;50
  7
SLDTEXTSTYLE0
 73
     1
 44
1.0
  0
POINT
  5
162
330
FF
100
AcDbEntity
  8
Defpoints
 62
     0
100
AcDbPoint
 10
-38.2416352203497
 20
1.499999999999992
 30
0.0
  0
POINT
  5
163
330
FF
100
AcDbEntity
  8
Defpoints
 62
     0
100
AcDbPoint
 10
11.75836477965031
 20
-0.0750000000000046
 30
0.0
  0
POINT
  5
164
330
FF
100
AcDbEntity
  8
Defpoints
 62
     0
100
AcDbPoint
 10
11.75836477965031
 20
36.00000000000003
 30
0.0
  0
ENDBLK
  5
101
330
FF
100
AcDbEntity
  8
0
100
AcDbBlockEnd
  0
BLOCK
  5
10B
330
10A
100
AcDbEntity
  8
0
100
AcDbBlockBegin
  2
_D_2
 70
     0
 10
0.0
 20
0.0
 30
0.0
  3
_D_2
  1

  0
LINE
  5
10D
330
10A
100
AcDbEntity
  8
치수문자_일반주서
 62
     0
370
    -2
100
AcDbLine
 10
-37.80413522034971
 20
1.999999999999999
 30
0.0
 11
-51.7342747819696
 21
1.999999999999947
 31
0.0
  0
LINE
  5
10E
330
10A
100
AcDbEntity
  8
치수문자_일반주서
 62
     0
370
    -2
100
AcDbLine
 10
-37.80413522034971
 20
-2.000000000000004
 30
0.0
 11
-51.73427478196958
 21
-2.000000000000057
 31
0.0
  0
LINE
  5
10F
330
10A
100
AcDbEntity
  8
치수문자_일반주서
 62
     0
370
    -2
100
AcDbLine
 10
-51.73427478196958
 20
-1.302000000000053
 30
0.0
 11
-51.7342747819696
 21
1.301999999999943
 31
0.0
  0
SOLID
  5
110
330
10A
100
AcDbEntity
  8
치수문자_일반주서
 62
     0
100
AcDbTrace
 10
-51.18394144863625
 20
-1.302000000000051
 30
0.0
 11
-52.28460811530292
 21
-1.302000000000055
 31
0.0
 12
-51.7342747819696
 22
1.999999999999947
 32
0.0
 13
-51.7342747819696
 23
1.999999999999947
 33
0.0
  0
SOLID
  5
111
330
10A
100
AcDbEntity
  8
치수문자_일반주서
 62
     0
100
AcDbTrace
 10
-52.28460811530293
 20
1.301999999999941
 30
0.0
 11
-51.18394144863626
 21
1.301999999999945
 31
0.0
 12
-51.73427478196958
 22
-2.000000000000057
 32
0.0
 13
-51.73427478196958
 23
-2.000000000000057
 33
0.0
  0
MTEXT
  5
112
330
10A
100
AcDbEntity
  8
치수문자_일반주서
 62
     0
100
AcDbMText
 10
-56.10927478196959
 20
-0.7264638992030994
 30
0.0
 40
3.5
 41
0.0
 71
     2
 72
     1
  1
\A1;%%c4
  7
SLDTEXTSTYLE0
 11
-3.552713678800499E-15
 21
1.0
 31
0.0
 73
     1
 44
1.0
  0
POINT
  5
113
330
10A
100
AcDbEntity
  8
Defpoints
 62
     0
100
AcDbPoint
 10
-37.74163522034971
 20
1.999999999999999
 30
0.0
  0
POINT
  5
114
330
10A
100
AcDbEntity
  8
Defpoints
 62
     0
100
AcDbPoint
 10
-37.74163522034971
 20
-2.000000000000004
 30
0.0
  0
POINT
  5
115
330
10A
100
AcDbEntity
  8
Defpoints
 62
     0
100
AcDbPoint
 10
-51.73427478196959
 20
-2.000000000000056
 30
0.0
  0
ENDBLK
  5
10C
330
10A
100
AcDbEntity
  8
0
100
AcDbBlockEnd
  0
BLOCK
  5
119
330
118
100
AcDbEntity
  8
0
100
AcDbBlockBegin
  2
_D_3
 70
     0
 10
0.0
 20
0.0
 30
0.0
  3
_D_3
  1

  0
LINE
  5
11B
330
118
100
AcDbEntity
  8
치수문자_일반주서
 62
     0
370
    -2
100
AcDbLine
 10
9.45836477965031
 20
0.5981229458249178
 30
0.0
 11
9.45836477965031
 21
17.17144624737778
 31
0.0
  0
LINE
  5
11C
330
118
100
AcDbEntity
  8
치수문자_일반주서
 62
     0
370
    -2
100
AcDbLine
 10
11.75836477965031
 20
0.7956105983006972
 30
0.0
 11
11.75836477965031
 21
17.17144624737778
 31
0.0
  0
LINE
  5
11D
330
118
100
AcDbEntity
  8
치수문자_일반주서
 62
     0
370
    -2
100
AcDbLine
 10
11.75836477965031
 20
17.17144624737778
 30
0.0
 11
27.54986477965031
 21
17.17144624737778
 31
0.0
  0
LINE
  5
11E
330
118
100
AcDbEntity
  8
치수문자_일반주서
 62
     0
370
    -2
100
AcDbLine
 10
9.45836477965031
 20
17.17144624737778
 30
0.0
 11
11.75836477965031
 21
17.17144624737778
 31
0.0
  0
LINE
  5
11F
330
118
100
AcDbEntity
  8
치수문자_일반주서
 62
     0
370
    -2
100
AcDbLine
 10
6.15636477965031
 20
17.17144624737778
 30
0.0
 11
2.85436477965031
 21
17.17144624737778
 31
0.0
  0
LINE
  5
120
330
118
100
AcDbEntity
  8
치수문자_일반주서
 62
     0
370
    -2
100
AcDbLine
 10
15.06036477965031
 20
17.17144624737778
 30
0.0
 11
18.36236477965031
 21
17.17144624737778
 31
0.0
  0
SOLID
  5
121
330
118
100
AcDbEntity
  8
치수문자_일반주서
 62
     0
100
AcDbTrace
 10
6.15636477965031
 20
16.62111291404445
 30
0.0
 11
6.15636477965031
 21
17.72177958071112
 31
0.0
 12
9.45836477965031
 22
17.17144624737778
 32
0.0
 13
9.45836477965031
 23
17.17144624737778
 33
0.0
  0
SOLID
  5
122
330
118
100
AcDbEntity
  8
치수문자_일반주서
 62
     0
100
AcDbTrace
 10
15.06036477965031
 20
17.72177958071112
 30
0.0
 11
15.06036477965031
 21
16.62111291404445
 31
0.0
 12
11.75836477965031
 22
17.17144624737778
 32
0.0
 13
11.75836477965031
 23
17.17144624737778
 33
0.0
  0
MTEXT
  5
159
330
118
100
AcDbEntity
  8
치수문자_일반주서
 62
     0
100
AcDbMText
 10
22.95611477965031
 20
21.54644624737778
 30
0.0
 40
3.5
 41
0.0
 71
     2
 72
     1
  1
\A1;2.30
  7
SLDTEXTSTYLE0
 73
     1
 44
1.0
  0
POINT
  5
15D
330
118
100
AcDbEntity
  8
Defpoints
 62
     0
100
AcDbPoint
 10
9.45836477965031
 20
0.5356229458249178
 30
0.0
  0
POINT
  5
15E
330
118
100
AcDbEntity
  8
Defpoints
 62
     0
100
AcDbPoint
 10
11.75836477965031
 20
0.7331105983006972
 30
0.0
  0
POINT
  5
15F
330
118
100
AcDbEntity
  8
Defpoints
 62
     0
100
AcDbPoint
 10
11.75836477965031
 20
17.17144624737778
 30
0.0
  0
ENDBLK
  5
11A
330
118
100
AcDbEntity
  8
0
100
AcDbBlockEnd
  0
BLOCK
  5
125
330
124
100
AcDbEntity
  8
0
100
AcDbBlockBegin
  2
_D_4
 70
     0
 10
0.0
 20
0.0
 30
0.0
  3
_D_4
  1

  0
LINE
  5
127
330
124
100
AcDbEntity
  8
치수문자_일반주서
 62
     0
370
    -2
100
AcDbLine
 10
11.75836477965031
 20
0.7938742737664432
 30
0.0
 11
11.75836477965031
 21
25.43116380012061
 31
0.0
  0
LINE
  5
128
330
124
100
AcDbEntity
  8
치수문자_일반주서
 62
     0
370
    -2
100
AcDbLine
 10
4.758364779650308
 20
0.7874999999999962
 30
0.0
 11
4.758364779650308
 21
25.43116380012061
 31
0.0
  0
LINE
  5
129
330
124
100
AcDbEntity
  8
치수문자_일반주서
 62
     0
370
    -2
100
AcDbLine
 10
8.456364779650311
 20
25.43116380012061
 30
0.0
 11
8.060364779650309
 21
25.43116380012061
 31
0.0
  0
SOLID
  5
12A
330
124
100
AcDbEntity
  8
치수문자_일반주서
 62
     0
100
AcDbTrace
 10
8.456364779650311
 20
24.88083046678728
 30
0.0
 11
8.456364779650311
 21
25.98149713345395
 31
0.0
 12
11.75836477965031
 22
25.43116380012061
 32
0.0
 13
11.75836477965031
 23
25.43116380012061
 33
0.0
  0
SOLID
  5
12B
330
124
100
AcDbEntity
  8
치수문자_일반주서
 62
     0
100
AcDbTrace
 10
8.060364779650309
 20
25.98149713345395
 30
0.0
 11
8.060364779650309
 21
24.88083046678728
 31
0.0
 12
4.758364779650308
 22
25.43116380012061
 32
0.0
 13
4.758364779650308
 23
25.43116380012061
 33
0.0
  0
MTEXT
  5
12C
330
124
100
AcDbEntity
  8
치수문자_일반주서
 62
     0
100
AcDbMText
 10
8.415623718542147
 20
29.80616380012061
 30
0.0
 40
3.5
 41
0.0
 71
     2
 72
     1
  1
\A1;7
  7
SLDTEXTSTYLE0
 73
     1
 44
1.0
  0
POINT
  5
12D
330
124
100
AcDbEntity
  8
Defpoints
 62
     0
100
AcDbPoint
 10
11.75836477965031
 20
0.7313742737664432
 30
0.0
  0
POINT
  5
12E
330
124
100
AcDbEntity
  8
Defpoints
 62
     0
100
AcDbPoint
 10
4.758364779650308
 20
0.7249999999999962
 30
0.0
  0
POINT
  5
165
330
124
100
AcDbEntity
  8
Defpoints
 62
     0
100
AcDbPoint
 10
4.758364779650308
 20
25.43116380012061
 30
0.0
  0
ENDBLK
  5
126
330
124
100
AcDbEntity
  8
0
100
AcDbBlockEnd
  0
BLOCK
  5
130
330
12F
100
AcDbEntity
  8
0
100
AcDbBlockBegin
  2
SW_DOWELSYMBOL_0
 70
     0
 10
0.0
 20
0.0
 30
0.0
  3
SW_DOWELSYMBOL_0
  1

  0
CIRCLE
  5
132
330
12F
100
AcDbEntity
  8
해칭선
 62
     0
100
AcDbCircle
 10
0.0
 20
0.0
 30
0.0
 40
3.000000000000003
  0
HATCH
  5
133
330
12F
100
AcDbEntity
  8
0
  6
Continuous
 62
     0
370
    18
100
AcDbHatch
 10
0.0
 20
0.0
 30
0.0
210
0.0
220
0.0
230
1.0
  2
SOLID
 70
     1
 71
     0
 91
        1
 92
        0
 93
        3
 72
     2
 10
-0.0000000000000017
 20
-0.0000000000000035
 40
3.000000000000003
 50
0.0
 51
90.0
 73
     1
 72
     1
 10
-0.0000000000000017
 20
2.999999999999999
 11
-0.0000000000000017
 21
-0.0000000000000036
 72
     1
 10
-0.0000000000000017
 20
-0.0000000000000035
 11
3.000000000000001
 21
-0.0000000000000035
 97
        0
 75
     0
 76
     1
 98
        1
 10
0.0
 20
0.0
  0
HATCH
  5
134
330
12F
100
AcDbEntity
  8
0
  6
Continuous
 62
     0
370
    18
100
AcDbHatch
 10
0.0
 20
0.0
 30
0.0
210
0.0
220
0.0
230
1.0
  2
SOLID
 70
     1
 71
     0
 91
        1
 92
        0
 93
        3
 72
     2
 10
-0.0000000000000017
 20
-0.0000000000000035
 40
3.000000000000003
 50
180.0
 51
270.0000000000007
 73
     1
 72
     1
 10
-0.0000000000000017
 20
-3.000000000000006
 11
-0.0000000000000017
 21
-0.0000000000000036
 72
     1
 10
-0.0000000000000017
 20
-0.0000000000000035
 11
-3.000000000000004
 21
-0.0000000000000035
 97
        0
 75
     0
 76
     1
 98
        1
 10
0.0
 20
0.0
  0
ENDBLK
  5
131
330
12F
100
AcDbEntity
  8
0
100
AcDbBlockEnd
  0
ENDSEC
  0
SECTION
  2
ENTITIES
  0
LINE
  5
99
330
1F
100
AcDbEntity
  8
0
  6
Continuous
 62
     4
370
    25
100
AcDbLine
 10
-0.0000000000000018
 20
1.999999999999999
 30
0.0
 11
-37.7416352203497
 21
1.999999999999988
 31
0.0
  0
LINE
  5
9A
330
1F
100
AcDbEntity
  8
0
  6
Continuous
 62
     4
370
    25
100
AcDbLine
 10
-37.7416352203497
 20
-2.000000000000004
 30
0.0
 11
0.0000000000000027
 21
-1.999999999999992
 31
0.0
  0
LINE
  5
9B
330
1F
100
AcDbEntity
  8
0
  6
Continuous
 62
     4
370
    25
100
AcDbLine
 10
-37.7416352203497
 20
1.999999999999992
 30
0.0
 11
-38.2416352203497
 21
1.499999999999991
 31
0.0
  0
LINE
  5
9C
330
1F
100
AcDbEntity
  8
0
  6
Continuous
 62
     4
370
    25
100
AcDbLine
 10
-38.2416352203497
 20
-1.500000000000009
 30
0.0
 11
-37.7416352203497
 21
-2.000000000000008
 31
0.0
  0
LINE
  5
9D
330
1F
100
AcDbEntity
  8
0
  6
Continuous
 62
     4
370
    25
100
AcDbLine
 10
0.0000000000000018
 20
-1.999999999999992
 30
0.0
 11
4.758364779650308
 21
-0.7249999999999859
 31
0.0
  0
LINE
  5
9E
330
1F
100
AcDbEntity
  8
0
  6
Continuous
 62
     4
370
    25
100
AcDbLine
 10
4.758364779650308
 20
0.724999999999996
 30
0.0
 11
-0.0000000000000018
 21
1.999999999999999
 31
0.0
  0
LINE
  5
9F
330
1F
100
AcDbEntity
  8
0
  6
Continuous
 62
     4
370
    25
100
AcDbLine
 10
8.85919186268475
 20
0.7249999999999975
 30
0.0
 11
4.758364779650308
 21
0.7249999999999962
 31
0.0
  0
LINE
  5
A0
330
1F
100
AcDbEntity
  8
0
  6
Continuous
 62
     4
370
    25
100
AcDbLine
 10
4.758364779650308
 20
-0.7249999999999859
 30
0.0
 11
8.859191862684742
 21
-0.7249999999999847
 31
0.0
  0
LINE
  5
A1
330
1F
100
AcDbEntity
  8
0
  6
Continuous
 62
     1
370
    25
100
AcDbLine
 10
9.76591920066275
 20
0.3824344825821188
 30
0.0
 11
9.87126435323907
 21
0.3488996216819161
 31
0.0
1001
PE_URL
1000

  0
LINE
  5
A2
330
1F
100
AcDbEntity
  8
0
  6
Continuous
 62
     1
370
    25
100
AcDbLine
 10
11.6438507781365
 20
-0.0807435896236251
 30
0.0
 11
11.62844126406926
 21
-0.0690060185876954
 31
0.0
1001
PE_URL
1000

  0
SPLINE
  5
A3
330
1F
100
AcDbEntity
  8
0
  6
Continuous
 62
     1
370
    25
100
AcDbSpline
210
0.0
220
0.0
230
1.0
 70
     8
 71
     3
 72
     9
 73
     5
 74
     0
 42
0.000000001
 43
0.00000001
 40
0.0
 40
0.0
 40
0.0
 40
0.0
 40
0.4899800063839606
 40
1.0
 40
1.0
 40
1.0
 40
1.0
 10
11.74167037223986
 20
-0.1536318610803776
 30
0.0
 10
11.72577939185856
 20
-0.1422006061001069
 30
0.0
 10
11.69334749632352
 20
-0.1188705623609082
 30
0.0
 10
11.66056864677432
 20
-0.0936212458627997
 30
0.0
 10
11.6438507781365
 20
-0.0807435896236251
 30
0.0
1001
PE_URL
1000

  0
LINE
  5
A4
330
1F
100
AcDbEntity
  8
0
  6
Continuous
 62
     1
370
    25
100
AcDbLine
 10
9.994290394189314
 20
0.7499999999999978
 30
0.0
 11
9.972549276863841
 21
0.7499999999999978
 31
0.0
1001
PE_URL
1000

  0
LINE
  5
A5
330
1F
100
AcDbEntity
  8
0
  6
Continuous
 62
     1
370
    25
100
AcDbLine
 10
11.53538938984817
 20
-0.7500000000000027
 30
0.0
 11
11.55794200453673
 21
-0.7500000000000027
 31
0.0
1001
PE_URL
1000

  0
LINE
  5
A6
330
1F
100
AcDbEntity
  8
0
  6
Continuous
 62
     1
370
    25
100
AcDbLine
 10
11.33737788008193
 20
0.3819546697203625
 30
0.0
 11
11.37676990104303
 21
0.3683967079481285
 31
0.0
1001
PE_URL
1000

  0
LINE
  5
A7
330
1F
100
AcDbEntity
  8
0
  6
Continuous
 62
     1
370
    25
100
AcDbLine
 10
9.972549276863838
 20
-0.7500000000000027
 30
0.0
 11
9.99458353039012
 21
-0.7500000000000027
 31
0.0
1001
PE_URL
1000

  0
LINE
  5
A9
330
1F
100
AcDbEntity
  8
0
  6
Continuous
 62
     1
370
    25
100
AcDbLine
 10
11.55794200453383
 20
0.7499999999999978
 30
0.0
 11
11.53538938984817
 21
0.7499999999999978
 31
0.0
1001
PE_URL
1000

  0
LINE
  5
AA
330
1F
100
AcDbEntity
  8
0
  6
Continuous
 62
     4
370
    25
100
AcDbLine
 10
-0.0000000000000018
 20
1.999999999999992
 30
0.0
 11
0.0000000000000018
 21
-1.999999999999992
 31
0.0
  0
LINE
  5
AB
330
1F
100
AcDbEntity
  8
0
  6
Continuous
 62
     4
370
    25
100
AcDbLine
 10
-37.7416352203497
 20
1.999999999999992
 30
0.0
 11
-37.7416352203497
 21
-2.000000000000008
 31
0.0
  0
LINE
  5
AC
330
1F
100
AcDbEntity
  8
0
  6
Continuous
 62
     4
370
    25
100
AcDbLine
 10
-38.2416352203497
 20
1.499999999999992
 30
0.0
 11
-38.2416352203497
 21
-1.500000000000009
 31
0.0
  0
LINE
  5
AD
330
1F
100
AcDbEntity
  8
0
  6
Continuous
 62
     4
370
    25
100
AcDbLine
 10
4.758364779650308
 20
0.7249999999999962
 30
0.0
 11
4.758364779650308
 21
-0.724999999999986
 31
0.0
  0
SPLINE
  5
AE
330
1F
100
AcDbEntity
  8
0
  6
Continuous
 62
     4
370
    25
100
AcDbSpline
210
0.0
220
0.0
230
1.0
 70
     8
 71
     3
 72
     8
 73
     4
 74
     0
 42
0.000000001
 43
0.00000001
 40
0.0
 40
0.0
 40
0.0
 40
0.0
 40
1.0
 40
1.0
 40
1.0
 40
1.0
 10
8.74003297655543
 20
0.0864238264632841
 30
0.0
 10
8.686067348262767
 20
0.1253833905035369
 30
0.0
 10
8.658237296882234
 20
0.1911539885829036
 30
0.0
 10
8.658237296882643
 20
0.2534984516987798
 30
0.0
  0
SPLINE
  5
AF
330
1F
100
AcDbEntity
  8
0
  6
Continuous
 62
     4
370
    25
100
AcDbSpline
210
0.0
220
0.0
230
1.0
 70
     8
 71
     3
 72
    12
 73
     8
 74
     0
 42
0.000000001
 43
0.00000001
 40
0.0
 40
0.0
 40
0.0
 40
0.0
 40
0.2499999999999999
 40
0.2499999999999999
 40
0.4999999999999998
 40
0.4999999999999998
 40
1.0
 40
1.0
 40
1.0
 40
1.0
 10
8.658237296882643
 20
0.5037534612331355
 30
0.0
 10
8.658237296882643
 20
0.5303143281122474
 30
0.0
 10
8.665856963147863
 20
0.554703264633202
 30
0.0
 10
8.699714820236245
 20
0.5939773270075159
 30
0.0
 10
8.726057882957718
 20
0.609039587029346
 30
0.0
 10
8.822350839327832
 20
0.6375384631672519
 30
0.0
 10
8.90647090400952
 20
0.6357012790747033
 30
0.0
 10
8.96641244805527
 20
0.6123794920575707
 30
0.0
  0
SPLINE
  5
B0
330
1F
100
AcDbEntity
  8
0
  6
Continuous
 62
     4
370
    25
100
AcDbSpline
210
0.0
220
0.0
230
1.0
 70
    24
 71
     3
 72
    14
 73
    10
 74
     0
 42
0.000000001
 43
0.00000001
 40
0.0
 40
0.0
 40
0.0
 40
0.0
 40
0.2500000000000002
 40
0.2500000000000002
 40
0.5000000000000001
 40
0.5000000000000001
 40
0.75
 40
0.75
 40
1.0
 40
1.0
 40
1.0
 40
1.0
 10
9.45836477965031
 20
0.354951284539099
 30
0.0
 10
9.45836477965031
 20
0.324179738672934
 30
0.0
 10
9.45836477965031
 20
0.2886129473367029
 30
0.0
 10
9.45836477965031
 20
0.1917707802908201
 30
0.0
 10
9.45836477965031
 20
0.1315734961329124
 30
0.0
 10
9.45836477965031
 20
-0.0112377229240412
 30
0.0
 10
9.45836477965031
 20
-0.0941833369564284
 30
0.0
 10
9.45836477965031
 20
-0.2612178677220532
 30
0.0
 10
9.45836477965031
 20
-0.3442798841136305
 30
0.0
 10
9.45836477965031
 20
-0.4098772335009111
 30
0.0
  0
SPLINE
  5
B1
330
1F
100
AcDbEntity
  8
0
  6
Continuous
 62
     4
370
    25
100
AcDbSpline
210
0.0
220
0.0
230
1.0
 70
     8
 71
     3
 72
    10
 73
     6
 74
     0
 42
0.000000001
 43
0.00000001
 40
0.0
 40
0.0
 40
0.0
 40
0.0
 40
0.5
 40
0.5
 40
1.0
 40
1.0
 40
1.0
 40
1.0
 10
9.45836477965031
 20
-0.4098772335009114
 30
0.0
 10
9.339689325504363
 20
-0.3382893451029409
 30
0.0
 10
9.215947954865243
 20
-0.2566497738945529
 30
0.0
 10
8.981596910792838
 20
-0.0887790152760556
 30
0.0
 10
8.859735012918208
 20
0.000006984874163
 30
0.0
 10
8.740032976555895
 20
0.0864238264629469
 30
0.0
  0
SPLINE
  5
B2
330
1F
100
AcDbEntity
  8
0
  6
Continuous
 62
     4
370
    25
100
AcDbSpline
210
0.0
220
0.0
230
1.0
 70
     8
 71
     3
 72
    10
 73
     6
 74
     0
 42
0.000000001
 43
0.00000001
 40
0.0
 40
0.0
 40
0.0
 40
0.0
 40
0.4999999999999999
 40
0.4999999999999999
 40
1.0
 40
1.0
 40
1.0
 40
1.0
 10
9.45836477965031
 20
0.35495128453246
 30
0.0
 10
9.376846210111356
 20
0.4069332146722077
 30
0.0
 10
9.29292526663485
 20
0.4557621683720123
 30
0.0
 10
9.12787312887037
 20
0.5425848328903788
 30
0.0
 10
9.048684077717724
 20
0.5803696155172624
 30
0.0
 10
8.96641244805527
 20
0.612379492057573
 30
0.0
  0
SPLINE
  5
B3
330
1F
100
AcDbEntity
  8
0
  6
Continuous
 62
     4
370
    25
100
AcDbSpline
210
0.0
220
0.0
230
1.0
 70
     8
 71
     3
 72
     8
 73
     4
 74
     0
 42
0.000000001
 43
0.00000001
 40
0.0
 40
0.0
 40
0.0
 40
0.0
 40
1.0
 40
1.0
 40
1.0
 40
1.0
 10
8.740032976555419
 20
-0.7198304815854517
 30
0.0
 10
8.686067348262753
 20
-0.7151529433485541
 30
0.0
 10
8.658237296882234
 20
-0.7025050646691479
 30
0.0
 10
8.658237296882643
 20
-0.6792374658293695
 30
0.0
  0
SPLINE
  5
B4
330
1F
100
AcDbEntity
  8
0
  6
Continuous
 62
     4
370
    25
100
AcDbSpline
210
0.0
220
0.0
230
1.0
 70
     8
 71
     3
 72
     9
 73
     5
 74
     0
 42
0.000000001
 43
0.00000001
 40
0.0
 40
0.0
 40
0.0
 40
0.0
 40
0.52706282684506
 40
1.0
 40
1.0
 40
1.0
 40
1.0
 10
9.409690949517213
 20
-0.6116958243384653
 30
0.0
 10
9.29203357351793
 20
-0.6525945659433503
 30
0.0
 10
9.068801408382008
 20
-0.7301920353943838
 30
0.0
 10
8.845595396735288
 20
-0.7231574150468166
 30
0.0
 10
8.740032976555895
 20
-0.7198304815854201
 30
0.0
  0
LINE
  5
B5
330
1F
100
AcDbEntity
  8
0
  6
Continuous
 62
     4
370
    25
100
AcDbLine
 10
9.40969094951722
 20
0.6116958243384616
 30
0.0
 11
9.45836477965031
 21
0.632166580585177
 31
0.0
  0
SPLINE
  5
B6
330
1F
100
AcDbEntity
  8
0
  6
Continuous
 62
     4
370
    25
100
AcDbSpline
210
0.0
220
0.0
230
1.0
 70
     8
 71
     3
 72
     9
 73
     5
 74
     0
 42
0.000000001
 43
0.00000001
 40
0.0
 40
0.0
 40
0.0
 40
0.0
 40
0.6703045792350348
 40
1.0
 40
1.0
 40
1.0
 40
1.0
 10
9.45836477965031
 20
0.5980181046236209
 30
0.0
 10
9.324481710708962
 20
0.6469803181997152
 30
0.0
 10
9.12474703323721
 20
0.7200250430798153
 30
0.0
 10
8.925035756199279
 20
0.717346502052345
 30
0.0
 10
8.85919186268475
 20
0.7164633993412571
 30
0.0
  0
LINE
  5
B7
330
1F
100
AcDbEntity
  8
0
  6
Continuous
 62
     4
370
    25
100
AcDbLine
 10
9.45836477965031
 20
0.5980181046236207
 30
0.0
 11
9.45836477965031
 21
0.3852296905808947
 31
0.0
  0
LINE
  5
B8
330
1F
100
AcDbEntity
  8
0
  6
Continuous
 62
     4
370
    25
100
AcDbLine
 10
8.658237296882643
 20
0.5037534612331354
 30
0.0
 11
8.658237296882643
 21
0.2534984516987782
 31
0.0
  0
LINE
  5
B9
330
1F
100
AcDbEntity
  8
0
  6
Continuous
 62
     4
370
    25
100
AcDbLine
 10
9.45836477965031
 20
-0.4098772335009114
 30
0.0
 11
9.45836477965031
 21
-0.6321665805852316
 31
0.0
  0
SPLINE
  5
BA
330
1F
100
AcDbEntity
  8
0
  6
Continuous
 62
     4
370
    25
100
AcDbSpline
210
0.0
220
0.0
230
1.0
 70
     8
 71
     3
 72
    10
 73
     6
 74
     0
 42
0.000000001
 43
0.00000001
 40
0.0
 40
0.0
 40
0.0
 40
0.0
 40
0.5
 40
0.5
 40
1.0
 40
1.0
 40
1.0
 40
1.0
 10
9.45836477965031
 20
-0.6321665805851837
 30
0.0
 10
9.376846210111356
 20
-0.602979569689258
 30
0.0
 10
9.29292526663485
 20
-0.5669999918253135
 30
0.0
 10
9.12787312887037
 20
-0.484571815076344
 30
0.0
 10
9.048684077717724
 20
-0.4386022096060861
 30
0.0
 10
8.96641244805527
 20
-0.3880932332665877
 30
0.0
  0
SPLINE
  5
BB
330
1F
100
AcDbEntity
  8
0
  6
Continuous
 62
     4
370
    25
100
AcDbSpline
210
0.0
220
0.0
230
1.0
 70
     8
 71
     3
 72
    12
 73
     8
 74
     0
 42
0.000000001
 43
0.00000001
 40
0.0
 40
0.0
 40
0.0
 40
0.0
 40
0.25
 40
0.25
 40
0.5
 40
0.5
 40
1.0
 40
1.0
 40
1.0
 40
1.0
 10
8.658237296882643
 20
-0.5213995112153634
 30
0.0
 10
8.658237296882643
 20
-0.4957375603774798
 30
0.0
 10
8.665856963147867
 20
-0.4679366271199769
 30
0.0
 10
8.699714820236249
 20
-0.4169548342400653
 30
0.0
 10
8.726057882957722
 20
-0.3937352000006898
 30
0.0
 10
8.822350839327836
 20
-0.347125644595991
 30
0.0
 10
8.906470904009524
 20
-0.3512933541055456
 30
0.0
 10
8.96641244805527
 20
-0.3880932332665819
 30
0.0
  0
LINE
  5
BC
330
1F
100
AcDbEntity
  8
0
  6
Continuous
 62
     4
370
    25
100
AcDbLine
 10
8.658237296882643
 20
-0.5213995112153633
 30
0.0
 11
8.658237296882643
 21
-0.6792374658293744
 31
0.0
  0
SPLINE
  5
BD
330
1F
100
AcDbEntity
  8
0
  6
Continuous
 62
     1
370
    25
100
AcDbSpline
210
0.0
220
0.0
230
1.0
 70
     8
 71
     3
 72
    10
 73
     6
 74
     0
 42
0.000000001
 43
0.00000001
 40
0.0
 40
0.0
 40
0.0
 40
0.0
 40
0.1643001850427772
 40
0.5604664405789181
 40
1.0
 40
1.0
 40
1.0
 40
1.0
 10
10.75551360443054
 20
0.5395968684260738
 30
0.0
 10
10.78756543961058
 20
0.5367248225500084
 30
0.0
 10
10.89690176185941
 20
0.52692760090404
 30
0.0
 10
11.09177149361883
 20
0.478824451246666
 30
0.0
 10
11.2546989275236
 20
0.4191387878478086
 30
0.0
 10
11.34039007363828
 20
0.3877473101777422
 30
0.0
1001
PE_URL
1000

  0
SPLINE
  5
BE
330
1F
100
AcDbEntity
  8
0
  6
Continuous
 62
     1
370
    25
100
AcDbSpline
210
0.0
220
0.0
230
1.0
 70
     8
 71
     3
 72
     8
 73
     4
 74
     0
 42
0.000000001
 43
0.00000001
 40
0.0
 40
0.0
 40
0.0
 40
0.0
 40
1.0
 40
1.0
 40
1.0
 40
1.0
 10
11.12501520280479
 20
0.3684761480291679
 30
0.0
 10
11.19542900468798
 20
0.3607568905946704
 30
0.0
 10
11.26926457704224
 20
0.3663687986046662
 30
0.0
 10
11.3403900736384
 20
0.3877473101778473
 30
0.0
1001
PE_URL
1000

  0
SPLINE
  5
BF
330
1F
100
AcDbEntity
  8
0
  6
Continuous
 62
     1
370
    25
100
AcDbSpline
210
0.0
220
0.0
230
1.0
 70
    24
 71
     3
 72
    12
 73
     8
 74
     0
 42
0.000000001
 43
0.00000001
 40
0.0
 40
0.0
 40
0.0
 40
0.0
 40
0.2499999999999997
 40
0.2499999999999997
 40
0.4999999999999993
 40
0.4999999999999993
 40
0.9791570723928952
 40
0.9791570723928952
 40
0.9791570723928952
 40
0.9791570723928952
 10
11.12501520280483
 20
0.3684761480291328
 30
0.0
 10
11.17110457303527
 20
0.3362040235624447
 30
0.0
 10
11.22221393631605
 20
0.3004168621201392
 30
0.0
 10
11.32582926335166
 20
0.2278646290557438
 30
0.0
 10
11.37899010690536
 20
0.1906410056618513
 30
0.0
 10
11.5361917452087
 20
0.0805672335029404
 30
0.0
 10
11.64038294517916
 20
0.0076117698685063
 30
0.0
 10
11.74474489906946
 20
-0.0654632569477728
 30
0.0
1001
PE_URL
1000

  0
SPLINE
  5
C1
330
1F
100
AcDbEntity
  8
0
  6
Continuous
 62
     1
370
    25
100
AcDbSpline
210
0.0
220
0.0
230
1.0
 70
     8
 71
     3
 72
    22
 73
    18
 74
     0
 42
0.000000001
 43
0.00000001
 40
0.0093696248648363
 40
0.0093696248648363
 40
0.0093696248648363
 40
0.0093696248648363
 40
0.0750277192026708
 40
0.1514298966474953
 40
0.2344191411412329
 40
0.3256964771806299
 40
0.3911978613813493
 40
0.455124603092902
 40
0.5210634454144749
 40
0.5866108537222328
 40
0.6522549686530961
 40
0.7179018090764382
 40
0.7823534725237852
 40
0.8420866364548013
 40
0.9319235685864402
 40
0.9909140733981646
 40
1.0
 40
1.0
 40
1.0
 40
1.0
 10
11.7418814447991
 20
-0.1376411262652925
 30
0.0
 10
11.70337755103097
 20
-0.1087719527869036
 30
0.0
 10
11.62003936033614
 20
-0.0462934612459729
 30
0.0
 10
11.48719991378181
 20
0.0531253831417034
 30
0.0
 10
11.34000956813003
 20
0.1636341963765487
 30
0.0
 10
11.19931215735431
 20
0.2660537466477541
 30
0.0
 10
11.06952216668969
 20
0.3548261662595999
 30
0.0
 10
10.95377553278403
 20
0.4278285969209553
 30
0.0
 10
10.83970956939326
 20
0.497045361684465
 30
0.0
 10
10.72376521366436
 20
0.5591387844296971
 30
0.0
 10
10.60786381978302
 20
0.6134981765377225
 30
0.0
 10
10.49216062799495
 20
0.6591404359322051
 30
0.0
 10
10.38140791385128
 20
0.6957048018272735
 30
0.0
 10
10.25549687216513
 20
0.726767792301924
 30
0.0
 10
10.1324717986729
 20
0.7441923809413401
 30
0.0
 10
10.03951328407394
 20
0.7509049743245026
 30
0.0
 10
9.999615424019694
 20
0.7496374324755509
 30
0.0
 10
9.994290394189314
 20
0.7494682580349231
 30
0.0
1001
PE_URL
1000

  0
SPLINE
  5
C2
330
1F
100
AcDbEntity
  8
0
  6
Continuous
 62
     1
370
    25
100
AcDbSpline
210
0.0
220
0.0
230
1.0
 70
     8
 71
     3
 72
    22
 73
    18
 74
     0
 42
0.000000001
 43
0.00000001
 40
0.0076026895883583
 40
0.0076026895883583
 40
0.0076026895883583
 40
0.0076026895883583
 40
0.125
 40
0.125
 40
0.2500000000000001
 40
0.2500000000000001
 40
0.3750000000000001
 40
0.3750000000000001
 40
0.5000000000000001
 40
0.5000000000000001
 40
0.6250000000000001
 40
0.6250000000000001
 40
0.7500000000000002
 40
0.7500000000000002
 40
0.8750000000000002
 40
0.8750000000000002
 40
1.0
 40
1.0
 40
1.0
 40
1.0
 10
11.74125933240733
 20
-0.1533224477305506
 30
0.0
 10
11.65296302023803
 20
-0.08732862717648
 30
0.0
 10
11.56089089508137
 20
-0.0185227992580997
 30
0.0
 10
11.37320414933614
 20
0.1217154867636975
 30
0.0
 10
11.2805259111987
 20
0.1923252851930302
 30
0.0
 10
11.08766739828505
 20
0.3281053645952772
 30
0.0
 10
10.98924754137422
 20
0.3927243634714492
 30
0.0
 10
10.800491020439
 20
0.5076892821454672
 30
0.0
 10
10.70444879540314
 20
0.5592535406321802
 30
0.0
 10
10.51043298377999
 20
0.6456541877010006
 30
0.0
 10
10.41725666931419
 20
0.6798994311739741
 30
0.0
 10
10.22538234461384
 20
0.7293951700002038
 30
0.0
 10
10.12680207532267
 20
0.7443444865489409
 30
0.0
 10
9.9364824947947
 20
0.7529683119486008
 30
0.0
 10
9.842031149295572
 20
0.7469084991134022
 30
0.0
 10
9.647847671818333
 20
0.7139957903043455
 30
0.0
 10
9.553677527533107
 20
0.6874810553317822
 30
0.0
 10
9.45836477964873
 20
0.651812217955129
 30
0.0
  0
SPLINE
  5
C3
330
1F
100
AcDbEntity
  8
0
  6
Continuous
 62
     1
370
    25
100
AcDbSpline
210
0.0
220
0.0
230
1.0
 70
     8
 71
     3
 72
    13
 73
     9
 74
     0
 42
0.000000001
 43
0.00000001
 40
0.0947339941416264
 40
0.0947339941416264
 40
0.0947339941416264
 40
0.0947339941416264
 40
0.2689623937205042
 40
0.4276269098380718
 40
0.5864845101245144
 40
0.7431666882650321
 40
0.914198704522156
 40
1.0
 40
1.0
 40
1.0
 40
1.0
 10
11.74103601242294
 20
-0.1589515792366161
 30
0.0
 10
11.73081042327085
 20
-0.1584521135685106
 30
0.0
 10
11.70156971494423
 20
-0.1648909880564297
 30
0.0
 10
11.63664291869619
 20
-0.1937522937912295
 30
0.0
 10
11.55685002641829
 20
-0.2397699285433485
 30
0.0
 10
11.46882222384696
 20
-0.2984391018732323
 30
0.0
 10
11.39520707464565
 20
-0.3530157045224516
 30
0.0
 10
11.35411714498952
 20
-0.3864109417830246
 30
0.0
 10
11.34039007363816
 20
-0.3975674175547655
 30
0.0
1001
PE_URL
1000

  0
SPLINE
  5
C4
330
1F
100
AcDbEntity
  8
0
  6
Continuous
 62
     1
370
    25
100
AcDbSpline
210
0.0
220
0.0
230
1.0
 70
     8
 71
     3
 72
    20
 73
    16
 74
     0
 42
0.000000001
 43
0.00000001
 40
0.0
 40
0.0
 40
0.0
 40
0.0
 40
0.1249999999999999
 40
0.1249999999999999
 40
0.2499999999999997
 40
0.2499999999999997
 40
0.3749999999999996
 40
0.3749999999999996
 40
0.4999999999999994
 40
0.4999999999999994
 40
0.7499999999999994
 40
0.7499999999999994
 40
0.8749999999999998
 40
0.8749999999999998
 40
1.0
 40
1.0
 40
1.0
 40
1.0
 10
9.458364779648715
 20
0.4934372914551855
 30
0.0
 10
9.536388902015776
 20
0.4733829944870235
 30
0.0
 10
9.612854502338543
 20
0.4489102757779169
 30
0.0
 10
9.771443515577804
 20
0.3914443372107596
 30
0.0
 10
9.851515970137182
 20
0.3586224212036197
 30
0.0
 10
10.00660046530717
 20
0.2876765949598964
 30
0.0
 10
10.08390690052157
 20
0.2492513262227872
 30
0.0
 10
10.24275053485592
 20
0.1677513094610346
 30
0.0
 10
10.32259790490152
 20
0.1249505649595812
 30
0.0
 10
10.55358248591218
 20
-0.0041682059911698
 30
0.0
 10
10.71666181812284
 20
-0.0949312104344219
 30
0.0
 10
10.94660456778752
 20
-0.2184621915928725
 30
0.0
 10
11.02628804253339
 20
-0.25852671521655
 30
0.0
 10
11.18521435264701
 20
-0.3329660321876505
 30
0.0
 10
11.26315777800504
 20
-0.3671534463797246
 30
0.0
 10
11.3403900736383
 20
-0.3975674175547722
 30
0.0
  0
SPLINE
  5
C5
330
1F
100
AcDbEntity
  8
0
  6
Continuous
 62
     4
370
    25
100
AcDbSpline
210
0.0
220
0.0
230
1.0
 70
    24
 71
     3
 72
     9
 73
     5
 74
     0
 42
0.000000001
 43
0.00000001
 40
0.0
 40
0.0
 40
0.0
 40
0.0
 40
0.6802969213259374
 40
1.0
 40
1.0
 40
1.0
 40
1.0
 10
9.45836477965031
 20
0.6518122179736541
 30
0.0
 10
9.45836477965031
 20
0.637805624041687
 30
0.0
 10
9.458364779650307
 20
0.6172166819299577
 30
0.0
 10
9.45836477965031
 20
0.6026690328287478
 30
0.0
 10
9.45836477965031
 20
0.598018104623621
 30
0.0
  0
SPLINE
  5
C7
330
1F
100
AcDbEntity
  8
0
  6
Continuous
 62
     1
370
    25
100
AcDbSpline
210
0.0
220
0.0
230
1.0
 70
     8
 71
     3
 72
    14
 73
    10
 74
     0
 42
0.000000001
 43
0.00000001
 40
0.0
 40
0.0
 40
0.0
 40
0.0
 40
0.1548486962576263
 40
0.3094263578198324
 40
0.4648101206610351
 40
0.6203110468483675
 40
0.7823465586202066
 40
0.9444151255413837
 40
1.0
 40
1.0
 40
1.0
 40
1.0
 10
9.45836477964875
 20
0.3709997742915743
 30
0.0
 10
9.565565786063797
 20
0.2970007430741812
 30
0.0
 10
9.779780162879998
 20
0.1491322025880594
 30
0.0
 10
10.10106868584252
 20
-0.099503610532406
 30
0.0
 10
10.42371748870757
 20
-0.3338392242644058
 30
0.0
 10
10.75160272349999
 20
-0.5389462502580633
 30
0.0
 10
11.08337159935149
 20
-0.6831351057798456
 30
0.0
 10
11.34597896645147
 20
-0.7533156185962887
 30
0.0
 10
11.49685762473553
 20
-0.7429602528710533
 30
0.0
 10
11.53538938984817
 20
-0.7403156739470478
 30
0.0
  0
LINE
  5
C8
330
1F
100
AcDbEntity
  8
0
  6
Continuous
 62
     4
370
    25
100
AcDbLine
 10
9.45836477965031
 20
0.3709997742933677
 30
0.0
 11
9.45836477965031
 21
0.3852296905808947
 31
0.0
  0
SPLINE
  5
C9
330
1F
100
AcDbEntity
  8
0
  6
Continuous
 62
     1
370
    25
100
AcDbSpline
210
0.0
220
0.0
230
1.0
 70
     8
 71
     3
 72
    23
 73
    19
 74
     0
 42
0.000000001
 43
0.00000001
 40
0.0
 40
0.0
 40
0.0
 40
0.0
 40
0.0436060702899957
 40
0.1253022271370904
 40
0.1877024648196962
 40
0.2497976263339845
 40
0.3752737204269859
 40
0.43470813529007
 40
0.500274608970611
 40
0.5627858153566311
 40
0.624845210906973
 40
0.6878136952684024
 40
0.7505881328534867
 40
0.7669060713316064
 40
0.8835857339496719
 40
0.942238161467644
 40
0.9711743739418928
 40
0.9999999999999999
 40
0.9999999999999999
 40
0.9999999999999999
 40
0.9999999999999999
 10
11.75836477965031
 20
-0.7348469228349559
 30
0.0
 10
11.72500968195083
 20
-0.7391428300894387
 30
0.0
 10
11.62916366784487
 20
-0.7514871377278308
 30
0.0
 10
11.48466414057035
 20
-0.7512955881414013
 30
0.0
 10
11.32673850886862
 20
-0.7325209998430026
 30
0.0
 10
11.13588964251904
 20
-0.6887524147412257
 30
0.0
 10
10.94510354479633
 20
-0.6175693543772772
 30
0.0
 10
10.75391914468101
 20
-0.5197114291887978
 30
0.0
 10
10.60977323629966
 20
-0.4363658879280926
 30
0.0
 10
10.46370190418376
 20
-0.342555897441008
 30
0.0
 10
10.32088383779489
 20
-0.2413259011011835
 30
0.0
 10
10.17630068490919
 20
-0.136855130101071
 30
0.0
 10
10.06709249334818
 20
-0.0554388886902699
 30
0.0
 10
9.917627142699455
 20
0.0583274639357014
 30
0.0
 10
9.770334192625665
 20
0.1691609729191701
 30
0.0
 10
9.6133554248343
 20
0.2801016733433895
 30
0.0
 10
9.52438221648961
 20
0.3414295371033774
 30
0.0
 10
9.480342486892866
 20
0.3706482830013139
 30
0.0
 10
9.45836477965031
 20
0.3852296859576788
 30
0.0
  0
SPLINE
  5
CA
330
1F
100
AcDbEntity
  8
0
  6
Continuous
 62
     1
370
    25
100
AcDbSpline
210
0.0
220
0.0
230
1.0
 70
     8
 71
     3
 72
     8
 73
     4
 74
     0
 42
0.000000001
 43
0.00000001
 40
0.0
 40
0.0
 40
0.0
 40
0.0
 40
1.0
 40
1.0
 40
1.0
 40
1.0
 10
11.12501520280479
 20
-0.5476474341923331
 30
0.0
 10
11.19542900468798
 20
-0.4956008936707544
 30
0.0
 10
11.26926457704224
 20
-0.4439385034246453
 30
0.0
 10
11.3403900736384
 20
-0.3975674175546134
 30
0.0
1001
PE_URL
1000

  0
SPLINE
  5
CB
330
1F
100
AcDbEntity
  8
0
  6
Continuous
 62
     1
370
    25
100
AcDbSpline
210
0.0
220
0.0
230
1.0
 70
     8
 71
     3
 72
    12
 73
     8
 74
     0
 42
0.000000001
 43
0.00000001
 40
0.0
 40
0.0
 40
0.0
 40
0.0
 40
0.2500000000000003
 40
0.2500000000000003
 40
0.5000000000000007
 40
0.5000000000000007
 40
1.0
 40
1.0
 40
1.0
 40
1.0
 10
11.12501520280483
 20
-0.5476474341923859
 30
0.0
 10
11.17110457303527
 20
-0.5826012817232172
 30
0.0
 10
11.22221393631605
 20
-0.6091029133880048
 30
0.0
 10
11.32582926335166
 20
-0.6481006646688826
 30
0.0
 10
11.37899010690536
 20
-0.6614981573286948
 30
0.0
 10
11.54068534815233
 20
-0.6917136962820369
 30
0.0
 10
11.64944908363256
 20
-0.6965253979217116
 30
0.0
 10
11.75836477965031
 20
-0.6879817214417545
 30
0.0
1001
PE_URL
1000

  0
LINE
  5
CC
330
1F
100
AcDbEntity
  8
0
  6
Continuous
 62
     1
370
    25
100
AcDbLine
 10
11.75836477965031
 20
-0.7348469228349538
 30
0.0
 11
11.75836477965031
 21
-0.6879817214417546
 31
0.0
1001
PE_URL
1000

  0
LINE
  5
CD
330
1F
100
AcDbEntity
  8
0
  6
Continuous
 62
     4
370
    25
100
AcDbLine
 10
9.45836477965031
 20
0.4934372914547864
 30
0.0
 11
9.45836477965031
 21
0.4002396905808948
 31
0.0
  0
SPLINE
  5
CE
330
1F
100
AcDbEntity
  8
0
  6
Continuous
 62
     1
370
    25
100
AcDbSpline
210
0.0
220
0.0
230
1.0
 70
     8
 71
     3
 72
    17
 73
    13
 74
     0
 42
0.000000001
 43
0.00000001
 40
0.0
 40
0.0
 40
0.0
 40
0.0
 40
0.1785618318663312
 40
0.3594515584980953
 40
0.4486240726496463
 40
0.5380872601096945
 40
0.6272577930699303
 40
0.7167126701643373
 40
0.8058851418905894
 40
0.8953492088977385
 40
0.9845197645398287
 40
1.0
 40
1.0
 40
1.0
 40
1.0
 10
9.458364779648754
 20
-0.2548086879457023
 30
0.0
 10
9.535438859499678
 20
-0.2919895593120301
 30
0.0
 10
9.69059182714486
 20
-0.3668360257671257
 30
0.0
 10
9.885467712198132
 20
-0.4390052819461054
 30
0.0
 10
10.04021454086362
 20
-0.4864438900632919
 30
0.0
 10
10.15621617730676
 20
-0.5143687546226655
 30
0.0
 10
10.27240916142141
 20
-0.535484005274637
 30
0.0
 10
10.38820136594056
 20
-0.5494906553591532
 30
0.0
 10
10.5036718681238
 20
-0.5562375671048108
 30
0.0
 10
10.61969202999492
 20
-0.5546371960255605
 30
0.0
 10
10.70389098215782
 20
-0.5500151719760991
 30
0.0
 10
10.74909349399743
 20
-0.5436154529163997
 30
0.0
 10
10.75577997500056
 20
-0.5426687887117662
 30
0.0
  0
SPLINE
  5
CF
330
1F
100
AcDbEntity
  8
0
  6
Continuous
 62
     4
370
    25
100
AcDbSpline
210
0.0
220
0.0
230
1.0
 70
    24
 71
     3
 72
    14
 73
    10
 74
     0
 42
0.000000001
 43
0.00000001
 40
0.0
 40
0.0
 40
0.0
 40
0.0
 40
0.25
 40
0.25
 40
0.5
 40
0.5
 40
0.75
 40
0.75
 40
1.0
 40
1.0
 40
1.0
 40
1.0
 10
9.45836477965031
 20
0.3709997743045028
 30
0.0
 10
9.45836477965031
 20
0.3445483598326404
 30
0.0
 10
9.45836477965031
 20
0.3177093550268166
 30
0.0
 10
9.45836477965031
 20
0.2448092867445016
 30
0.0
 10
9.45836477965031
 20
0.2002692006292032
 30
0.0
 10
9.45836477965031
 20
0.0928581572285691
 30
0.0
 10
9.45836477965031
 20
0.0297308314525954
 30
0.0
 10
9.45836477965031
 20
-0.1085667736955947
 30
0.0
 10
9.45836477965031
 20
-0.1836713316029855
 30
0.0
 10
9.45836477965031
 20
-0.25480868794634
 30
0.0
  0
SPLINE
  5
D0
330
1F
100
AcDbEntity
  8
0
  6
Continuous
 62
     1
370
    25
100
AcDbSpline
210
0.0
220
0.0
230
1.0
 70
     8
 71
     3
 72
    14
 73
    10
 74
     0
 42
0.000000001
 43
0.00000001
 40
0.0
 40
0.0
 40
0.0
 40
0.0
 40
0.2499999999999998
 40
0.2499999999999998
 40
0.4999999999999999
 40
0.4999999999999999
 40
0.7499999999999999
 40
0.7499999999999999
 40
1.0
 40
1.0
 40
1.0
 40
1.0
 10
11.75836477965031
 20
0.6989875477078265
 30
0.0
 10
11.75073133415803
 20
0.642693504085873
 30
0.0
 10
11.73561089989521
 20
0.5869951836347971
 30
0.0
 10
11.68589743806768
 20
0.4862005113476719
 30
0.0
 10
11.65034284767281
 20
0.4412732638538977
 30
0.0
 10
11.56724483946249
 20
0.3797376581786136
 30
0.0
 10
11.52003425107365
 20
0.3625536830251247
 30
0.0
 10
11.42635180246535
 20
0.3561931150021033
 30
0.0
 10
11.38095281482784
 20
0.3667530974890306
 30
0.0
 10
11.34039007363816
 20
0.3877473101777914
 30
0.0
1001
PE_URL
1000

  0
LINE
  5
D1
330
1F
100
AcDbEntity
  8
0
  6
Continuous
 62
     1
370
    25
100
AcDbLine
 10
11.75836477965031
 20
0.2778472582108717
 30
0.0
 11
11.75836477965031
 21
0.6989875477078256
 31
0.0
1001
PE_URL
1000

  0
LINE
  5
D2
330
1F
100
AcDbEntity
  8
0
  6
Continuous
 62
     1
370
    25
100
AcDbLine
 10
11.74092772663288
 20
-0.1616810929169433
 30
0.0
 11
11.75836477965031
 21
0.2778472582108717
 31
0.0
1001
PE_URL
1000

  0
SPLINE
  5
D6
330
1F
100
AcDbEntity
  8
0
  6
Continuous
 62
     1
370
    25
100
AcDbSpline
210
0.0
220
0.0
230
1.0
 70
     8
 71
     3
 72
    10
 73
     6
 74
     0
 42
0.000000001
 43
0.00000001
 40
0.0
 40
0.0
 40
0.0
 40
0.0
 40
0.3146877231858692
 40
0.6565461481235402
 40
1.0
 40
1.0
 40
1.0
 40
1.0
 10
10.77362552938731
 20
0.5376959072362739
 30
0.0
 10
10.87687151067529
 20
0.5874065816221189
 30
0.0
 10
11.09227791623061
 20
0.6911200390720399
 30
0.0
 10
11.42020802903147
 20
0.7623430584388238
 30
0.0
 10
11.64547105648128
 20
0.7417132109524853
 30
0.0
 10
11.75836477965031
 20
0.7313742737664404
 30
0.0
1001
PE_URL
1000

  0
LINE
  5
D7
330
1F
100
AcDbEntity
  8
0
  6
Continuous
 62
     1
370
    25
100
AcDbLine
 10
11.75836477965031
 20
0.6989875477077704
 30
0.0
 11
11.75836477965031
 21
0.7313742737664432
 31
0.0
1001
PE_URL
1000

  0
SPLINE
  5
D8
330
1F
100
AcDbEntity
  8
0
  6
Continuous
 62
     1
370
    25
100
AcDbSpline
210
0.0
220
0.0
230
1.0
 70
     8
 71
     3
 72
    19
 73
    15
 74
     0
 42
0.000000001
 43
0.00000001
 40
0.0
 40
0.0
 40
0.0
 40
0.0
 40
0.1114263802517733
 40
0.1930108558257595
 40
0.264954062630548
 40
0.3404575073065867
 40
0.4266203424862722
 40
0.5161338063615325
 40
0.5818228083198685
 40
0.6330349079753407
 40
0.7097411872430474
 40
0.823056794218273
 40
0.9118354022985794
 40
1.0
 40
1.0
 40
1.0
 40
1.0
 10
10.7518028147814
 20
-0.5430746817948532
 30
0.0
 10
10.70369681168649
 20
-0.567034233748399
 30
0.0
 10
10.62036842206525
 20
-0.6085365567827326
 30
0.0
 10
10.50579917838737
 20
-0.6538470009239914
 30
0.0
 10
10.40744249083832
 20
-0.6875025692058458
 30
0.0
 10
10.3070288528191
 20
-0.7148649015096339
 30
0.0
 10
10.19844297151066
 20
-0.7359311077020767
 30
0.0
 10
10.09429244239607
 20
-0.7475071599146099
 30
0.0
 10
10.00523440466391
 20
-0.7506876967678919
 30
0.0
 10
9.922094823134564
 20
-0.7488533771703106
 30
0.0
 10
9.817998253769169
 20
-0.7400833283398479
 30
0.0
 10
9.697383466850088
 20
-0.7188491196262655
 30
0.0
 10
9.572140692685217
 20
-0.6856115363069087
 30
0.0
 10
9.496202246028293
 20
-0.6575076956930762
 30
0.0
 10
9.45836477965031
 20
-0.6435045369357973
 30
0.0
  0
LINE
  5
D9
330
1F
100
AcDbEntity
  8
0
  6
Continuous
 62
     4
370
    25
100
AcDbLine
 10
9.45836477965031
 20
-0.3953672335009116
 30
0.0
 11
9.45836477965031
 21
-0.6435045369357971
 31
0.0
  0
SPLINE
  5
DA
330
1F
100
AcDbEntity
  8
0
  6
Continuous
 62
     1
370
    25
100
AcDbSpline
210
0.0
220
0.0
230
1.0
 70
     8
 71
     3
 72
     9
 73
     5
 74
     0
 42
0.000000001
 43
0.00000001
 40
0.0
 40
0.0
 40
0.0
 40
0.0
 40
0.6251695172492011
 40
1.0
 40
1.0
 40
1.0
 40
1.0
 10
9.45836477964875
 20
-0.6518122179551434
 30
0.0
 10
9.565556952916022
 20
-0.6878012857749602
 30
0.0
 10
9.737017925195868
 20
-0.7453681805560293
 30
0.0
 10
9.908334574501396
 20
-0.7419187331331936
 30
0.0
 10
9.972549276863838
 20
-0.7406257750904686
 30
0.0
  0
LINE
  5
DE
330
1F
100
AcDbEntity
  8
0
  6
Continuous
 62
     1
370
    25
100
AcDbLine
 10
11.74092772663288
 20
-0.1616810929169432
 30
0.0
 11
11.75836477965031
 21
-0.277847258210865
 31
0.0
1001
PE_URL
1000

  0
LINE
  5
DF
330
1F
100
AcDbEntity
  8
0
  6
Continuous
 62
     1
370
    25
100
AcDbLine
 10
11.75836477965031
 20
-0.277847258210865
 30
0.0
 11
11.75836477965031
 21
-0.6879817214417546
 31
0.0
1001
PE_URL
1000

  0
SPLINE
  5
E0
330
1F
100
AcDbEntity
  8
0
  6
Continuous
 62
     1
370
    25
100
AcDbSpline
210
0.0
220
0.0
230
1.0
 70
     8
 71
     3
 72
    10
 73
     6
 74
     0
 42
0.000000001
 43
0.00000001
 40
0.0
 40
0.0
 40
0.0
 40
0.0
 40
0.5002847041256292
 40
0.8486041496149085
 40
1.0
 40
1.0
 40
1.0
 40
1.0
 10
11.75836477965031
 20
0.7348469228349511
 30
0.0
 10
11.72500679564133
 20
0.7391053288784373
 30
0.0
 10
11.66842356729281
 20
0.7463286179565304
 30
0.0
 10
11.60152207763817
 20
0.7501006255580022
 30
0.0
 10
11.56807520877305
 20
0.7495368666901625
 30
0.0
 10
11.55794200453383
 20
0.7493660679295212
 30
0.0
1001
PE_URL
1000

  0
LINE
  5
E1
330
1F
100
AcDbEntity
  8
0
  6
Continuous
 62
     1
370
    25
100
AcDbLine
 10
11.75836477965031
 20
0.7313742737664432
 30
0.0
 11
11.75836477965031
 21
0.7348469228349513
 31
0.0
1001
PE_URL
1000

  0
LINE
  5
E6
330
1F
100
AcDbEntity
  8
중심선
100
AcDbLine
 10
-41.24163522034969
 20
-0.0000000000000072
 30
0.0
 11
13.24852191795562
 21
-0.0000000000000001
 31
0.0
  0
CIRCLE
  5
E7
330
1F
100
AcDbEntity
  8
해칭선
100
AcDbCircle
 10
0.0
 20
0.0
 30
0.0
 40
3.000000000000003
  0
INSERT
  5
E8
330
1F
100
AcDbEntity
  8
0
  6
Continuous
 62
     7
100
AcDbBlockReference
 66
     1
  2
블럭10
 10
-30.91527293212521
 20
-52.04717430164394
 30
0.0
  0
ATTRIB
  5
E9
330
E8
100
AcDbEntity
  8
FORMAT
 62
     2
100
AcDbText
 10
-47.03453397156076
 20
-49.97180738881174
 30
0.0
 40
4.233333333333333
  1
SEME7301507E [ 4 FLUTE ]
 41
0.75
  7
SLDTEXTSTYLE0
 11
-47.03453397156076
 21
-52.08847405547841
 31
0.0
100
AcDbAttribute
  2
AUTOATTR0
 70
     0
 74
     1
  0
SEQEND
  5
EA
330
E8
100
AcDbEntity
  8
0
  6
Continuous
 62
     7
  0
HATCH
  5
EB
330
1F
100
AcDbEntity
  8
중심선
100
AcDbHatch
 10
0.0
 20
0.0
 30
0.0
210
0.0
220
0.0
230
1.0
  2
SOLID
 70
     1
 71
     0
 91
        1
 92
        0
 93
        4
 72
     1
 10
-25.20036362774436
 20
-35.8
 11
-28.64663887158164
 21
-35.8
 72
     1
 10
-28.64663887158164
 20
-35.8
 11
-30.77486873078569
 21
-38.3363255805726
 72
     1
 10
-30.77486873078569
 20
-38.3363255805726
 11
-27.32856040183523
 21
-38.33628615127011
 72
     1
 10
-27.32856040183523
 20
-38.33628615127011
 11
-25.20036362774436
 21
-35.8
 97
        0
 75
     0
 76
     1
 98
        1
 10
-5.525054920989815
 20
-0.0000000000000082
  0
HATCH
  5
EC
330
1F
100
AcDbEntity
  8
중심선
100
AcDbHatch
 10
0.0
 20
0.0
 30
0.0
210
0.0
220
0.0
230
1.0
  2
SOLID
 70
     1
 71
     0
 91
        1
 92
        0
 93
        4
 72
     1
 10
-20.18759963670838
 20
-35.8
 11
-23.63387488054567
 21
-35.8
 72
     1
 10
-23.63387488054566
 20
-35.8
 11
-28.16501288890308
 21
-41.20000000000002
 72
     1
 10
-28.16501288890308
 20
-41.20000000000002
 11
-24.7187376450658
 21
-41.20000000000002
 72
     1
 10
-24.7187376450658
 20
-41.20000000000002
 11
-20.18759963670838
 21
-35.8
 97
        0
 75
     0
 76
     1
 98
        1
 10
-5.525054920989815
 20
-0.0000000000000082
  0
HATCH
  5
ED
330
1F
100
AcDbEntity
  8
중심선
100
AcDbHatch
 10
0.0
 20
0.0
 30
0.0
210
0.0
220
0.0
230
1.0
  2
SOLID
 70
     1
 71
     0
 91
        1
 92
        0
 93
        4
 72
     1
 10
-15.17483564567251
 20
-35.8
 11
-18.62111088950963
 21
-35.8
 72
     1
 10
-18.62111088950963
 20
-35.8
 11
-25.66954779139888
 21
-44.20000000000002
 72
     1
 10
-25.66954779139888
 20
-44.20000000000002
 11
-22.2232725475616
 21
-44.20000000000002
 72
     1
 10
-22.2232725475616
 20
-44.20000000000002
 11
-15.17483564567252
 21
-35.8
 97
        0
 75
     0
 76
     1
 98
        1
 10
-5.525054920989815
 20
-0.0000000000000082
  0
HATCH
  5
EE
330
1F
100
AcDbEntity
  8
중심선
100
AcDbHatch
 10
0.0
 20
0.0
 30
0.0
210
0.0
220
0.0
230
1.0
  2
SOLID
 70
     1
 71
     0
 91
        1
 92
        0
 93
        6
 72
     3
 10
-10.37494521466031
 20
-40.00000000005128
 11
3.960054785062283
 21
1.540882976769353E-10
 40
0.3939339440162628
 50
17.09539180608436
 51
320.0019657685075
 73
     0
 72
     1
 10
-8.691945558959748
 20
-38.58789400463831
 11
-6.386643685258683
 21
-36.65356729459039
 72
     3
 10
-10.37494521471316
 20
-40.00000000000016
 11
6.600054785286829
 21
-1.278976924368180E-13
 40
0.636358354079598
 50
39.99873849337411
 51
368.4976242363724
 73
     1
 72
     1
 10
-3.949612722812552
 20
-39.03999999993002
 11
-11.69487790787724
 21
-39.03999999993002
 72
     1
 10
-11.69487790787724
 20
-39.03999999993002
 11
-11.69490295232317
 21
-40.95999999992992
 72
     1
 10
-11.69490295232317
 20
-40.95999999992992
 11
-7.253523182851136
 21
-40.95999999992989
 97
        0
 75
     0
 76
     1
 98
        1
 10
-5.525054920989815
 20
-0.0000000000000082
  0
DIMENSION
  5
EF
330
1F
100
AcDbEntity
  8
치수문자_일반주서
100
AcDbDimension
  2
_D
 10
24.78598760952568
 20
0.7348469228349988
 30
0.0
 11
24.78598760952565
 21
11.713846922835
 31
0.0
 70
   160
  1
%%c<>
 71
     2
 42
1.469693845669907
 52
-270.0
  3
SLDDIMSTYLE0
100
AcDbAlignedDimension
 13
11.75836477965031
 23
-0.7348469228349559
 33
0.0
 14
11.75836477965031
 24
0.7348469228349513
 34
0.0
 50
90.0000000000002
100
AcDbRotatedDimension
  0
DIMENSION
  5
FD
330
1F
100
AcDbEntity
  8
치수문자_일반주서
100
AcDbDimension
  2
_D_1
 10
11.7583647796503
 20
36.00000000000003
 30
0.0
 11
-13.24163522034969
 21
36.00000000000003
 31
0.0
 70
   160
  1
<>
 71
     2
 42
50.00000000000001
  3
SLDDIMSTYLE1
100
AcDbAlignedDimension
 13
-38.2416352203497
 23
1.499999999999992
 33
0.0
 14
11.75836477965031
 24
-0.0750000000000046
 34
0.0
100
AcDbRotatedDimension
  0
DIMENSION
  5
108
330
1F
100
AcDbEntity
  8
치수문자_일반주서
100
AcDbDimension
  2
_D_2
 10
-51.73427478196958
 20
-2.000000000000057
 30
0.0
 11
-51.73427478196959
 21
-0.726463899203084
 31
0.0
 70
   160
  1
%%c<>
 71
     2
 42
4.000000000000003
 52
-270.0
  3
SLDDIMSTYLE2
100
AcDbAlignedDimension
 13
-37.74163522034971
 23
1.999999999999999
 33
0.0
 14
-37.74163522034971
 24
-2.000000000000004
 34
0.0
 50
90.0000000000002
100
AcDbRotatedDimension
  0
DIMENSION
  5
116
330
1F
100
AcDbEntity
  8
치수문자_일반주서
100
AcDbDimension
  2
_D_3
 10
11.75836477965031
 20
17.17144624737778
 30
0.0
 11
22.95611477965031
 21
17.17144624737778
 31
0.0
 70
   160
  1
<>
 71
     2
 42
2.3
  3
SLDDIMSTYLE3
100
AcDbAlignedDimension
 13
9.45836477965031
 23
0.5356229458249178
 33
0.0
 14
11.75836477965031
 24
0.7331105983006972
 34
0.0
 50
-0.0000000000002262
100
AcDbRotatedDimension
  0
DIMENSION
  5
123
330
1F
100
AcDbEntity
  8
치수문자_일반주서
100
AcDbDimension
  2
_D_4
 10
4.758364779650308
 20
25.43116380012061
 30
0.0
 11
8.415623718542147
 21
25.43116380012061
 31
0.0
 70
   160
  1
<>
 71
     2
 42
7.000000000000003
  3
SLDDIMSTYLE2
100
AcDbAlignedDimension
 13
11.75836477965031
 23
0.7313742737664432
 33
0.0
 14
4.758364779650308
 24
0.7249999999999962
 34
0.0
 50
0.0000000000000582
100
AcDbRotatedDimension
  0
INSERT
  5
135
330
1F
100
AcDbEntity
  8
해칭선
100
AcDbBlockReference
  2
SW_DOWELSYMBOL_0
 10
0.0
 20
0.0
 30
0.0
  0
ENDSEC
  0
SECTION
  2
OBJECTS
  0
DICTIONARY
  5
C
330
0
100
AcDbDictionary
281
     1
  3
ACAD_GROUP
350
D
  3
ACAD_LAYOUT
350
1A
  3
ACAD_MLINESTYLE
350
17
  3
ACAD_PLOTSETTINGS
350
19
  3
ACAD_PLOTSTYLENAME
350
E
  3
ACAD_SCALELIST
350
47
  3
APPDATA
350
157
  3
DWGPROPS
350
190
  0
DICTIONARY
  5
18E
330
1F
100
AcDbDictionary
280
     1
281
     1
  3
DIM_BOUNDING_BOXES_V1
360
18F
  0
DICTIONARY
  5
D
102
{ACAD_REACTORS
330
C
102
}
330
C
100
AcDbDictionary
281
     1
  0
DICTIONARY
  5
1A
102
{ACAD_REACTORS
330
C
102
}
330
C
100
AcDbDictionary
281
     1
  3
Layout1
350
1E
  3
Layout2
350
26
  3
Model
350
22
  0
DICTIONARY
  5
17
102
{ACAD_REACTORS
330
C
102
}
330
C
100
AcDbDictionary
281
     1
  3
Standard
350
18
  0
DICTIONARY
  5
19
102
{ACAD_REACTORS
330
C
102
}
330
C
100
AcDbDictionary
281
     1
  0
ACDBDICTIONARYWDFLT
  5
E
102
{ACAD_REACTORS
330
C
102
}
330
C
100
AcDbDictionary
281
     1
  3
Normal
350
F
100
AcDbDictionaryWithDefault
340
F
  0
DICTIONARY
  5
47
102
{ACAD_REACTORS
330
C
102
}
330
C
100
AcDbDictionary
281
     1
  3
A0
350
48
  3
A1
350
49
  3
A2
350
4A
  3
A3
350
4B
  3
A4
350
4C
  3
A5
350
4D
  3
A6
350
4E
  3
A7
350
4F
  3
A8
350
50
  3
A9
350
51
  3
B0
350
52
  3
B1
350
53
  3
B2
350
54
  3
B3
350
55
  3
B4
350
56
  3
B5
350
57
  3
B6
350
58
  3
B7
350
59
  3
B8
350
5A
  3
B9
350
5B
  3
C0
350
5C
  3
C1
350
5D
  3
C2
350
5E
  3
C3
350
5F
  3
C4
350
60
  3
C5
350
61
  3
C6
350
62
  3
C7
350
63
  3
C8
350
64
  3
C9
350
65
  3
D0
350
66
  3
D1
350
67
  3
D2
350
68
  0
DICTIONARY
  5
157
102
{ACAD_REACTORS
330
C
102
}
330
C
100
AcDbDictionary
281
     1
  0
XRECORD
  5
190
102
{ACAD_REACTORS
330
C
102
}
330
C
100
AcDbXrecord
280
     1
  1
DWGPROPS COOKIE
  2

  3

  4

  6

  7

  8
12016016
  9

300
=
301
=
302
=
303
=
304
=
305
=
306
=
307
=
308
=
309
=
 40
0.0
 41
2458260.400913866
 42
2459677.367577361
  1

 90
        0
  0
DICTIONARY
  5
18F
102
{ACAD_REACTORS
330
18E
102
}
330
18E
100
AcDbDictionary
281
     1
  0
LAYOUT
  5
1E
102
{ACAD_REACTORS
330
1A
102
}
330
1A
100
AcDbPlotSettings
  1

  2
none_device
  4

  6

 40
0.0
 41
0.0
 42
0.0
 43
0.0
 44
0.0
 45
0.0
 46
0.0
 47
0.0
 48
0.0
 49
0.0
140
0.0
141
0.0
142
1.0
143
1.0
 70
   688
 72
     1
 73
     0
 74
     5
  7

 75
    16
147
1.0
148
0.0
149
0.0
100
AcDbLayout
  1
Layout1
 70
     1
 71
     1
 10
0.0
 20
0.0
 11
420.0
 21
297.0
 12
0.0
 22
0.0
 32
0.0
 14
1.000000000000000E+20
 24
1.000000000000000E+20
 34
1.000000000000000E+20
 15
-1.000000000000000E+20
 25
-1.000000000000000E+20
 35
-1.000000000000000E+20
146
0.0
 13
0.0
 23
0.0
 33
0.0
 16
1.0
 26
0.0
 36
0.0
 17
0.0
 27
1.0
 37
0.0
 76
     0
330
1B
  0
LAYOUT
  5
26
102
{ACAD_REACTORS
330
1A
102
}
330
1A
100
AcDbPlotSettings
  1

  2
none_device
  4

  6

 40
0.0
 41
0.0
 42
0.0
 43
0.0
 44
0.0
 45
0.0
 46
0.0
 47
0.0
 48
0.0
 49
0.0
140
0.0
141
0.0
142
1.0
143
1.0
 70
   688
 72
     1
 73
     0
 74
     5
  7

 75
    16
147
1.0
148
0.0
149
0.0
100
AcDbLayout
  1
Layout2
 70
     1
 71
     2
 10
0.0
 20
0.0
 11
0.0
 21
0.0
 12
0.0
 22
0.0
 32
0.0
 14
0.0
 24
0.0
 34
0.0
 15
0.0
 25
0.0
 35
0.0
146
0.0
 13
0.0
 23
0.0
 33
0.0
 16
1.0
 26
0.0
 36
0.0
 17
0.0
 27
1.0
 37
0.0
 76
     0
330
23
  0
LAYOUT
  5
22
102
{ACAD_REACTORS
330
1A
102
}
330
1A
100
AcDbPlotSettings
  1

  2
none_device
  4
ANSI_A_(11.00_x_8.50_Inches)
  6

 40
6.35
 41
19.05
 42
6.35000508
 43
19.05000254
 44
279.4
 45
215.9
 46
161.0545882195552
 47
100.8537443875621
 48
0.0
 49
0.0
140
0.0
141
0.0
142
0.0922419125129433
143
1.0
 70
  1696
 72
     0
 73
     0
 74
     0
  7

 75
     0
147
0.0235690232323232
148
0.0
149
0.0
100
AcDbLayout
  1
Model
 70
     1
 71
     0
 10
0.0
 20
0.0
 11
420.0
 21
297.0
 12
0.0
 22
0.0
 32
0.0
 14
-56.10927478196959
 24
-49.97180738881175
 34
0.0
 15
27.54986477965031
 25
40.37500000000002
 35
0.0
146
0.0
 13
0.0
 23
0.0
 33
0.0
 16
1.0
 26
0.0
 36
0.0
 17
0.0
 27
1.0
 37
0.0
 76
     0
330
1F
331
29
  0
MLINESTYLE
  5
18
102
{ACAD_REACTORS
330
17
102
}
330
17
100
AcDbMlineStyle
  2
Standard
 70
     0
  3

 62
   256
 51
90.0
 52
90.0
 71
     2
 49
0.5
 62
   256
  6
BYLAYER
 49
-0.5
 62
   256
  6
BYLAYER
  0
ACDBPLACEHOLDER
  5
F
102
{ACAD_REACTORS
330
E
102
}
330
E
  0
SCALE
  5
48
102
{ACAD_REACTORS
330
47
102
}
330
47
100
AcDbScale
 70
     0
300
1:1
140
1.0
141
1.0
290
     1
  0
SCALE
  5
49
102
{ACAD_REACTORS
330
47
102
}
330
47
100
AcDbScale
 70
     0
300
1:2
140
1.0
141
2.0
290
     0
  0
SCALE
  5
4A
102
{ACAD_REACTORS
330
47
102
}
330
47
100
AcDbScale
 70
     0
300
1:4
140
1.0
141
4.0
290
     0
  0
SCALE
  5
4B
102
{ACAD_REACTORS
330
47
102
}
330
47
100
AcDbScale
 70
     0
300
1:5
140
1.0
141
5.0
290
     0
  0
SCALE
  5
4C
102
{ACAD_REACTORS
330
47
102
}
330
47
100
AcDbScale
 70
     0
300
1:8
140
1.0
141
8.0
290
     0
  0
SCALE
  5
4D
102
{ACAD_REACTORS
330
47
102
}
330
47
100
AcDbScale
 70
     0
300
1:10
140
1.0
141
10.0
290
     0
  0
SCALE
  5
4E
102
{ACAD_REACTORS
330
47
102
}
330
47
100
AcDbScale
 70
     0
300
1:16
140
1.0
141
16.0
290
     0
  0
SCALE
  5
4F
102
{ACAD_REACTORS
330
47
102
}
330
47
100
AcDbScale
 70
     0
300
1:20
140
1.0
141
20.0
290
     0
  0
SCALE
  5
50
102
{ACAD_REACTORS
330
47
102
}
330
47
100
AcDbScale
 70
     0
300
1:30
140
1.0
141
30.0
290
     0
  0
SCALE
  5
51
102
{ACAD_REACTORS
330
47
102
}
330
47
100
AcDbScale
 70
     0
300
1:40
140
1.0
141
40.0
290
     0
  0
SCALE
  5
52
102
{ACAD_REACTORS
330
47
102
}
330
47
100
AcDbScale
 70
     0
300
1:50
140
1.0
141
50.0
290
     0
  0
SCALE
  5
53
102
{ACAD_REACTORS
330
47
102
}
330
47
100
AcDbScale
 70
     0
300
1:100
140
1.0
141
100.0
290
     0
  0
SCALE
  5
54
102
{ACAD_REACTORS
330
47
102
}
330
47
100
AcDbScale
 70
     0
300
2:1
140
2.0
141
1.0
290
     0
  0
SCALE
  5
55
102
{ACAD_REACTORS
330
47
102
}
330
47
100
AcDbScale
 70
     0
300
4:1
140
4.0
141
1.0
290
     0
  0
SCALE
  5
56
102
{ACAD_REACTORS
330
47
102
}
330
47
100
AcDbScale
 70
     0
300
8:1
140
8.0
141
1.0
290
     0
  0
SCALE
  5
57
102
{ACAD_REACTORS
330
47
102
}
330
47
100
AcDbScale
 70
     0
300
10:1
140
10.0
141
1.0
290
     0
  0
SCALE
  5
58
102
{ACAD_REACTORS
330
47
102
}
330
47
100
AcDbScale
 70
     0
300
100:1
140
100.0
141
1.0
290
     0
  0
SCALE
  5
59
102
{ACAD_REACTORS
330
47
102
}
330
47
100
AcDbScale
 70
     0
300
1/128" = 1'-0"
140
0.0078125
141
12.0
290
     0
  0
SCALE
  5
5A
102
{ACAD_REACTORS
330
47
102
}
330
47
100
AcDbScale
 70
     0
300
1/64" = 1'-0"
140
0.015625
141
12.0
290
     0
  0
SCALE
  5
5B
102
{ACAD_REACTORS
330
47
102
}
330
47
100
AcDbScale
 70
     0
300
1/32" = 1'-0"
140
0.03125
141
12.0
290
     0
  0
SCALE
  5
5C
102
{ACAD_REACTORS
330
47
102
}
330
47
100
AcDbScale
 70
     0
300
1/16" = 1'-0"
140
0.0625
141
12.0
290
     0
  0
SCALE
  5
5D
102
{ACAD_REACTORS
330
47
102
}
330
47
100
AcDbScale
 70
     0
300
3/32" = 1'-0"
140
0.09375
141
12.0
290
     0
  0
SCALE
  5
5E
102
{ACAD_REACTORS
330
47
102
}
330
47
100
AcDbScale
 70
     0
300
1/8" = 1'-0"
140
0.125
141
12.0
290
     0
  0
SCALE
  5
5F
102
{ACAD_REACTORS
330
47
102
}
330
47
100
AcDbScale
 70
     0
300
3/16" = 1'-0"
140
0.1875
141
12.0
290
     0
  0
SCALE
  5
60
102
{ACAD_REACTORS
330
47
102
}
330
47
100
AcDbScale
 70
     0
300
1/4" = 1'-0"
140
0.25
141
12.0
290
     0
  0
SCALE
  5
61
102
{ACAD_REACTORS
330
47
102
}
330
47
100
AcDbScale
 70
     0
300
3/8" = 1'-0"
140
0.375
141
12.0
290
     0
  0
SCALE
  5
62
102
{ACAD_REACTORS
330
47
102
}
330
47
100
AcDbScale
 70
     0
300
1/2" = 1'-0"
140
0.5
141
12.0
290
     0
  0
SCALE
  5
63
102
{ACAD_REACTORS
330
47
102
}
330
47
100
AcDbScale
 70
     0
300
3/4" = 1'-0"
140
0.75
141
12.0
290
     0
  0
SCALE
  5
64
102
{ACAD_REACTORS
330
47
102
}
330
47
100
AcDbScale
 70
     0
300
1" = 1'-0"
140
1.0
141
12.0
290
     0
  0
SCALE
  5
65
102
{ACAD_REACTORS
330
47
102
}
330
47
100
AcDbScale
 70
     0
300
1-1/2" = 1'-0"
140
1.5
141
12.0
290
     0
  0
SCALE
  5
66
102
{ACAD_REACTORS
330
47
102
}
330
47
100
AcDbScale
 70
     0
300
3" = 1'-0"
140
3.0
141
12.0
290
     0
  0
SCALE
  5
67
102
{ACAD_REACTORS
330
47
102
}
330
47
100
AcDbScale
 70
     0
300
6" = 1'-0"
140
6.0
141
12.0
290
     0
  0
SCALE
  5
68
102
{ACAD_REACTORS
330
47
102
}
330
47
100
AcDbScale
 70
     0
300
1'-0" = 1'-0"
140
12.0
141
12.0
290
     0
  0
ENDSEC
  0
EOF
