  0
SECTION
  2
HEADER
  9
$ACADVER
  1
AC1015
  9
$ACADMAINTVER
 70
     6
  9
$DWGCODEPAGE
  3
ANSI_949
  9
$INSBASE
 10
0.0
 20
0.0
 30
0.0
  9
$EXTMIN
 10
-51.98965953969892
 20
-49.97180738881174
 30
0.0
  9
$EXTMAX
 10
51.66948002192098
 20
41.37500000000003
 30
0.0
  9
$LIMMIN
 10
0.0
 20
0.0
  9
$LIMMAX
 10
420.0
 20
297.0
  9
$ORTHOMODE
 70
     0
  9
$REGENMODE
 70
     1
  9
$FILLMODE
 70
     1
  9
$QTEXTMODE
 70
     0
  9
$MIRRTEXT
 70
     1
  9
$LTSCALE
 40
1.0
  9
$ATTMODE
 70
     1
  9
$TEXTSIZE
 40
3.5
  9
$TRACEWID
 40
1.0
  9
$TEXTSTYLE
  7
Standard
  9
$CLAYER
  8
0
  9
$CELTYPE
  6
ByLayer
  9
$CECOLOR
 62
   256
  9
$CELTSCALE
 40
1.0
  9
$DISPSILH
 70
     0
  9
$DIMSCALE
 40
1.0
  9
$DIMASZ
 40
3.302
  9
$DIMEXO
 40
1.0
  9
$DIMDLI
 40
3.75
  9
$DIMRND
 40
0.0
  9
$DIMDLE
 40
0.0
  9
$DIMEXE
 40
1.0
  9
$DIMTP
 40
0.0
  9
$DIMTM
 40
0.0
  9
$DIMTXT
 40
3.5
  9
$DIMCEN
 40
2.5
  9
$DIMTSZ
 40
0.0
  9
$DIMTOL
 70
     0
  9
$DIMLIM
 70
     0
  9
$DIMTIH
 70
     1
  9
$DIMTOH
 70
     1
  9
$DIMSE1
 70
     0
  9
$DIMSE2
 70
     0
  9
$DIMTAD
 70
     1
  9
$DIMZIN
 70
     0
  9
$DIMBLK
  1

  9
$DIMASO
 70
     1
  9
$DIMSHO
 70
     1
  9
$DIMPOST
  1

  9
$DIMAPOST
  1

  9
$DIMALT
 70
     0
  9
$DIMALTD
 70
     3
  9
$DIMALTF
 40
0.0393700787401575
  9
$DIMLFAC
 40
1.0
  9
$DIMTOFL
 70
     1
  9
$DIMTVP
 40
0.0
  9
$DIMTIX
 70
     0
  9
$DIMSOXD
 70
     0
  9
$DIMSAH
 70
     0
  9
$DIMBLK1
  1

  9
$DIMBLK2
  1

  9
$DIMSTYLE
  2
ISO-25
  9
$DIMCLRD
 70
     0
  9
$DIMCLRE
 70
     0
  9
$DIMCLRT
 70
     0
  9
$DIMTFAC
 40
1.0
  9
$DIMGAP
 40
1.524
  9
$DIMJUST
 70
     0
  9
$DIMSD1
 70
     0
  9
$DIMSD2
 70
     0
  9
$DIMTOLJ
 70
     0
  9
$DIMTZIN
 70
     0
  9
$DIMALTZ
 70
     0
  9
$DIMALTTZ
 70
     0
  9
$DIMUPT
 70
     0
  9
$DIMDEC
 70
     2
  9
$DIMTDEC
 70
     2
  9
$DIMALTU
 70
     2
  9
$DIMALTTD
 70
     3
  9
$DIMTXSTY
  7
Standard
  9
$DIMAUNIT
 70
     0
  9
$DIMADEC
 70
     2
  9
$DIMALTRND
 40
0.0
  9
$DIMAZIN
 70
     0
  9
$DIMDSEP
 70
    44
  9
$DIMATFIT
 70
     3
  9
$DIMFRAC
 70
     0
  9
$DIMLDRBLK
  1

  9
$DIMLUNIT
 70
     2
  9
$DIMLWD
 70
    -2
  9
$DIMLWE
 70
    -2
  9
$DIMTMOVE
 70
     0
  9
$LUNITS
 70
     2
  9
$LUPREC
 70
     2
  9
$SKETCHINC
 40
1.0
  9
$FILLETRAD
 40
10.0
  9
$AUNITS
 70
     0
  9
$AUPREC
 70
     2
  9
$MENU
  1
.
  9
$ELEVATION
 40
0.0
  9
$PELEVATION
 40
0.0
  9
$THICKNESS
 40
0.0
  9
$LIMCHECK
 70
     0
  9
$CHAMFERA
 40
0.0
  9
$CHAMFERB
 40
0.0
  9
$CHAMFERC
 40
0.0
  9
$CHAMFERD
 40
0.0
  9
$SKPOLY
 70
     0
  9
$TDCREATE
 40
2458260.785554826
  9
$TDUCREATE
 40
2458260.410554826
  9
$TDUPDATE
 40
2459677.710133692
  9
$TDUUPDATE
 40
2459677.335133692
  9
$TDINDWG
 40
0.0014939583
  9
$TDUSRTIMER
 40
0.0006409491
  9
$USRTIMER
 70
     1
  9
$ANGBASE
 50
0.0
  9
$ANGDIR
 70
     0
  9
$PDMODE
 70
     0
  9
$PDSIZE
 40
-1.0
  9
$PLINEWID
 40
0.0
  9
$SPLFRAME
 70
     0
  9
$SPLINETYPE
 70
     6
  9
$SPLINESEGS
 70
     8
  9
$HANDSEED
  5
17E
  9
$SURFTAB1
 70
     6
  9
$SURFTAB2
 70
     6
  9
$SURFTYPE
 70
     6
  9
$SURFU
 70
     6
  9
$SURFV
 70
     6
  9
$UCSBASE
  2

  9
$UCSNAME
  2

  9
$UCSORG
 10
0.0
 20
0.0
 30
0.0
  9
$UCSXDIR
 10
1.0
 20
0.0
 30
0.0
  9
$UCSYDIR
 10
0.0
 20
1.0
 30
0.0
  9
$UCSORTHOREF
  2

  9
$UCSORTHOVIEW
 70
     0
  9
$UCSORGTOP
 10
0.0
 20
0.0
 30
0.0
  9
$UCSORGBOTTOM
 10
0.0
 20
0.0
 30
0.0
  9
$UCSORGLEFT
 10
0.0
 20
0.0
 30
0.0
  9
$UCSORGRIGHT
 10
0.0
 20
0.0
 30
0.0
  9
$UCSORGFRONT
 10
0.0
 20
0.0
 30
0.0
  9
$UCSORGBACK
 10
0.0
 20
0.0
 30
0.0
  9
$PUCSBASE
  2

  9
$PUCSNAME
  2

  9
$PUCSORG
 10
0.0
 20
0.0
 30
0.0
  9
$PUCSXDIR
 10
1.0
 20
0.0
 30
0.0
  9
$PUCSYDIR
 10
0.0
 20
1.0
 30
0.0
  9
$PUCSORTHOREF
  2

  9
$PUCSORTHOVIEW
 70
     0
  9
$PUCSORGTOP
 10
0.0
 20
0.0
 30
0.0
  9
$PUCSORGBOTTOM
 10
0.0
 20
0.0
 30
0.0
  9
$PUCSORGLEFT
 10
0.0
 20
0.0
 30
0.0
  9
$PUCSORGRIGHT
 10
0.0
 20
0.0
 30
0.0
  9
$PUCSORGFRONT
 10
0.0
 20
0.0
 30
0.0
  9
$PUCSORGBACK
 10
0.0
 20
0.0
 30
0.0
  9
$USERI1
 70
     0
  9
$USERI2
 70
     0
  9
$USERI3
 70
     0
  9
$USERI4
 70
     0
  9
$USERI5
 70
     0
  9
$USERR1
 40
0.0
  9
$USERR2
 40
0.0
  9
$USERR3
 40
0.0
  9
$USERR4
 40
0.0
  9
$USERR5
 40
0.0
  9
$WORLDVIEW
 70
     1
  9
$SHADEDGE
 70
     3
  9
$SHADEDIF
 70
    70
  9
$TILEMODE
 70
     1
  9
$MAXACTVP
 70
    64
  9
$PINSBASE
 10
0.0
 20
0.0
 30
0.0
  9
$PLIMCHECK
 70
     0
  9
$PEXTMIN
 10
1.000000000000000E+20
 20
1.000000000000000E+20
 30
1.000000000000000E+20
  9
$PEXTMAX
 10
-1.000000000000000E+20
 20
-1.000000000000000E+20
 30
-1.000000000000000E+20
  9
$PLIMMIN
 10
0.0
 20
0.0
  9
$PLIMMAX
 10
0.0
 20
0.0
  9
$UNITMODE
 70
     0
  9
$VISRETAIN
 70
     1
  9
$PLINEGEN
 70
     0
  9
$PSLTSCALE
 70
     1
  9
$TREEDEPTH
 70
  3020
  9
$CMLSTYLE
  2
Standard
  9
$CMLJUST
 70
     0
  9
$CMLSCALE
 40
20.0
  9
$PROXYGRAPHICS
 70
     1
  9
$MEASUREMENT
 70
     1
  9
$CELWEIGHT
370
    -1
  9
$ENDCAPS
280
     0
  9
$JOINSTYLE
280
     0
  9
$LWDISPLAY
290
     1
  9
$INSUNITS
 70
     4
  9
$HYPERLINKBASE
  1

  9
$STYLESHEET
  1

  9
$XEDIT
290
     1
  9
$CEPSNTYPE
380
     0
  9
$PSTYLEMODE
290
     1
  9
$FINGERPRINTGUID
  2
{F5A66719-7C7B-41AD-BA30-22F0D9330CFC}
  9
$VERSIONGUID
  2
{FAEB1C32-E019-11D5-929B-00C0DF256EC4}
  9
$EXTNAMES
290
     1
  9
$PSVPSCALE
 40
0.0
  9
$OLESTARTUP
290
     0
  0
ENDSEC
  0
SECTION
  2
CLASSES
  0
CLASS
  1
ACDBDICTIONARYWDFLT
  2
AcDbDictionaryWithDefault
  3
ObjectDBX Classes
 90
        0
280
     0
281
     0
  0
CLASS
  1
VISUALSTYLE
  2
AcDbVisualStyle
  3
ObjectDBX Classes
 90
     4095
280
     0
281
     0
  0
CLASS
  1
MATERIAL
  2
AcDbMaterial
  3
ObjectDBX Classes
 90
     1153
280
     0
281
     0
  0
CLASS
  1
SCALE
  2
AcDbScale
  3
ObjectDBX Classes
 90
     1153
280
     0
281
     0
  0
CLASS
  1
TABLESTYLE
  2
AcDbTableStyle
  3
ObjectDBX Classes
 90
     4095
280
     0
281
     0
  0
CLASS
  1
MLEADERSTYLE
  2
AcDbMLeaderStyle
  3
ACDB_MLEADERSTYLE_CLASS
 90
     4095
280
     0
281
     0
  0
CLASS
  1
SUN
  2
AcDbSun
  3
SCENEOE
 90
     1153
280
     0
281
     0
  0
CLASS
  1
ACDBPLACEHOLDER
  2
AcDbPlaceHolder
  3
ObjectDBX Classes
 90
        0
280
     0
281
     0
  0
CLASS
  1
LAYOUT
  2
AcDbLayout
  3
ObjectDBX Classes
 90
        0
280
     0
281
     0
  0
ENDSEC
  0
SECTION
  2
TABLES
  0
TABLE
  2
VPORT
  5
8
330
0
100
AcDbSymbolTable
 70
     1
  0
VPORT
  5
29
330
8
100
AcDbSymbolTableRecord
100
AcDbViewportTableRecord
  2
*Active
 70
     0
 10
0.0
 20
0.0
 11
1.0
 21
1.0
 12
-10.67998618235996
 22
1.991303782911985
 13
0.0
 23
0.0
 14
10.0
 24
10.0
 15
10.0
 25
10.0
 16
0.0
 26
0.0
 36
1.0
 17
0.0
 27
0.0
 37
0.0
 40
22.81915082208733
 41
1.531481481481481
 42
50.0
 43
0.0
 44
0.0
 50
0.0
 51
0.0
 71
    16
 72
  2000
 73
     1
 74
     3
 75
     0
 76
     0
 77
     0
 78
     0
281
     0
 65
     1
110
0.0
120
0.0
130
0.0
111
1.0
121
0.0
131
0.0
112
0.0
122
1.0
132
0.0
 79
     0
146
0.0
  0
ENDTAB
  0
TABLE
  2
LTYPE
  5
5
330
0
100
AcDbSymbolTable
 70
     6
  0
LTYPE
  5
14
330
5
100
AcDbSymbolTableRecord
100
AcDbLinetypeTableRecord
  2
ByBlock
 70
     0
  3

 72
    65
 73
     0
 40
0.0
  0
LTYPE
  5
15
330
5
100
AcDbSymbolTableRecord
100
AcDbLinetypeTableRecord
  2
ByLayer
 70
     0
  3

 72
    65
 73
     0
 40
0.0
  0
LTYPE
  5
16
330
5
100
AcDbSymbolTableRecord
100
AcDbLinetypeTableRecord
  2
Continuous
 70
     0
  3
Solid line
 72
    65
 73
     0
 40
0.0
  0
LTYPE
  5
6E
330
5
100
AcDbSymbolTableRecord
100
AcDbLinetypeTableRecord
  2
HIDDEN
 70
     0
  3
Hidden __ __ __ __ __ __ __ __ __ __ __ __ __ __
 72
    65
 73
     2
 40
1.905
 49
1.27
 74
     0
 49
-0.635
 74
     0
  0
LTYPE
  5
6F
330
5
100
AcDbSymbolTableRecord
100
AcDbLinetypeTableRecord
  2
PHANTOM
 70
     0
  3
Phantom ______  __  __  ______  __  __  ______
 72
    65
 73
     6
 40
12.7
 49
6.35
 74
     0
 49
-1.27
 74
     0
 49
1.27
 74
     0
 49
-1.27
 74
     0
 49
1.27
 74
     0
 49
-1.27
 74
     0
  0
LTYPE
  5
70
330
5
100
AcDbSymbolTableRecord
100
AcDbLinetypeTableRecord
  2
CENTER
 70
     0
  3
Center ____ _ ____ _ ____ _ ____ _ ____ _ ____
 72
    65
 73
     4
 40
10.16
 49
6.35
 74
     0
 49
-1.27
 74
     0
 49
1.27
 74
     0
 49
-1.27
 74
     0
  0
LTYPE
  5
71
330
5
100
AcDbSymbolTableRecord
100
AcDbLinetypeTableRecord
  2
CENTERX2
 70
     0
  3
Center (2x) ________  __  ________  __  _____
 72
    65
 73
     4
 40
20.32
 49
12.7
 74
     0
 49
-2.54
 74
     0
 49
2.54
 74
     0
 49
-2.54
 74
     0
  0
LTYPE
  5
72
330
5
100
AcDbSymbolTableRecord
100
AcDbLinetypeTableRecord
  2
DOT2
 70
     0
  3
Dot (.5x) ........................................
 72
    65
 73
     2
 40
0.635
 49
0.0
 74
     0
 49
-0.635
 74
     0
  0
ENDTAB
  0
TABLE
  2
LAYER
  5
2
330
0
100
AcDbSymbolTable
 70
    17
  0
LAYER
  5
10
330
2
100
AcDbSymbolTableRecord
100
AcDbLayerTableRecord
  2
0
 70
     0
 62
     7
  6
Continuous
370
    -3
390
F
  0
LAYER
  5
73
330
2
100
AcDbSymbolTableRecord
100
AcDbLayerTableRecord
  2
FORMAT
 70
     0
 62
     2
  6
Continuous
370
    -3
390
F
  0
LAYER
  5
74
330
2
100
AcDbSymbolTableRecord
100
AcDbLayerTableRecord
  2
외형선
 70
     0
 62
   100
  6
Continuous
370
    35
390
F
  0
LAYER
  5
75
330
2
100
AcDbSymbolTableRecord
100
AcDbLayerTableRecord
  2
숨은선
 70
     0
 62
     2
  6
HIDDEN
370
    25
390
F
  0
LAYER
  5
76
330
2
100
AcDbSymbolTableRecord
100
AcDbLayerTableRecord
  2
중심선
 70
     0
 62
     1
  6
CENTERX2
370
    -3
390
F
  0
LAYER
  5
77
330
2
100
AcDbSymbolTableRecord
100
AcDbLayerTableRecord
  2
파단선
 70
     0
 62
     4
  6
Continuous
370
    -3
390
F
  0
LAYER
  5
78
330
2
100
AcDbSymbolTableRecord
100
AcDbLayerTableRecord
  2
해칭선
 70
     0
 62
   100
  6
Continuous
370
    -3
390
F
  0
LAYER
  5
79
330
2
100
AcDbSymbolTableRecord
100
AcDbLayerTableRecord
  2
가는실선
 70
     0
 62
     4
  6
Continuous
370
    -3
390
F
  0
LAYER
  5
7A
330
2
100
AcDbSymbolTableRecord
100
AcDbLayerTableRecord
  2
치수_보조선
 70
     0
 62
     4
  6
Continuous
370
    -3
390
F
  0
LAYER
  5
7B
330
2
100
AcDbSymbolTableRecord
100
AcDbLayerTableRecord
  2
치수문자_일반주서
 70
     0
 62
     7
  6
Continuous
370
    25
390
F
  0
LAYER
  5
7C
330
2
100
AcDbSymbolTableRecord
100
AcDbLayerTableRecord
  2
개별주서
 70
     0
 62
   100
  6
Continuous
370
    35
390
F
  0
LAYER
  5
7D
330
2
100
AcDbSymbolTableRecord
100
AcDbLayerTableRecord
  2
중간선
 70
     0
 62
     2
  6
Continuous
370
    25
390
F
  0
LAYER
  5
7E
330
2
100
AcDbSymbolTableRecord
100
AcDbLayerTableRecord
  2
윤곽선
 70
     0
 62
     3
  6
Continuous
370
    50
390
F
  0
LAYER
  5
7F
330
2
100
AcDbSymbolTableRecord
100
AcDbLayerTableRecord
  2
중심마크
 70
     0
 62
   100
  6
Continuous
370
    35
390
F
  0
LAYER
  5
80
330
2
100
AcDbSymbolTableRecord
100
AcDbLayerTableRecord
  2
가상선
 70
     0
 62
     4
  6
PHANTOM
370
    -3
390
F
  0
LAYER
  5
81
330
2
100
AcDbSymbolTableRecord
100
AcDbLayerTableRecord
  2
특수지정선
 70
     0
 62
     5
  6
CENTERX2
370
    70
390
F
  0
LAYER
  5
146
330
2
100
AcDbSymbolTableRecord
100
AcDbLayerTableRecord
  2
Defpoints
 70
     0
 62
     7
  6
Continuous
290
     0
370
    -3
390
F
  0
ENDTAB
  0
TABLE
  2
STYLE
  5
3
330
0
100
AcDbSymbolTable
 70
     2
  0
STYLE
  5
11
330
3
100
AcDbSymbolTableRecord
100
AcDbTextStyleTableRecord
  2
Standard
 70
     0
 40
0.0
 41
1.0
 50
0.0
 71
     0
 42
3.5
  3
txt
  4

  0
STYLE
  5
97
330
3
100
AcDbSymbolTableRecord
100
AcDbTextStyleTableRecord
  2
SLDTEXTSTYLE0
 70
     0
 40
0.0
 41
0.75
 50
0.0
 71
     0
 42
3.5
  3
TXT
  4

  0
ENDTAB
  0
TABLE
  2
VIEW
  5
6
330
0
100
AcDbSymbolTable
 70
     0
  0
ENDTAB
  0
TABLE
  2
UCS
  5
7
330
0
100
AcDbSymbolTable
 70
     0
  0
ENDTAB
  0
TABLE
  2
APPID
  5
9
330
0
100
AcDbSymbolTable
 70
     2
  0
APPID
  5
12
330
9
100
AcDbSymbolTableRecord
100
AcDbRegAppTableRecord
  2
ACAD
 70
     0
  0
APPID
  5
14B
330
9
100
AcDbSymbolTableRecord
100
AcDbRegAppTableRecord
  2
PE_URL
 70
     0
  0
ENDTAB
  0
TABLE
  2
DIMSTYLE
  5
A
330
0
100
AcDbSymbolTable
 70
     5
100
AcDbDimStyleTable
  0
DIMSTYLE
105
27
330
A
100
AcDbSymbolTableRecord
100
AcDbDimStyleTableRecord
  2
ISO-25
 70
     0
 41
2.5
 42
0.625
 43
3.75
 44
1.25
 73
     0
 74
     0
 77
     1
 78
     8
140
2.5
141
2.5
143
0.03937007874016
147
0.625
171
     3
172
     1
178
     0
271
     2
272
     2
274
     3
278
    44
283
     0
284
     8
340
11
  0
DIMSTYLE
105
E0
102
{ACAD_REACTORS
330
DF
102
}
330
A
100
AcDbSymbolTableRecord
100
AcDbDimStyleTableRecord
  2
SLDDIMSTYLE0
 70
     0
 41
3.302
 44
0.0
 45
0.000000001
 73
     0
 74
     0
 77
     1
 78
    12
 79
     3
140
3.5
147
0.875
172
     1
173
     1
178
     0
271
     1
272
     1
276
     2
284
    12
289
     0
340
97
  0
DIMSTYLE
105
EE
102
{ACAD_REACTORS
330
ED
330
113
102
}
330
A
100
AcDbSymbolTableRecord
100
AcDbDimStyleTableRecord
  2
SLDDIMSTYLE1
 70
     0
 41
3.302
 44
0.0
 45
0.000000001
 73
     0
 74
     0
 77
     1
 78
    12
 79
     3
140
3.5
147
0.875
173
     1
178
     0
271
     2
272
     2
276
     2
284
    12
340
97
  0
DIMSTYLE
105
F9
102
{ACAD_REACTORS
330
F8
102
}
330
A
100
AcDbSymbolTableRecord
100
AcDbDimStyleTableRecord
  2
SLDDIMSTYLE2
 70
     0
 41
3.302
 44
0.0
 45
0.000000001
 73
     0
 74
     0
 77
     1
 78
    12
 79
     3
140
3.5
147
0.875
172
     1
173
     1
178
     0
271
     2
272
     2
276
     2
284
    12
289
     0
340
97
  0
DIMSTYLE
105
107
102
{ACAD_REACTORS
330
106
102
}
330
A
100
AcDbSymbolTableRecord
100
AcDbDimStyleTableRecord
  2
SLDDIMSTYLE3
 70
     0
 41
3.302
 44
0.0
 45
0.000000001
 73
     0
 74
     0
 77
     1
 78
     4
 79
     1
140
3.5
147
0.875
172
     1
173
     1
178
     0
271
     2
272
     2
276
     2
284
    12
289
     0
340
97
  0
ENDTAB
  0
TABLE
  2
BLOCK_RECORD
  5
1
330
0
100
AcDbSymbolTable
 70
     8
  0
BLOCK_RECORD
  5
1F
102
{ACAD_XDICTIONARY
360
17A
102
}
330
1
100
AcDbSymbolTableRecord
100
AcDbBlockTableRecord
  2
*Model_Space
340
22
  0
BLOCK_RECORD
  5
1B
330
1
100
AcDbSymbolTableRecord
100
AcDbBlockTableRecord
  2
*Paper_Space
340
1E
  0
BLOCK_RECORD
  5
23
330
1
100
AcDbSymbolTableRecord
100
AcDbBlockTableRecord
  2
*Paper_Space0
340
26
  0
BLOCK_RECORD
  5
82
330
1
100
AcDbSymbolTableRecord
100
AcDbBlockTableRecord
  2
블럭10
340
0
102
{BLKREFS
331
D8
102
}
  0
BLOCK_RECORD
  5
E1
330
1
100
AcDbSymbolTableRecord
100
AcDbBlockTableRecord
  2
_D
340
0
  0
BLOCK_RECORD
  5
EF
330
1
100
AcDbSymbolTableRecord
100
AcDbBlockTableRecord
  2
_D_1
340
0
  0
BLOCK_RECORD
  5
FA
330
1
100
AcDbSymbolTableRecord
100
AcDbBlockTableRecord
  2
_D_2
340
0
  0
BLOCK_RECORD
  5
108
330
1
100
AcDbSymbolTableRecord
100
AcDbBlockTableRecord
  2
_D_3
340
0
  0
BLOCK_RECORD
  5
114
330
1
100
AcDbSymbolTableRecord
100
AcDbBlockTableRecord
  2
_D_4
340
0
  0
BLOCK_RECORD
  5
11D
330
1
100
AcDbSymbolTableRecord
100
AcDbBlockTableRecord
  2
SW_DOWELSYMBOL_0
340
0
102
{BLKREFS
331
123
102
}
  0
ENDTAB
  0
ENDSEC
  0
SECTION
  2
BLOCKS
  0
BLOCK
  5
20
330
1F
100
AcDbEntity
  8
0
100
AcDbBlockBegin
  2
*Model_Space
 70
     0
 10
0.0
 20
0.0
 30
0.0
  3
*Model_Space
  1

  0
ENDBLK
  5
21
330
1F
100
AcDbEntity
  8
0
100
AcDbBlockEnd
  0
BLOCK
  5
1C
330
1B
100
AcDbEntity
 67
     1
  8
0
100
AcDbBlockBegin
  2
*Paper_Space
 70
     0
 10
0.0
 20
0.0
 30
0.0
  3
*Paper_Space
  1

  0
ENDBLK
  5
1D
330
1B
100
AcDbEntity
 67
     1
  8
0
100
AcDbBlockEnd
  0
BLOCK
  5
24
330
23
100
AcDbEntity
  8
0
100
AcDbBlockBegin
  2
*Paper_Space0
 70
     0
 10
0.0
 20
0.0
 30
0.0
  3
*Paper_Space0
  1

  0
ENDBLK
  5
25
330
23
100
AcDbEntity
  8
0
100
AcDbBlockEnd
  0
BLOCK
  5
83
330
82
100
AcDbEntity
  8
0
100
AcDbBlockBegin
  2
블럭10
 70
     2
 10
0.0
 20
0.0
 30
0.0
  3
블럭10
  1

  0
ELLIPSE
  5
85
330
82
100
AcDbEntity
  8
중심선
100
AcDbEllipse
 10
20.54032771741204
 20
12.0471743016438
 30
0.0
 11
6.600054785286829
 21
-1.261213355974178E-13
 31
0.0
210
0.0
220
0.0
230
1.0
 40
0.636358354079598
 41
0.9219305317359503
 42
6.513795318482858
  0
ELLIPSE
  5
86
330
82
100
AcDbEntity
  8
중심선
100
AcDbEllipse
 10
20.54032771746488
 20
12.04717430159265
 30
0.0
 11
3.960054785062283
 21
1.540847449632565E-10
 31
0.0
210
0.0
220
0.0
230
1.0
 40
0.3939339440162632
 41
1.131841032648279
 42
5.62031148352944
  0
LINE
  5
87
330
82
100
AcDbEntity
  8
중심선
100
AcDbLine
 10
2.268634060543552
 20
16.24717430164393
 30
0.0
 11
5.714909304380834
 21
16.24717430164393
 31
0.0
  0
LINE
  5
88
330
82
100
AcDbEntity
  8
중심선
100
AcDbLine
 10
5.245725140726316
 20
7.84717430164391
 30
0.0
 11
8.692000384563599
 21
7.84717430164391
 31
0.0
  0
LINE
  5
89
330
82
100
AcDbEntity
  8
중심선
100
AcDbLine
 10
15.74043728645272
 20
16.24717430164393
 30
0.0
 11
8.692000384563599
 21
7.84717430164391
 31
0.0
  0
LINE
  5
8A
330
82
100
AcDbEntity
  8
중심선
100
AcDbLine
 10
0.1404042013395286
 20
13.71084872107135
 30
0.0
 11
3.58671253028996
 21
13.71088815037384
 31
0.0
  0
LINE
  5
8B
330
82
100
AcDbEntity
  8
중심선
100
AcDbLine
 10
2.750260043222114
 20
10.84717430164391
 30
0.0
 11
6.196535287059397
 21
10.84717430164391
 31
0.0
  0
LINE
  5
8C
330
82
100
AcDbEntity
  8
중심선
100
AcDbLine
 10
12.29416204261559
 20
16.24717430164393
 30
0.0
 11
5.245725140726316
 21
7.84717430164391
 31
0.0
  0
LINE
  5
8D
330
82
100
AcDbEntity
  8
중심선
100
AcDbLine
 10
10.72767329541681
 20
16.24717430164393
 30
0.0
 11
6.196535287059397
 21
10.84717430164391
 31
0.0
  0
LINE
  5
8E
330
82
100
AcDbEntity
  8
중심선
100
AcDbLine
 10
7.28139805157953
 20
16.24717430164393
 30
0.0
 11
2.750260043222114
 21
10.84717430164391
 31
0.0
  0
LINE
  5
8F
330
82
100
AcDbEntity
  8
중심선
100
AcDbLine
 10
5.714909304380834
 20
16.24717430164393
 30
0.0
 11
3.58671253028996
 21
13.71088815037384
 31
0.0
  0
LINE
  5
90
330
82
100
AcDbEntity
  8
중심선
100
AcDbLine
 10
2.268634060543552
 20
16.24717430164393
 30
0.0
 11
0.1404042013395286
 21
13.71084872107135
 31
0.0
  0
LINE
  5
91
330
82
100
AcDbEntity
  8
중심선
100
AcDbLine
 10
7.28139805157953
 20
16.24717430164393
 30
0.0
 11
10.72767329541681
 21
16.24717430164393
 31
0.0
  0
LINE
  5
92
330
82
100
AcDbEntity
  8
중심선
100
AcDbLine
 10
12.29416204261559
 20
16.24717430164393
 30
0.0
 11
15.74043728645272
 21
16.24717430164393
 31
0.0
  0
LINE
  5
93
330
82
100
AcDbEntity
  8
중심선
100
AcDbLine
 10
19.22036997980202
 20
11.08717430171403
 30
0.0
 11
23.66174974927406
 21
11.08717430171406
 31
0.0
  0
LINE
  5
94
330
82
100
AcDbEntity
  8
중심선
100
AcDbLine
 10
19.22039502424796
 20
13.00717430171391
 30
0.0
 11
19.22036997980202
 21
11.08717430171403
 31
0.0
  0
LINE
  5
95
330
82
100
AcDbEntity
  8
중심선
100
AcDbLine
 10
19.22039502424796
 20
13.00717430171391
 30
0.0
 11
26.96566020931264
 21
13.00717430171391
 31
0.0
  0
LINE
  5
96
330
82
100
AcDbEntity
  8
중심선
100
AcDbLine
 10
22.22332737316547
 20
13.45928029700563
 30
0.0
 11
24.52862924686651
 21
15.39360700705356
 31
0.0
  0
ATTDEF
  5
98
330
82
100
AcDbEntity
  8
FORMAT
 62
     2
100
AcDbText
 10
-16.11926103943555
 20
2.075366912832191
 30
0.0
 40
4.233333333333333
  1
SEME7303030E [ 4 FLUTE ]
 41
0.75
  7
SLDTEXTSTYLE0
 11
-16.11926103943555
 21
-0.0412997538344756
 31
0.0
100
AcDbAttributeDefinition
  3

  2
AUTOATTR0
 70
     0
 74
     1
  0
ENDBLK
  5
84
330
82
100
AcDbEntity
  8
0
100
AcDbBlockEnd
  0
BLOCK
  5
E2
330
E1
100
AcDbEntity
  8
0
100
AcDbBlockBegin
  2
_D
 70
     0
 10
0.0
 20
0.0
 30
0.0
  3
_D
  1

  0
LINE
  5
E4
330
E1
100
AcDbEntity
  8
치수문자_일반주서
 62
     0
370
    -2
100
AcDbLine
 10
35.940480021921
 20
-1.492481155659926
 30
0.0
 11
41.99747596039197
 21
-1.492481155659902
 31
0.0
  0
LINE
  5
E5
330
E1
100
AcDbEntity
  8
치수문자_일반주서
 62
     0
370
    -2
100
AcDbLine
 10
35.94048002192098
 20
1.492481155659933
 30
0.0
 11
41.99747596039196
 21
1.492481155659956
 31
0.0
  0
LINE
  5
E6
330
E1
100
AcDbEntity
  8
치수문자_일반주서
 62
     0
370
    -2
100
AcDbLine
 10
41.99747596039196
 20
1.492481155659956
 30
0.0
 11
41.99747596039193
 21
14.22148115565995
 31
0.0
  0
LINE
  5
E7
330
E1
100
AcDbEntity
  8
치수문자_일반주서
 62
     0
370
    -2
100
AcDbLine
 10
41.99747596039197
 20
-1.492481155659902
 30
0.0
 11
41.99747596039196
 21
1.492481155659956
 31
0.0
  0
LINE
  5
E8
330
E1
100
AcDbEntity
  8
치수문자_일반주서
 62
     0
370
    -2
100
AcDbLine
 10
41.99747596039197
 20
-4.794481155659902
 30
0.0
 11
41.99747596039198
 21
-8.096481155659902
 31
0.0
  0
LINE
  5
E9
330
E1
100
AcDbEntity
  8
치수문자_일반주서
 62
     0
370
    -2
100
AcDbLine
 10
41.99747596039195
 20
4.794481155659955
 30
0.0
 11
41.99747596039195
 21
8.096481155659955
 31
0.0
  0
SOLID
  5
EA
330
E1
100
AcDbEntity
  8
치수문자_일반주서
 62
     0
100
AcDbTrace
 10
42.54780929372531
 20
-4.794481155659901
 30
0.0
 11
41.44714262705864
 21
-4.794481155659903
 31
0.0
 12
41.99747596039197
 22
-1.492481155659902
 32
0.0
 13
41.99747596039197
 23
-1.492481155659902
 33
0.0
  0
SOLID
  5
EB
330
E1
100
AcDbEntity
  8
치수문자_일반주서
 62
     0
100
AcDbTrace
 10
41.44714262705862
 20
4.794481155659954
 30
0.0
 11
42.54780929372529
 21
4.794481155659956
 31
0.0
 12
41.99747596039196
 22
1.492481155659956
 32
0.0
 13
41.99747596039196
 23
1.492481155659956
 33
0.0
  0
MTEXT
  5
EC
330
E1
100
AcDbEntity
  8
치수문자_일반주서
 62
     0
100
AcDbMText
 10
37.62247596039194
 20
11.15898115565994
 30
0.0
 40
3.5
 41
0.0
 71
     2
 72
     1
  1
\A1;%%c3
  7
SLDTEXTSTYLE0
 11
-2.380407729322116E-15
 21
1.0
 31
0.0
 73
     1
 44
1.0
  0
POINT
  5
14D
330
E1
100
AcDbEntity
  8
Defpoints
 62
     0
100
AcDbPoint
 10
35.877980021921
 20
-1.492481155659926
 30
0.0
  0
POINT
  5
14E
330
E1
100
AcDbEntity
  8
Defpoints
 62
     0
100
AcDbPoint
 10
35.87798002192098
 20
1.492481155659933
 30
0.0
  0
POINT
  5
14F
330
E1
100
AcDbEntity
  8
Defpoints
 62
     0
100
AcDbPoint
 10
41.99747596039196
 20
1.492481155659956
 30
0.0
  0
ENDBLK
  5
E3
330
E1
100
AcDbEntity
  8
0
100
AcDbBlockEnd
  0
BLOCK
  5
F0
330
EF
100
AcDbEntity
  8
0
100
AcDbBlockBegin
  2
_D_1
 70
     0
 10
0.0
 20
0.0
 30
0.0
  3
_D_1
  1

  0
LINE
  5
F2
330
EF
100
AcDbEntity
  8
치수문자_일반주서
 62
     0
370
    -2
100
AcDbLine
 10
-34.12201997807902
 20
2.562499999999994
 30
0.0
 11
-34.12201997807902
 21
37.00000000000003
 31
0.0
  0
LINE
  5
F3
330
EF
100
AcDbEntity
  8
치수문자_일반주서
 62
     0
370
    -2
100
AcDbLine
 10
35.87798002192098
 20
1.554981155659933
 30
0.0
 11
35.87798002192097
 21
37.00000000000003
 31
0.0
  0
LINE
  5
F4
330
EF
100
AcDbEntity
  8
치수문자_일반주서
 62
     0
370
    -2
100
AcDbLine
 10
-30.82001997807902
 20
37.00000000000003
 30
0.0
 11
32.57598002192097
 21
37.00000000000003
 31
0.0
  0
SOLID
  5
F5
330
EF
100
AcDbEntity
  8
치수문자_일반주서
 62
     0
100
AcDbTrace
 10
-30.82001997807902
 20
37.55033333333336
 30
0.0
 11
-30.82001997807902
 21
36.44966666666669
 31
0.0
 12
-34.12201997807902
 22
37.00000000000003
 32
0.0
 13
-34.12201997807902
 23
37.00000000000003
 33
0.0
  0
SOLID
  5
F6
330
EF
100
AcDbEntity
  8
치수문자_일반주서
 62
     0
100
AcDbTrace
 10
32.57598002192097
 20
36.44966666666669
 30
0.0
 11
32.57598002192097
 21
37.55033333333336
 31
0.0
 12
35.87798002192097
 22
37.00000000000003
 32
0.0
 13
35.87798002192097
 23
37.00000000000003
 33
0.0
  0
MTEXT
  5
F7
330
EF
100
AcDbEntity
  8
치수문자_일반주서
 62
     0
100
AcDbMText
 10
0.8779800219209855
 20
41.37500000000003
 30
0.0
 40
3.5
 41
0.0
 71
     2
 72
     1
  1
\A1;70
  7
SLDTEXTSTYLE0
 73
     1
 44
1.0
  0
POINT
  5
147
330
EF
100
AcDbEntity
  8
Defpoints
 62
     0
100
AcDbPoint
 10
-34.12201997807902
 20
2.499999999999994
 30
0.0
  0
POINT
  5
148
330
EF
100
AcDbEntity
  8
Defpoints
 62
     0
100
AcDbPoint
 10
35.87798002192098
 20
1.492481155659933
 30
0.0
  0
POINT
  5
149
330
EF
100
AcDbEntity
  8
Defpoints
 62
     0
100
AcDbPoint
 10
35.87798002192098
 20
37.00000000000003
 30
0.0
  0
ENDBLK
  5
F1
330
EF
100
AcDbEntity
  8
0
100
AcDbBlockEnd
  0
BLOCK
  5
FB
330
FA
100
AcDbEntity
  8
0
100
AcDbBlockBegin
  2
_D_2
 70
     0
 10
0.0
 20
0.0
 30
0.0
  3
_D_2
  1

  0
LINE
  5
FD
330
FA
100
AcDbEntity
  8
치수문자_일반주서
 62
     0
370
    -2
100
AcDbLine
 10
-33.68451997807902
 20
2.999999999999976
 30
0.0
 11
-47.61465953969893
 21
2.999999999999925
 31
0.0
  0
LINE
  5
FE
330
FA
100
AcDbEntity
  8
치수문자_일반주서
 62
     0
370
    -2
100
AcDbLine
 10
-33.68451997807902
 20
-3.000000000000002
 30
0.0
 11
-47.61465953969891
 21
-3.000000000000054
 31
0.0
  0
LINE
  5
FF
330
FA
100
AcDbEntity
  8
치수문자_일반주서
 62
     0
370
    -2
100
AcDbLine
 10
-47.61465953969891
 20
-0.3020000000000751
 30
0.0
 11
-47.61465953969892
 21
0.3019999999999459
 31
0.0
  0
SOLID
  5
100
330
FA
100
AcDbEntity
  8
치수문자_일반주서
 62
     0
100
AcDbTrace
 10
-47.06432620636558
 20
-0.3020000000000732
 30
0.0
 11
-48.16499287303225
 21
-0.302000000000077
 31
0.0
 12
-47.61465953969893
 22
2.999999999999925
 32
0.0
 13
-47.61465953969893
 23
2.999999999999925
 33
0.0
  0
SOLID
  5
101
330
FA
100
AcDbEntity
  8
치수문자_일반주서
 62
     0
100
AcDbTrace
 10
-48.16499287303225
 20
0.3019999999999439
 30
0.0
 11
-47.06432620636559
 21
0.3019999999999478
 31
0.0
 12
-47.61465953969891
 22
-3.000000000000054
 32
0.0
 13
-47.61465953969891
 23
-3.000000000000054
 33
0.0
  0
MTEXT
  5
102
330
FA
100
AcDbEntity
  8
치수문자_일반주서
 62
     0
100
AcDbMText
 10
-51.98965953969891
 20
-1.089695848804664
 30
0.0
 40
3.5
 41
0.0
 71
     2
 72
     1
  1
\A1;%%c6
  7
SLDTEXTSTYLE0
 11
-3.552713678800514E-15
 21
1.0
 31
0.0
 73
     1
 44
1.0
  0
POINT
  5
103
330
FA
100
AcDbEntity
  8
Defpoints
 62
     0
100
AcDbPoint
 10
-33.62201997807902
 20
2.999999999999977
 30
0.0
  0
POINT
  5
104
330
FA
100
AcDbEntity
  8
Defpoints
 62
     0
100
AcDbPoint
 10
-33.62201997807902
 20
-3.000000000000001
 30
0.0
  0
POINT
  5
105
330
FA
100
AcDbEntity
  8
Defpoints
 62
     0
100
AcDbPoint
 10
-47.6146595396989
 20
-3.000000000000054
 30
0.0
  0
ENDBLK
  5
FC
330
FA
100
AcDbEntity
  8
0
100
AcDbBlockEnd
  0
BLOCK
  5
109
330
108
100
AcDbEntity
  8
0
100
AcDbBlockBegin
  2
_D_3
 70
     0
 10
0.0
 20
0.0
 30
0.0
  3
_D_3
  1

  0
LINE
  5
10B
330
108
100
AcDbEntity
  8
치수문자_일반주서
 62
     0
370
    -2
100
AcDbLine
 10
31.37798002192098
 20
1.40216840449726
 30
0.0
 11
31.37798002192098
 21
19.27749057782999
 31
0.0
  0
LINE
  5
10C
330
108
100
AcDbEntity
  8
치수문자_일반주서
 62
     0
370
    -2
100
AcDbLine
 10
35.87798002192098
 20
1.554981155659932
 30
0.0
 11
35.87798002192098
 21
19.27749057782999
 31
0.0
  0
LINE
  5
10D
330
108
100
AcDbEntity
  8
치수문자_일반주서
 62
     0
370
    -2
100
AcDbLine
 10
35.87798002192098
 20
19.27749057782999
 30
0.0
 11
51.66948002192098
 21
19.27749057782999
 31
0.0
  0
LINE
  5
10E
330
108
100
AcDbEntity
  8
치수문자_일반주서
 62
     0
370
    -2
100
AcDbLine
 10
31.37798002192098
 20
19.27749057782999
 30
0.0
 11
35.87798002192098
 21
19.27749057782999
 31
0.0
  0
LINE
  5
10F
330
108
100
AcDbEntity
  8
치수문자_일반주서
 62
     0
370
    -2
100
AcDbLine
 10
28.07598002192098
 20
19.27749057782999
 30
0.0
 11
24.77398002192098
 21
19.27749057782999
 31
0.0
  0
LINE
  5
110
330
108
100
AcDbEntity
  8
치수문자_일반주서
 62
     0
370
    -2
100
AcDbLine
 10
39.17998002192098
 20
19.27749057782999
 30
0.0
 11
42.48198002192098
 21
19.27749057782999
 31
0.0
  0
SOLID
  5
111
330
108
100
AcDbEntity
  8
치수문자_일반주서
 62
     0
100
AcDbTrace
 10
28.07598002192098
 20
18.72715724449665
 30
0.0
 11
28.07598002192098
 21
19.82782391116332
 31
0.0
 12
31.37798002192098
 22
19.27749057782999
 32
0.0
 13
31.37798002192098
 23
19.27749057782999
 33
0.0
  0
SOLID
  5
112
330
108
100
AcDbEntity
  8
치수문자_일반주서
 62
     0
100
AcDbTrace
 10
39.17998002192098
 20
19.82782391116332
 30
0.0
 11
39.17998002192098
 21
18.72715724449665
 31
0.0
 12
35.87798002192098
 22
19.27749057782999
 32
0.0
 13
35.87798002192098
 23
19.27749057782999
 33
0.0
  0
MTEXT
  5
14A
330
108
100
AcDbEntity
  8
치수문자_일반주서
 62
     0
100
AcDbMText
 10
47.07573002192098
 20
23.65249057782999
 30
0.0
 40
3.5
 41
0.0
 71
     2
 72
     1
  1
\A1;4.50
  7
SLDTEXTSTYLE0
 73
     1
 44
1.0
  0
POINT
  5
150
330
108
100
AcDbEntity
  8
Defpoints
 62
     0
100
AcDbPoint
 10
31.37798002192098
 20
1.33966840449726
 30
0.0
  0
POINT
  5
151
330
108
100
AcDbEntity
  8
Defpoints
 62
     0
100
AcDbPoint
 10
35.87798002192098
 20
1.492481155659932
 30
0.0
  0
POINT
  5
152
330
108
100
AcDbEntity
  8
Defpoints
 62
     0
100
AcDbPoint
 10
35.87798002192098
 20
19.27749057782999
 30
0.0
  0
ENDBLK
  5
10A
330
108
100
AcDbEntity
  8
0
100
AcDbBlockEnd
  0
BLOCK
  5
115
330
114
100
AcDbEntity
  8
0
100
AcDbBlockBegin
  2
_D_4
 70
     0
 10
0.0
 20
0.0
 30
0.0
  3
_D_4
  1

  0
LINE
  5
117
330
114
100
AcDbEntity
  8
치수문자_일반주서
 62
     0
370
    -2
100
AcDbLine
 10
35.87798002192098
 20
1.554981155659933
 30
0.0
 11
35.87798002192098
 21
26.19227068201411
 31
0.0
  0
LINE
  5
118
330
114
100
AcDbEntity
  8
치수문자_일반주서
 62
     0
370
    -2
100
AcDbLine
 10
5.87798002192098
 20
1.487499999999996
 30
0.0
 11
5.87798002192098
 21
26.19227068201411
 31
0.0
  0
LINE
  5
119
330
114
100
AcDbEntity
  8
치수문자_일반주서
 62
     0
370
    -2
100
AcDbLine
 10
32.57598002192098
 20
26.19227068201411
 30
0.0
 11
9.17998002192098
 21
26.19227068201411
 31
0.0
  0
SOLID
  5
11A
330
114
100
AcDbEntity
  8
치수문자_일반주서
 62
     0
100
AcDbTrace
 10
32.57598002192098
 20
25.64193734868077
 30
0.0
 11
32.57598002192098
 21
26.74260401534744
 31
0.0
 12
35.87798002192098
 22
26.19227068201411
 32
0.0
 13
35.87798002192098
 23
26.19227068201411
 33
0.0
  0
SOLID
  5
11B
330
114
100
AcDbEntity
  8
치수문자_일반주서
 62
     0
100
AcDbTrace
 10
9.17998002192098
 20
26.74260401534744
 30
0.0
 11
9.17998002192098
 21
25.64193734868077
 31
0.0
 12
5.87798002192098
 22
26.19227068201411
 32
0.0
 13
5.87798002192098
 23
26.19227068201411
 33
0.0
  0
MTEXT
  5
11C
330
114
100
AcDbEntity
  8
치수문자_일반주서
 62
     0
100
AcDbMText
 10
21.55194690288606
 20
30.56727068201411
 30
0.0
 40
3.5
 41
0.0
 71
     2
 72
     1
  1
\A1;30
  7
SLDTEXTSTYLE0
 73
     1
 44
1.0
  0
POINT
  5
153
330
114
100
AcDbEntity
  8
Defpoints
 62
     0
100
AcDbPoint
 10
35.87798002192098
 20
1.492481155659933
 30
0.0
  0
POINT
  5
154
330
114
100
AcDbEntity
  8
Defpoints
 62
     0
100
AcDbPoint
 10
5.87798002192098
 20
1.424999999999996
 30
0.0
  0
POINT
  5
155
330
114
100
AcDbEntity
  8
Defpoints
 62
     0
100
AcDbPoint
 10
5.87798002192098
 20
26.19227068201411
 30
0.0
  0
ENDBLK
  5
116
330
114
100
AcDbEntity
  8
0
100
AcDbBlockEnd
  0
BLOCK
  5
11E
330
11D
100
AcDbEntity
  8
0
100
AcDbBlockBegin
  2
SW_DOWELSYMBOL_0
 70
     0
 10
0.0
 20
0.0
 30
0.0
  3
SW_DOWELSYMBOL_0
  1

  0
CIRCLE
  5
120
330
11D
100
AcDbEntity
  8
해칭선
 62
     0
100
AcDbCircle
 10
0.0
 20
0.0
 30
0.0
 40
3.000000000000003
  0
HATCH
  5
121
330
11D
100
AcDbEntity
  8
0
  6
Continuous
 62
     0
370
    18
100
AcDbHatch
 10
0.0
 20
0.0
 30
0.0
210
0.0
220
0.0
230
1.0
  2
SOLID
 70
     1
 71
     0
 91
        1
 92
        0
 93
        3
 72
     2
 10
-0.0000000000000017
 20
-0.0000000000000035
 40
3.000000000000003
 50
0.0
 51
90.0
 73
     1
 72
     1
 10
-0.0000000000000017
 20
2.999999999999999
 11
-0.0000000000000017
 21
-0.0000000000000036
 72
     1
 10
-0.0000000000000017
 20
-0.0000000000000035
 11
3.000000000000001
 21
-0.0000000000000035
 97
        0
 75
     0
 76
     1
 98
        1
 10
0.0
 20
0.0
  0
HATCH
  5
122
330
11D
100
AcDbEntity
  8
0
  6
Continuous
 62
     0
370
    18
100
AcDbHatch
 10
0.0
 20
0.0
 30
0.0
210
0.0
220
0.0
230
1.0
  2
SOLID
 70
     1
 71
     0
 91
        1
 92
        0
 93
        3
 72
     2
 10
-0.0000000000000017
 20
-0.0000000000000035
 40
3.000000000000003
 50
180.0
 51
270.0000000000007
 73
     1
 72
     1
 10
-0.0000000000000017
 20
-3.000000000000006
 11
-0.0000000000000017
 21
-0.0000000000000036
 72
     1
 10
-0.0000000000000017
 20
-0.0000000000000035
 11
-3.000000000000004
 21
-0.0000000000000035
 97
        0
 75
     0
 76
     1
 98
        1
 10
0.0
 20
0.0
  0
ENDBLK
  5
11F
330
11D
100
AcDbEntity
  8
0
100
AcDbBlockEnd
  0
ENDSEC
  0
SECTION
  2
ENTITIES
  0
LINE
  5
99
330
1F
100
AcDbEntity
  8
0
  6
Continuous
 62
     4
370
    25
100
AcDbLine
 10
-0.0000000000000364
 20
3.0
 30
0.0
 11
-33.62201997807902
 21
2.999999999999991
 31
0.0
  0
LINE
  5
9A
330
1F
100
AcDbEntity
  8
0
  6
Continuous
 62
     4
370
    25
100
AcDbLine
 10
-33.62201997807902
 20
-3.000000000000002
 30
0.0
 11
0.0000000000000071
 21
-2.999999999999992
 31
0.0
  0
LINE
  5
9B
330
1F
100
AcDbEntity
  8
0
  6
Continuous
 62
     4
370
    25
100
AcDbLine
 10
-33.62201997807902
 20
2.999999999999994
 30
0.0
 11
-34.12201997807902
 21
2.499999999999994
 31
0.0
  0
LINE
  5
9C
330
1F
100
AcDbEntity
  8
0
  6
Continuous
 62
     4
370
    25
100
AcDbLine
 10
-34.12201997807902
 20
-2.500000000000006
 30
0.0
 11
-33.62201997807902
 21
-3.000000000000006
 31
0.0
  0
LINE
  5
9D
330
1F
100
AcDbEntity
  8
0
  6
Continuous
 62
     4
370
    25
100
AcDbLine
 10
-0.0000000000000071
 20
-2.999999999999992
 30
0.0
 11
5.877980021920981
 21
-1.424999999999982
 31
0.0
  0
LINE
  5
9F
330
1F
100
AcDbEntity
  8
0
  6
Continuous
 62
     4
370
    25
100
AcDbLine
 10
30.48775511834113
 20
1.425000000000002
 30
0.0
 11
5.87798002192098
 21
1.424999999999995
 31
0.0
  0
LINE
  5
A0
330
1F
100
AcDbEntity
  8
0
  6
Continuous
 62
     4
370
    25
100
AcDbLine
 10
5.87798002192098
 20
-1.424999999999982
 30
0.0
 11
30.48775511834113
 21
-1.424999999999974
 31
0.0
  0
LINE
  5
A1
330
1F
100
AcDbEntity
  8
0
  6
Continuous
 62
     4
370
    25
100
AcDbLine
 10
32.84111537297513
 20
0.263260948984561
 30
0.0
 11
32.91146800883548
 21
0.2139760853136768
 31
0.0
  0
LINE
  5
A2
330
1F
100
AcDbEntity
  8
0
  6
Continuous
 62
     1
370
    25
100
AcDbLine
 10
35.66385493935744
 20
-0.1732170229088761
 30
0.0
 11
35.64126742544962
 21
-0.1559539825624833
 31
0.0
1001
PE_URL
1000

  0
SPLINE
  5
A3
330
1F
100
AcDbEntity
  8
0
  6
Continuous
 62
     1
370
    25
100
AcDbSpline
210
0.0
220
0.0
230
1.0
 70
     8
 71
     3
 72
     9
 73
     5
 74
     0
 42
0.000000001
 43
0.00000001
 40
0.0
 40
0.0
 40
0.0
 40
0.0
 40
0.5540866254234867
 40
1.0
 40
1.0
 40
1.0
 40
1.0
 10
35.87798002192098
 20
-0.3339472619488169
 30
0.0
 10
35.83891733132497
 20
-0.3053356282102745
 30
0.0
 10
35.7684180830059
 20
-0.2536981541660771
 30
0.0
 10
35.69610175653228
 20
-0.1980370525590927
 30
0.0
 10
35.66385493935744
 20
-0.1732170229088761
 30
0.0
1001
PE_URL
1000

  0
LINE
  5
A4
330
1F
100
AcDbEntity
  8
0
  6
Continuous
 62
     1
370
    25
100
AcDbLine
 10
33.19560698715465
 20
1.500000000000002
 30
0.0
 11
32.30621449623256
 21
1.500000000000002
 31
0.0
  0
LINE
  5
A5
330
1F
100
AcDbEntity
  8
0
  6
Continuous
 62
     1
370
    25
100
AcDbLine
 10
35.43276355651509
 20
-1.499999999999998
 30
0.0
 11
35.66375782090967
 21
-1.499999999999998
 31
0.0
1001
PE_URL
1000

  0
LINE
  5
A6
330
1F
100
AcDbEntity
  8
0
  6
Continuous
 62
     4
370
    25
100
AcDbLine
 10
32.50700296083794
 20
-0.1830860927334668
 30
0.0
 11
32.50703999728516
 21
-0.1825856542059874
 31
0.0
  0
LINE
  5
A7
330
1F
100
AcDbEntity
  8
0
  6
Continuous
 62
     1
370
    25
100
AcDbLine
 10
35.66375782090967
 20
1.500000000000002
 30
0.0
 11
35.43276355651509
 21
1.500000000000002
 31
0.0
1001
PE_URL
1000

  0
LINE
  5
A9
330
1F
100
AcDbEntity
  8
0
  6
Continuous
 62
     4
370
    25
100
AcDbLine
 10
-33.62201997807902
 20
2.999999999999994
 30
0.0
 11
-33.62201997807902
 21
-3.000000000000006
 31
0.0
  0
LINE
  5
AA
330
1F
100
AcDbEntity
  8
0
  6
Continuous
 62
     4
370
    25
100
AcDbLine
 10
-34.12201997807902
 20
2.499999999999994
 30
0.0
 11
-34.12201997807902
 21
-2.500000000000006
 31
0.0
  0
LINE
  5
AB
330
1F
100
AcDbEntity
  8
0
  6
Continuous
 62
     4
370
    25
100
AcDbLine
 10
5.87798002192098
 20
1.424999999999996
 30
0.0
 11
5.87798002192098
 21
-1.424999999999982
 31
0.0
  0
SPLINE
  5
AC
330
1F
100
AcDbEntity
  8
0
  6
Continuous
 62
     4
370
    25
100
AcDbSpline
210
0.0
220
0.0
230
1.0
 70
     8
 71
     3
 72
    10
 73
     6
 74
     0
 42
0.000000001
 43
0.00000001
 40
0.0
 40
0.0
 40
0.0
 40
0.0
 40
0.4999999999999999
 40
0.4999999999999999
 40
1.0
 40
1.0
 40
1.0
 40
1.0
 10
30.65535112687954
 20
-0.4006981020278367
 30
0.0
 10
30.59940215081729
 20
-0.3624558379049097
 30
0.0
 10
30.55554946270447
 20
-0.309614763758458
 30
0.0
 10
30.49956936938015
 20
-0.1880666655888095
 30
0.0
 10
30.48775511834112
 20
-0.1196593210678408
 30
0.0
 10
30.48775511834112
 20
-0.0511976786541209
 30
0.0
  0
SPLINE
  5
AD
330
1F
100
AcDbEntity
  8
0
  6
Continuous
 62
     4
370
    25
100
AcDbSpline
210
0.0
220
0.0
230
1.0
 70
     8
 71
     3
 72
    14
 73
    10
 74
     0
 42
0.000000001
 43
0.00000001
 40
0.0
 40
0.0
 40
0.0
 40
0.0
 40
0.25
 40
0.25
 40
0.5
 40
0.5
 40
0.75
 40
0.75
 40
1.0
 40
1.0
 40
1.0
 40
1.0
 10
30.48775511834112
 20
0.4850201826570464
 30
0.0
 10
30.48775511834112
 20
0.5547384447681343
 30
0.0
 10
30.5018344842362
 20
0.6223874711972451
 30
0.0
 10
30.56750024468099
 20
0.7369484803865217
 30
0.0
 10
30.61901111185302
 20
0.7840781347482215
 30
0.0
 10
30.74723634633066
 20
0.8459873661418799
 30
0.0
 10
30.8212938815437
 20
0.8601866710067222
 30
0.0
 10
30.96830242999341
 20
0.8549833178090058
 30
0.0
 10
31.0409713820908
 20
0.8353913780461846
 30
0.0
 10
31.10143578690342
 20
0.7994360957344778
 30
0.0
  0
SPLINE
  5
AE
330
1F
100
AcDbEntity
  8
0
  6
Continuous
 62
     4
370
    25
100
AcDbSpline
210
0.0
220
0.0
230
1.0
 70
     8
 71
     3
 72
    10
 73
     6
 74
     0
 42
0.000000001
 43
0.00000001
 40
0.0
 40
0.0
 40
0.0
 40
0.0
 40
0.5000000000000001
 40
0.5000000000000001
 40
1.0
 40
1.0
 40
1.0
 40
1.0
 10
30.65535112687954
 20
-1.367503576240752
 30
0.0
 10
30.5994021508173
 20
-1.378709106462054
 30
0.0
 10
30.55554946270447
 20
-1.392326597618652
 30
0.0
 10
30.49956936938015
 20
-1.41388315842146
 30
0.0
 10
30.48775511834112
 20
-1.421618690550854
 30
0.0
 10
30.48775511834112
 20
-1.424079982901366
 30
0.0
  0
SPLINE
  5
AF
330
1F
100
AcDbEntity
  8
0
  6
Continuous
 62
     4
370
    25
100
AcDbSpline
210
0.0
220
0.0
230
1.0
 70
     8
 71
     3
 72
     9
 73
     5
 74
     0
 42
0.000000001
 43
0.00000001
 40
0.0
 40
0.0
 40
0.0
 40
0.0
 40
0.3936907395216666
 40
1.0
 40
1.0
 40
1.0
 40
1.0
 10
31.18051701306121
 20
-1.209523224838541
 30
0.0
 10
31.11162273352883
 20
-1.236706572854109
 30
0.0
 10
30.93662679733768
 20
-1.305754039016499
 30
0.0
 10
30.76151999979959
 20
-1.34419591241133
 30
0.0
 10
30.65535112687954
 20
-1.367503576240752
 30
0.0
  0
SPLINE
  5
B0
330
1F
100
AcDbEntity
  8
0
  6
Continuous
 62
     4
370
    25
100
AcDbSpline
210
0.0
220
0.0
230
1.0
 70
     8
 71
     3
 72
     9
 73
     5
 74
     0
 42
0.000000001
 43
0.00000001
 40
0.0
 40
0.0
 40
0.0
 40
0.0
 40
0.3820056387823554
 40
1.0
 40
1.0
 40
1.0
 40
1.0
 10
31.18051701306122
 20
1.209523224838546
 30
0.0
 10
31.20563387453773
 20
1.219230290530053
 30
0.0
 10
31.27138385026209
 20
1.244641082167705
 30
0.0
 10
31.33726552093656
 20
1.265728438439912
 30
0.0
 10
31.37798002192098
 20
1.278760305709123
 30
0.0
  0
LINE
  5
B1
330
1F
100
AcDbEntity
  8
0
  6
Continuous
 62
     4
370
    25
100
AcDbLine
 10
30.48775511834113
 20
1.42499999999999
 30
0.0
 11
30.48775511834113
 21
1.424079982901383
 31
0.0
  0
SPLINE
  5
B2
330
1F
100
AcDbEntity
  8
0
  6
Continuous
 62
     4
370
    25
100
AcDbSpline
210
0.0
220
0.0
230
1.0
 70
     8
 71
     3
 72
    10
 73
     6
 74
     0
 42
0.000000001
 43
0.00000001
 40
0.0
 40
0.0
 40
0.0
 40
0.0
 40
0.5000000000000001
 40
0.5000000000000001
 40
1.0
 40
1.0
 40
1.0
 40
1.0
 10
30.65535112687954
 20
1.367503576240759
 30
0.0
 10
30.59940215081729
 20
1.378709106462061
 30
0.0
 10
30.55554946270446
 20
1.39232659761868
 30
0.0
 10
30.49956936938015
 20
1.41388315842149
 30
0.0
 10
30.48775511834112
 20
1.421618690550883
 30
0.0
 10
30.48775511834112
 20
1.424079982901395
 30
0.0
  0
SPLINE
  5
B3
330
1F
100
AcDbEntity
  8
0
  6
Continuous
 62
     4
370
    25
100
AcDbSpline
210
0.0
220
0.0
230
1.0
 70
     8
 71
     3
 72
     8
 73
     4
 74
     0
 42
0.000000001
 43
0.00000001
 40
0.0
 40
0.0
 40
0.0
 40
0.0
 40
1.0
 40
1.0
 40
1.0
 40
1.0
 10
31.37798002192097
 20
1.136149140549539
 30
0.0
 10
31.13534308136005
 20
1.24046296939984
 30
0.0
 10
30.89799453348055
 20
1.318906654240916
 30
0.0
 10
30.65535112687954
 20
1.367503576240759
 30
0.0
  0
LINE
  5
B4
330
1F
100
AcDbEntity
  8
0
  6
Continuous
 62
     4
370
    25
100
AcDbLine
 10
31.37798002192098
 20
0.6747507436022744
 30
0.0
 11
31.37798002192098
 21
0.6288060754658498
 31
0.0
  0
SPLINE
  5
B5
330
1F
100
AcDbEntity
  8
0
  6
Continuous
 62
     4
370
    25
100
AcDbSpline
210
0.0
220
0.0
230
1.0
 70
     8
 71
     3
 72
     8
 73
     4
 74
     0
 42
0.000000001
 43
0.00000001
 40
0.0
 40
0.0
 40
0.0
 40
0.0
 40
1.0
 40
1.0
 40
1.0
 40
1.0
 10
31.37798002192098
 20
0.6288060754658228
 30
0.0
 10
31.28543379492494
 20
0.6879593190110642
 30
0.0
 10
31.19281197536148
 20
0.7450990578894992
 30
0.0
 10
31.10143578690342
 20
0.7994360957344826
 30
0.0
  0
SPLINE
  5
B6
330
1F
100
AcDbEntity
  8
0
  6
Continuous
 62
     4
370
    25
100
AcDbSpline
210
0.0
220
0.0
230
1.0
 70
     8
 71
     3
 72
     8
 73
     4
 74
     0
 42
0.000000001
 43
0.00000001
 40
0.0
 40
0.0
 40
0.0
 40
0.0
 40
1.0
 40
1.0
 40
1.0
 40
1.0
 10
31.37798002192097
 20
-0.8601105338434792
 30
0.0
 10
31.13534308136005
 20
-0.7223188636658089
 30
0.0
 10
30.89799453348055
 20
-0.5665498100662766
 30
0.0
 10
30.65535112687954
 20
-0.4006981020278365
 30
0.0
  0
LINE
  5
B7
330
1F
100
AcDbEntity
  8
0
  6
Continuous
 62
     4
370
    25
100
AcDbLine
 10
31.37798002192098
 20
-0.8601105338434875
 30
0.0
 11
31.37798002192098
 21
-1.278760305709154
 31
0.0
  0
SPLINE
  5
B8
330
1F
100
AcDbEntity
  8
0
  6
Continuous
 62
     4
370
    25
100
AcDbSpline
210
0.0
220
0.0
230
1.0
 70
     8
 71
     3
 72
     8
 73
     4
 74
     0
 42
0.000000001
 43
0.00000001
 40
0.0
 40
0.0
 40
0.0
 40
0.0
 40
1.0
 40
1.0
 40
1.0
 40
1.0
 10
31.37798002192098
 20
-1.278760305709123
 30
0.0
 10
31.28543379492494
 20
-1.249672822496911
 30
0.0
 10
31.19281197536148
 20
-1.216454246147383
 30
0.0
 10
31.10143578690342
 20
-1.179629996582331
 30
0.0
  0
SPLINE
  5
B9
330
1F
100
AcDbEntity
  8
0
  6
Continuous
 62
     4
370
    25
100
AcDbSpline
210
0.0
220
0.0
230
1.0
 70
     8
 71
     3
 72
    14
 73
    10
 74
     0
 42
0.000000001
 43
0.00000001
 40
0.0
 40
0.0
 40
0.0
 40
0.0
 40
0.2499999999999999
 40
0.2499999999999999
 40
0.4999999999999999
 40
0.4999999999999999
 40
0.7499999999999998
 40
0.7499999999999998
 40
1.0
 40
1.0
 40
1.0
 40
1.0
 10
30.48775511834113
 20
-1.339918065560461
 30
0.0
 10
30.48775511834113
 20
-1.314681623801236
 30
0.0
 10
30.50183448423621
 20
-1.283552144326127
 30
0.0
 10
30.567500244681
 20
-1.221384136446641
 30
0.0
 10
30.61901111185303
 20
-1.190491709493634
 30
0.0
 10
30.74723634633066
 20
-1.147324892125878
 30
0.0
 10
30.82129388154371
 20
-1.136096168156994
 30
0.0
 10
30.96830242999341
 20
-1.140017165900117
 30
0.0
 10
31.0409713820908
 20
-1.155263075941452
 30
0.0
 10
31.10143578690342
 20
-1.179629996582314
 30
0.0
  0
LINE
  5
BA
330
1F
100
AcDbEntity
  8
0
  6
Continuous
 62
     4
370
    25
100
AcDbLine
 10
30.48775511834113
 20
-1.339918065560462
 30
0.0
 11
30.48775511834113
 21
-1.424999999999986
 31
0.0
  0
LINE
  5
BB
330
1F
100
AcDbEntity
  8
0
  6
Continuous
 62
     4
370
    25
100
AcDbLine
 10
30.48775511834113
 20
0.4850201826570465
 30
0.0
 11
30.48775511834113
 21
-0.051197678654121
 31
0.0
  0
SPLINE
  5
BC
330
1F
100
AcDbEntity
  8
0
  6
Continuous
 62
     4
370
    25
100
AcDbSpline
210
0.0
220
0.0
230
1.0
 70
    24
 71
     3
 72
    14
 73
    10
 74
     0
 42
0.000000001
 43
0.00000001
 40
0.0
 40
0.0
 40
0.0
 40
0.0
 40
0.2500000000000001
 40
0.2500000000000001
 40
0.5000000000000002
 40
0.5000000000000002
 40
0.7500000000000001
 40
0.7500000000000001
 40
1.0
 40
1.0
 40
1.0
 40
1.0
 10
31.37798002192098
 20
0.6288060754658504
 30
0.0
 10
31.37798002192098
 20
0.5725988862659049
 30
0.0
 10
31.37798002192098
 20
0.502317148838211
 30
0.0
 10
31.37798002192098
 20
0.316605671001144
 30
0.0
 10
31.37798002192098
 20
0.2012202802811335
 30
0.0
 10
31.37798002192098
 20
-0.0733088937357825
 30
0.0
 10
31.37798002192098
 20
-0.2330552218176617
 30
0.0
 10
31.37798002192098
 20
-0.5594586087127343
 30
0.0
 10
31.37798002192098
 20
-0.7244847923733653
 30
0.0
 10
31.37798002192098
 20
-0.8601105338434876
 30
0.0
  0
SPLINE
  5
BD
330
1F
100
AcDbEntity
  8
0
  6
Continuous
 62
     4
370
    25
100
AcDbSpline
210
0.0
220
0.0
230
1.0
 70
    24
 71
     3
 72
     9
 73
     5
 74
     0
 42
0.000000001
 43
0.00000001
 40
0.0
 40
0.0
 40
0.0
 40
0.0
 40
0.6285034564731226
 40
1.0
 40
1.0
 40
1.0
 40
1.0
 10
31.37798002192098
 20
1.278760305709154
 30
0.0
 10
31.37798002192098
 20
1.258659468786385
 30
0.0
 10
31.37798002192098
 20
1.226677406133036
 30
0.0
 10
31.37798002192098
 20
1.197914018238249
 30
0.0
 10
31.37798002192098
 20
1.187228519055213
 30
0.0
  0
SPLINE
  5
BE
330
1F
100
AcDbEntity
  8
0
  6
Continuous
 62
     1
370
    25
100
AcDbSpline
210
0.0
220
0.0
230
1.0
 70
     8
 71
     3
 72
    26
 73
    22
 74
     0
 42
0.000000001
 43
0.00000001
 40
0.0
 40
0.0
 40
0.0
 40
0.0
 40
0.1250000000000003
 40
0.1250000000000003
 40
0.2500000000000007
 40
0.2500000000000007
 40
0.3125000000000008
 40
0.3125000000000008
 40
0.375000000000001
 40
0.375000000000001
 40
0.5000000000000011
 40
0.5000000000000011
 40
0.562500000000001
 40
0.562500000000001
 40
0.625000000000001
 40
0.625000000000001
 40
0.7500000000000008
 40
0.7500000000000008
 40
0.8750000000000004
 40
0.8750000000000004
 40
1.0
 40
1.0
 40
1.0
 40
1.0
 10
35.7152515454783
 20
-1.430582522423508
 30
0.0
 10
35.53435027992421
 20
-1.389625592868168
 30
0.0
 10
35.35054199059481
 20
-1.330474522453501
 30
0.0
 10
34.99416042143368
 20
-1.182413266799724
 30
0.0
 10
34.80973294387464
 20
-1.091863763754385
 30
0.0
 10
34.53882035276714
 20
-0.9383989590319081
 30
0.0
 10
34.45034070765927
 20
-0.8845534745040997
 30
0.0
 10
34.26991641722673
 20
-0.771064282633561
 30
0.0
 10
34.17868619388218
 20
-0.7115398302817574
 30
0.0
 10
33.90573233950298
 20
-0.5270463919867329
 30
0.0
 10
33.72846931109031
 20
-0.3970828396677878
 30
0.0
 10
33.45588978991999
 20
-0.1956256682223116
 30
0.0
 10
33.36456184525501
 20
-0.1275404421189432
 30
0.0
 10
33.18350606164947
 20
0.0086006093314254
 30
0.0
 10
33.09484019982665
 20
0.076386631474988
 30
0.0
 10
32.82503959830123
 20
0.2793690440453261
 30
0.0
 10
32.640469109341
 20
0.4140261242476767
 30
0.0
 10
32.28208280376896
 20
0.6673320346373193
 30
0.0
 10
32.10044314822356
 20
0.7878428756786505
 30
0.0
 10
31.7375991926632
 20
1.00637954846337
 30
0.0
 10
31.56003650724048
 20
1.10380226836148
 30
0.0
 10
31.37798002192097
 20
1.187228519055218
 30
0.0
  0
LINE
  5
BF
330
1F
100
AcDbEntity
  8
0
  6
Continuous
 62
     4
370
    25
100
AcDbLine
 10
31.37798002192098
 20
1.33966840449726
 30
0.0
 11
31.37798002192098
 21
1.235384801963882
 31
0.0
  0
SPLINE
  5
C0
330
1F
100
AcDbEntity
  8
0
  6
Continuous
 62
     1
370
    25
100
AcDbSpline
210
0.0
220
0.0
230
1.0
 70
     8
 71
     3
 72
    28
 73
    24
 74
     0
 42
0.000000001
 43
0.00000001
 40
0.0
 40
0.0
 40
0.0
 40
0.0
 40
0.1249999999999996
 40
0.1249999999999996
 40
0.1874999999999996
 40
0.1874999999999996
 40
0.2499999999999996
 40
0.2499999999999996
 40
0.3749999999999996
 40
0.3749999999999996
 40
0.4374999999999996
 40
0.4374999999999996
 40
0.4999999999999997
 40
0.4999999999999997
 40
0.6249999999999998
 40
0.6249999999999998
 40
0.7499999999999998
 40
0.7499999999999998
 40
0.8124999999999999
 40
0.8124999999999999
 40
0.8749999999999999
 40
0.8749999999999999
 40
1.0
 40
1.0
 40
1.0
 40
1.0
 10
35.87798002192098
 20
-0.332214820094499
 30
0.0
 10
35.69332345097008
 20
-0.1951269607727982
 30
0.0
 10
35.50173754937065
 20
-0.0518963509080328
 30
0.0
 10
35.22080936444236
 20
0.1595906067341957
 30
0.0
 10
35.12899255160423
 20
0.2293352941107912
 30
0.0
 10
34.94146237612928
 20
0.3678098433683188
 30
0.0
 10
34.84669866225821
 20
0.4362932722535757
 30
0.0
 10
34.56365718616435
 20
0.6363865554114567
 30
0.0
 10
34.37965693635621
 20
0.7619827910222813
 30
0.0
 10
34.09637866939017
 20
0.9343483898585697
 30
0.0
 10
34.00170487777089
 20
0.9889059339589046
 30
0.0
 10
33.81468339952752
 20
1.090658348031877
 30
0.0
 10
33.72280392851938
 20
1.137810184005896
 30
0.0
 10
33.4411706034809
 20
1.26847160753094
 30
0.0
 10
33.25126590054616
 20
1.339924859537095
 30
0.0
 10
32.88040871435934
 20
1.444681944007578
 30
0.0
 10
32.68869875150638
 20
1.478874260075078
 30
0.0
 10
32.40859125402351
 20
1.499673009964218
 30
0.0
 10
32.31658648824717
 20
1.501649926761759
 30
0.0
 10
32.12862498618009
 20
1.49563462448821
 30
0.0
 10
32.03381142572366
 20
1.4875984058265
 30
0.0
 10
31.75112522714881
 20
1.448725498542619
 30
0.0
 10
31.56691084869924
 20
1.403388570073897
 30
0.0
 10
31.37798002192098
 20
1.339668404497244
 30
0.0
  0
LINE
  5
C1
330
1F
100
AcDbEntity
  8
0
  6
Continuous
 62
     1
370
    25
100
AcDbLine
 10
35.87798002192098
 20
-1.046059896994708
 30
0.0
 11
35.87798002192098
 21
-0.333044981522317
 31
0.0
1001
PE_URL
1000

  0
SPLINE
  5
C2
330
1F
100
AcDbEntity
  8
0
  6
Continuous
 62
     1
370
    25
100
AcDbSpline
210
0.0
220
0.0
230
1.0
 70
     8
 71
     3
 72
     8
 73
     4
 74
     0
 42
0.000000001
 43
0.00000001
 40
0.0
 40
0.0
 40
0.0
 40
0.0
 40
1.0
 40
1.0
 40
1.0
 40
1.0
 10
35.87798002192098
 20
-1.046059896994701
 30
0.0
 10
35.79771554402851
 20
-1.165148902452051
 30
0.0
 10
35.74510885502679
 20
-1.297615244877433
 30
0.0
 10
35.71525154547842
 20
-1.43058252242354
 30
0.0
1001
PE_URL
1000

  0
LINE
  5
C3
330
1F
100
AcDbEntity
  8
0
  6
Continuous
 62
     1
370
    25
100
AcDbLine
 10
35.87798002192098
 20
-0.1500000000000027
 30
0.0
 11
35.36858362124781
 21
0.2066831996882453
 31
0.0
1001
PE_URL
1000

  0
LINE
  5
C4
330
1F
100
AcDbEntity
  8
0
  6
Continuous
 62
     1
370
    25
100
AcDbLine
 10
35.87798002192098
 20
-0.3322148200944995
 30
0.0
 11
35.87798002192098
 21
-0.1500000000000031
 31
0.0
1001
PE_URL
1000

  0
SPLINE
  5
C5
330
1F
100
AcDbEntity
  8
0
  6
Continuous
 62
     1
370
    25
100
AcDbSpline
210
0.0
220
0.0
230
1.0
 70
     8
 71
     3
 72
    12
 73
     8
 74
     0
 42
0.000000001
 43
0.00000001
 40
0.0
 40
0.0
 40
0.0
 40
0.0
 40
0.2410519160200567
 40
0.4823359390824844
 40
0.72355445353314
 40
0.9645555068296227
 40
1.0
 40
1.0
 40
1.0
 40
1.0
 10
35.71525154547831
 20
0.4510361920471423
 30
0.0
 10
35.51283512592541
 20
0.5922343553441449
 30
0.0
 10
35.10780738160069
 20
0.8747666405673624
 30
0.0
 10
34.49992439560657
 20
1.209745224562367
 30
0.0
 10
33.89216702957956
 20
1.422396176839575
 30
0.0
 10
33.45751989933546
 20
1.516836627110893
 30
0.0
 10
33.2253718697967
 20
1.493766760467578
 30
0.0
 10
33.19560698715465
 20
1.490808855226813
 30
0.0
  0
ELLIPSE
  5
C6
330
1F
100
AcDbEntity
  8
0
  6
Continuous
 62
     1
370
    25
100
AcDbEllipse
 10
36.06885340064806
 20
0.0000000000000021
 30
0.0
 11
2.118374229132726
 21
1.422960165512965
 31
0.0
210
0.0
220
0.0
230
1.0
 40
0.2240094988738061
 41
1.587266538589989
 42
1.754454853243961
1001
PE_URL
1000

  0
ELLIPSE
  5
C7
330
1F
100
AcDbEntity
  8
0
  6
Continuous
 62
     1
370
    25
100
AcDbEllipse
 10
35.66375782090967
 20
0.0000000000000024
 30
0.0
 11
2.142222010113162
 21
2.623465327748100E-16
 31
0.0
210
0.0
220
0.0
230
1.0
 40
0.700207538209713
 41
4.574160408877008
 42
4.812556401546259
1001
PE_URL
1000

  0
SPLINE
  5
C8
330
1F
100
AcDbEntity
  8
0
  6
Continuous
 62
     1
370
    25
100
AcDbSpline
210
0.0
220
0.0
230
1.0
 70
     8
 71
     3
 72
    14
 73
    10
 74
     0
 42
0.000000001
 43
0.00000001
 40
0.0
 40
0.0
 40
0.0
 40
0.0
 40
0.1552896043902925
 40
0.3105938032818225
 40
0.465932035849733
 40
0.6213235742424211
 40
0.7841140921941403
 40
0.9469283879511219
 40
1.0
 40
1.0
 40
1.0
 40
1.0
 10
31.37798002192097
 20
0.6747507436022724
 30
0.0
 10
31.58782209730962
 20
0.5269136726298124
 30
0.0
 10
32.00752596956436
 20
0.2312256365911844
 30
0.0
 10
32.63715344253355
 20
-0.2534282863783132
 30
0.0
 10
33.26696872732422
 20
-0.707393972483051
 30
0.0
 10
33.90695001244947
 20
-1.101364655584593
 30
0.0
 10
34.55721610171438
 20
-1.375036897245535
 30
0.0
 10
35.06913691605164
 20
-1.50739125091042
 30
0.0
 10
35.36101151179169
 20
-1.486956644500925
 30
0.0
 10
35.43276355651509
 20
-1.481933169301648
 30
0.0
  0
LINE
  5
C9
330
1F
100
AcDbEntity
  8
0
  6
Continuous
 62
     4
370
    25
100
AcDbLine
 10
31.37798002192098
 20
0.6747507436022744
 30
0.0
 11
31.37798002192098
 21
1.187228519055213
 31
0.0
  0
ELLIPSE
  5
CA
330
1F
100
AcDbEntity
  8
0
  6
Continuous
 62
     1
370
    25
100
AcDbEllipse
 10
36.06885340064806
 20
0.0000000000000025
 30
0.0
 11
2.073384780635138
 21
0.9951884631426072
 31
0.0
210
0.0
220
0.0
230
1.0
 40
0.5412979799163928
 41
4.125185227247687
 42
4.292373541901656
1001
PE_URL
1000

  0
SPLINE
  5
CB
330
1F
100
AcDbEntity
  8
0
  6
Continuous
 62
     1
370
    25
100
AcDbSpline
210
0.0
220
0.0
230
1.0
 70
     8
 71
     3
 72
    14
 73
    10
 74
     0
 42
0.000000001
 43
0.00000001
 40
0.0
 40
0.0
 40
0.0
 40
0.0
 40
0.1537341174387354
 40
0.3080464083373854
 40
0.461781143878448
 40
0.6160882418080517
 40
0.7698241375927635
 40
0.9241366610824083
 40
1.0
 40
1.0
 40
1.0
 40
1.0
 10
31.37798002192088
 20
0.5332625376528605
 30
0.0
 10
31.45252861888935
 20
0.4888104986778295
 30
0.0
 10
31.6019061801316
 20
0.3997392425528599
 30
0.0
 10
31.82473234787348
 20
0.2577402208649996
 30
0.0
 10
32.04894680589286
 20
0.1144628832229421
 30
0.0
 10
32.27293913220415
 20
-0.0301681703546345
 30
0.0
 10
32.49604097092299
 20
-0.1761042964809755
 30
0.0
 10
32.68219649880286
 20
-0.2948519486326287
 30
0.0
 10
32.79375740637104
 20
-0.3632993430220299
 30
0.0
 10
32.83052660906799
 20
-0.38585882351787
 30
0.0
1001
PE_URL
1000

  0
SPLINE
  5
CC
330
1F
100
AcDbEntity
  8
0
  6
Continuous
 62
     4
370
    25
100
AcDbSpline
210
0.0
220
0.0
230
1.0
 70
    24
 71
     3
 72
    10
 73
     6
 74
     0
 42
0.000000001
 43
0.00000001
 40
0.0
 40
0.0
 40
0.0
 40
0.0
 40
0.5
 40
0.5
 40
1.0
 40
1.0
 40
1.0
 40
1.0
 10
31.37798002192098
 20
0.6747507436022754
 30
0.0
 10
31.37798002192098
 20
0.6535388937203414
 30
0.0
 10
31.37798002192098
 20
0.6324190058818231
 30
0.0
 10
31.37798002192098
 20
0.586702364121489
 30
0.0
 10
31.37798002192098
 20
0.5613963268720314
 30
0.0
 10
31.37798002192098
 20
0.5332625376528207
 30
0.0
  0
SPLINE
  5
CD
330
1F
100
AcDbEntity
  8
0
  6
Continuous
 62
     1
370
    25
100
AcDbSpline
210
0.0
220
0.0
230
1.0
 70
     8
 71
     3
 72
     8
 73
     4
 74
     0
 42
0.000000001
 43
0.00000001
 40
0.0
 40
0.0
 40
0.0
 40
0.0
 40
1.0
 40
1.0
 40
1.0
 40
1.0
 10
35.87798002192098
 20
0.3829941392143102
 30
0.0
 10
35.79771554402851
 20
0.3805962719577816
 30
0.0
 10
35.74510885502679
 20
0.4067496840423104
 30
0.0
 10
35.71525154547842
 20
0.4510361920470405
 30
0.0
1001
PE_URL
1000

  0
LINE
  5
CE
330
1F
100
AcDbEntity
  8
0
  6
Continuous
 62
     1
370
    25
100
AcDbLine
 10
35.87798002192098
 20
-0.1499999999999979
 30
0.0
 11
35.87798002192098
 21
0.3829941392143187
 31
0.0
1001
PE_URL
1000

  0
SPLINE
  5
CF
330
1F
100
AcDbEntity
  8
0
  6
Continuous
 62
     1
370
    25
100
AcDbSpline
210
0.0
220
0.0
230
1.0
 70
     8
 71
     3
 72
    10
 73
     6
 74
     0
 42
0.000000001
 43
0.00000001
 40
0.0
 40
0.0
 40
0.0
 40
0.0
 40
0.1532852681693962
 40
0.5766079873597365
 40
0.9999999999999999
 40
0.9999999999999999
 40
0.9999999999999999
 40
0.9999999999999999
 10
34.31808607463669
 20
1.255065934811096
 30
0.0
 10
34.3977837288632
 20
1.290993260966426
 30
0.0
 10
34.69757968805516
 20
1.426139863591984
 30
0.0
 10
35.21753864096295
 20
1.520997564099919
 30
0.0
 10
35.65782088432721
 20
1.482165945689375
 30
0.0
 10
35.87798002192098
 20
1.462748547532888
 30
0.0
1001
PE_URL
1000

  0
LINE
  5
D0
330
1F
100
AcDbEntity
  8
0
  6
Continuous
 62
     1
370
    25
100
AcDbLine
 10
35.87798002192098
 20
0.3829941392143185
 30
0.0
 11
35.87798002192098
 21
1.462748547532893
 31
0.0
1001
PE_URL
1000

  0
SPLINE
  5
D1
330
1F
100
AcDbEntity
  8
0
  6
Continuous
 62
     1
370
    25
100
AcDbSpline
210
0.0
220
0.0
230
1.0
 70
     8
 71
     3
 72
     9
 73
     5
 74
     0
 42
0.000000001
 43
0.00000001
 40
0.0
 40
0.0
 40
0.0
 40
0.0
 40
0.4663827011652054
 40
1.0
 40
1.0
 40
1.0
 40
1.0
 10
32.50630421155304
 20
-0.1821277719884386
 30
0.0
 10
32.33088062863143
 20
-0.3137206970411267
 30
0.0
 10
31.9547440727872
 20
-0.5958772279843149
 30
0.0
 10
31.57866325307786
 20
-0.8298480395941192
 30
0.0
 10
31.37798002192098
 20
-0.9546989120915275
 30
0.0
1001
PE_URL
1000

  0
LINE
  5
D2
330
1F
100
AcDbEntity
  8
0
  6
Continuous
 62
     4
370
    25
100
AcDbLine
 10
31.37798002192088
 20
0.5332625376528605
 30
0.0
 11
31.37798002192098
 21
-0.8841986752978221
 31
0.0
  0
ELLIPSE
  5
D3
330
1F
100
AcDbEntity
  8
0
  6
Continuous
 62
     1
370
    25
100
AcDbEllipse
 10
35.66375782090967
 20
0.0000000000000018
 30
0.0
 11
2.142222010113162
 21
0.0
 31
0.0
210
0.0
220
0.0
230
1.0
 40
0.7002075382097132
 41
1.470628905633336
 42
1.570796326794897
1001
PE_URL
1000

  0
LINE
  5
D4
330
1F
100
AcDbEntity
  8
0
  6
Continuous
 62
     1
370
    25
100
AcDbLine
 10
35.87798002192098
 20
1.462748547532893
 30
0.0
 11
35.87798002192098
 21
1.492481155659933
 31
0.0
1001
PE_URL
1000

  0
LINE
  5
D5
330
1F
100
AcDbEntity
  8
0
  6
Continuous
 62
     1
370
    25
100
AcDbLine
 10
35.87798002192098
 20
-1.046059896994708
 30
0.0
 11
35.87798002192098
 21
-1.492481155659928
 31
0.0
1001
PE_URL
1000

  0
LINE
  5
D6
330
1F
100
AcDbEntity
  8
중심선
100
AcDbLine
 10
-37.12201997807902
 20
-0.000000000000003
 30
0.0
 11
37.37798002192098
 21
0.0000000000000035
 31
0.0
  0
CIRCLE
  5
D7
330
1F
100
AcDbEntity
  8
해칭선
100
AcDbCircle
 10
0.0
 20
0.0
 30
0.0
 40
3.000000000000003
  0
INSERT
  5
D8
330
1F
100
AcDbEntity
  8
0
  6
Continuous
 62
     7
100
AcDbBlockReference
 66
     1
  2
블럭10
 10
-20.3652729321252
 20
-52.04717430164394
 30
0.0
  0
ATTRIB
  5
D9
330
D8
100
AcDbEntity
  8
FORMAT
 62
     2
100
AcDbText
 10
-36.48453397156076
 20
-49.97180738881174
 30
0.0
 40
4.233333333333333
  1
SEME7303030E [ 4 FLUTE ]
 41
0.75
  7
SLDTEXTSTYLE0
 11
-36.48453397156076
 21
-52.08847405547841
 31
0.0
100
AcDbAttribute
  2
AUTOATTR0
 70
     0
 74
     1
  0
SEQEND
  5
DA
330
D8
100
AcDbEntity
  8
0
  6
Continuous
 62
     7
  0
HATCH
  5
DB
330
1F
100
AcDbEntity
  8
중심선
100
AcDbHatch
 10
0.0
 20
0.0
 30
0.0
210
0.0
220
0.0
230
1.0
  2
SOLID
 70
     1
 71
     0
 91
        1
 92
        0
 93
        4
 72
     1
 10
-14.65036362774436
 20
-35.8
 11
-18.09663887158165
 21
-35.8
 72
     1
 10
-18.09663887158165
 20
-35.8
 11
-20.22486873078567
 21
-38.3363255805726
 72
     1
 10
-20.22486873078567
 20
-38.3363255805726
 11
-16.77856040183524
 21
-38.33628615127011
 72
     1
 10
-16.77856040183524
 20
-38.33628615127011
 11
-14.65036362774437
 21
-35.8
 97
        0
 75
     0
 76
     1
 98
        1
 10
15.57494507901019
 20
-0.0000000000000049
  0
HATCH
  5
DC
330
1F
100
AcDbEntity
  8
중심선
100
AcDbHatch
 10
0.0
 20
0.0
 30
0.0
210
0.0
220
0.0
230
1.0
  2
SOLID
 70
     1
 71
     0
 91
        1
 92
        0
 93
        4
 72
     1
 10
-9.637599636708385
 20
-35.8
 11
-13.08387488054567
 21
-35.8
 72
     1
 10
-13.08387488054567
 20
-35.8
 11
-17.61501288890309
 21
-41.20000000000002
 72
     1
 10
-17.61501288890309
 20
-41.20000000000002
 11
-14.1687376450658
 21
-41.20000000000002
 72
     1
 10
-14.1687376450658
 20
-41.20000000000002
 11
-9.637599636708385
 21
-35.8
 97
        0
 75
     0
 76
     1
 98
        1
 10
15.57494507901019
 20
-0.0000000000000049
  0
HATCH
  5
DD
330
1F
100
AcDbEntity
  8
중심선
100
AcDbHatch
 10
0.0
 20
0.0
 30
0.0
210
0.0
220
0.0
230
1.0
  2
SOLID
 70
     1
 71
     0
 91
        1
 92
        0
 93
        4
 72
     1
 10
-4.624835645672517
 20
-35.8
 11
-8.071110889509631
 21
-35.8
 72
     1
 10
-8.071110889509631
 20
-35.8
 11
-15.11954779139888
 21
-44.20000000000002
 72
     1
 10
-15.11954779139888
 20
-44.20000000000002
 11
-11.6732725475616
 21
-44.20000000000002
 72
     1
 10
-11.6732725475616
 20
-44.20000000000002
 11
-4.624835645672517
 21
-35.8
 97
        0
 75
     0
 76
     1
 98
        1
 10
15.57494507901019
 20
-0.0000000000000049
  0
HATCH
  5
DE
330
1F
100
AcDbEntity
  8
중심선
100
AcDbHatch
 10
0.0
 20
0.0
 30
0.0
210
0.0
220
0.0
230
1.0
  2
SOLID
 70
     1
 71
     0
 91
        1
 92
        0
 93
        6
 72
     3
 10
0.1750547853396824
 20
-40.00000000005128
 11
3.960054785062283
 21
1.540882976769353E-10
 40
0.3939339440162628
 50
17.09539180608436
 51
320.0019657685077
 73
     0
 72
     1
 10
1.858054441040251
 20
-38.58789400463831
 11
4.163356314741316
 21
-36.65356729459039
 72
     3
 10
0.1750547852868358
 20
-40.00000000000016
 11
6.600054785286829
 21
-1.278976924368180E-13
 40
0.636358354079598
 50
39.99873849337411
 51
368.4976242363724
 73
     1
 72
     1
 10
6.600387277187446
 20
-39.03999999993002
 11
-1.144877907877243
 21
-39.03999999993002
 72
     1
 10
-1.144877907877243
 20
-39.03999999993002
 11
-1.144902952323177
 21
-40.95999999992992
 72
     1
 10
-1.144902952323177
 20
-40.95999999992992
 11
3.296476817148862
 21
-40.95999999992989
 97
        0
 75
     0
 76
     1
 98
        1
 10
15.57494507901019
 20
-0.0000000000000049
  0
DIMENSION
  5
DF
330
1F
100
AcDbEntity
  8
치수문자_일반주서
100
AcDbDimension
  2
_D
 10
41.99747596039196
 20
1.492481155659956
 30
0.0
 11
41.99747596039194
 21
11.15898115565995
 31
0.0
 70
   160
  1
%%c<>
 71
     2
 42
2.984962311319859
 52
-270.0
  3
SLDDIMSTYLE0
100
AcDbAlignedDimension
 13
35.877980021921
 23
-1.492481155659926
 33
0.0
 14
35.87798002192098
 24
1.492481155659933
 34
0.0
 50
90.0000000000002
100
AcDbRotatedDimension
  0
DIMENSION
  5
ED
330
1F
100
AcDbEntity
  8
치수문자_일반주서
100
AcDbDimension
  2
_D_1
 10
35.87798002192097
 20
37.00000000000003
 30
0.0
 11
0.8779800219209855
 21
37.00000000000003
 31
0.0
 70
   160
  1
<>
 71
     2
 42
70.0
  3
SLDDIMSTYLE1
100
AcDbAlignedDimension
 13
-34.12201997807902
 23
2.499999999999994
 33
0.0
 14
35.87798002192098
 24
1.492481155659933
 34
0.0
100
AcDbRotatedDimension
  0
DIMENSION
  5
F8
330
1F
100
AcDbEntity
  8
치수문자_일반주서
100
AcDbDimension
  2
_D_2
 10
-47.61465953969891
 20
-3.000000000000054
 30
0.0
 11
-47.61465953969891
 21
-1.089695848804648
 31
0.0
 70
   160
  1
%%c<>
 71
     2
 42
5.999999999999979
 52
-270.0
  3
SLDDIMSTYLE2
100
AcDbAlignedDimension
 13
-33.62201997807902
 23
2.999999999999977
 33
0.0
 14
-33.62201997807902
 24
-3.000000000000001
 34
0.0
 50
90.0000000000002
100
AcDbRotatedDimension
  0
DIMENSION
  5
106
330
1F
100
AcDbEntity
  8
치수문자_일반주서
100
AcDbDimension
  2
_D_3
 10
35.87798002192098
 20
19.27749057782999
 30
0.0
 11
47.07573002192098
 21
19.27749057782999
 31
0.0
 70
   160
  1
<>
 71
     2
 42
4.499999999999996
  3
SLDDIMSTYLE3
100
AcDbAlignedDimension
 13
31.37798002192098
 23
1.33966840449726
 33
0.0
 14
35.87798002192098
 24
1.492481155659932
 34
0.0
100
AcDbRotatedDimension
  0
DIMENSION
  5
113
330
1F
100
AcDbEntity
  8
치수문자_일반주서
100
AcDbDimension
  2
_D_4
 10
5.87798002192098
 20
26.19227068201411
 30
0.0
 11
21.55194690288606
 21
26.19227068201411
 31
0.0
 70
   160
  1
<>
 71
     2
 42
30.0
  3
SLDDIMSTYLE1
100
AcDbAlignedDimension
 13
35.87798002192098
 23
1.492481155659933
 33
0.0
 14
5.87798002192098
 24
1.424999999999996
 34
0.0
100
AcDbRotatedDimension
  0
INSERT
  5
123
330
1F
100
AcDbEntity
  8
해칭선
100
AcDbBlockReference
  2
SW_DOWELSYMBOL_0
 10
0.0
 20
0.0
 30
0.0
  0
LINE
  5
178
330
1F
100
AcDbEntity
  8
0
  6
Continuous
 62
     4
370
    25
100
AcDbLine
 10
-0.000000000000008
 20
2.999999999999993
 30
0.0
 11
5.877980021920981
 21
1.424999999999984
 31
0.0
  0
LINE
  5
179
330
1F
100
AcDbEntity
  8
0
  6
Continuous
 62
     4
370
    25
100
AcDbLine
 10
-0.000000000000008
 20
2.999999999999993
 30
0.0
 11
0.0000000000000071
 21
-2.999999999999992
 31
0.0
1001
PE_URL
1000

  0
ENDSEC
  0
SECTION
  2
OBJECTS
  0
DICTIONARY
  5
C
330
0
100
AcDbDictionary
281
     1
  3
ACAD_GROUP
350
D
  3
ACAD_LAYOUT
350
1A
  3
ACAD_MLINESTYLE
350
17
  3
ACAD_PLOTSETTINGS
350
19
  3
ACAD_PLOTSTYLENAME
350
E
  3
ACAD_SCALELIST
350
47
  3
APPDATA
350
145
  3
DWGPROPS
350
17D
  0
DICTIONARY
  5
17A
330
1F
100
AcDbDictionary
280
     1
281
     1
  3
DIM_BOUNDING_BOXES_V1
360
17B
  0
DICTIONARY
  5
D
102
{ACAD_REACTORS
330
C
102
}
330
C
100
AcDbDictionary
281
     1
  0
DICTIONARY
  5
1A
102
{ACAD_REACTORS
330
C
102
}
330
C
100
AcDbDictionary
281
     1
  3
Layout1
350
1E
  3
Layout2
350
26
  3
Model
350
22
  0
DICTIONARY
  5
17
102
{ACAD_REACTORS
330
C
102
}
330
C
100
AcDbDictionary
281
     1
  3
Standard
350
18
  0
DICTIONARY
  5
19
102
{ACAD_REACTORS
330
C
102
}
330
C
100
AcDbDictionary
281
     1
  0
ACDBDICTIONARYWDFLT
  5
E
102
{ACAD_REACTORS
330
C
102
}
330
C
100
AcDbDictionary
281
     1
  3
Normal
350
F
100
AcDbDictionaryWithDefault
340
F
  0
DICTIONARY
  5
47
102
{ACAD_REACTORS
330
C
102
}
330
C
100
AcDbDictionary
281
     1
  3
A0
350
48
  3
A1
350
49
  3
A2
350
4A
  3
A3
350
4B
  3
A4
350
4C
  3
A5
350
4D
  3
A6
350
4E
  3
A7
350
4F
  3
A8
350
50
  3
A9
350
51
  3
B0
350
52
  3
B1
350
53
  3
B2
350
54
  3
B3
350
55
  3
B4
350
56
  3
B5
350
57
  3
B6
350
58
  3
B7
350
59
  3
B8
350
5A
  3
B9
350
5B
  3
C0
350
5C
  3
C1
350
5D
  3
C2
350
5E
  3
C3
350
5F
  3
C4
350
60
  3
C5
350
61
  3
C6
350
62
  3
C7
350
63
  3
C8
350
64
  3
C9
350
65
  3
D0
350
66
  3
D1
350
67
  3
D2
350
68
  0
DICTIONARY
  5
145
102
{ACAD_REACTORS
330
C
102
}
330
C
100
AcDbDictionary
281
     1
  0
XRECORD
  5
17D
102
{ACAD_REACTORS
330
C
102
}
330
C
100
AcDbXrecord
280
     1
  1
DWGPROPS COOKIE
  2

  3

  4

  6

  7

  8
12016016
  9

300
=
301
=
302
=
303
=
304
=
305
=
306
=
307
=
308
=
309
=
 40
0.0
 41
2458260.410554826
 42
2459677.335133692
  1

 90
        0
  0
DICTIONARY
  5
17B
102
{ACAD_REACTORS
330
17A
102
}
330
17A
100
AcDbDictionary
281
     1
  0
LAYOUT
  5
1E
102
{ACAD_REACTORS
330
1A
102
}
330
1A
100
AcDbPlotSettings
  1

  2
none_device
  4

  6

 40
0.0
 41
0.0
 42
0.0
 43
0.0
 44
0.0
 45
0.0
 46
0.0
 47
0.0
 48
0.0
 49
0.0
140
0.0
141
0.0
142
1.0
143
1.0
 70
   688
 72
     1
 73
     0
 74
     5
  7

 75
    16
147
1.0
148
0.0
149
0.0
100
AcDbLayout
  1
Layout1
 70
     1
 71
     1
 10
0.0
 20
0.0
 11
420.0
 21
297.0
 12
0.0
 22
0.0
 32
0.0
 14
1.000000000000000E+20
 24
1.000000000000000E+20
 34
1.000000000000000E+20
 15
-1.000000000000000E+20
 25
-1.000000000000000E+20
 35
-1.000000000000000E+20
146
0.0
 13
0.0
 23
0.0
 33
0.0
 16
1.0
 26
0.0
 36
0.0
 17
0.0
 27
1.0
 37
0.0
 76
     0
330
1B
  0
LAYOUT
  5
26
102
{ACAD_REACTORS
330
1A
102
}
330
1A
100
AcDbPlotSettings
  1

  2
none_device
  4

  6

 40
0.0
 41
0.0
 42
0.0
 43
0.0
 44
0.0
 45
0.0
 46
0.0
 47
0.0
 48
0.0
 49
0.0
140
0.0
141
0.0
142
1.0
143
1.0
 70
   688
 72
     1
 73
     0
 74
     5
  7

 75
    16
147
1.0
148
0.0
149
0.0
100
AcDbLayout
  1
Layout2
 70
     1
 71
     2
 10
0.0
 20
0.0
 11
0.0
 21
0.0
 12
0.0
 22
0.0
 32
0.0
 14
0.0
 24
0.0
 34
0.0
 15
0.0
 25
0.0
 35
0.0
146
0.0
 13
0.0
 23
0.0
 33
0.0
 16
1.0
 26
0.0
 36
0.0
 17
0.0
 27
1.0
 37
0.0
 76
     0
330
23
  0
LAYOUT
  5
22
102
{ACAD_REACTORS
330
1A
102
}
330
1A
100
AcDbPlotSettings
  1

  2
none_device
  4
ANSI_A_(11.00_x_8.50_Inches)
  6

 40
6.35
 41
19.05
 42
6.35000508
 43
19.05000254
 44
279.4
 45
215.9
 46
178.8350666826162
 47
99.56536258473129
 48
0.0
 49
0.0
140
0.0
141
0.0
142
0.0912417563505177
143
1.0
 70
  1696
 72
     0
 73
     0
 74
     0
  7

 75
     0
147
0.0235690232323232
148
0.0
149
0.0
100
AcDbLayout
  1
Model
 70
     1
 71
     0
 10
0.0
 20
0.0
 11
420.0
 21
297.0
 12
0.0
 22
0.0
 32
0.0
 14
-51.98965953969892
 24
-49.97180738881174
 34
0.0
 15
51.66948002192098
 25
41.37500000000003
 35
0.0
146
0.0
 13
0.0
 23
0.0
 33
0.0
 16
1.0
 26
0.0
 36
0.0
 17
0.0
 27
1.0
 37
0.0
 76
     0
330
1F
331
29
  0
MLINESTYLE
  5
18
102
{ACAD_REACTORS
330
17
102
}
330
17
100
AcDbMlineStyle
  2
Standard
 70
     0
  3

 62
   256
 51
90.0
 52
90.0
 71
     2
 49
0.5
 62
   256
  6
BYLAYER
 49
-0.5
 62
   256
  6
BYLAYER
  0
ACDBPLACEHOLDER
  5
F
102
{ACAD_REACTORS
330
E
102
}
330
E
  0
SCALE
  5
48
102
{ACAD_REACTORS
330
47
102
}
330
47
100
AcDbScale
 70
     0
300
1:1
140
1.0
141
1.0
290
     1
  0
SCALE
  5
49
102
{ACAD_REACTORS
330
47
102
}
330
47
100
AcDbScale
 70
     0
300
1:2
140
1.0
141
2.0
290
     0
  0
SCALE
  5
4A
102
{ACAD_REACTORS
330
47
102
}
330
47
100
AcDbScale
 70
     0
300
1:4
140
1.0
141
4.0
290
     0
  0
SCALE
  5
4B
102
{ACAD_REACTORS
330
47
102
}
330
47
100
AcDbScale
 70
     0
300
1:5
140
1.0
141
5.0
290
     0
  0
SCALE
  5
4C
102
{ACAD_REACTORS
330
47
102
}
330
47
100
AcDbScale
 70
     0
300
1:8
140
1.0
141
8.0
290
     0
  0
SCALE
  5
4D
102
{ACAD_REACTORS
330
47
102
}
330
47
100
AcDbScale
 70
     0
300
1:10
140
1.0
141
10.0
290
     0
  0
SCALE
  5
4E
102
{ACAD_REACTORS
330
47
102
}
330
47
100
AcDbScale
 70
     0
300
1:16
140
1.0
141
16.0
290
     0
  0
SCALE
  5
4F
102
{ACAD_REACTORS
330
47
102
}
330
47
100
AcDbScale
 70
     0
300
1:20
140
1.0
141
20.0
290
     0
  0
SCALE
  5
50
102
{ACAD_REACTORS
330
47
102
}
330
47
100
AcDbScale
 70
     0
300
1:30
140
1.0
141
30.0
290
     0
  0
SCALE
  5
51
102
{ACAD_REACTORS
330
47
102
}
330
47
100
AcDbScale
 70
     0
300
1:40
140
1.0
141
40.0
290
     0
  0
SCALE
  5
52
102
{ACAD_REACTORS
330
47
102
}
330
47
100
AcDbScale
 70
     0
300
1:50
140
1.0
141
50.0
290
     0
  0
SCALE
  5
53
102
{ACAD_REACTORS
330
47
102
}
330
47
100
AcDbScale
 70
     0
300
1:100
140
1.0
141
100.0
290
     0
  0
SCALE
  5
54
102
{ACAD_REACTORS
330
47
102
}
330
47
100
AcDbScale
 70
     0
300
2:1
140
2.0
141
1.0
290
     0
  0
SCALE
  5
55
102
{ACAD_REACTORS
330
47
102
}
330
47
100
AcDbScale
 70
     0
300
4:1
140
4.0
141
1.0
290
     0
  0
SCALE
  5
56
102
{ACAD_REACTORS
330
47
102
}
330
47
100
AcDbScale
 70
     0
300
8:1
140
8.0
141
1.0
290
     0
  0
SCALE
  5
57
102
{ACAD_REACTORS
330
47
102
}
330
47
100
AcDbScale
 70
     0
300
10:1
140
10.0
141
1.0
290
     0
  0
SCALE
  5
58
102
{ACAD_REACTORS
330
47
102
}
330
47
100
AcDbScale
 70
     0
300
100:1
140
100.0
141
1.0
290
     0
  0
SCALE
  5
59
102
{ACAD_REACTORS
330
47
102
}
330
47
100
AcDbScale
 70
     0
300
1/128" = 1'-0"
140
0.0078125
141
12.0
290
     0
  0
SCALE
  5
5A
102
{ACAD_REACTORS
330
47
102
}
330
47
100
AcDbScale
 70
     0
300
1/64" = 1'-0"
140
0.015625
141
12.0
290
     0
  0
SCALE
  5
5B
102
{ACAD_REACTORS
330
47
102
}
330
47
100
AcDbScale
 70
     0
300
1/32" = 1'-0"
140
0.03125
141
12.0
290
     0
  0
SCALE
  5
5C
102
{ACAD_REACTORS
330
47
102
}
330
47
100
AcDbScale
 70
     0
300
1/16" = 1'-0"
140
0.0625
141
12.0
290
     0
  0
SCALE
  5
5D
102
{ACAD_REACTORS
330
47
102
}
330
47
100
AcDbScale
 70
     0
300
3/32" = 1'-0"
140
0.09375
141
12.0
290
     0
  0
SCALE
  5
5E
102
{ACAD_REACTORS
330
47
102
}
330
47
100
AcDbScale
 70
     0
300
1/8" = 1'-0"
140
0.125
141
12.0
290
     0
  0
SCALE
  5
5F
102
{ACAD_REACTORS
330
47
102
}
330
47
100
AcDbScale
 70
     0
300
3/16" = 1'-0"
140
0.1875
141
12.0
290
     0
  0
SCALE
  5
60
102
{ACAD_REACTORS
330
47
102
}
330
47
100
AcDbScale
 70
     0
300
1/4" = 1'-0"
140
0.25
141
12.0
290
     0
  0
SCALE
  5
61
102
{ACAD_REACTORS
330
47
102
}
330
47
100
AcDbScale
 70
     0
300
3/8" = 1'-0"
140
0.375
141
12.0
290
     0
  0
SCALE
  5
62
102
{ACAD_REACTORS
330
47
102
}
330
47
100
AcDbScale
 70
     0
300
1/2" = 1'-0"
140
0.5
141
12.0
290
     0
  0
SCALE
  5
63
102
{ACAD_REACTORS
330
47
102
}
330
47
100
AcDbScale
 70
     0
300
3/4" = 1'-0"
140
0.75
141
12.0
290
     0
  0
SCALE
  5
64
102
{ACAD_REACTORS
330
47
102
}
330
47
100
AcDbScale
 70
     0
300
1" = 1'-0"
140
1.0
141
12.0
290
     0
  0
SCALE
  5
65
102
{ACAD_REACTORS
330
47
102
}
330
47
100
AcDbScale
 70
     0
300
1-1/2" = 1'-0"
140
1.5
141
12.0
290
     0
  0
SCALE
  5
66
102
{ACAD_REACTORS
330
47
102
}
330
47
100
AcDbScale
 70
     0
300
3" = 1'-0"
140
3.0
141
12.0
290
     0
  0
SCALE
  5
67
102
{ACAD_REACTORS
330
47
102
}
330
47
100
AcDbScale
 70
     0
300
6" = 1'-0"
140
6.0
141
12.0
290
     0
  0
SCALE
  5
68
102
{ACAD_REACTORS
330
47
102
}
330
47
100
AcDbScale
 70
     0
300
1'-0" = 1'-0"
140
12.0
141
12.0
290
     0
  0
ENDSEC
  0
EOF
