  0
SECTION
  2
HEADER
  9
$ACADVER
  1
AC1015
  9
$ACADMAINTVER
 70
     6
  9
$DWGCODEPAGE
  3
ANSI_949
  9
$INSBASE
 10
0.0
 20
0.0
 30
0.0
  9
$EXTMIN
 10
-75.58773575105222
 20
-49.97180738881174
 30
0.0
  9
$EXTMAX
 10
45.83023714390102
 20
41.375
 30
0.0
  9
$LIMMIN
 10
0.0
 20
0.0
  9
$LIMMAX
 10
420.0
 20
297.0
  9
$ORTHOMODE
 70
     0
  9
$REGENMODE
 70
     1
  9
$FILLMODE
 70
     1
  9
$QTEXTMODE
 70
     0
  9
$MIRRTEXT
 70
     1
  9
$LTSCALE
 40
1.0
  9
$ATTMODE
 70
     1
  9
$TEXTSIZE
 40
3.5
  9
$TRACEWID
 40
1.0
  9
$TEXTSTYLE
  7
Standard
  9
$CLAYER
  8
0
  9
$CELTYPE
  6
ByLayer
  9
$CECOLOR
 62
   256
  9
$CELTSCALE
 40
1.0
  9
$DISPSILH
 70
     0
  9
$DIMSCALE
 40
1.0
  9
$DIMASZ
 40
3.302
  9
$DIMEXO
 40
1.0
  9
$DIMDLI
 40
3.75
  9
$DIMRND
 40
0.0
  9
$DIMDLE
 40
0.0
  9
$DIMEXE
 40
1.0
  9
$DIMTP
 40
0.0
  9
$DIMTM
 40
0.0
  9
$DIMTXT
 40
3.5
  9
$DIMCEN
 40
2.5
  9
$DIMTSZ
 40
0.0
  9
$DIMTOL
 70
     0
  9
$DIMLIM
 70
     0
  9
$DIMTIH
 70
     1
  9
$DIMTOH
 70
     1
  9
$DIMSE1
 70
     0
  9
$DIMSE2
 70
     0
  9
$DIMTAD
 70
     1
  9
$DIMZIN
 70
     0
  9
$DIMBLK
  1

  9
$DIMASO
 70
     1
  9
$DIMSHO
 70
     1
  9
$DIMPOST
  1

  9
$DIMAPOST
  1

  9
$DIMALT
 70
     0
  9
$DIMALTD
 70
     3
  9
$DIMALTF
 40
0.0393700787401575
  9
$DIMLFAC
 40
1.0
  9
$DIMTOFL
 70
     1
  9
$DIMTVP
 40
0.0
  9
$DIMTIX
 70
     0
  9
$DIMSOXD
 70
     0
  9
$DIMSAH
 70
     0
  9
$DIMBLK1
  1

  9
$DIMBLK2
  1

  9
$DIMSTYLE
  2
ISO-25
  9
$DIMCLRD
 70
     0
  9
$DIMCLRE
 70
     0
  9
$DIMCLRT
 70
     0
  9
$DIMTFAC
 40
1.0
  9
$DIMGAP
 40
1.524
  9
$DIMJUST
 70
     0
  9
$DIMSD1
 70
     0
  9
$DIMSD2
 70
     0
  9
$DIMTOLJ
 70
     0
  9
$DIMTZIN
 70
     0
  9
$DIMALTZ
 70
     0
  9
$DIMALTTZ
 70
     0
  9
$DIMUPT
 70
     0
  9
$DIMDEC
 70
     2
  9
$DIMTDEC
 70
     2
  9
$DIMALTU
 70
     2
  9
$DIMALTTD
 70
     3
  9
$DIMTXSTY
  7
Standard
  9
$DIMAUNIT
 70
     0
  9
$DIMADEC
 70
     2
  9
$DIMALTRND
 40
0.0
  9
$DIMAZIN
 70
     0
  9
$DIMDSEP
 70
    44
  9
$DIMATFIT
 70
     3
  9
$DIMFRAC
 70
     0
  9
$DIMLDRBLK
  1

  9
$DIMLUNIT
 70
     2
  9
$DIMLWD
 70
    -2
  9
$DIMLWE
 70
    -2
  9
$DIMTMOVE
 70
     0
  9
$LUNITS
 70
     2
  9
$LUPREC
 70
     2
  9
$SKETCHINC
 40
1.0
  9
$FILLETRAD
 40
10.0
  9
$AUNITS
 70
     0
  9
$AUPREC
 70
     2
  9
$MENU
  1
.
  9
$ELEVATION
 40
0.0
  9
$PELEVATION
 40
0.0
  9
$THICKNESS
 40
0.0
  9
$LIMCHECK
 70
     0
  9
$CHAMFERA
 40
0.0
  9
$CHAMFERB
 40
0.0
  9
$CHAMFERC
 40
0.0
  9
$CHAMFERD
 40
0.0
  9
$SKPOLY
 70
     0
  9
$TDCREATE
 40
2458260.791604005
  9
$TDUCREATE
 40
2458260.416604005
  9
$TDUPDATE
 40
2459576.689557326
  9
$TDUUPDATE
 40
2459576.314557326
  9
$TDINDWG
 40
0.0019104514
  9
$TDUSRTIMER
 40
0.0009860648
  9
$USRTIMER
 70
     1
  9
$ANGBASE
 50
0.0
  9
$ANGDIR
 70
     0
  9
$PDMODE
 70
     0
  9
$PDSIZE
 40
-1.0
  9
$PLINEWID
 40
0.0
  9
$SPLFRAME
 70
     0
  9
$SPLINETYPE
 70
     6
  9
$SPLINESEGS
 70
     8
  9
$HANDSEED
  5
172
  9
$SURFTAB1
 70
     6
  9
$SURFTAB2
 70
     6
  9
$SURFTYPE
 70
     6
  9
$SURFU
 70
     6
  9
$SURFV
 70
     6
  9
$UCSBASE
  2

  9
$UCSNAME
  2

  9
$UCSORG
 10
0.0
 20
0.0
 30
0.0
  9
$UCSXDIR
 10
1.0
 20
0.0
 30
0.0
  9
$UCSYDIR
 10
0.0
 20
1.0
 30
0.0
  9
$UCSORTHOREF
  2

  9
$UCSORTHOVIEW
 70
     0
  9
$UCSORGTOP
 10
0.0
 20
0.0
 30
0.0
  9
$UCSORGBOTTOM
 10
0.0
 20
0.0
 30
0.0
  9
$UCSORGLEFT
 10
0.0
 20
0.0
 30
0.0
  9
$UCSORGRIGHT
 10
0.0
 20
0.0
 30
0.0
  9
$UCSORGFRONT
 10
0.0
 20
0.0
 30
0.0
  9
$UCSORGBACK
 10
0.0
 20
0.0
 30
0.0
  9
$PUCSBASE
  2

  9
$PUCSNAME
  2

  9
$PUCSORG
 10
0.0
 20
0.0
 30
0.0
  9
$PUCSXDIR
 10
1.0
 20
0.0
 30
0.0
  9
$PUCSYDIR
 10
0.0
 20
1.0
 30
0.0
  9
$PUCSORTHOREF
  2

  9
$PUCSORTHOVIEW
 70
     0
  9
$PUCSORGTOP
 10
0.0
 20
0.0
 30
0.0
  9
$PUCSORGBOTTOM
 10
0.0
 20
0.0
 30
0.0
  9
$PUCSORGLEFT
 10
0.0
 20
0.0
 30
0.0
  9
$PUCSORGRIGHT
 10
0.0
 20
0.0
 30
0.0
  9
$PUCSORGFRONT
 10
0.0
 20
0.0
 30
0.0
  9
$PUCSORGBACK
 10
0.0
 20
0.0
 30
0.0
  9
$USERI1
 70
     0
  9
$USERI2
 70
     0
  9
$USERI3
 70
     0
  9
$USERI4
 70
     0
  9
$USERI5
 70
     0
  9
$USERR1
 40
0.0
  9
$USERR2
 40
0.0
  9
$USERR3
 40
0.0
  9
$USERR4
 40
0.0
  9
$USERR5
 40
0.0
  9
$WORLDVIEW
 70
     1
  9
$SHADEDGE
 70
     3
  9
$SHADEDIF
 70
    70
  9
$TILEMODE
 70
     1
  9
$MAXACTVP
 70
    64
  9
$PINSBASE
 10
0.0
 20
0.0
 30
0.0
  9
$PLIMCHECK
 70
     0
  9
$PEXTMIN
 10
1.000000000000000E+20
 20
1.000000000000000E+20
 30
1.000000000000000E+20
  9
$PEXTMAX
 10
-1.000000000000000E+20
 20
-1.000000000000000E+20
 30
-1.000000000000000E+20
  9
$PLIMMIN
 10
0.0
 20
0.0
  9
$PLIMMAX
 10
0.0
 20
0.0
  9
$UNITMODE
 70
     0
  9
$VISRETAIN
 70
     1
  9
$PLINEGEN
 70
     0
  9
$PSLTSCALE
 70
     1
  9
$TREEDEPTH
 70
  3020
  9
$CMLSTYLE
  2
Standard
  9
$CMLJUST
 70
     0
  9
$CMLSCALE
 40
20.0
  9
$PROXYGRAPHICS
 70
     1
  9
$MEASUREMENT
 70
     1
  9
$CELWEIGHT
370
    -1
  9
$ENDCAPS
280
     0
  9
$JOINSTYLE
280
     0
  9
$LWDISPLAY
290
     1
  9
$INSUNITS
 70
     4
  9
$HYPERLINKBASE
  1

  9
$STYLESHEET
  1

  9
$XEDIT
290
     1
  9
$CEPSNTYPE
380
     0
  9
$PSTYLEMODE
290
     1
  9
$FINGERPRINTGUID
  2
{D046B0F4-25E9-447E-9286-D7D961A37F2E}
  9
$VERSIONGUID
  2
{FAEB1C32-E019-11D5-929B-00C0DF256EC4}
  9
$EXTNAMES
290
     1
  9
$PSVPSCALE
 40
0.0
  9
$OLESTARTUP
290
     0
  0
ENDSEC
  0
SECTION
  2
CLASSES
  0
CLASS
  1
ACDBDICTIONARYWDFLT
  2
AcDbDictionaryWithDefault
  3
ObjectDBX Classes
 90
        0
280
     0
281
     0
  0
CLASS
  1
VISUALSTYLE
  2
AcDbVisualStyle
  3
ObjectDBX Classes
 90
     4095
280
     0
281
     0
  0
CLASS
  1
MATERIAL
  2
AcDbMaterial
  3
ObjectDBX Classes
 90
     1153
280
     0
281
     0
  0
CLASS
  1
SCALE
  2
AcDbScale
  3
ObjectDBX Classes
 90
     1153
280
     0
281
     0
  0
CLASS
  1
TABLESTYLE
  2
AcDbTableStyle
  3
ObjectDBX Classes
 90
     4095
280
     0
281
     0
  0
CLASS
  1
MLEADERSTYLE
  2
AcDbMLeaderStyle
  3
ACDB_MLEADERSTYLE_CLASS
 90
     4095
280
     0
281
     0
  0
CLASS
  1
SUN
  2
AcDbSun
  3
SCENEOE
 90
     1153
280
     0
281
     0
  0
CLASS
  1
ACDBPLACEHOLDER
  2
AcDbPlaceHolder
  3
ObjectDBX Classes
 90
        0
280
     0
281
     0
  0
CLASS
  1
LAYOUT
  2
AcDbLayout
  3
ObjectDBX Classes
 90
        0
280
     0
281
     0
  0
ENDSEC
  0
SECTION
  2
TABLES
  0
TABLE
  2
VPORT
  5
8
330
0
100
AcDbSymbolTable
 70
     1
  0
VPORT
  5
29
330
8
100
AcDbSymbolTableRecord
100
AcDbViewportTableRecord
  2
*Active
 70
     0
 10
0.0
 20
0.0
 11
1.0
 21
1.0
 12
-14.8787493035756
 22
-4.29840369440587
 13
0.0
 23
0.0
 14
10.0
 24
10.0
 15
10.0
 25
10.0
 16
0.0
 26
0.0
 36
1.0
 17
0.0
 27
0.0
 37
0.0
 40
93.17374353658798
 41
2.070175438596491
 42
50.0
 43
0.0
 44
0.0
 50
0.0
 51
0.0
 71
    16
 72
  2000
 73
     1
 74
     3
 75
     0
 76
     0
 77
     0
 78
     0
281
     0
 65
     1
110
0.0
120
0.0
130
0.0
111
1.0
121
0.0
131
0.0
112
0.0
122
1.0
132
0.0
 79
     0
146
0.0
  0
ENDTAB
  0
TABLE
  2
LTYPE
  5
5
330
0
100
AcDbSymbolTable
 70
     6
  0
LTYPE
  5
14
330
5
100
AcDbSymbolTableRecord
100
AcDbLinetypeTableRecord
  2
ByBlock
 70
     0
  3

 72
    65
 73
     0
 40
0.0
  0
LTYPE
  5
15
330
5
100
AcDbSymbolTableRecord
100
AcDbLinetypeTableRecord
  2
ByLayer
 70
     0
  3

 72
    65
 73
     0
 40
0.0
  0
LTYPE
  5
16
330
5
100
AcDbSymbolTableRecord
100
AcDbLinetypeTableRecord
  2
Continuous
 70
     0
  3
Solid line
 72
    65
 73
     0
 40
0.0
  0
LTYPE
  5
6E
330
5
100
AcDbSymbolTableRecord
100
AcDbLinetypeTableRecord
  2
HIDDEN
 70
     0
  3
Hidden __ __ __ __ __ __ __ __ __ __ __ __ __ __
 72
    65
 73
     2
 40
1.905
 49
1.27
 74
     0
 49
-0.635
 74
     0
  0
LTYPE
  5
6F
330
5
100
AcDbSymbolTableRecord
100
AcDbLinetypeTableRecord
  2
PHANTOM
 70
     0
  3
Phantom ______  __  __  ______  __  __  ______
 72
    65
 73
     6
 40
12.7
 49
6.35
 74
     0
 49
-1.27
 74
     0
 49
1.27
 74
     0
 49
-1.27
 74
     0
 49
1.27
 74
     0
 49
-1.27
 74
     0
  0
LTYPE
  5
70
330
5
100
AcDbSymbolTableRecord
100
AcDbLinetypeTableRecord
  2
CENTER
 70
     0
  3
Center ____ _ ____ _ ____ _ ____ _ ____ _ ____
 72
    65
 73
     4
 40
10.16
 49
6.35
 74
     0
 49
-1.27
 74
     0
 49
1.27
 74
     0
 49
-1.27
 74
     0
  0
LTYPE
  5
71
330
5
100
AcDbSymbolTableRecord
100
AcDbLinetypeTableRecord
  2
CENTERX2
 70
     0
  3
Center (2x) ________  __  ________  __  _____
 72
    65
 73
     4
 40
20.32
 49
12.7
 74
     0
 49
-2.54
 74
     0
 49
2.54
 74
     0
 49
-2.54
 74
     0
  0
LTYPE
  5
72
330
5
100
AcDbSymbolTableRecord
100
AcDbLinetypeTableRecord
  2
DOT2
 70
     0
  3
Dot (.5x) ........................................
 72
    65
 73
     2
 40
0.635
 49
0.0
 74
     0
 49
-0.635
 74
     0
  0
ENDTAB
  0
TABLE
  2
LAYER
  5
2
330
0
100
AcDbSymbolTable
 70
    17
  0
LAYER
  5
10
330
2
100
AcDbSymbolTableRecord
100
AcDbLayerTableRecord
  2
0
 70
     0
 62
     7
  6
Continuous
370
    -3
390
F
  0
LAYER
  5
73
330
2
100
AcDbSymbolTableRecord
100
AcDbLayerTableRecord
  2
FORMAT
 70
     0
 62
     2
  6
Continuous
370
    -3
390
F
  0
LAYER
  5
74
330
2
100
AcDbSymbolTableRecord
100
AcDbLayerTableRecord
  2
외형선
 70
     0
 62
   100
  6
Continuous
370
    35
390
F
  0
LAYER
  5
75
330
2
100
AcDbSymbolTableRecord
100
AcDbLayerTableRecord
  2
숨은선
 70
     0
 62
     2
  6
HIDDEN
370
    25
390
F
  0
LAYER
  5
76
330
2
100
AcDbSymbolTableRecord
100
AcDbLayerTableRecord
  2
중심선
 70
     0
 62
     1
  6
CENTERX2
370
    -3
390
F
  0
LAYER
  5
77
330
2
100
AcDbSymbolTableRecord
100
AcDbLayerTableRecord
  2
파단선
 70
     0
 62
     4
  6
Continuous
370
    -3
390
F
  0
LAYER
  5
78
330
2
100
AcDbSymbolTableRecord
100
AcDbLayerTableRecord
  2
해칭선
 70
     0
 62
   100
  6
Continuous
370
    -3
390
F
  0
LAYER
  5
79
330
2
100
AcDbSymbolTableRecord
100
AcDbLayerTableRecord
  2
가는실선
 70
     0
 62
     4
  6
Continuous
370
    -3
390
F
  0
LAYER
  5
7A
330
2
100
AcDbSymbolTableRecord
100
AcDbLayerTableRecord
  2
치수_보조선
 70
     0
 62
     4
  6
Continuous
370
    -3
390
F
  0
LAYER
  5
7B
330
2
100
AcDbSymbolTableRecord
100
AcDbLayerTableRecord
  2
치수문자_일반주서
 70
     0
 62
     7
  6
Continuous
370
    25
390
F
  0
LAYER
  5
7C
330
2
100
AcDbSymbolTableRecord
100
AcDbLayerTableRecord
  2
개별주서
 70
     0
 62
   100
  6
Continuous
370
    35
390
F
  0
LAYER
  5
7D
330
2
100
AcDbSymbolTableRecord
100
AcDbLayerTableRecord
  2
중간선
 70
     0
 62
     2
  6
Continuous
370
    25
390
F
  0
LAYER
  5
7E
330
2
100
AcDbSymbolTableRecord
100
AcDbLayerTableRecord
  2
윤곽선
 70
     0
 62
     3
  6
Continuous
370
    50
390
F
  0
LAYER
  5
7F
330
2
100
AcDbSymbolTableRecord
100
AcDbLayerTableRecord
  2
중심마크
 70
     0
 62
   100
  6
Continuous
370
    35
390
F
  0
LAYER
  5
80
330
2
100
AcDbSymbolTableRecord
100
AcDbLayerTableRecord
  2
가상선
 70
     0
 62
     4
  6
PHANTOM
370
    -3
390
F
  0
LAYER
  5
81
330
2
100
AcDbSymbolTableRecord
100
AcDbLayerTableRecord
  2
특수지정선
 70
     0
 62
     5
  6
CENTERX2
370
    70
390
F
  0
LAYER
  5
143
330
2
100
AcDbSymbolTableRecord
100
AcDbLayerTableRecord
  2
Defpoints
 70
     0
 62
     7
  6
Continuous
290
     0
370
    -3
390
F
  0
ENDTAB
  0
TABLE
  2
STYLE
  5
3
330
0
100
AcDbSymbolTable
 70
     2
  0
STYLE
  5
11
330
3
100
AcDbSymbolTableRecord
100
AcDbTextStyleTableRecord
  2
Standard
 70
     0
 40
0.0
 41
1.0
 50
0.0
 71
     0
 42
3.5
  3
txt
  4

  0
STYLE
  5
97
330
3
100
AcDbSymbolTableRecord
100
AcDbTextStyleTableRecord
  2
SLDTEXTSTYLE0
 70
     0
 40
0.0
 41
0.75
 50
0.0
 71
     0
 42
3.5
  3
TXT
  4

  0
ENDTAB
  0
TABLE
  2
VIEW
  5
6
330
0
100
AcDbSymbolTable
 70
     0
  0
ENDTAB
  0
TABLE
  2
UCS
  5
7
330
0
100
AcDbSymbolTable
 70
     0
  0
ENDTAB
  0
TABLE
  2
APPID
  5
9
330
0
100
AcDbSymbolTable
 70
     2
  0
APPID
  5
12
330
9
100
AcDbSymbolTableRecord
100
AcDbRegAppTableRecord
  2
ACAD
 70
     0
  0
APPID
  5
144
330
9
100
AcDbSymbolTableRecord
100
AcDbRegAppTableRecord
  2
PE_URL
 70
     0
  0
ENDTAB
  0
TABLE
  2
DIMSTYLE
  5
A
330
0
100
AcDbSymbolTable
 70
     4
100
AcDbDimStyleTable
  0
DIMSTYLE
105
27
330
A
100
AcDbSymbolTableRecord
100
AcDbDimStyleTableRecord
  2
ISO-25
 70
     0
 41
2.5
 42
0.625
 43
3.75
 44
1.25
 73
     0
 74
     0
 77
     1
 78
     8
140
2.5
141
2.5
143
0.03937007874016
147
0.625
171
     3
172
     1
178
     0
271
     2
272
     2
274
     3
278
    44
283
     0
284
     8
340
11
  0
DIMSTYLE
105
DE
102
{ACAD_REACTORS
330
DD
102
}
330
A
100
AcDbSymbolTableRecord
100
AcDbDimStyleTableRecord
  2
SLDDIMSTYLE0
 70
     0
 41
3.302
 44
0.0
 45
0.000000001
 73
     0
 74
     0
 77
     1
 78
    12
 79
     3
140
3.5
147
0.875
172
     1
173
     1
178
     0
271
     1
272
     1
276
     2
284
    12
289
     0
340
97
  0
DIMSTYLE
105
EC
102
{ACAD_REACTORS
330
EB
330
110
102
}
330
A
100
AcDbSymbolTableRecord
100
AcDbDimStyleTableRecord
  2
SLDDIMSTYLE1
 70
     0
 41
3.302
 44
0.0
 45
0.000000001
 73
     0
 74
     0
 77
     1
 78
    12
 79
     3
140
3.5
147
0.875
173
     1
178
     0
271
     2
272
     2
276
     2
284
    12
340
97
  0
DIMSTYLE
105
F7
102
{ACAD_REACTORS
330
F6
330
104
102
}
330
A
100
AcDbSymbolTableRecord
100
AcDbDimStyleTableRecord
  2
SLDDIMSTYLE2
 70
     0
 41
3.302
 44
0.0
 45
0.000000001
 73
     0
 74
     0
 77
     1
 78
    12
 79
     3
140
3.5
147
0.875
172
     1
173
     1
178
     0
271
     2
272
     2
276
     2
284
    12
289
     0
340
97
  0
ENDTAB
  0
TABLE
  2
BLOCK_RECORD
  5
1
330
0
100
AcDbSymbolTable
 70
     8
  0
BLOCK_RECORD
  5
1F
330
1
100
AcDbSymbolTableRecord
100
AcDbBlockTableRecord
  2
*Model_Space
340
22
  0
BLOCK_RECORD
  5
1B
330
1
100
AcDbSymbolTableRecord
100
AcDbBlockTableRecord
  2
*Paper_Space
340
1E
  0
BLOCK_RECORD
  5
23
330
1
100
AcDbSymbolTableRecord
100
AcDbBlockTableRecord
  2
*Paper_Space0
340
26
  0
BLOCK_RECORD
  5
82
330
1
100
AcDbSymbolTableRecord
100
AcDbBlockTableRecord
  2
블럭10
340
0
102
{BLKREFS
331
D6
102
}
  0
BLOCK_RECORD
  5
DF
330
1
100
AcDbSymbolTableRecord
100
AcDbBlockTableRecord
  2
_D
340
0
  0
BLOCK_RECORD
  5
ED
330
1
100
AcDbSymbolTableRecord
100
AcDbBlockTableRecord
  2
_D_1
340
0
  0
BLOCK_RECORD
  5
F8
330
1
100
AcDbSymbolTableRecord
100
AcDbBlockTableRecord
  2
_D_2
340
0
  0
BLOCK_RECORD
  5
105
330
1
100
AcDbSymbolTableRecord
100
AcDbBlockTableRecord
  2
_D_3
340
0
  0
BLOCK_RECORD
  5
111
330
1
100
AcDbSymbolTableRecord
100
AcDbBlockTableRecord
  2
_D_4
340
0
  0
BLOCK_RECORD
  5
11A
330
1
100
AcDbSymbolTableRecord
100
AcDbBlockTableRecord
  2
SW_DOWELSYMBOL_0
340
0
102
{BLKREFS
331
120
102
}
  0
ENDTAB
  0
ENDSEC
  0
SECTION
  2
BLOCKS
  0
BLOCK
  5
20
330
1F
100
AcDbEntity
  8
0
100
AcDbBlockBegin
  2
*Model_Space
 70
     0
 10
0.0
 20
0.0
 30
0.0
  3
*Model_Space
  1

  0
ENDBLK
  5
21
330
1F
100
AcDbEntity
  8
0
100
AcDbBlockEnd
  0
BLOCK
  5
1C
330
1B
100
AcDbEntity
 67
     1
  8
0
100
AcDbBlockBegin
  2
*Paper_Space
 70
     0
 10
0.0
 20
0.0
 30
0.0
  3
*Paper_Space
  1

  0
ENDBLK
  5
1D
330
1B
100
AcDbEntity
 67
     1
  8
0
100
AcDbBlockEnd
  0
BLOCK
  5
24
330
23
100
AcDbEntity
  8
0
100
AcDbBlockBegin
  2
*Paper_Space0
 70
     0
 10
0.0
 20
0.0
 30
0.0
  3
*Paper_Space0
  1

  0
ENDBLK
  5
25
330
23
100
AcDbEntity
  8
0
100
AcDbBlockEnd
  0
BLOCK
  5
83
330
82
100
AcDbEntity
  8
0
100
AcDbBlockBegin
  2
블럭10
 70
     2
 10
0.0
 20
0.0
 30
0.0
  3
블럭10
  1

  0
ELLIPSE
  5
85
330
82
100
AcDbEntity
  8
중심선
100
AcDbEllipse
 10
20.54032771741204
 20
12.0471743016438
 30
0.0
 11
6.600054785286829
 21
-1.261213355974178E-13
 31
0.0
210
0.0
220
0.0
230
1.0
 40
0.636358354079598
 41
0.9219305317359503
 42
6.513795318482858
  0
ELLIPSE
  5
86
330
82
100
AcDbEntity
  8
중심선
100
AcDbEllipse
 10
20.54032771746488
 20
12.04717430159265
 30
0.0
 11
3.960054785062283
 21
1.540847449632565E-10
 31
0.0
210
0.0
220
0.0
230
1.0
 40
0.3939339440162632
 41
1.131841032648279
 42
5.62031148352944
  0
LINE
  5
87
330
82
100
AcDbEntity
  8
중심선
100
AcDbLine
 10
2.268634060543552
 20
16.24717430164393
 30
0.0
 11
5.714909304380834
 21
16.24717430164393
 31
0.0
  0
LINE
  5
88
330
82
100
AcDbEntity
  8
중심선
100
AcDbLine
 10
5.245725140726316
 20
7.84717430164391
 30
0.0
 11
8.692000384563599
 21
7.84717430164391
 31
0.0
  0
LINE
  5
89
330
82
100
AcDbEntity
  8
중심선
100
AcDbLine
 10
15.74043728645272
 20
16.24717430164393
 30
0.0
 11
8.692000384563599
 21
7.84717430164391
 31
0.0
  0
LINE
  5
8A
330
82
100
AcDbEntity
  8
중심선
100
AcDbLine
 10
0.1404042013395286
 20
13.71084872107135
 30
0.0
 11
3.58671253028996
 21
13.71088815037384
 31
0.0
  0
LINE
  5
8B
330
82
100
AcDbEntity
  8
중심선
100
AcDbLine
 10
2.750260043222114
 20
10.84717430164391
 30
0.0
 11
6.196535287059397
 21
10.84717430164391
 31
0.0
  0
LINE
  5
8C
330
82
100
AcDbEntity
  8
중심선
100
AcDbLine
 10
12.29416204261559
 20
16.24717430164393
 30
0.0
 11
5.245725140726316
 21
7.84717430164391
 31
0.0
  0
LINE
  5
8D
330
82
100
AcDbEntity
  8
중심선
100
AcDbLine
 10
10.72767329541681
 20
16.24717430164393
 30
0.0
 11
6.196535287059397
 21
10.84717430164391
 31
0.0
  0
LINE
  5
8E
330
82
100
AcDbEntity
  8
중심선
100
AcDbLine
 10
7.28139805157953
 20
16.24717430164393
 30
0.0
 11
2.750260043222114
 21
10.84717430164391
 31
0.0
  0
LINE
  5
8F
330
82
100
AcDbEntity
  8
중심선
100
AcDbLine
 10
5.714909304380834
 20
16.24717430164393
 30
0.0
 11
3.58671253028996
 21
13.71088815037384
 31
0.0
  0
LINE
  5
90
330
82
100
AcDbEntity
  8
중심선
100
AcDbLine
 10
2.268634060543552
 20
16.24717430164393
 30
0.0
 11
0.1404042013395286
 21
13.71084872107135
 31
0.0
  0
LINE
  5
91
330
82
100
AcDbEntity
  8
중심선
100
AcDbLine
 10
7.28139805157953
 20
16.24717430164393
 30
0.0
 11
10.72767329541681
 21
16.24717430164393
 31
0.0
  0
LINE
  5
92
330
82
100
AcDbEntity
  8
중심선
100
AcDbLine
 10
12.29416204261559
 20
16.24717430164393
 30
0.0
 11
15.74043728645272
 21
16.24717430164393
 31
0.0
  0
LINE
  5
93
330
82
100
AcDbEntity
  8
중심선
100
AcDbLine
 10
19.22036997980202
 20
11.08717430171403
 30
0.0
 11
23.66174974927406
 21
11.08717430171406
 31
0.0
  0
LINE
  5
94
330
82
100
AcDbEntity
  8
중심선
100
AcDbLine
 10
19.22039502424796
 20
13.00717430171391
 30
0.0
 11
19.22036997980202
 21
11.08717430171403
 31
0.0
  0
LINE
  5
95
330
82
100
AcDbEntity
  8
중심선
100
AcDbLine
 10
19.22039502424796
 20
13.00717430171391
 30
0.0
 11
26.96566020931264
 21
13.00717430171391
 31
0.0
  0
LINE
  5
96
330
82
100
AcDbEntity
  8
중심선
100
AcDbLine
 10
22.22332737316547
 20
13.45928029700563
 30
0.0
 11
24.52862924686651
 21
15.39360700705356
 31
0.0
  0
ATTDEF
  5
98
330
82
100
AcDbEntity
  8
FORMAT
 62
     2
100
AcDbText
 10
-16.11926103943555
 20
2.075366912832191
 30
0.0
 40
4.233333333333333
  1
SEME7306032E [ 4 FLUTE ]
 41
0.75
  7
SLDTEXTSTYLE0
 11
-16.11926103943555
 21
-0.0412997538344756
 31
0.0
100
AcDbAttributeDefinition
  3

  2
AUTOATTR0
 70
     0
 74
     1
  0
ENDBLK
  5
84
330
82
100
AcDbEntity
  8
0
100
AcDbBlockEnd
  0
BLOCK
  5
E0
330
DF
100
AcDbEntity
  8
0
100
AcDbBlockBegin
  2
_D
 70
     0
 10
0.0
 20
0.0
 30
0.0
  3
_D
  1

  0
LINE
  5
E2
330
DF
100
AcDbEntity
  8
치수문자_일반주서
 62
     0
370
    -2
100
AcDbLine
 10
32.34240381056769
 20
-3.000000000000009
 30
0.0
 11
45.2799038105677
 21
-2.99999999999996
 31
0.0
  0
LINE
  5
E3
330
DF
100
AcDbEntity
  8
치수문자_일반주서
 62
     0
370
    -2
100
AcDbLine
 10
32.34240381056769
 20
2.999999999999995
 30
0.0
 11
45.27990381056767
 21
3.000000000000044
 31
0.0
  0
LINE
  5
E4
330
DF
100
AcDbEntity
  8
치수문자_일반주서
 62
     0
370
    -2
100
AcDbLine
 10
45.27990381056768
 20
0.3020000000000396
 30
0.0
 11
45.27990381056769
 21
-0.3019999999999565
 31
0.0
  0
SOLID
  5
E5
330
DF
100
AcDbEntity
  8
치수문자_일반주서
 62
     0
100
AcDbTrace
 10
44.72957047723435
 20
0.3020000000000376
 30
0.0
 11
45.83023714390102
 21
0.3020000000000415
 31
0.0
 12
45.2799038105677
 22
-2.99999999999996
 32
0.0
 13
45.2799038105677
 23
-2.99999999999996
 33
0.0
  0
SOLID
  5
E6
330
DF
100
AcDbEntity
  8
치수문자_일반주서
 62
     0
100
AcDbTrace
 10
45.83023714390102
 20
-0.3019999999999546
 30
0.0
 11
44.72957047723435
 21
-0.3019999999999585
 31
0.0
 12
45.27990381056767
 22
3.000000000000044
 32
0.0
 13
45.27990381056767
 23
3.000000000000044
 33
0.0
  0
MTEXT
  5
E7
330
DF
100
AcDbEntity
  8
치수문자_일반주서
 62
     0
100
AcDbMText
 10
40.90490381056769
 20
-0.0000000000000219
 30
0.0
 40
3.5
 41
0.0
 71
     2
 72
     1
  1
\A1;%%c6
  7
SLDTEXTSTYLE0
 11
-3.552713678800499E-15
 21
1.0
 31
0.0
 73
     1
 44
1.0
  0
POINT
  5
E8
330
DF
100
AcDbEntity
  8
Defpoints
 62
     0
100
AcDbPoint
 10
32.27990381056769
 20
-3.000000000000009
 30
0.0
  0
POINT
  5
E9
330
DF
100
AcDbEntity
  8
Defpoints
 62
     0
100
AcDbPoint
 10
32.27990381056769
 20
2.999999999999995
 30
0.0
  0
POINT
  5
EA
330
DF
100
AcDbEntity
  8
Defpoints
 62
     0
100
AcDbPoint
 10
45.27990381056768
 20
3.000000000000043
 30
0.0
  0
ENDBLK
  5
E1
330
DF
100
AcDbEntity
  8
0
100
AcDbBlockEnd
  0
BLOCK
  5
EE
330
ED
100
AcDbEntity
  8
0
100
AcDbBlockBegin
  2
_D_1
 70
     0
 10
0.0
 20
0.0
 30
0.0
  3
_D_1
  1

  0
LINE
  5
F0
330
ED
100
AcDbEntity
  8
치수문자_일반주서
 62
     0
370
    -2
100
AcDbLine
 10
-57.72009618943231
 20
2.562499999999983
 30
0.0
 11
-57.72009618943231
 21
37.00000000000001
 31
0.0
  0
LINE
  5
F1
330
ED
100
AcDbEntity
  8
치수문자_일반주서
 62
     0
370
    -2
100
AcDbLine
 10
32.27990381056769
 20
-0.2375000000000065
 30
0.0
 11
32.27990381056769
 21
37.00000000000001
 31
0.0
  0
LINE
  5
F2
330
ED
100
AcDbEntity
  8
치수문자_일반주서
 62
     0
370
    -2
100
AcDbLine
 10
-54.41809618943231
 20
37.00000000000001
 30
0.0
 11
28.97790381056769
 21
37.00000000000001
 31
0.0
  0
SOLID
  5
F3
330
ED
100
AcDbEntity
  8
치수문자_일반주서
 62
     0
100
AcDbTrace
 10
-54.41809618943231
 20
37.55033333333334
 30
0.0
 11
-54.41809618943231
 21
36.44966666666667
 31
0.0
 12
-57.72009618943231
 22
37.00000000000001
 32
0.0
 13
-57.72009618943231
 23
37.00000000000001
 33
0.0
  0
SOLID
  5
F4
330
ED
100
AcDbEntity
  8
치수문자_일반주서
 62
     0
100
AcDbTrace
 10
28.97790381056769
 20
36.44966666666667
 30
0.0
 11
28.97790381056769
 21
37.55033333333334
 31
0.0
 12
32.27990381056769
 22
37.00000000000001
 32
0.0
 13
32.27990381056769
 23
37.00000000000001
 33
0.0
  0
MTEXT
  5
F5
330
ED
100
AcDbEntity
  8
치수문자_일반주서
 62
     0
100
AcDbMText
 10
-12.72009618943231
 20
41.37500000000001
 30
0.0
 40
3.5
 41
0.0
 71
     2
 72
     1
  1
\A1;90
  7
SLDTEXTSTYLE0
 73
     1
 44
1.0
  0
POINT
  5
145
330
ED
100
AcDbEntity
  8
Defpoints
 62
     0
100
AcDbPoint
 10
-57.72009618943231
 20
2.499999999999983
 30
0.0
  0
POINT
  5
146
330
ED
100
AcDbEntity
  8
Defpoints
 62
     0
100
AcDbPoint
 10
32.27990381056769
 20
-0.3000000000000065
 30
0.0
  0
POINT
  5
147
330
ED
100
AcDbEntity
  8
Defpoints
 62
     0
100
AcDbPoint
 10
32.27990381056769
 20
37.00000000000001
 30
0.0
  0
ENDBLK
  5
EF
330
ED
100
AcDbEntity
  8
0
100
AcDbBlockEnd
  0
BLOCK
  5
F9
330
F8
100
AcDbEntity
  8
0
100
AcDbBlockBegin
  2
_D_2
 70
     0
 10
0.0
 20
0.0
 30
0.0
  3
_D_2
  1

  0
LINE
  5
FB
330
F8
100
AcDbEntity
  8
치수문자_일반주서
 62
     0
370
    -2
100
AcDbLine
 10
-57.28259618943231
 20
2.999999999999968
 30
0.0
 11
-71.21273575105222
 21
2.999999999999915
 31
0.0
  0
LINE
  5
FC
330
F8
100
AcDbEntity
  8
치수문자_일반주서
 62
     0
370
    -2
100
AcDbLine
 10
-57.28259618943231
 20
-3.000000000000011
 30
0.0
 11
-71.21273575105221
 21
-3.000000000000063
 31
0.0
  0
LINE
  5
FD
330
F8
100
AcDbEntity
  8
치수문자_일반주서
 62
     0
370
    -2
100
AcDbLine
 10
-71.21273575105221
 20
-0.3020000000000849
 30
0.0
 11
-71.21273575105222
 21
0.301999999999937
 31
0.0
  0
SOLID
  5
FE
330
F8
100
AcDbEntity
  8
치수문자_일반주서
 62
     0
100
AcDbTrace
 10
-70.66240241771888
 20
-0.3020000000000836
 30
0.0
 11
-71.76306908438553
 21
-0.3020000000000861
 31
0.0
 12
-71.21273575105222
 22
2.999999999999915
 32
0.0
 13
-71.21273575105222
 23
2.999999999999915
 33
0.0
  0
SOLID
  5
FF
330
F8
100
AcDbEntity
  8
치수문자_일반주서
 62
     0
100
AcDbTrace
 10
-71.76306908438555
 20
0.3019999999999357
 30
0.0
 11
-70.6624024177189
 21
0.3019999999999383
 31
0.0
 12
-71.21273575105221
 22
-3.000000000000063
 32
0.0
 13
-71.21273575105221
 23
-3.000000000000063
 33
0.0
  0
MTEXT
  5
100
330
F8
100
AcDbEntity
  8
치수문자_일반주서
 62
     0
100
AcDbMText
 10
-75.58773575105221
 20
-1.089695848804667
 30
0.0
 40
3.5
 41
0.0
 71
     2
 72
     1
  1
\A1;%%c6
  7
SLDTEXTSTYLE0
 11
-2.368475785867010E-15
 21
1.0
 31
0.0
 73
     1
 44
1.0
  0
POINT
  5
101
330
F8
100
AcDbEntity
  8
Defpoints
 62
     0
100
AcDbPoint
 10
-57.22009618943231
 20
2.999999999999968
 30
0.0
  0
POINT
  5
102
330
F8
100
AcDbEntity
  8
Defpoints
 62
     0
100
AcDbPoint
 10
-57.22009618943231
 20
-3.00000000000001
 30
0.0
  0
POINT
  5
103
330
F8
100
AcDbEntity
  8
Defpoints
 62
     0
100
AcDbPoint
 10
-71.21273575105221
 20
-3.000000000000063
 30
0.0
  0
ENDBLK
  5
FA
330
F8
100
AcDbEntity
  8
0
100
AcDbBlockEnd
  0
BLOCK
  5
106
330
105
100
AcDbEntity
  8
0
100
AcDbBlockBegin
  2
_D_3
 70
     0
 10
0.0
 20
0.0
 30
0.0
  3
_D_3
  1

  0
LINE
  5
108
330
105
100
AcDbEntity
  8
치수문자_일반주서
 62
     0
370
    -2
100
AcDbLine
 10
23.27990381056769
 20
2.742062503546278
 30
0.0
 11
23.27990381056769
 21
13.52548080613393
 31
0.0
  0
LINE
  5
109
330
105
100
AcDbEntity
  8
치수문자_일반주서
 62
     0
370
    -2
100
AcDbLine
 10
32.27990381056769
 20
-0.2375000000000065
 30
0.0
 11
32.27990381056769
 21
13.52548080613393
 31
0.0
  0
LINE
  5
10A
330
105
100
AcDbEntity
  8
치수문자_일반주서
 62
     0
370
    -2
100
AcDbLine
 10
26.58190381056769
 20
13.52548080613393
 30
0.0
 11
28.97790381056769
 21
13.52548080613393
 31
0.0
  0
SOLID
  5
10B
330
105
100
AcDbEntity
  8
치수문자_일반주서
 62
     0
100
AcDbTrace
 10
26.58190381056769
 20
14.07581413946726
 30
0.0
 11
26.58190381056769
 21
12.9751474728006
 31
0.0
 12
23.27990381056769
 22
13.52548080613393
 32
0.0
 13
23.27990381056769
 23
13.52548080613393
 33
0.0
  0
SOLID
  5
10C
330
105
100
AcDbEntity
  8
치수문자_일반주서
 62
     0
100
AcDbTrace
 10
28.97790381056769
 20
12.9751474728006
 30
0.0
 11
28.97790381056769
 21
14.07581413946726
 31
0.0
 12
32.27990381056769
 22
13.52548080613393
 32
0.0
 13
32.27990381056769
 23
13.52548080613393
 33
0.0
  0
MTEXT
  5
10D
330
105
100
AcDbEntity
  8
치수문자_일반주서
 62
     0
100
AcDbMText
 10
27.77990381056768
 20
17.90048080613393
 30
0.0
 40
3.5
 41
0.0
 71
     2
 72
     1
  1
\A1;9
  7
SLDTEXTSTYLE0
 73
     1
 44
1.0
  0
POINT
  5
10E
330
105
100
AcDbEntity
  8
Defpoints
 62
     0
100
AcDbPoint
 10
23.27990381056769
 20
2.679562503546278
 30
0.0
  0
POINT
  5
10F
330
105
100
AcDbEntity
  8
Defpoints
 62
     0
100
AcDbPoint
 10
32.27990381056769
 20
-0.3000000000000065
 30
0.0
  0
POINT
  5
148
330
105
100
AcDbEntity
  8
Defpoints
 62
     0
100
AcDbPoint
 10
32.27990381056769
 20
13.52548080613393
 30
0.0
  0
ENDBLK
  5
107
330
105
100
AcDbEntity
  8
0
100
AcDbBlockEnd
  0
BLOCK
  5
112
330
111
100
AcDbEntity
  8
0
100
AcDbBlockBegin
  2
_D_4
 70
     0
 10
0.0
 20
0.0
 30
0.0
  3
_D_4
  1

  0
LINE
  5
114
330
111
100
AcDbEntity
  8
치수문자_일반주서
 62
     0
370
    -2
100
AcDbLine
 10
32.27990381056769
 20
3.047462311319855
 30
0.0
 11
32.27990381056769
 21
27.68475183767402
 31
0.0
  0
LINE
  5
115
330
111
100
AcDbEntity
  8
치수문자_일반주서
 62
     0
370
    -2
100
AcDbLine
 10
0.2799038105676847
 20
2.987499999999986
 30
0.0
 11
0.279903810567685
 21
27.68475183767402
 31
0.0
  0
LINE
  5
116
330
111
100
AcDbEntity
  8
치수문자_일반주서
 62
     0
370
    -2
100
AcDbLine
 10
28.97790381056769
 20
27.68475183767402
 30
0.0
 11
3.581903810567685
 21
27.68475183767402
 31
0.0
  0
SOLID
  5
117
330
111
100
AcDbEntity
  8
치수문자_일반주서
 62
     0
100
AcDbTrace
 10
28.97790381056769
 20
27.13441850434069
 30
0.0
 11
28.97790381056769
 21
28.23508517100736
 31
0.0
 12
32.27990381056769
 22
27.68475183767402
 32
0.0
 13
32.27990381056769
 23
27.68475183767402
 33
0.0
  0
SOLID
  5
118
330
111
100
AcDbEntity
  8
치수문자_일반주서
 62
     0
100
AcDbTrace
 10
3.581903810567685
 20
28.23508517100736
 30
0.0
 11
3.581903810567685
 21
27.13441850434069
 31
0.0
 12
0.279903810567685
 22
27.68475183767402
 32
0.0
 13
0.279903810567685
 23
27.68475183767402
 33
0.0
  0
MTEXT
  5
119
330
111
100
AcDbEntity
  8
치수문자_일반주서
 62
     0
100
AcDbMText
 10
16.99880181693043
 20
32.05975183767402
 30
0.0
 40
3.5
 41
0.0
 71
     2
 72
     1
  1
\A1;32
  7
SLDTEXTSTYLE0
 73
     1
 44
1.0
  0
POINT
  5
149
330
111
100
AcDbEntity
  8
Defpoints
 62
     0
100
AcDbPoint
 10
32.27990381056769
 20
2.984962311319855
 30
0.0
  0
POINT
  5
14A
330
111
100
AcDbEntity
  8
Defpoints
 62
     0
100
AcDbPoint
 10
0.2799038105676847
 20
2.924999999999986
 30
0.0
  0
POINT
  5
14B
330
111
100
AcDbEntity
  8
Defpoints
 62
     0
100
AcDbPoint
 10
0.2799038105676847
 20
27.68475183767402
 30
0.0
  0
ENDBLK
  5
113
330
111
100
AcDbEntity
  8
0
100
AcDbBlockEnd
  0
BLOCK
  5
11B
330
11A
100
AcDbEntity
  8
0
100
AcDbBlockBegin
  2
SW_DOWELSYMBOL_0
 70
     0
 10
0.0
 20
0.0
 30
0.0
  3
SW_DOWELSYMBOL_0
  1

  0
CIRCLE
  5
11D
330
11A
100
AcDbEntity
  8
해칭선
 62
     0
100
AcDbCircle
 10
0.0
 20
0.0
 30
0.0
 40
3.000000000000003
  0
HATCH
  5
11E
330
11A
100
AcDbEntity
  8
0
  6
Continuous
 62
     0
370
    18
100
AcDbHatch
 10
0.0
 20
0.0
 30
0.0
210
0.0
220
0.0
230
1.0
  2
SOLID
 70
     1
 71
     0
 91
        1
 92
        0
 93
        3
 72
     2
 10
-0.0000000000000017
 20
-0.0000000000000035
 40
3.000000000000003
 50
0.0
 51
90.0
 73
     1
 72
     1
 10
-0.0000000000000017
 20
2.999999999999999
 11
-0.0000000000000017
 21
-0.0000000000000036
 72
     1
 10
-0.0000000000000017
 20
-0.0000000000000035
 11
3.000000000000001
 21
-0.0000000000000035
 97
        0
 75
     0
 76
     1
 98
        1
 10
0.0
 20
0.0
  0
HATCH
  5
11F
330
11A
100
AcDbEntity
  8
0
  6
Continuous
 62
     0
370
    18
100
AcDbHatch
 10
0.0
 20
0.0
 30
0.0
210
0.0
220
0.0
230
1.0
  2
SOLID
 70
     1
 71
     0
 91
        1
 92
        0
 93
        3
 72
     2
 10
-0.0000000000000017
 20
-0.0000000000000035
 40
3.000000000000003
 50
180.0
 51
270.0000000000007
 73
     1
 72
     1
 10
-0.0000000000000017
 20
-3.000000000000006
 11
-0.0000000000000017
 21
-0.0000000000000036
 72
     1
 10
-0.0000000000000017
 20
-0.0000000000000035
 11
-3.000000000000004
 21
-0.0000000000000035
 97
        0
 75
     0
 76
     1
 98
        1
 10
0.0
 20
0.0
  0
ENDBLK
  5
11C
330
11A
100
AcDbEntity
  8
0
100
AcDbBlockEnd
  0
ENDSEC
  0
SECTION
  2
ENTITIES
  0
LINE
  5
99
330
1F
100
AcDbEntity
  8
0
  6
Continuous
 62
     4
370
    25
100
AcDbLine
 10
-0.0000000000000141
 20
2.999999999999996
 30
0.0
 11
-57.22009618943231
 21
2.999999999999978
 31
0.0
  0
LINE
  5
9A
330
1F
100
AcDbEntity
  8
0
  6
Continuous
 62
     4
370
    25
100
AcDbLine
 10
-57.22009618943231
 20
-3.000000000000011
 30
0.0
 11
0.0000000000000299
 21
-2.999999999999994
 31
0.0
  0
LINE
  5
9B
330
1F
100
AcDbEntity
  8
0
  6
Continuous
 62
     4
370
    25
100
AcDbLine
 10
-57.22009618943231
 20
2.999999999999983
 30
0.0
 11
-57.72009618943231
 21
2.499999999999983
 31
0.0
  0
LINE
  5
9C
330
1F
100
AcDbEntity
  8
0
  6
Continuous
 62
     4
370
    25
100
AcDbLine
 10
-57.72009618943231
 20
-2.500000000000017
 30
0.0
 11
-57.22009618943231
 21
-3.000000000000017
 31
0.0
  0
LINE
  5
9F
330
1F
100
AcDbEntity
  8
0
  6
Continuous
 62
     4
370
    25
100
AcDbLine
 10
22.38968659158246
 20
2.924999999999993
 30
0.0
 11
0.2799038105676847
 21
2.924999999999986
 31
0.0
  0
LINE
  5
A0
330
1F
100
AcDbEntity
  8
0
  6
Continuous
 62
     4
370
    25
100
AcDbLine
 10
0.2799038105676847
 20
-2.924999999999983
 30
0.0
 11
22.38968659158246
 21
-2.924999999999976
 31
0.0
  0
LINE
  5
A1
330
1F
100
AcDbEntity
  8
0
  6
Continuous
 62
     1
370
    25
100
AcDbLine
 10
25.75154066894088
 20
-0.4595169590667111
 30
0.0
 11
25.70650232655071
 21
-0.4280557231050095
 31
0.0
1001
PE_URL
1000

  0
LINE
  5
A2
330
1F
100
AcDbEntity
  8
0
  6
Continuous
 62
     1
370
    25
100
AcDbLine
 10
26.29162139562766
 20
0.4657148427792503
 30
0.0
 11
26.34649496187535
 21
0.4278376359042276
 31
0.0
1001
PE_URL
1000

  0
LINE
  5
A3
330
1F
100
AcDbEntity
  8
0
  6
Continuous
 62
     1
370
    25
100
AcDbLine
 10
31.85868720561297
 20
-0.3518295428282202
 30
0.0
 11
31.83188681263482
 21
-0.3314077411843318
 31
0.0
1001
PE_URL
1000

  0
SPLINE
  5
A4
330
1F
100
AcDbEntity
  8
0
  6
Continuous
 62
     1
370
    25
100
AcDbSpline
210
0.0
220
0.0
230
1.0
 70
     8
 71
     3
 72
     9
 73
     5
 74
     0
 42
0.000000001
 43
0.00000001
 40
0.0
 40
0.0
 40
0.0
 40
0.0
 40
0.5340544254223466
 40
1.0
 40
1.0
 40
1.0
 40
1.0
 10
32.27990381056769
 20
-0.6678949104261925
 30
0.0
 10
32.20584475777609
 20
-0.6135317228372393
 30
0.0
 10
32.0671715266105
 20
-0.5117383755656366
 30
0.0
 10
31.92495320376615
 20
-0.4026559952163614
 30
0.0
 10
31.85868720561297
 20
-0.3518295428282202
 30
0.0
1001
PE_URL
1000

  0
LINE
  5
A5
330
1F
100
AcDbEntity
  8
0
  6
Continuous
 62
     1
370
    25
100
AcDbLine
 10
31.38985053172357
 20
-3.000000000000008
 30
0.0
 11
32.27990381056769
 21
-3.000000000000008
 31
0.0
1001
PE_URL
1000

  0
LINE
  5
A6
330
1F
100
AcDbEntity
  8
0
  6
Continuous
 62
     1
370
    25
100
AcDbLine
 10
26.91622405534475
 20
2.999999999999994
 30
0.0
 11
25.13834334209763
 21
2.999999999999994
 31
0.0
1001
PE_URL
1000

  0
LINE
  5
A7
330
1F
100
AcDbEntity
  8
0
  6
Continuous
 62
     1
370
    25
100
AcDbLine
 10
25.1383433420976
 20
-3.000000000000008
 30
0.0
 11
26.91622405534475
 21
-3.000000000000008
 31
0.0
1001
PE_URL
1000

  0
LINE
  5
A8
330
1F
100
AcDbEntity
  8
0
  6
Continuous
 62
     1
370
    25
100
AcDbLine
 10
32.27990381056769
 20
2.999999999999994
 30
0.0
 11
31.38985053172356
 21
2.999999999999994
 31
0.0
1001
PE_URL
1000

  0
LINE
  5
AA
330
1F
100
AcDbEntity
  8
0
  6
Continuous
 62
     4
370
    25
100
AcDbLine
 10
-57.22009618943231
 20
2.999999999999985
 30
0.0
 11
-57.22009618943231
 21
-3.000000000000017
 31
0.0
  0
LINE
  5
AB
330
1F
100
AcDbEntity
  8
0
  6
Continuous
 62
     4
370
    25
100
AcDbLine
 10
-57.72009618943231
 20
2.499999999999983
 30
0.0
 11
-57.72009618943231
 21
-2.500000000000017
 31
0.0
  0
LINE
  5
AC
330
1F
100
AcDbEntity
  8
0
  6
Continuous
 62
     4
370
    25
100
AcDbLine
 10
0.2799038105676847
 20
2.924999999999986
 30
0.0
 11
0.2799038105676847
 21
-2.924999999999983
 31
0.0
  0
SPLINE
  5
AD
330
1F
100
AcDbEntity
  8
0
  6
Continuous
 62
     4
370
    25
100
AcDbSpline
210
0.0
220
0.0
230
1.0
 70
    24
 71
     3
 72
    12
 73
     8
 74
     0
 42
0.000000001
 43
0.00000001
 40
0.0
 40
0.0
 40
0.0
 40
0.0
 40
0.4999999999999998
 40
0.4999999999999998
 40
0.7499999999999999
 40
0.7499999999999999
 40
1.0
 40
1.0
 40
1.0
 40
1.0
 10
23.27990381056769
 20
1.202359408313957
 30
0.0
 10
23.27990381056769
 20
1.080966276415803
 30
0.0
 10
23.27990381056769
 20
0.9303467845379488
 30
0.0
 10
23.27990381056769
 20
0.6557729717066627
 30
0.0
 10
23.27990381056769
 20
0.5586945530273737
 30
0.0
 10
23.27990381056769
 20
0.3526794473827928
 30
0.0
 10
23.27990381056769
 20
0.2428167859104914
 30
0.0
 10
23.27990381056769
 20
0.12942955453079
 30
0.0
  0
SPLINE
  5
AE
330
1F
100
AcDbEntity
  8
0
  6
Continuous
 62
     4
370
    25
100
AcDbSpline
210
0.0
220
0.0
230
1.0
 70
     8
 71
     3
 72
    10
 73
     6
 74
     0
 42
0.000000001
 43
0.00000001
 40
0.0
 40
0.0
 40
0.0
 40
0.0
 40
0.5
 40
0.5
 40
1.0
 40
1.0
 40
1.0
 40
1.0
 10
22.71388023949727
 20
-1.430895789870262
 30
0.0
 10
22.60753266697854
 20
-1.362958983427066
 30
0.0
 10
22.5235130829964
 20
-1.270200668674354
 30
0.0
 10
22.41435731425843
 20
-1.053638853152772
 30
0.0
 10
22.38968659158246
 20
-0.9301608921910484
 30
0.0
 10
22.38968659158246
 20
-0.8037074077901792
 30
0.0
  0
SPLINE
  5
AF
330
1F
100
AcDbEntity
  8
0
  6
Continuous
 62
     4
370
    25
100
AcDbSpline
210
0.0
220
0.0
230
1.0
 70
     8
 71
     3
 72
    14
 73
    10
 74
     0
 42
0.000000001
 43
0.00000001
 40
0.0
 40
0.0
 40
0.0
 40
0.0
 40
0.2499999999999998
 40
0.2499999999999998
 40
0.4999999999999997
 40
0.4999999999999997
 40
0.7499999999999998
 40
0.7499999999999998
 40
1.0
 40
1.0
 40
1.0
 40
1.0
 10
22.38968659158245
 20
0.4158058064290368
 30
0.0
 10
22.38968659158247
 20
0.5306774764191897
 30
0.0
 10
22.40845838951846
 20
0.6435020558175949
 30
0.0
 10
22.49299591813642
 20
0.8505268513503838
 30
0.0
 10
22.55867201757011
 20
0.9435074790450907
 30
0.0
 10
22.72602111918931
 20
1.090713475000317
 30
0.0
 10
22.8283502511683
 20
1.145644151904324
 30
0.0
 10
23.04797716063964
 20
1.208720214363877
 30
0.0
 10
23.16471992482251
 20
1.217464424741526
 30
0.0
 10
23.27990381056769
 20
1.202359408313957
 30
0.0
  0
SPLINE
  5
B0
330
1F
100
AcDbEntity
  8
0
  6
Continuous
 62
     4
370
    25
100
AcDbSpline
210
0.0
220
0.0
230
1.0
 70
     8
 71
     3
 72
    14
 73
    10
 74
     0
 42
0.000000001
 43
0.00000001
 40
0.0
 40
0.0
 40
0.0
 40
0.0
 40
0.25
 40
0.25
 40
0.5
 40
0.5
 40
0.75
 40
0.75
 40
1.0
 40
1.0
 40
1.0
 40
1.0
 10
22.38968659158245
 20
2.895294550013824
 30
0.0
 10
22.38968659158247
 20
2.878797331319484
 30
0.0
 10
22.40845838951846
 20
2.855344557997691
 30
0.0
 10
22.49299591813642
 20
2.800659121681983
 30
0.0
 10
22.5586720175701
 20
2.769761937594432
 30
0.0
 10
22.72602111918931
 20
2.715166968975133
 30
0.0
 10
22.8283502511683
 20
2.691525843338199
 30
0.0
 10
23.04797716063964
 20
2.663795662497055
 30
0.0
 10
23.16471992482251
 20
2.659639059743262
 30
0.0
 10
23.27990381056769
 20
2.666450234532582
 30
0.0
  0
LINE
  5
B1
330
1F
100
AcDbEntity
  8
0
  6
Continuous
 62
     4
370
    25
100
AcDbLine
 10
22.38968659158246
 20
2.924999999999977
 30
0.0
 11
22.38968659158246
 21
2.812415225862474
 31
0.0
  0
SPLINE
  5
B2
330
1F
100
AcDbEntity
  8
0
  6
Continuous
 62
     4
370
    25
100
AcDbSpline
210
0.0
220
0.0
230
1.0
 70
     8
 71
     3
 72
    10
 73
     6
 74
     0
 42
0.000000001
 43
0.00000001
 40
0.0
 40
0.0
 40
0.0
 40
0.0
 40
0.5
 40
0.5
 40
1.0
 40
1.0
 40
1.0
 40
1.0
 10
22.71388023949727
 20
2.551110001260521
 30
0.0
 10
22.60753266697853
 20
2.58921517519217
 30
0.0
 10
22.52351308299639
 20
2.637448919475685
 30
0.0
 10
22.41435731425843
 20
2.731188698839967
 30
0.0
 10
22.38968659158245
 20
2.776278455865197
 30
0.0
 10
22.38968659158245
 20
2.812415225862484
 30
0.0
  0
SPLINE
  5
B3
330
1F
100
AcDbEntity
  8
0
  6
Continuous
 62
     4
370
    25
100
AcDbSpline
210
0.0
220
0.0
230
1.0
 70
     8
 71
     3
 72
     8
 73
     4
 74
     0
 42
0.000000001
 43
0.00000001
 40
0.0
 40
0.0
 40
0.0
 40
0.0
 40
1.0
 40
1.0
 40
1.0
 40
1.0
 10
23.27990381057764
 20
2.322246070894702
 30
0.0
 10
23.0918460580117
 20
2.40656045714457
 30
0.0
 10
22.90384719539217
 20
2.483043342810314
 30
0.0
 10
22.71388023949727
 20
2.55111000126052
 30
0.0
  0
LINE
  5
B4
330
1F
100
AcDbEntity
  8
0
  6
Continuous
 62
     4
370
    25
100
AcDbLine
 10
23.27990381056769
 20
1.349053293828285
 30
0.0
 11
23.27990381056769
 21
1.202359408313957
 31
0.0
  0
SPLINE
  5
B5
330
1F
100
AcDbEntity
  8
0
  6
Continuous
 62
     4
370
    25
100
AcDbSpline
210
0.0
220
0.0
230
1.0
 70
     8
 71
     3
 72
     8
 73
     4
 74
     0
 42
0.000000001
 43
0.00000001
 40
0.0
 40
0.0
 40
0.0
 40
0.0
 40
1.0
 40
1.0
 40
1.0
 40
1.0
 10
23.27990381057764
 20
-1.778425760669817
 30
0.0
 10
23.0918460580117
 20
-1.668329091740038
 30
0.0
 10
22.90384719539217
 20
-1.552250212990376
 30
0.0
 10
22.71388023949727
 20
-1.430895789870262
 30
0.0
  0
LINE
  5
B6
330
1F
100
AcDbEntity
  8
0
  6
Continuous
 62
     4
370
    25
100
AcDbLine
 10
23.27990381056769
 20
-1.77842576066399
 30
0.0
 11
23.27990381056769
 21
-1.841191396063797
 31
0.0
  0
SPLINE
  5
B7
330
1F
100
AcDbEntity
  8
0
  6
Continuous
 62
     4
370
    25
100
AcDbSpline
210
0.0
220
0.0
230
1.0
 70
     8
 71
     3
 72
    14
 73
    10
 74
     0
 42
0.000000001
 43
0.00000001
 40
0.0
 40
0.0
 40
0.0
 40
0.0
 40
0.2499999999999999
 40
0.2499999999999999
 40
0.4999999999999998
 40
0.4999999999999998
 40
0.7499999999999999
 40
0.7499999999999999
 40
1.0
 40
1.0
 40
1.0
 40
1.0
 10
22.38968659158246
 20
-2.89529455001384
 30
0.0
 10
22.38968659158247
 20
-2.878797331319503
 30
0.0
 10
22.40845838951847
 20
-2.855344557997682
 30
0.0
 10
22.49299591813643
 20
-2.800659121681977
 30
0.0
 10
22.55867201757011
 20
-2.769761937594425
 30
0.0
 10
22.72602111918932
 20
-2.71516696897513
 30
0.0
 10
22.8283502511683
 20
-2.691525843338196
 30
0.0
 10
23.04797716063964
 20
-2.663795662497053
 30
0.0
 10
23.16471992482251
 20
-2.659639059743261
 30
0.0
 10
23.27990381056769
 20
-2.666450234532581
 30
0.0
  0
LINE
  5
B8
330
1F
100
AcDbEntity
  8
0
  6
Continuous
 62
     4
370
    25
100
AcDbLine
 10
22.38968659158246
 20
-2.895294550013842
 30
0.0
 11
22.38968659158246
 21
-2.924999999999991
 31
0.0
  0
LINE
  5
B9
330
1F
100
AcDbEntity
  8
0
  6
Continuous
 62
     4
370
    25
100
AcDbLine
 10
22.38968659158246
 20
0.4158058064290369
 30
0.0
 11
22.38968659158246
 21
-0.8037074077901827
 31
0.0
  0
SPLINE
  5
BA
330
1F
100
AcDbEntity
  8
0
  6
Continuous
 62
     4
370
    25
100
AcDbSpline
210
0.0
220
0.0
230
1.0
 70
    24
 71
     3
 72
    12
 73
     8
 74
     0
 42
0.000000001
 43
0.00000001
 40
0.0
 40
0.0
 40
0.0
 40
0.0
 40
0.5
 40
0.5
 40
0.75
 40
0.75
 40
1.0
 40
1.0
 40
1.0
 40
1.0
 10
23.27990381056769
 20
0.129429554530711
 30
0.0
 10
23.27990381056769
 20
-0.1551095771706518
 30
0.0
 10
23.27990381056769
 20
-0.4883482303857194
 30
0.0
 10
23.27990381056769
 20
-0.9964518459394585
 30
0.0
 10
23.27990381056769
 20
-1.166295648215099
 30
0.0
 10
23.27990381056769
 20
-1.489264793982644
 30
0.0
 10
23.27990381056769
 20
-1.642188067673515
 30
0.0
 10
23.27990381056769
 20
-1.77842576066399
 30
0.0
  0
LINE
  5
BB
330
1F
100
AcDbEntity
  8
0
  6
Continuous
 62
     4
370
    25
100
AcDbLine
 10
23.27990381056769
 20
2.666450234532583
 30
0.0
 11
23.27990381056769
 21
2.435852243647479
 31
0.0
  0
SPLINE
  5
BC
330
1F
100
AcDbEntity
  8
0
  6
Continuous
 62
     1
370
    25
100
AcDbSpline
210
0.0
220
0.0
230
1.0
 70
     8
 71
     3
 72
    16
 73
    12
 74
     0
 42
0.000000001
 43
0.00000001
 40
0.0
 40
0.0
 40
0.0
 40
0.0
 40
0.1243776923933081
 40
0.248723584106195
 40
0.3730094356684068
 40
0.497254107815719
 40
0.621476660313196
 40
0.7434736664578152
 40
0.8654952060455828
 40
0.987569491502586
 40
1.0
 40
1.0
 40
1.0
 40
1.0
 10
23.27990381057747
 20
1.349053293821651
 30
0.0
 10
23.61623020504278
 20
1.114485188771841
 30
0.0
 10
24.28879700260323
 20
0.6454089526531034
 30
0.0
 10
25.29736584449402
 20
-0.1223958749356976
 30
0.0
 10
26.30538832285195
 20
-0.8760949314458557
 30
0.0
 10
27.31297191554323
 20
-1.575848752201153
 30
0.0
 10
28.31433922031295
 20
-2.169698222341532
 30
0.0
 10
29.30958025479991
 20
-2.629596388460125
 30
0.0
 10
30.29912951597496
 20
-2.906070757718767
 30
0.0
 10
30.99254762502035
 20
-3.024119403740819
 30
0.0
 10
31.3562392955168
 20
-2.99430442811885
 30
0.0
 10
31.38985053172357
 20
-2.991549022181834
 30
0.0
  0
SPLINE
  5
BD
330
1F
100
AcDbEntity
  8
0
  6
Continuous
 62
     1
370
    25
100
AcDbSpline
210
0.0
220
0.0
230
1.0
 70
     8
 71
     3
 72
    13
 73
     9
 74
     0
 42
0.000000001
 43
0.00000001
 40
0.0
 40
0.0
 40
0.0
 40
0.0
 40
0.1544974640142981
 40
0.3259473043964252
 40
0.4943488184401452
 40
0.6628098655104114
 40
0.8313691123827155
 40
1.0
 40
1.0
 40
1.0
 40
1.0
 10
29.15566339356524
 20
-2.529708365123486
 30
0.0
 10
28.85309989544506
 20
-2.641718253054152
 30
0.0
 10
28.21477384103232
 20
-2.878028416911389
 30
0.0
 10
27.24666952607169
 20
-3.0186289924316
 30
0.0
 10
26.25127824306458
 20
-2.989911093484176
 30
0.0
 10
25.26141709554754
 20
-2.771430089584363
 30
0.0
 10
24.270901286913
 20
-2.391540443746488
 30
0.0
 10
23.61028308853808
 20
-2.019846663445394
 30
0.0
 10
23.27990381057753
 20
-1.833960287532066
 30
0.0
  0
SPLINE
  5
BE
330
1F
100
AcDbEntity
  8
0
  6
Continuous
 62
     4
370
    25
100
AcDbSpline
210
0.0
220
0.0
230
1.0
 70
    24
 71
     3
 72
    20
 73
    16
 74
     0
 42
0.000000001
 43
0.00000001
 40
0.0
 40
0.0
 40
0.0
 40
0.0
 40
0.1250000000000001
 40
0.1250000000000001
 40
0.2500000000000002
 40
0.2500000000000002
 40
0.5000000000000002
 40
0.5000000000000002
 40
0.6250000000000002
 40
0.6250000000000002
 40
0.7500000000000002
 40
0.7500000000000002
 40
0.8750000000000001
 40
0.8750000000000001
 40
1.0
 40
1.0
 40
1.0
 40
1.0
 10
23.27990381056769
 20
1.349053293828287
 30
0.0
 10
23.27990381056769
 20
1.288612414149557
 30
0.0
 10
23.27990381056769
 20
1.228968439435767
 30
0.0
 10
23.27990381056769
 20
1.086446820759797
 30
0.0
 10
23.27990381056769
 20
1.004558506757951
 30
0.0
 10
23.27990381056769
 20
0.7207833556369153
 30
0.0
 10
23.27990381056769
 20
0.4785311680559541
 30
0.0
 10
23.27990381056769
 20
0.0327250226260438
 30
0.0
 10
23.27990381056769
 20
-0.1291496850537906
 30
0.0
 10
23.27990381056769
 20
-0.4708139460036996
 30
0.0
 10
23.27990381056769
 20
-0.6505822348998056
 30
0.0
 10
23.27990381056769
 20
-1.011433520666306
 30
0.0
 10
23.27990381056769
 20
-1.192330827718097
 30
0.0
 10
23.27990381056769
 20
-1.533661556471344
 30
0.0
 10
23.27990381056769
 20
-1.693818586345507
 30
0.0
 10
23.27990381056769
 20
-1.833960287526692
 30
0.0
  0
SPLINE
  5
BF
330
1F
100
AcDbEntity
  8
0
  6
Continuous
 62
     1
370
    25
100
AcDbSpline
210
0.0
220
0.0
230
1.0
 70
     8
 71
     3
 72
    26
 73
    22
 74
     0
 42
0.000000001
 43
0.00000001
 40
0.0
 40
0.0
 40
0.0
 40
0.0
 40
0.1249999999999999
 40
0.1249999999999999
 40
0.2499999999999997
 40
0.2499999999999997
 40
0.3749999999999997
 40
0.3749999999999997
 40
0.4999999999999998
 40
0.4999999999999998
 40
0.6249999999999998
 40
0.6249999999999998
 40
0.7499999999999998
 40
0.7499999999999998
 40
0.8124999999999999
 40
0.8124999999999999
 40
0.8749999999999999
 40
0.8749999999999999
 40
0.9375
 40
0.9375
 40
1.0
 40
1.0
 40
1.0
 40
1.0
 10
32.27990381056769
 20
-0.6644296401890093
 30
0.0
 10
31.90875167032019
 20
-0.389823067135528
 30
0.0
 10
31.52626990883635
 20
-0.1035474940218057
 30
0.0
 10
30.78348640034801
 20
0.4587849020518622
 30
0.0
 10
30.40148653033601
 20
0.740155464476806
 30
0.0
 10
29.65823377409768
 20
1.27099916066458
 30
0.0
 10
29.27670564338392
 20
1.525163326572412
 30
0.0
 10
28.53299364101741
 20
1.982390412154335
 30
0.0
 10
28.15192707592817
 20
2.189221524546223
 30
0.0
 10
27.40776584999415
 20
2.536528114438981
 30
0.0
 10
27.02715065580332
 20
2.679667284349425
 30
0.0
 10
26.28255024935965
 20
2.889456625591985
 30
0.0
 10
25.90237621073847
 20
2.957605975379223
 30
0.0
 10
25.34360406785711
 20
2.999287742110413
 30
0.0
 10
25.15679530568684
 20
3.003302926191861
 30
0.0
 10
24.7800191747501
 20
2.99128489957903
 30
0.0
 10
24.59124142873535
 20
2.975219333660059
 30
0.0
 10
24.21851714947522
 20
2.923666821750792
 30
0.0
 10
24.03192837646109
 20
2.888108717798427
 30
0.0
 10
23.65518893023321
 20
2.797734690152003
 30
0.0
 10
23.46636818339725
 20
2.742978624311598
 30
0.0
 10
23.27990381056769
 20
2.679562503546246
 30
0.0
  0
LINE
  5
C0
330
1F
100
AcDbEntity
  8
0
  6
Continuous
 62
     1
370
    25
100
AcDbLine
 10
32.27990381056769
 20
-2.92549709506579
 30
0.0
 11
32.27990381056769
 21
-0.6674809161213224
 31
0.0
1001
PE_URL
1000

  0
SPLINE
  5
C1
330
1F
100
AcDbEntity
  8
0
  6
Continuous
 62
     1
370
    25
100
AcDbSpline
210
0.0
220
0.0
230
1.0
 70
     8
 71
     3
 72
    26
 73
    22
 74
     0
 42
0.000000001
 43
0.00000001
 40
0.0
 40
0.0
 40
0.0
 40
0.0
 40
0.125
 40
0.125
 40
0.25
 40
0.25
 40
0.375
 40
0.375
 40
0.5
 40
0.5
 40
0.625
 40
0.625
 40
0.75
 40
0.75
 40
0.8125
 40
0.8125
 40
0.875
 40
0.875
 40
0.9375
 40
0.9375
 40
1.0
 40
1.0
 40
1.0
 40
1.0
 10
32.27990381056769
 20
-2.925497095065067
 30
0.0
 10
31.90875167032019
 20
-2.863129319402197
 30
0.0
 10
31.52626990883636
 20
-2.760710120124263
 30
0.0
 10
30.78348640034802
 20
-2.487729017579942
 30
0.0
 10
30.40148653033602
 20
-2.314618020031132
 30
0.0
 10
29.6582337740977
 20
-1.91498615515772
 30
0.0
 10
29.27670564338394
 20
-1.684965320672376
 30
0.0
 10
28.53299364101744
 20
-1.190335493767637
 30
0.0
 10
28.1519270759282
 20
-0.9216858996966772
 30
0.0
 10
27.40776584999419
 20
-0.3712612380912283
 30
0.0
 10
27.02715065580336
 20
-0.0853107902571594
 30
0.0
 10
26.28255024935969
 20
0.4772631326322856
 30
0.0
 10
25.90237621073851
 20
0.7578321730324438
 30
0.0
 10
25.34360406785715
 20
1.1554047755831
 30
0.0
 10
25.15679530568688
 20
1.284671847356844
 30
0.0
 10
24.78001917475015
 20
1.534498452213227
 30
0.0
 10
24.5912414287354
 20
1.654766724162488
 30
0.0
 10
24.21851714947527
 20
1.882543364030547
 30
0.0
 10
24.03192837646114
 20
1.990620250164847
 30
0.0
 10
23.65518893023326
 20
2.193458519253718
 30
0.0
 10
23.4663681833973
 20
2.287939738240433
 30
0.0
 10
23.27990381056774
 20
2.374150303534398
 30
0.0
  0
SPLINE
  5
C2
330
1F
100
AcDbEntity
  8
0
  6
Continuous
 62
     4
370
    25
100
AcDbSpline
210
0.0
220
0.0
230
1.0
 70
    24
 71
     3
 72
     9
 73
     5
 74
     0
 42
0.000000001
 43
0.00000001
 40
0.0
 40
0.0
 40
0.0
 40
0.0
 40
0.9276198024359188
 40
1.0
 40
1.0
 40
1.0
 40
1.0
 10
23.27990381056769
 20
2.62058353462321
 30
0.0
 10
23.27990381056769
 20
2.559244207062947
 30
0.0
 10
23.27990381056769
 20
2.493118702412025
 30
0.0
 10
23.27990381056769
 20
2.439717437734975
 30
0.0
 10
23.27990381056769
 20
2.435852243647479
 30
0.0
  0
LINE
  5
C3
330
1F
100
AcDbEntity
  8
0
  6
Continuous
 62
     4
370
    25
100
AcDbLine
 10
23.27990381056769
 20
1.349053293828285
 30
0.0
 11
23.27990381056769
 21
2.374150303534922
 31
0.0
  0
LINE
  5
C4
330
1F
100
AcDbEntity
  8
0
  6
Continuous
 62
     1
370
    25
100
AcDbLine
 10
32.27990381056769
 20
-3.000000000000009
 30
0.0
 11
32.27990381056769
 21
-2.92549709506579
 31
0.0
1001
PE_URL
1000

  0
SPLINE
  5
C5
330
1F
100
AcDbEntity
  8
0
  6
Continuous
 62
     1
370
    25
100
AcDbSpline
210
0.0
220
0.0
230
1.0
 70
     8
 71
     3
 72
    13
 73
     9
 74
     0
 42
0.000000001
 43
0.00000001
 40
0.0
 40
0.0
 40
0.0
 40
0.0
 40
0.1880373824862104
 40
0.3759769191688468
 40
0.5638470307985832
 40
0.7516764733228336
 40
0.93949419973278
 40
0.9999999999999999
 40
0.9999999999999999
 40
0.9999999999999999
 40
0.9999999999999999
 10
32.27990381056769
 20
0.6644296401889408
 30
0.0
 10
31.94361858517861
 20
0.9072964460624406
 30
0.0
 10
31.27122312140393
 20
1.392903681354568
 30
0.0
 10
30.26306606607125
 20
2.020379710104553
 30
0.0
 10
29.255382685968
 20
2.525480174296369
 30
0.0
 10
28.24799619502964
 20
2.855557860355707
 30
0.0
 10
27.46829494887998
 20
3.008443033998783
 30
0.0
 10
27.02438571067745
 20
2.985252768475717
 30
0.0
 10
26.91622405534475
 20
2.979602294706044
 30
0.0
1001
PE_URL
1000

  0
LINE
  5
C6
330
1F
100
AcDbEntity
  8
0
  6
Continuous
 62
     1
370
    25
100
AcDbLine
 10
32.27990381056769
 20
-0.3000000000000172
 30
0.0
 11
32.27990381056769
 21
0.6644296401889979
 31
0.0
1001
PE_URL
1000

  0
LINE
  5
C7
330
1F
100
AcDbEntity
  8
0
  6
Continuous
 62
     1
370
    25
100
AcDbLine
 10
32.27990381056769
 20
-0.3000000000000164
 30
0.0
 11
32.09476915245455
 21
-0.4296326831947139
 31
0.0
1001
PE_URL
1000

  0
ELLIPSE
  5
C8
330
1F
100
AcDbEntity
  8
0
  6
Continuous
 62
     1
370
    25
100
AcDbEllipse
 10
31.85308976884565
 20
-0.0000000000000065
 30
0.0
 11
4.282682533064205
 21
-2.994852253631837
 31
0.0
210
0.0
220
0.0
230
1.0
 40
0.0410187035991832
 41
4.797503765046558
 42
4.840850213325857
1001
PE_URL
1000

  0
LINE
  5
C9
330
1F
100
AcDbEntity
  8
0
  6
Continuous
 62
     1
370
    25
100
AcDbLine
 10
32.27990381056769
 20
-0.6644296401890096
 30
0.0
 11
32.27990381056769
 21
-0.557887750793017
 31
0.0
1001
PE_URL
1000

  0
LINE
  5
CA
330
1F
100
AcDbEntity
  8
0
  6
Continuous
 62
     1
370
    25
100
AcDbLine
 10
32.27990381056769
 20
-0.3000000000000065
 30
0.0
 11
32.27990381056769
 21
-0.557887750793017
 31
0.0
1001
PE_URL
1000

  0
SPLINE
  5
CB
330
1F
100
AcDbEntity
  8
0
  6
Continuous
 62
     1
370
    25
100
AcDbSpline
210
0.0
220
0.0
230
1.0
 70
     8
 71
     3
 72
    11
 73
     7
 74
     0
 42
0.000000001
 43
0.00000001
 40
0.0
 40
0.0
 40
0.0
 40
0.0
 40
0.0492608199465451
 40
0.3660128321681111
 40
0.682901765791204
 40
1.0
 40
1.0
 40
1.0
 40
1.0
 10
29.15566339356524
 20
2.529708365123476
 30
0.0
 10
29.2069530992401
 20
2.55344900571146
 30
0.0
 10
29.58804075583007
 20
2.729844346035114
 30
0.0
 10
30.29911884718892
 20
2.906865415519119
 30
0.0
 10
31.28918811962311
 20
3.040465700854801
 30
0.0
 10
31.94959257297807
 20
2.963828397183249
 30
0.0
 10
32.27990381056769
 20
2.925497095065764
 30
0.0
1001
PE_URL
1000

  0
LINE
  5
CC
330
1F
100
AcDbEntity
  8
0
  6
Continuous
 62
     1
370
    25
100
AcDbLine
 10
32.27990381056769
 20
0.6674011187719354
 30
0.0
 11
32.27990381056769
 21
2.925497095065775
 31
0.0
1001
PE_URL
1000

  0
SPLINE
  5
CD
330
1F
100
AcDbEntity
  8
0
  6
Continuous
 62
     1
370
    25
100
AcDbSpline
210
0.0
220
0.0
230
1.0
 70
     8
 71
     3
 72
     9
 73
     5
 74
     0
 42
0.000000001
 43
0.00000001
 40
0.0
 40
0.0
 40
0.0
 40
0.0
 40
0.5428904662567553
 40
1.0
 40
1.0
 40
1.0
 40
1.0
 10
23.27990381057748
 20
-2.679562503549598
 30
0.0
 10
23.61623338485683
 20
-2.78066841910243
 30
0.0
 10
24.23574983464522
 20
-2.966904726123919
 30
0.0
 10
24.85519091752227
 20
-2.980872852074365
 30
0.0
 10
25.1383433420976
 20
-2.98725781561484
 30
0.0
  0
LINE
  5
CE
330
1F
100
AcDbEntity
  8
0
  6
Continuous
 62
     4
370
    25
100
AcDbLine
 10
23.27990381056769
 20
-2.679562503546301
 30
0.0
 11
23.27990381056769
 21
-1.833960287526694
 31
0.0
  0
ELLIPSE
  5
CF
330
1F
100
AcDbEntity
  8
0
  6
Continuous
 62
     1
370
    25
100
AcDbEllipse
 10
32.70834821259032
 20
-0.0000000000000071
 30
0.0
 11
4.284444020226335
 21
0.0
 31
0.0
210
0.0
220
0.0
230
1.0
 40
0.7002075382097114
 41
1.670963747956457
 42
1.714501322385791
1001
PE_URL
1000

  0
ELLIPSE
  5
D0
330
1F
100
AcDbEntity
  8
0
  6
Continuous
 62
     1
370
    25
100
AcDbEllipse
 10
31.85308976884565
 20
-0.0000000000000071
 30
0.0
 11
4.270194229532642
 21
-0.5041408423747011
 31
0.0
210
0.0
220
0.0
230
1.0
 40
0.6925532705680588
 41
1.55259298847865
 42
1.595939436757945
1001
PE_URL
1000

  0
LINE
  5
D1
330
1F
100
AcDbEntity
  8
0
  6
Continuous
 62
     1
370
    25
100
AcDbLine
 10
32.27990381056769
 20
2.925497095065775
 30
0.0
 11
32.27990381056769
 21
2.947670479805214
 31
0.0
1001
PE_URL
1000

  0
LINE
  5
D2
330
1F
100
AcDbEntity
  8
0
  6
Continuous
 62
     1
370
    25
100
AcDbLine
 10
32.27990381056769
 20
2.984962311319855
 30
0.0
 11
32.27990381056769
 21
2.999999999999995
 31
0.0
1001
PE_URL
1000

  0
LINE
  5
D3
330
1F
100
AcDbEntity
  8
0
  6
Continuous
 62
     1
370
    25
100
AcDbLine
 10
32.27990381056769
 20
2.947670479805212
 30
0.0
 11
32.27990381056769
 21
2.984962311319855
 31
0.0
1001
PE_URL
1000

  0
LINE
  5
D4
330
1F
100
AcDbEntity
  8
중심선
100
AcDbLine
 10
-60.72009618943231
 20
-0.0000000000000119
 30
0.0
 11
35.2799038105677
 21
-0.0000000000000038
 31
0.0
  0
CIRCLE
  5
D5
330
1F
100
AcDbEntity
  8
해칭선
100
AcDbCircle
 10
-0.0000000000000003
 20
0.0
 30
0.0
 40
3.000000000000003
  0
INSERT
  5
D6
330
1F
100
AcDbEntity
  8
0
  6
Continuous
 62
     7
100
AcDbBlockReference
 66
     1
  2
블럭10
 10
-26.86527293212519
 20
-52.04717430164394
 30
0.0
  0
ATTRIB
  5
D7
330
D6
100
AcDbEntity
  8
FORMAT
 62
     2
100
AcDbText
 10
-42.98453397156074
 20
-49.97180738881174
 30
0.0
 40
4.233333333333333
  1
SEME7306032E [ 4 FLUTE ]
 41
0.75
  7
SLDTEXTSTYLE0
 11
-42.98453397156074
 21
-52.08847405547841
 31
0.0
100
AcDbAttribute
  2
AUTOATTR0
 70
     0
 74
     1
  0
SEQEND
  5
D8
330
D6
100
AcDbEntity
  8
0
  6
Continuous
 62
     7
  0
HATCH
  5
D9
330
1F
100
AcDbEntity
  8
중심선
100
AcDbHatch
 10
0.0
 20
0.0
 30
0.0
210
0.0
220
0.0
230
1.0
  2
SOLID
 70
     1
 71
     0
 91
        1
 92
        0
 93
        4
 72
     1
 10
-21.15036362774435
 20
-35.8
 11
-24.59663887158164
 21
-35.8
 72
     1
 10
-24.59663887158164
 20
-35.8
 11
-26.72486873078566
 21
-38.3363255805726
 72
     1
 10
-26.72486873078566
 20
-38.3363255805726
 11
-23.27856040183523
 21
-38.33628615127011
 72
     1
 10
-23.27856040183523
 20
-38.33628615127011
 11
-21.15036362774435
 21
-35.8
 97
        0
 75
     0
 76
     1
 98
        1
 10
11.5749450790102
 20
-0.0000000000000089
  0
HATCH
  5
DA
330
1F
100
AcDbEntity
  8
중심선
100
AcDbHatch
 10
0.0
 20
0.0
 30
0.0
210
0.0
220
0.0
230
1.0
  2
SOLID
 70
     1
 71
     0
 91
        1
 92
        0
 93
        4
 72
     1
 10
-16.1375996367084
 20
-35.8
 11
-19.58387488054569
 21
-35.8
 72
     1
 10
-19.58387488054569
 20
-35.8
 11
-24.11501288890307
 21
-41.20000000000002
 72
     1
 10
-24.11501288890307
 20
-41.20000000000002
 11
-20.66873764506579
 21
-41.20000000000002
 72
     1
 10
-20.66873764506579
 20
-41.20000000000002
 11
-16.1375996367084
 21
-35.8
 97
        0
 75
     0
 76
     1
 98
        1
 10
11.5749450790102
 20
-0.0000000000000089
  0
HATCH
  5
DB
330
1F
100
AcDbEntity
  8
중심선
100
AcDbHatch
 10
0.0
 20
0.0
 30
0.0
210
0.0
220
0.0
230
1.0
  2
SOLID
 70
     1
 71
     0
 91
        1
 92
        0
 93
        4
 72
     1
 10
-11.12483564567251
 20
-35.8
 11
-14.57111088950962
 21
-35.8
 72
     1
 10
-14.57111088950962
 20
-35.8
 11
-21.61954779139887
 21
-44.20000000000002
 72
     1
 10
-21.61954779139887
 20
-44.20000000000002
 11
-18.17327254756159
 21
-44.20000000000002
 72
     1
 10
-18.17327254756159
 20
-44.20000000000002
 11
-11.1248356456725
 21
-35.8
 97
        0
 75
     0
 76
     1
 98
        1
 10
11.5749450790102
 20
-0.0000000000000089
  0
HATCH
  5
DC
330
1F
100
AcDbEntity
  8
중심선
100
AcDbHatch
 10
0.0
 20
0.0
 30
0.0
210
0.0
220
0.0
230
1.0
  2
SOLID
 70
     1
 71
     0
 91
        1
 92
        0
 93
        6
 72
     3
 10
-6.324945214660309
 20
-40.00000000005128
 11
3.960054785062283
 21
1.540882976769353E-10
 40
0.3939339440162628
 50
17.09539180608436
 51
320.0019657685075
 73
     0
 72
     1
 10
-4.641945558959742
 20
-38.58789400463831
 11
-2.336643685258649
 21
-36.65356729459036
 72
     3
 10
-6.324945214713155
 20
-40.00000000000016
 11
6.600054785286829
 21
-1.278976924368180E-13
 40
0.636358354079598
 50
39.99873849337413
 51
368.4976242363724
 73
     1
 72
     1
 10
0.100387277187453
 20
-39.03999999993002
 11
-7.644877907877232
 21
-39.03999999993002
 72
     1
 10
-7.644877907877232
 20
-39.03999999993002
 11
-7.644902952323166
 21
-40.95999999992992
 72
     1
 10
-7.644902952323166
 20
-40.95999999992992
 11
-3.20352318285113
 21
-40.95999999992989
 97
        0
 75
     0
 76
     1
 98
        1
 10
11.5749450790102
 20
-0.0000000000000089
  0
DIMENSION
  5
DD
330
1F
100
AcDbEntity
  8
치수문자_일반주서
100
AcDbDimension
  2
_D
 10
45.27990381056767
 20
3.000000000000044
 30
0.0
 11
45.27990381056769
 21
-0.0000000000000065
 31
0.0
 70
   160
  1
%%c<>
 71
     2
 42
6.000000000000004
 52
-270.0
  3
SLDDIMSTYLE0
100
AcDbAlignedDimension
 13
32.27990381056769
 23
-3.000000000000009
 33
0.0
 14
32.27990381056769
 24
2.999999999999995
 34
0.0
 50
90.0000000000002
100
AcDbRotatedDimension
  0
DIMENSION
  5
EB
330
1F
100
AcDbEntity
  8
치수문자_일반주서
100
AcDbDimension
  2
_D_1
 10
32.27990381056769
 20
37.00000000000001
 30
0.0
 11
-12.72009618943231
 21
37.00000000000001
 31
0.0
 70
   160
  1
<>
 71
     2
 42
90.0
  3
SLDDIMSTYLE1
100
AcDbAlignedDimension
 13
-57.72009618943231
 23
2.499999999999983
 33
0.0
 14
32.27990381056769
 24
-0.3000000000000065
 34
0.0
100
AcDbRotatedDimension
  0
DIMENSION
  5
F6
330
1F
100
AcDbEntity
  8
치수문자_일반주서
100
AcDbDimension
  2
_D_2
 10
-71.21273575105221
 20
-3.000000000000063
 30
0.0
 11
-71.21273575105221
 21
-1.089695848804656
 31
0.0
 70
   160
  1
%%c<>
 71
     2
 42
5.999999999999979
 52
-270.0
  3
SLDDIMSTYLE2
100
AcDbAlignedDimension
 13
-57.22009618943231
 23
2.999999999999968
 33
0.0
 14
-57.22009618943231
 24
-3.00000000000001
 34
0.0
 50
90.0000000000002
100
AcDbRotatedDimension
  0
DIMENSION
  5
104
330
1F
100
AcDbEntity
  8
치수문자_일반주서
100
AcDbDimension
  2
_D_3
 10
32.27990381056769
 20
13.52548080613393
 30
0.0
 11
27.77990381056768
 21
13.52548080613393
 31
0.0
 70
   160
  1
<>
 71
     2
 42
8.999999999999998
  3
SLDDIMSTYLE2
100
AcDbAlignedDimension
 13
23.27990381056769
 23
2.679562503546278
 33
0.0
 14
32.27990381056769
 24
-0.3000000000000065
 34
0.0
 50
0.0000000000000226
100
AcDbRotatedDimension
  0
DIMENSION
  5
110
330
1F
100
AcDbEntity
  8
치수문자_일반주서
100
AcDbDimension
  2
_D_4
 10
0.279903810567685
 20
27.68475183767402
 30
0.0
 11
16.99880181693043
 21
27.68475183767402
 31
0.0
 70
   160
  1
<>
 71
     2
 42
32.00000000000001
  3
SLDDIMSTYLE1
100
AcDbAlignedDimension
 13
32.27990381056769
 23
2.984962311319855
 33
0.0
 14
0.2799038105676847
 24
2.924999999999986
 34
0.0
 50
0.0000000000000382
100
AcDbRotatedDimension
  0
INSERT
  5
120
330
1F
100
AcDbEntity
  8
해칭선
100
AcDbBlockReference
  2
SW_DOWELSYMBOL_0
 10
-0.0000000000000003
 20
0.0
 30
0.0
  0
LINE
  5
16E
330
1F
100
AcDbEntity
  8
0
  6
Continuous
 62
     4
370
    25
100
AcDbLine
 10
0.2799038105676847
 20
2.924999999999987
 30
0.0
 11
-0.0000000000000143
 21
2.999999999999996
 31
0.0
1001
PE_URL
1000

  0
LINE
  5
16F
330
1F
100
AcDbEntity
  8
0
  6
Continuous
 62
     4
370
    25
100
AcDbLine
 10
0.2799038105677124
 20
-2.924999999999984
 30
0.0
 11
0.0000000000000141
 21
-2.999999999999996
 31
0.0
1001
PE_URL
1000

  0
LINE
  5
170
330
1F
100
AcDbEntity
  8
0
  6
Continuous
 62
     4
370
    25
100
AcDbLine
 10
0.0000000000000141
 20
-2.999999999999996
 30
0.0
 11
-0.0000000000000141
 21
2.999999999999996
 31
0.0
1001
PE_URL
1000

  0
ENDSEC
  0
SECTION
  2
OBJECTS
  0
DICTIONARY
  5
C
330
0
100
AcDbDictionary
281
     1
  3
ACAD_GROUP
350
D
  3
ACAD_LAYOUT
350
1A
  3
ACAD_MLINESTYLE
350
17
  3
ACAD_PLOTSETTINGS
350
19
  3
ACAD_PLOTSTYLENAME
350
E
  3
ACAD_SCALELIST
350
47
  3
APPDATA
350
142
  3
DWGPROPS
350
171
  0
DICTIONARY
  5
D
102
{ACAD_REACTORS
330
C
102
}
330
C
100
AcDbDictionary
281
     1
  0
DICTIONARY
  5
1A
102
{ACAD_REACTORS
330
C
102
}
330
C
100
AcDbDictionary
281
     1
  3
Layout1
350
1E
  3
Layout2
350
26
  3
Model
350
22
  0
DICTIONARY
  5
17
102
{ACAD_REACTORS
330
C
102
}
330
C
100
AcDbDictionary
281
     1
  3
Standard
350
18
  0
DICTIONARY
  5
19
102
{ACAD_REACTORS
330
C
102
}
330
C
100
AcDbDictionary
281
     1
  0
ACDBDICTIONARYWDFLT
  5
E
102
{ACAD_REACTORS
330
C
102
}
330
C
100
AcDbDictionary
281
     1
  3
Normal
350
F
100
AcDbDictionaryWithDefault
340
F
  0
DICTIONARY
  5
47
102
{ACAD_REACTORS
330
C
102
}
330
C
100
AcDbDictionary
281
     1
  3
A0
350
48
  3
A1
350
49
  3
A2
350
4A
  3
A3
350
4B
  3
A4
350
4C
  3
A5
350
4D
  3
A6
350
4E
  3
A7
350
4F
  3
A8
350
50
  3
A9
350
51
  3
B0
350
52
  3
B1
350
53
  3
B2
350
54
  3
B3
350
55
  3
B4
350
56
  3
B5
350
57
  3
B6
350
58
  3
B7
350
59
  3
B8
350
5A
  3
B9
350
5B
  3
C0
350
5C
  3
C1
350
5D
  3
C2
350
5E
  3
C3
350
5F
  3
C4
350
60
  3
C5
350
61
  3
C6
350
62
  3
C7
350
63
  3
C8
350
64
  3
C9
350
65
  3
D0
350
66
  3
D1
350
67
  3
D2
350
68
  0
DICTIONARY
  5
142
102
{ACAD_REACTORS
330
C
102
}
330
C
100
AcDbDictionary
281
     1
  0
XRECORD
  5
171
102
{ACAD_REACTORS
330
C
102
}
330
C
100
AcDbXrecord
280
     1
  1
DWGPROPS COOKIE
  2

  3

  4

  6

  7

  8
12014102
  9

300
=
301
=
302
=
303
=
304
=
305
=
306
=
307
=
308
=
309
=
 40
0.0
 41
2458260.416604005
 42
2459576.314557326
  1

 90
        0
  0
LAYOUT
  5
1E
102
{ACAD_REACTORS
330
1A
102
}
330
1A
100
AcDbPlotSettings
  1

  2
none_device
  4

  6

 40
0.0
 41
0.0
 42
0.0
 43
0.0
 44
0.0
 45
0.0
 46
0.0
 47
0.0
 48
0.0
 49
0.0
140
0.0
141
0.0
142
1.0
143
1.0
 70
   688
 72
     1
 73
     0
 74
     5
  7

 75
    16
147
1.0
148
0.0
149
0.0
100
AcDbLayout
  1
Layout1
 70
     1
 71
     1
 10
0.0
 20
0.0
 11
420.0
 21
297.0
 12
0.0
 22
0.0
 32
0.0
 14
1.000000000000000E+20
 24
1.000000000000000E+20
 34
1.000000000000000E+20
 15
-1.000000000000000E+20
 25
-1.000000000000000E+20
 35
-1.000000000000000E+20
146
0.0
 13
0.0
 23
0.0
 33
0.0
 16
1.0
 26
0.0
 36
0.0
 17
0.0
 27
1.0
 37
0.0
 76
     0
330
1B
  0
LAYOUT
  5
26
102
{ACAD_REACTORS
330
1A
102
}
330
1A
100
AcDbPlotSettings
  1

  2
none_device
  4

  6

 40
0.0
 41
0.0
 42
0.0
 43
0.0
 44
0.0
 45
0.0
 46
0.0
 47
0.0
 48
0.0
 49
0.0
140
0.0
141
0.0
142
1.0
143
1.0
 70
   688
 72
     1
 73
     0
 74
     5
  7

 75
    16
147
1.0
148
0.0
149
0.0
100
AcDbLayout
  1
Layout2
 70
     1
 71
     2
 10
0.0
 20
0.0
 11
0.0
 21
0.0
 12
0.0
 22
0.0
 32
0.0
 14
0.0
 24
0.0
 34
0.0
 15
0.0
 25
0.0
 35
0.0
146
0.0
 13
0.0
 23
0.0
 33
0.0
 16
1.0
 26
0.0
 36
0.0
 17
0.0
 27
1.0
 37
0.0
 76
     0
330
23
  0
LAYOUT
  5
22
102
{ACAD_REACTORS
330
1A
102
}
330
1A
100
AcDbPlotSettings
  1

  2
none_device
  4
ANSI_A_(11.00_x_8.50_Inches)
  6

 40
6.35
 41
19.05
 42
6.35000508
 43
19.05000254
 44
279.4
 45
215.9
 46
189.0121223684728
 47
99.09476240489347
 48
0.0
 49
0.0
140
0.0
141
0.0
142
0.0872157908483445
143
1.0
 70
  1696
 72
     0
 73
     0
 74
     0
  7

 75
     0
147
0.0235690232323232
148
0.0
149
0.0
100
AcDbLayout
  1
Model
 70
     1
 71
     0
 10
0.0
 20
0.0
 11
420.0
 21
297.0
 12
0.0
 22
0.0
 32
0.0
 14
-75.58773575105222
 24
-49.97180738881174
 34
0.0
 15
45.83023714390102
 25
41.375
 35
0.0
146
0.0
 13
0.0
 23
0.0
 33
0.0
 16
1.0
 26
0.0
 36
0.0
 17
0.0
 27
1.0
 37
0.0
 76
     0
330
1F
331
29
  0
MLINESTYLE
  5
18
102
{ACAD_REACTORS
330
17
102
}
330
17
100
AcDbMlineStyle
  2
Standard
 70
     0
  3

 62
   256
 51
90.0
 52
90.0
 71
     2
 49
0.5
 62
   256
  6
BYLAYER
 49
-0.5
 62
   256
  6
BYLAYER
  0
ACDBPLACEHOLDER
  5
F
102
{ACAD_REACTORS
330
E
102
}
330
E
  0
SCALE
  5
48
102
{ACAD_REACTORS
330
47
102
}
330
47
100
AcDbScale
 70
     0
300
1:1
140
1.0
141
1.0
290
     1
  0
SCALE
  5
49
102
{ACAD_REACTORS
330
47
102
}
330
47
100
AcDbScale
 70
     0
300
1:2
140
1.0
141
2.0
290
     0
  0
SCALE
  5
4A
102
{ACAD_REACTORS
330
47
102
}
330
47
100
AcDbScale
 70
     0
300
1:4
140
1.0
141
4.0
290
     0
  0
SCALE
  5
4B
102
{ACAD_REACTORS
330
47
102
}
330
47
100
AcDbScale
 70
     0
300
1:5
140
1.0
141
5.0
290
     0
  0
SCALE
  5
4C
102
{ACAD_REACTORS
330
47
102
}
330
47
100
AcDbScale
 70
     0
300
1:8
140
1.0
141
8.0
290
     0
  0
SCALE
  5
4D
102
{ACAD_REACTORS
330
47
102
}
330
47
100
AcDbScale
 70
     0
300
1:10
140
1.0
141
10.0
290
     0
  0
SCALE
  5
4E
102
{ACAD_REACTORS
330
47
102
}
330
47
100
AcDbScale
 70
     0
300
1:16
140
1.0
141
16.0
290
     0
  0
SCALE
  5
4F
102
{ACAD_REACTORS
330
47
102
}
330
47
100
AcDbScale
 70
     0
300
1:20
140
1.0
141
20.0
290
     0
  0
SCALE
  5
50
102
{ACAD_REACTORS
330
47
102
}
330
47
100
AcDbScale
 70
     0
300
1:30
140
1.0
141
30.0
290
     0
  0
SCALE
  5
51
102
{ACAD_REACTORS
330
47
102
}
330
47
100
AcDbScale
 70
     0
300
1:40
140
1.0
141
40.0
290
     0
  0
SCALE
  5
52
102
{ACAD_REACTORS
330
47
102
}
330
47
100
AcDbScale
 70
     0
300
1:50
140
1.0
141
50.0
290
     0
  0
SCALE
  5
53
102
{ACAD_REACTORS
330
47
102
}
330
47
100
AcDbScale
 70
     0
300
1:100
140
1.0
141
100.0
290
     0
  0
SCALE
  5
54
102
{ACAD_REACTORS
330
47
102
}
330
47
100
AcDbScale
 70
     0
300
2:1
140
2.0
141
1.0
290
     0
  0
SCALE
  5
55
102
{ACAD_REACTORS
330
47
102
}
330
47
100
AcDbScale
 70
     0
300
4:1
140
4.0
141
1.0
290
     0
  0
SCALE
  5
56
102
{ACAD_REACTORS
330
47
102
}
330
47
100
AcDbScale
 70
     0
300
8:1
140
8.0
141
1.0
290
     0
  0
SCALE
  5
57
102
{ACAD_REACTORS
330
47
102
}
330
47
100
AcDbScale
 70
     0
300
10:1
140
10.0
141
1.0
290
     0
  0
SCALE
  5
58
102
{ACAD_REACTORS
330
47
102
}
330
47
100
AcDbScale
 70
     0
300
100:1
140
100.0
141
1.0
290
     0
  0
SCALE
  5
59
102
{ACAD_REACTORS
330
47
102
}
330
47
100
AcDbScale
 70
     0
300
1/128" = 1'-0"
140
0.0078125
141
12.0
290
     0
  0
SCALE
  5
5A
102
{ACAD_REACTORS
330
47
102
}
330
47
100
AcDbScale
 70
     0
300
1/64" = 1'-0"
140
0.015625
141
12.0
290
     0
  0
SCALE
  5
5B
102
{ACAD_REACTORS
330
47
102
}
330
47
100
AcDbScale
 70
     0
300
1/32" = 1'-0"
140
0.03125
141
12.0
290
     0
  0
SCALE
  5
5C
102
{ACAD_REACTORS
330
47
102
}
330
47
100
AcDbScale
 70
     0
300
1/16" = 1'-0"
140
0.0625
141
12.0
290
     0
  0
SCALE
  5
5D
102
{ACAD_REACTORS
330
47
102
}
330
47
100
AcDbScale
 70
     0
300
3/32" = 1'-0"
140
0.09375
141
12.0
290
     0
  0
SCALE
  5
5E
102
{ACAD_REACTORS
330
47
102
}
330
47
100
AcDbScale
 70
     0
300
1/8" = 1'-0"
140
0.125
141
12.0
290
     0
  0
SCALE
  5
5F
102
{ACAD_REACTORS
330
47
102
}
330
47
100
AcDbScale
 70
     0
300
3/16" = 1'-0"
140
0.1875
141
12.0
290
     0
  0
SCALE
  5
60
102
{ACAD_REACTORS
330
47
102
}
330
47
100
AcDbScale
 70
     0
300
1/4" = 1'-0"
140
0.25
141
12.0
290
     0
  0
SCALE
  5
61
102
{ACAD_REACTORS
330
47
102
}
330
47
100
AcDbScale
 70
     0
300
3/8" = 1'-0"
140
0.375
141
12.0
290
     0
  0
SCALE
  5
62
102
{ACAD_REACTORS
330
47
102
}
330
47
100
AcDbScale
 70
     0
300
1/2" = 1'-0"
140
0.5
141
12.0
290
     0
  0
SCALE
  5
63
102
{ACAD_REACTORS
330
47
102
}
330
47
100
AcDbScale
 70
     0
300
3/4" = 1'-0"
140
0.75
141
12.0
290
     0
  0
SCALE
  5
64
102
{ACAD_REACTORS
330
47
102
}
330
47
100
AcDbScale
 70
     0
300
1" = 1'-0"
140
1.0
141
12.0
290
     0
  0
SCALE
  5
65
102
{ACAD_REACTORS
330
47
102
}
330
47
100
AcDbScale
 70
     0
300
1-1/2" = 1'-0"
140
1.5
141
12.0
290
     0
  0
SCALE
  5
66
102
{ACAD_REACTORS
330
47
102
}
330
47
100
AcDbScale
 70
     0
300
3" = 1'-0"
140
3.0
141
12.0
290
     0
  0
SCALE
  5
67
102
{ACAD_REACTORS
330
47
102
}
330
47
100
AcDbScale
 70
     0
300
6" = 1'-0"
140
6.0
141
12.0
290
     0
  0
SCALE
  5
68
102
{ACAD_REACTORS
330
47
102
}
330
47
100
AcDbScale
 70
     0
300
1'-0" = 1'-0"
140
12.0
141
12.0
290
     0
  0
ENDSEC
  0
EOF
