  0
SECTION
  2
HEADER
  9
$ACADVER
  1
AC1015
  9
$ACADMAINTVER
 70
     6
  9
$DWGCODEPAGE
  3
ANSI_949
  9
$INSBASE
 10
0.0
 20
0.0
 30
0.0
  9
$EXTMIN
 10
-62.71763956161989
 20
-49.97180738881175
 30
0.0
  9
$EXTMAX
 10
48.70033333333336
 20
44.37500000000001
 30
0.0
  9
$LIMMIN
 10
0.0
 20
0.0
  9
$LIMMAX
 10
420.0
 20
297.0
  9
$ORTHOMODE
 70
     0
  9
$REGENMODE
 70
     1
  9
$FILLMODE
 70
     1
  9
$QTEXTMODE
 70
     0
  9
$MIRRTEXT
 70
     1
  9
$LTSCALE
 40
1.0
  9
$ATTMODE
 70
     1
  9
$TEXTSIZE
 40
3.5
  9
$TRACEWID
 40
1.0
  9
$TEXTSTYLE
  7
Standard
  9
$CLAYER
  8
0
  9
$CELTYPE
  6
ByLayer
  9
$CECOLOR
 62
   256
  9
$CELTSCALE
 40
1.0
  9
$DISPSILH
 70
     0
  9
$DIMSCALE
 40
1.0
  9
$DIMASZ
 40
3.302
  9
$DIMEXO
 40
1.0
  9
$DIMDLI
 40
3.75
  9
$DIMRND
 40
0.0
  9
$DIMDLE
 40
0.0
  9
$DIMEXE
 40
1.0
  9
$DIMTP
 40
0.0
  9
$DIMTM
 40
0.0
  9
$DIMTXT
 40
3.5
  9
$DIMCEN
 40
2.5
  9
$DIMTSZ
 40
0.0
  9
$DIMTOL
 70
     0
  9
$DIMLIM
 70
     0
  9
$DIMTIH
 70
     1
  9
$DIMTOH
 70
     1
  9
$DIMSE1
 70
     0
  9
$DIMSE2
 70
     0
  9
$DIMTAD
 70
     1
  9
$DIMZIN
 70
     0
  9
$DIMBLK
  1

  9
$DIMASO
 70
     1
  9
$DIMSHO
 70
     1
  9
$DIMPOST
  1

  9
$DIMAPOST
  1

  9
$DIMALT
 70
     0
  9
$DIMALTD
 70
     3
  9
$DIMALTF
 40
0.0393700787401575
  9
$DIMLFAC
 40
1.0
  9
$DIMTOFL
 70
     1
  9
$DIMTVP
 40
0.0
  9
$DIMTIX
 70
     0
  9
$DIMSOXD
 70
     0
  9
$DIMSAH
 70
     0
  9
$DIMBLK1
  1

  9
$DIMBLK2
  1

  9
$DIMSTYLE
  2
ISO-25
  9
$DIMCLRD
 70
     0
  9
$DIMCLRE
 70
     0
  9
$DIMCLRT
 70
     0
  9
$DIMTFAC
 40
1.0
  9
$DIMGAP
 40
1.524
  9
$DIMJUST
 70
     0
  9
$DIMSD1
 70
     0
  9
$DIMSD2
 70
     0
  9
$DIMTOLJ
 70
     0
  9
$DIMTZIN
 70
     0
  9
$DIMALTZ
 70
     0
  9
$DIMALTTZ
 70
     0
  9
$DIMUPT
 70
     0
  9
$DIMDEC
 70
     2
  9
$DIMTDEC
 70
     2
  9
$DIMALTU
 70
     2
  9
$DIMALTTD
 70
     3
  9
$DIMTXSTY
  7
Standard
  9
$DIMAUNIT
 70
     0
  9
$DIMADEC
 70
     2
  9
$DIMALTRND
 40
0.0
  9
$DIMAZIN
 70
     0
  9
$DIMDSEP
 70
    44
  9
$DIMATFIT
 70
     3
  9
$DIMFRAC
 70
     0
  9
$DIMLDRBLK
  1

  9
$DIMLUNIT
 70
     2
  9
$DIMLWD
 70
    -2
  9
$DIMLWE
 70
    -2
  9
$DIMTMOVE
 70
     0
  9
$LUNITS
 70
     2
  9
$LUPREC
 70
     2
  9
$SKETCHINC
 40
1.0
  9
$FILLETRAD
 40
10.0
  9
$AUNITS
 70
     0
  9
$AUPREC
 70
     2
  9
$MENU
  1
.
  9
$ELEVATION
 40
0.0
  9
$PELEVATION
 40
0.0
  9
$THICKNESS
 40
0.0
  9
$LIMCHECK
 70
     0
  9
$CHAMFERA
 40
0.0
  9
$CHAMFERB
 40
0.0
  9
$CHAMFERC
 40
0.0
  9
$CHAMFERD
 40
0.0
  9
$SKPOLY
 70
     0
  9
$TDCREATE
 40
2458260.792927477
  9
$TDUCREATE
 40
2458260.417927477
  9
$TDUPDATE
 40
2458268.745892222
  9
$TDUUPDATE
 40
2458268.370892222
  9
$TDINDWG
 40
0.0005849653
  9
$TDUSRTIMER
 40
0.0005849537
  9
$USRTIMER
 70
     1
  9
$ANGBASE
 50
0.0
  9
$ANGDIR
 70
     0
  9
$PDMODE
 70
     0
  9
$PDSIZE
 40
-1.0
  9
$PLINEWID
 40
0.0
  9
$SPLFRAME
 70
     0
  9
$SPLINETYPE
 70
     6
  9
$SPLINESEGS
 70
     8
  9
$HANDSEED
  5
14A
  9
$SURFTAB1
 70
     6
  9
$SURFTAB2
 70
     6
  9
$SURFTYPE
 70
     6
  9
$SURFU
 70
     6
  9
$SURFV
 70
     6
  9
$UCSBASE
  2

  9
$UCSNAME
  2

  9
$UCSORG
 10
0.0
 20
0.0
 30
0.0
  9
$UCSXDIR
 10
1.0
 20
0.0
 30
0.0
  9
$UCSYDIR
 10
0.0
 20
1.0
 30
0.0
  9
$UCSORTHOREF
  2

  9
$UCSORTHOVIEW
 70
     0
  9
$UCSORGTOP
 10
0.0
 20
0.0
 30
0.0
  9
$UCSORGBOTTOM
 10
0.0
 20
0.0
 30
0.0
  9
$UCSORGLEFT
 10
0.0
 20
0.0
 30
0.0
  9
$UCSORGRIGHT
 10
0.0
 20
0.0
 30
0.0
  9
$UCSORGFRONT
 10
0.0
 20
0.0
 30
0.0
  9
$UCSORGBACK
 10
0.0
 20
0.0
 30
0.0
  9
$PUCSBASE
  2

  9
$PUCSNAME
  2

  9
$PUCSORG
 10
0.0
 20
0.0
 30
0.0
  9
$PUCSXDIR
 10
1.0
 20
0.0
 30
0.0
  9
$PUCSYDIR
 10
0.0
 20
1.0
 30
0.0
  9
$PUCSORTHOREF
  2

  9
$PUCSORTHOVIEW
 70
     0
  9
$PUCSORGTOP
 10
0.0
 20
0.0
 30
0.0
  9
$PUCSORGBOTTOM
 10
0.0
 20
0.0
 30
0.0
  9
$PUCSORGLEFT
 10
0.0
 20
0.0
 30
0.0
  9
$PUCSORGRIGHT
 10
0.0
 20
0.0
 30
0.0
  9
$PUCSORGFRONT
 10
0.0
 20
0.0
 30
0.0
  9
$PUCSORGBACK
 10
0.0
 20
0.0
 30
0.0
  9
$USERI1
 70
     0
  9
$USERI2
 70
     0
  9
$USERI3
 70
     0
  9
$USERI4
 70
     0
  9
$USERI5
 70
     0
  9
$USERR1
 40
0.0
  9
$USERR2
 40
0.0
  9
$USERR3
 40
0.0
  9
$USERR4
 40
0.0
  9
$USERR5
 40
0.0
  9
$WORLDVIEW
 70
     1
  9
$SHADEDGE
 70
     3
  9
$SHADEDIF
 70
    70
  9
$TILEMODE
 70
     1
  9
$MAXACTVP
 70
    64
  9
$PINSBASE
 10
0.0
 20
0.0
 30
0.0
  9
$PLIMCHECK
 70
     0
  9
$PEXTMIN
 10
1.000000000000000E+20
 20
1.000000000000000E+20
 30
1.000000000000000E+20
  9
$PEXTMAX
 10
-1.000000000000000E+20
 20
-1.000000000000000E+20
 30
-1.000000000000000E+20
  9
$PLIMMIN
 10
0.0
 20
0.0
  9
$PLIMMAX
 10
0.0
 20
0.0
  9
$UNITMODE
 70
     0
  9
$VISRETAIN
 70
     1
  9
$PLINEGEN
 70
     0
  9
$PSLTSCALE
 70
     1
  9
$TREEDEPTH
 70
  3020
  9
$CMLSTYLE
  2
Standard
  9
$CMLJUST
 70
     0
  9
$CMLSCALE
 40
20.0
  9
$PROXYGRAPHICS
 70
     1
  9
$MEASUREMENT
 70
     1
  9
$CELWEIGHT
370
    -1
  9
$ENDCAPS
280
     0
  9
$JOINSTYLE
280
     0
  9
$LWDISPLAY
290
     1
  9
$INSUNITS
 70
     4
  9
$HYPERLINKBASE
  1

  9
$STYLESHEET
  1

  9
$XEDIT
290
     1
  9
$CEPSNTYPE
380
     0
  9
$PSTYLEMODE
290
     1
  9
$FINGERPRINTGUID
  2
{3491882D-A67A-449B-B96A-C4F212E988BC}
  9
$VERSIONGUID
  2
{FAEB1C32-E019-11D5-929B-00C0DF256EC4}
  9
$EXTNAMES
290
     1
  9
$PSVPSCALE
 40
0.0
  9
$OLESTARTUP
290
     0
  0
ENDSEC
  0
SECTION
  2
CLASSES
  0
CLASS
  1
ACDBDICTIONARYWDFLT
  2
AcDbDictionaryWithDefault
  3
ObjectDBX Classes
 90
        0
280
     0
281
     0
  0
CLASS
  1
VISUALSTYLE
  2
AcDbVisualStyle
  3
ObjectDBX Classes
 90
     4095
280
     0
281
     0
  0
CLASS
  1
MATERIAL
  2
AcDbMaterial
  3
ObjectDBX Classes
 90
     1153
280
     0
281
     0
  0
CLASS
  1
SCALE
  2
AcDbScale
  3
ObjectDBX Classes
 90
     1153
280
     0
281
     0
  0
CLASS
  1
TABLESTYLE
  2
AcDbTableStyle
  3
ObjectDBX Classes
 90
     4095
280
     0
281
     0
  0
CLASS
  1
MLEADERSTYLE
  2
AcDbMLeaderStyle
  3
ACDB_MLEADERSTYLE_CLASS
 90
     4095
280
     0
281
     0
  0
CLASS
  1
SUN
  2
AcDbSun
  3
SCENEOE
 90
     1153
280
     0
281
     0
  0
CLASS
  1
ACDBPLACEHOLDER
  2
AcDbPlaceHolder
  3
ObjectDBX Classes
 90
        0
280
     0
281
     0
  0
CLASS
  1
LAYOUT
  2
AcDbLayout
  3
ObjectDBX Classes
 90
        0
280
     0
281
     0
  0
ENDSEC
  0
SECTION
  2
TABLES
  0
TABLE
  2
VPORT
  5
8
330
0
100
AcDbSymbolTable
 70
     1
  0
VPORT
  5
29
330
8
100
AcDbSymbolTableRecord
100
AcDbViewportTableRecord
  2
*Active
 70
     0
 10
0.0
 20
0.0
 11
1.0
 21
1.0
 12
7.443136527229886
 22
-1.990363701993015
 13
0.0
 23
0.0
 14
10.0
 24
10.0
 15
10.0
 25
10.0
 16
0.0
 26
0.0
 36
1.0
 17
0.0
 27
0.0
 37
0.0
 40
123.1641084605071
 41
2.727272727272727
 42
50.0
 43
0.0
 44
0.0
 50
0.0
 51
0.0
 71
    16
 72
  2000
 73
     1
 74
     3
 75
     0
 76
     0
 77
     0
 78
     0
281
     0
 65
     1
110
0.0
120
0.0
130
0.0
111
1.0
121
0.0
131
0.0
112
0.0
122
1.0
132
0.0
 79
     0
146
0.0
  0
ENDTAB
  0
TABLE
  2
LTYPE
  5
5
330
0
100
AcDbSymbolTable
 70
     6
  0
LTYPE
  5
14
330
5
100
AcDbSymbolTableRecord
100
AcDbLinetypeTableRecord
  2
ByBlock
 70
     0
  3

 72
    65
 73
     0
 40
0.0
  0
LTYPE
  5
15
330
5
100
AcDbSymbolTableRecord
100
AcDbLinetypeTableRecord
  2
ByLayer
 70
     0
  3

 72
    65
 73
     0
 40
0.0
  0
LTYPE
  5
16
330
5
100
AcDbSymbolTableRecord
100
AcDbLinetypeTableRecord
  2
Continuous
 70
     0
  3
Solid line
 72
    65
 73
     0
 40
0.0
  0
LTYPE
  5
6E
330
5
100
AcDbSymbolTableRecord
100
AcDbLinetypeTableRecord
  2
HIDDEN
 70
     0
  3
Hidden __ __ __ __ __ __ __ __ __ __ __ __ __ __
 72
    65
 73
     2
 40
1.905
 49
1.27
 74
     0
 49
-0.635
 74
     0
  0
LTYPE
  5
6F
330
5
100
AcDbSymbolTableRecord
100
AcDbLinetypeTableRecord
  2
PHANTOM
 70
     0
  3
Phantom ______  __  __  ______  __  __  ______
 72
    65
 73
     6
 40
12.7
 49
6.35
 74
     0
 49
-1.27
 74
     0
 49
1.27
 74
     0
 49
-1.27
 74
     0
 49
1.27
 74
     0
 49
-1.27
 74
     0
  0
LTYPE
  5
70
330
5
100
AcDbSymbolTableRecord
100
AcDbLinetypeTableRecord
  2
CENTER
 70
     0
  3
Center ____ _ ____ _ ____ _ ____ _ ____ _ ____
 72
    65
 73
     4
 40
10.16
 49
6.35
 74
     0
 49
-1.27
 74
     0
 49
1.27
 74
     0
 49
-1.27
 74
     0
  0
LTYPE
  5
71
330
5
100
AcDbSymbolTableRecord
100
AcDbLinetypeTableRecord
  2
CENTERX2
 70
     0
  3
Center (2x) ________  __  ________  __  _____
 72
    65
 73
     4
 40
20.32
 49
12.7
 74
     0
 49
-2.54
 74
     0
 49
2.54
 74
     0
 49
-2.54
 74
     0
  0
LTYPE
  5
72
330
5
100
AcDbSymbolTableRecord
100
AcDbLinetypeTableRecord
  2
DOT2
 70
     0
  3
Dot (.5x) ........................................
 72
    65
 73
     2
 40
0.635
 49
0.0
 74
     0
 49
-0.635
 74
     0
  0
ENDTAB
  0
TABLE
  2
LAYER
  5
2
330
0
100
AcDbSymbolTable
 70
    17
  0
LAYER
  5
10
330
2
100
AcDbSymbolTableRecord
100
AcDbLayerTableRecord
  2
0
 70
     0
 62
     7
  6
Continuous
370
    -3
390
F
  0
LAYER
  5
73
330
2
100
AcDbSymbolTableRecord
100
AcDbLayerTableRecord
  2
FORMAT
 70
     0
 62
     2
  6
Continuous
370
    -3
390
F
  0
LAYER
  5
74
330
2
100
AcDbSymbolTableRecord
100
AcDbLayerTableRecord
  2
외형선
 70
     0
 62
   100
  6
Continuous
370
    35
390
F
  0
LAYER
  5
75
330
2
100
AcDbSymbolTableRecord
100
AcDbLayerTableRecord
  2
숨은선
 70
     0
 62
     2
  6
HIDDEN
370
    25
390
F
  0
LAYER
  5
76
330
2
100
AcDbSymbolTableRecord
100
AcDbLayerTableRecord
  2
중심선
 70
     0
 62
     1
  6
CENTERX2
370
    -3
390
F
  0
LAYER
  5
77
330
2
100
AcDbSymbolTableRecord
100
AcDbLayerTableRecord
  2
파단선
 70
     0
 62
     4
  6
Continuous
370
    -3
390
F
  0
LAYER
  5
78
330
2
100
AcDbSymbolTableRecord
100
AcDbLayerTableRecord
  2
해칭선
 70
     0
 62
   100
  6
Continuous
370
    -3
390
F
  0
LAYER
  5
79
330
2
100
AcDbSymbolTableRecord
100
AcDbLayerTableRecord
  2
가는실선
 70
     0
 62
     4
  6
Continuous
370
    -3
390
F
  0
LAYER
  5
7A
330
2
100
AcDbSymbolTableRecord
100
AcDbLayerTableRecord
  2
치수_보조선
 70
     0
 62
     4
  6
Continuous
370
    -3
390
F
  0
LAYER
  5
7B
330
2
100
AcDbSymbolTableRecord
100
AcDbLayerTableRecord
  2
치수문자_일반주서
 70
     0
 62
     7
  6
Continuous
370
    25
390
F
  0
LAYER
  5
7C
330
2
100
AcDbSymbolTableRecord
100
AcDbLayerTableRecord
  2
개별주서
 70
     0
 62
   100
  6
Continuous
370
    35
390
F
  0
LAYER
  5
7D
330
2
100
AcDbSymbolTableRecord
100
AcDbLayerTableRecord
  2
중간선
 70
     0
 62
     2
  6
Continuous
370
    25
390
F
  0
LAYER
  5
7E
330
2
100
AcDbSymbolTableRecord
100
AcDbLayerTableRecord
  2
윤곽선
 70
     0
 62
     3
  6
Continuous
370
    50
390
F
  0
LAYER
  5
7F
330
2
100
AcDbSymbolTableRecord
100
AcDbLayerTableRecord
  2
중심마크
 70
     0
 62
   100
  6
Continuous
370
    35
390
F
  0
LAYER
  5
80
330
2
100
AcDbSymbolTableRecord
100
AcDbLayerTableRecord
  2
가상선
 70
     0
 62
     4
  6
PHANTOM
370
    -3
390
F
  0
LAYER
  5
81
330
2
100
AcDbSymbolTableRecord
100
AcDbLayerTableRecord
  2
특수지정선
 70
     0
 62
     5
  6
CENTERX2
370
    70
390
F
  0
LAYER
  5
13E
330
2
100
AcDbSymbolTableRecord
100
AcDbLayerTableRecord
  2
Defpoints
 70
     0
 62
     7
  6
Continuous
290
     0
370
    -3
390
F
  0
ENDTAB
  0
TABLE
  2
STYLE
  5
3
330
0
100
AcDbSymbolTable
 70
     2
  0
STYLE
  5
11
330
3
100
AcDbSymbolTableRecord
100
AcDbTextStyleTableRecord
  2
Standard
 70
     0
 40
0.0
 41
1.0
 50
0.0
 71
     0
 42
3.5
  3
txt
  4

  0
STYLE
  5
97
330
3
100
AcDbSymbolTableRecord
100
AcDbTextStyleTableRecord
  2
SLDTEXTSTYLE0
 70
     0
 40
0.0
 41
0.75
 50
0.0
 71
     0
 42
3.5
  3
TXT
  4

  0
ENDTAB
  0
TABLE
  2
VIEW
  5
6
330
0
100
AcDbSymbolTable
 70
     0
  0
ENDTAB
  0
TABLE
  2
UCS
  5
7
330
0
100
AcDbSymbolTable
 70
     0
  0
ENDTAB
  0
TABLE
  2
APPID
  5
9
330
0
100
AcDbSymbolTable
 70
     2
  0
APPID
  5
12
330
9
100
AcDbSymbolTableRecord
100
AcDbRegAppTableRecord
  2
ACAD
 70
     0
  0
APPID
  5
13F
330
9
100
AcDbSymbolTableRecord
100
AcDbRegAppTableRecord
  2
PE_URL
 70
     0
  0
ENDTAB
  0
TABLE
  2
DIMSTYLE
  5
A
330
0
100
AcDbSymbolTable
 70
     4
100
AcDbDimStyleTable
  0
DIMSTYLE
105
27
330
A
100
AcDbSymbolTableRecord
100
AcDbDimStyleTableRecord
  2
ISO-25
 70
     0
 41
2.5
 42
0.625
 43
3.75
 44
1.25
 73
     0
 74
     0
 77
     1
 78
     8
140
2.5
141
2.5
143
0.03937007874016
147
0.625
171
     3
172
     1
178
     0
271
     2
272
     2
274
     3
278
    44
283
     0
284
     8
340
11
  0
DIMSTYLE
105
DB
102
{ACAD_REACTORS
330
DA
102
}
330
A
100
AcDbSymbolTableRecord
100
AcDbDimStyleTableRecord
  2
SLDDIMSTYLE0
 70
     0
 41
3.302
 44
0.0
 45
0.000000001
 73
     0
 74
     0
 77
     1
 78
    12
 79
     3
140
3.5
147
0.875
172
     1
173
     1
178
     0
271
     1
272
     1
276
     2
284
    12
289
     0
340
97
  0
DIMSTYLE
105
E9
102
{ACAD_REACTORS
330
E8
330
10B
102
}
330
A
100
AcDbSymbolTableRecord
100
AcDbDimStyleTableRecord
  2
SLDDIMSTYLE1
 70
     0
 41
3.302
 44
0.0
 45
0.000000001
 73
     0
 74
     0
 77
     1
 78
    12
 79
     3
140
3.5
147
0.875
173
     1
178
     0
271
     2
272
     2
276
     2
284
    12
340
97
  0
DIMSTYLE
105
F4
102
{ACAD_REACTORS
330
F3
330
101
102
}
330
A
100
AcDbSymbolTableRecord
100
AcDbDimStyleTableRecord
  2
SLDDIMSTYLE2
 70
     0
 41
3.302
 44
0.0
 45
0.000000001
 73
     0
 74
     0
 77
     1
 78
    12
 79
     3
140
3.5
147
0.875
172
     1
173
     1
178
     0
271
     2
272
     2
276
     2
284
    12
289
     0
340
97
  0
ENDTAB
  0
TABLE
  2
BLOCK_RECORD
  5
1
330
0
100
AcDbSymbolTable
 70
     8
  0
BLOCK_RECORD
  5
1F
330
1
100
AcDbSymbolTableRecord
100
AcDbBlockTableRecord
  2
*Model_Space
340
22
  0
BLOCK_RECORD
  5
1B
330
1
100
AcDbSymbolTableRecord
100
AcDbBlockTableRecord
  2
*Paper_Space
340
1E
  0
BLOCK_RECORD
  5
23
330
1
100
AcDbSymbolTableRecord
100
AcDbBlockTableRecord
  2
*Paper_Space0
340
26
  0
BLOCK_RECORD
  5
82
330
1
100
AcDbSymbolTableRecord
100
AcDbBlockTableRecord
  2
블럭10
340
0
102
{BLKREFS
331
D3
102
}
  0
BLOCK_RECORD
  5
DC
330
1
100
AcDbSymbolTableRecord
100
AcDbBlockTableRecord
  2
_D
340
0
  0
BLOCK_RECORD
  5
EA
330
1
100
AcDbSymbolTableRecord
100
AcDbBlockTableRecord
  2
_D_1
340
0
  0
BLOCK_RECORD
  5
F5
330
1
100
AcDbSymbolTableRecord
100
AcDbBlockTableRecord
  2
_D_2
340
0
  0
BLOCK_RECORD
  5
102
330
1
100
AcDbSymbolTableRecord
100
AcDbBlockTableRecord
  2
_D_3
340
0
  0
BLOCK_RECORD
  5
10C
330
1
100
AcDbSymbolTableRecord
100
AcDbBlockTableRecord
  2
_D_4
340
0
  0
BLOCK_RECORD
  5
115
330
1
100
AcDbSymbolTableRecord
100
AcDbBlockTableRecord
  2
SW_DOWELSYMBOL_0
340
0
102
{BLKREFS
331
11B
102
}
  0
ENDTAB
  0
ENDSEC
  0
SECTION
  2
BLOCKS
  0
BLOCK
  5
20
330
1F
100
AcDbEntity
  8
0
100
AcDbBlockBegin
  2
*Model_Space
 70
     0
 10
0.0
 20
0.0
 30
0.0
  3
*Model_Space
  1

  0
ENDBLK
  5
21
330
1F
100
AcDbEntity
  8
0
100
AcDbBlockEnd
  0
BLOCK
  5
1C
330
1B
100
AcDbEntity
 67
     1
  8
0
100
AcDbBlockBegin
  2
*Paper_Space
 70
     0
 10
0.0
 20
0.0
 30
0.0
  3
*Paper_Space
  1

  0
ENDBLK
  5
1D
330
1B
100
AcDbEntity
 67
     1
  8
0
100
AcDbBlockEnd
  0
BLOCK
  5
24
330
23
100
AcDbEntity
  8
0
100
AcDbBlockBegin
  2
*Paper_Space0
 70
     0
 10
0.0
 20
0.0
 30
0.0
  3
*Paper_Space0
  1

  0
ENDBLK
  5
25
330
23
100
AcDbEntity
  8
0
100
AcDbBlockEnd
  0
BLOCK
  5
83
330
82
100
AcDbEntity
  8
0
100
AcDbBlockBegin
  2
블럭10
 70
     2
 10
0.0
 20
0.0
 30
0.0
  3
블럭10
  1

  0
ELLIPSE
  5
85
330
82
100
AcDbEntity
  8
중심선
100
AcDbEllipse
 10
20.54032771741204
 20
12.0471743016438
 30
0.0
 11
6.600054785286829
 21
-1.261213355974178E-13
 31
0.0
210
0.0
220
0.0
230
1.0
 40
0.636358354079598
 41
0.9219305317359503
 42
6.513795318482858
  0
ELLIPSE
  5
86
330
82
100
AcDbEntity
  8
중심선
100
AcDbEllipse
 10
20.54032771746488
 20
12.04717430159265
 30
0.0
 11
3.960054785062283
 21
1.540847449632565E-10
 31
0.0
210
0.0
220
0.0
230
1.0
 40
0.3939339440162632
 41
1.131841032648279
 42
5.62031148352944
  0
LINE
  5
87
330
82
100
AcDbEntity
  8
중심선
100
AcDbLine
 10
2.268634060543552
 20
16.24717430164393
 30
0.0
 11
5.714909304380834
 21
16.24717430164393
 31
0.0
  0
LINE
  5
88
330
82
100
AcDbEntity
  8
중심선
100
AcDbLine
 10
5.245725140726316
 20
7.84717430164391
 30
0.0
 11
8.692000384563599
 21
7.84717430164391
 31
0.0
  0
LINE
  5
89
330
82
100
AcDbEntity
  8
중심선
100
AcDbLine
 10
15.74043728645272
 20
16.24717430164393
 30
0.0
 11
8.692000384563599
 21
7.84717430164391
 31
0.0
  0
LINE
  5
8A
330
82
100
AcDbEntity
  8
중심선
100
AcDbLine
 10
0.1404042013395286
 20
13.71084872107135
 30
0.0
 11
3.58671253028996
 21
13.71088815037384
 31
0.0
  0
LINE
  5
8B
330
82
100
AcDbEntity
  8
중심선
100
AcDbLine
 10
2.750260043222114
 20
10.84717430164391
 30
0.0
 11
6.196535287059397
 21
10.84717430164391
 31
0.0
  0
LINE
  5
8C
330
82
100
AcDbEntity
  8
중심선
100
AcDbLine
 10
12.29416204261559
 20
16.24717430164393
 30
0.0
 11
5.245725140726316
 21
7.84717430164391
 31
0.0
  0
LINE
  5
8D
330
82
100
AcDbEntity
  8
중심선
100
AcDbLine
 10
10.72767329541681
 20
16.24717430164393
 30
0.0
 11
6.196535287059397
 21
10.84717430164391
 31
0.0
  0
LINE
  5
8E
330
82
100
AcDbEntity
  8
중심선
100
AcDbLine
 10
7.28139805157953
 20
16.24717430164393
 30
0.0
 11
2.750260043222114
 21
10.84717430164391
 31
0.0
  0
LINE
  5
8F
330
82
100
AcDbEntity
  8
중심선
100
AcDbLine
 10
5.714909304380834
 20
16.24717430164393
 30
0.0
 11
3.58671253028996
 21
13.71088815037384
 31
0.0
  0
LINE
  5
90
330
82
100
AcDbEntity
  8
중심선
100
AcDbLine
 10
2.268634060543552
 20
16.24717430164393
 30
0.0
 11
0.1404042013395286
 21
13.71084872107135
 31
0.0
  0
LINE
  5
91
330
82
100
AcDbEntity
  8
중심선
100
AcDbLine
 10
7.28139805157953
 20
16.24717430164393
 30
0.0
 11
10.72767329541681
 21
16.24717430164393
 31
0.0
  0
LINE
  5
92
330
82
100
AcDbEntity
  8
중심선
100
AcDbLine
 10
12.29416204261559
 20
16.24717430164393
 30
0.0
 11
15.74043728645272
 21
16.24717430164393
 31
0.0
  0
LINE
  5
93
330
82
100
AcDbEntity
  8
중심선
100
AcDbLine
 10
19.22036997980202
 20
11.08717430171403
 30
0.0
 11
23.66174974927406
 21
11.08717430171406
 31
0.0
  0
LINE
  5
94
330
82
100
AcDbEntity
  8
중심선
100
AcDbLine
 10
19.22039502424796
 20
13.00717430171391
 30
0.0
 11
19.22036997980202
 21
11.08717430171403
 31
0.0
  0
LINE
  5
95
330
82
100
AcDbEntity
  8
중심선
100
AcDbLine
 10
19.22039502424796
 20
13.00717430171391
 30
0.0
 11
26.96566020931264
 21
13.00717430171391
 31
0.0
  0
LINE
  5
96
330
82
100
AcDbEntity
  8
중심선
100
AcDbLine
 10
22.22332737316547
 20
13.45928029700563
 30
0.0
 11
24.52862924686651
 21
15.39360700705356
 31
0.0
  0
ATTDEF
  5
98
330
82
100
AcDbEntity
  8
FORMAT
 62
     2
100
AcDbText
 10
-16.11926103943555
 20
2.075366912832191
 30
0.0
 40
4.233333333333333
  1
SEME7312035E [ 4 FLUTE ]
 41
0.75
  7
SLDTEXTSTYLE0
 11
-16.11926103943555
 21
-0.0412997538344756
 31
0.0
100
AcDbAttributeDefinition
  3

  2
AUTOATTR0
 70
     0
 74
     1
  0
ENDBLK
  5
84
330
82
100
AcDbEntity
  8
0
100
AcDbBlockEnd
  0
BLOCK
  5
DD
330
DC
100
AcDbEntity
  8
0
100
AcDbBlockBegin
  2
_D
 70
     0
 10
0.0
 20
0.0
 30
0.0
  3
_D
  1

  0
LINE
  5
DF
330
DC
100
AcDbEntity
  8
치수문자_일반주서
 62
     0
370
    -2
100
AcDbLine
 10
35.21250000000001
 20
-6.000000000000012
 30
0.0
 11
48.15000000000004
 21
-5.999999999999963
 31
0.0
  0
LINE
  5
E0
330
DC
100
AcDbEntity
  8
치수문자_일반주서
 62
     0
370
    -2
100
AcDbLine
 10
35.21250000000001
 20
5.999999999999997
 30
0.0
 11
48.15
 21
6.000000000000046
 31
0.0
  0
LINE
  5
E1
330
DC
100
AcDbEntity
  8
치수문자_일반주서
 62
     0
370
    -2
100
AcDbLine
 10
48.15000000000003
 20
-2.697999999999963
 30
0.0
 11
48.15000000000001
 21
2.698000000000047
 31
0.0
  0
SOLID
  5
E2
330
DC
100
AcDbEntity
  8
치수문자_일반주서
 62
     0
100
AcDbTrace
 10
47.59966666666669
 20
-2.697999999999965
 30
0.0
 11
48.70033333333336
 21
-2.697999999999961
 31
0.0
 12
48.15000000000004
 22
-5.999999999999963
 32
0.0
 13
48.15000000000004
 23
-5.999999999999963
 33
0.0
  0
SOLID
  5
E3
330
DC
100
AcDbEntity
  8
치수문자_일반주서
 62
     0
100
AcDbTrace
 10
48.70033333333335
 20
2.698000000000048
 30
0.0
 11
47.59966666666668
 21
2.698000000000045
 31
0.0
 12
48.15
 22
6.000000000000046
 32
0.0
 13
48.15
 23
6.000000000000046
 33
0.0
  0
MTEXT
  5
E4
330
DC
100
AcDbEntity
  8
치수문자_일반주서
 62
     0
100
AcDbMText
 10
43.77500000000002
 20
-0.000000000000022
 30
0.0
 40
3.5
 41
0.0
 71
     2
 72
     1
  1
\A1;%%c12
  7
SLDTEXTSTYLE0
 11
-3.552713678800498E-15
 21
1.0
 31
0.0
 73
     1
 44
1.0
  0
POINT
  5
E5
330
DC
100
AcDbEntity
  8
Defpoints
 62
     0
100
AcDbPoint
 10
35.15000000000001
 20
-6.000000000000012
 30
0.0
  0
POINT
  5
E6
330
DC
100
AcDbEntity
  8
Defpoints
 62
     0
100
AcDbPoint
 10
35.15000000000001
 20
5.999999999999997
 30
0.0
  0
POINT
  5
E7
330
DC
100
AcDbEntity
  8
Defpoints
 62
     0
100
AcDbPoint
 10
48.15
 20
6.000000000000046
 30
0.0
  0
ENDBLK
  5
DE
330
DC
100
AcDbEntity
  8
0
100
AcDbBlockEnd
  0
BLOCK
  5
EB
330
EA
100
AcDbEntity
  8
0
100
AcDbBlockBegin
  2
_D_1
 70
     0
 10
0.0
 20
0.0
 30
0.0
  3
_D_1
  1

  0
LINE
  5
ED
330
EA
100
AcDbEntity
  8
치수문자_일반주서
 62
     0
370
    -2
100
AcDbLine
 10
-44.84999999999999
 20
5.562499999999988
 30
0.0
 11
-44.84999999999999
 21
40.00000000000001
 31
0.0
  0
LINE
  5
EE
330
EA
100
AcDbEntity
  8
치수문자_일반주서
 62
     0
370
    -2
100
AcDbLine
 10
35.15000000000001
 20
-0.5375000000000059
 30
0.0
 11
35.15000000000001
 21
40.00000000000001
 31
0.0
  0
LINE
  5
EF
330
EA
100
AcDbEntity
  8
치수문자_일반주서
 62
     0
370
    -2
100
AcDbLine
 10
-41.54799999999999
 20
40.00000000000001
 30
0.0
 11
31.84800000000001
 21
40.00000000000001
 31
0.0
  0
SOLID
  5
F0
330
EA
100
AcDbEntity
  8
치수문자_일반주서
 62
     0
100
AcDbTrace
 10
-41.54799999999999
 20
40.55033333333335
 30
0.0
 11
-41.54799999999999
 21
39.44966666666668
 31
0.0
 12
-44.84999999999999
 22
40.00000000000001
 32
0.0
 13
-44.84999999999999
 23
40.00000000000001
 33
0.0
  0
SOLID
  5
F1
330
EA
100
AcDbEntity
  8
치수문자_일반주서
 62
     0
100
AcDbTrace
 10
31.84800000000001
 20
39.44966666666668
 30
0.0
 11
31.84800000000001
 21
40.55033333333335
 31
0.0
 12
35.15000000000001
 22
40.00000000000001
 32
0.0
 13
35.15000000000001
 23
40.00000000000001
 33
0.0
  0
MTEXT
  5
F2
330
EA
100
AcDbEntity
  8
치수문자_일반주서
 62
     0
100
AcDbMText
 10
-4.849999999999989
 20
44.37500000000001
 30
0.0
 40
3.5
 41
0.0
 71
     2
 72
     1
  1
\A1;80
  7
SLDTEXTSTYLE0
 73
     1
 44
1.0
  0
POINT
  5
140
330
EA
100
AcDbEntity
  8
Defpoints
 62
     0
100
AcDbPoint
 10
-44.84999999999999
 20
5.499999999999988
 30
0.0
  0
POINT
  5
141
330
EA
100
AcDbEntity
  8
Defpoints
 62
     0
100
AcDbPoint
 10
35.15000000000001
 20
-0.6000000000000059
 30
0.0
  0
POINT
  5
142
330
EA
100
AcDbEntity
  8
Defpoints
 62
     0
100
AcDbPoint
 10
35.15000000000001
 20
40.00000000000002
 30
0.0
  0
ENDBLK
  5
EC
330
EA
100
AcDbEntity
  8
0
100
AcDbBlockEnd
  0
BLOCK
  5
F6
330
F5
100
AcDbEntity
  8
0
100
AcDbBlockBegin
  2
_D_2
 70
     0
 10
0.0
 20
0.0
 30
0.0
  3
_D_2
  1

  0
LINE
  5
F8
330
F5
100
AcDbEntity
  8
치수문자_일반주서
 62
     0
370
    -2
100
AcDbLine
 10
-44.41249999999999
 20
5.999999999999971
 30
0.0
 11
-58.3426395616199
 21
5.999999999999918
 31
0.0
  0
LINE
  5
F9
330
F5
100
AcDbEntity
  8
치수문자_일반주서
 62
     0
370
    -2
100
AcDbLine
 10
-44.41249999999999
 20
-6.000000000000012
 30
0.0
 11
-58.34263956161986
 21
-6.000000000000064
 31
0.0
  0
LINE
  5
FA
330
F5
100
AcDbEntity
  8
치수문자_일반주서
 62
     0
370
    -2
100
AcDbLine
 10
-58.34263956161989
 20
2.697999999999919
 30
0.0
 11
-58.34263956161988
 21
-2.698000000000064
 31
0.0
  0
SOLID
  5
FB
330
F5
100
AcDbEntity
  8
치수문자_일반주서
 62
     0
100
AcDbTrace
 10
-57.79230622828656
 20
2.69799999999992
 30
0.0
 11
-58.89297289495322
 21
2.697999999999917
 31
0.0
 12
-58.3426395616199
 22
5.999999999999918
 32
0.0
 13
-58.3426395616199
 23
5.999999999999918
 33
0.0
  0
SOLID
  5
FC
330
F5
100
AcDbEntity
  8
치수문자_일반주서
 62
     0
100
AcDbTrace
 10
-58.89297289495321
 20
-2.698000000000066
 30
0.0
 11
-57.79230622828654
 21
-2.698000000000063
 31
0.0
 12
-58.34263956161986
 22
-6.000000000000064
 32
0.0
 13
-58.34263956161986
 23
-6.000000000000064
 33
0.0
  0
MTEXT
  5
FD
330
F5
100
AcDbEntity
  8
치수문자_일반주서
 62
     0
100
AcDbMText
 10
-62.71763956161988
 20
-2.179391697609293
 30
0.0
 40
3.5
 41
0.0
 71
     2
 72
     1
  1
\A1;%%c12
  7
SLDTEXTSTYLE0
 11
-3.552713678800506E-15
 21
1.0
 31
0.0
 73
     1
 44
1.0
  0
POINT
  5
FE
330
F5
100
AcDbEntity
  8
Defpoints
 62
     0
100
AcDbPoint
 10
-44.34999999999999
 20
5.999999999999971
 30
0.0
  0
POINT
  5
FF
330
F5
100
AcDbEntity
  8
Defpoints
 62
     0
100
AcDbPoint
 10
-44.34999999999999
 20
-6.000000000000012
 30
0.0
  0
POINT
  5
100
330
F5
100
AcDbEntity
  8
Defpoints
 62
     0
100
AcDbPoint
 10
-58.34263956161988
 20
-6.000000000000065
 30
0.0
  0
ENDBLK
  5
F7
330
F5
100
AcDbEntity
  8
0
100
AcDbBlockEnd
  0
BLOCK
  5
103
330
102
100
AcDbEntity
  8
0
100
AcDbBlockBegin
  2
_D_3
 70
     0
 10
0.0
 20
0.0
 30
0.0
  3
_D_3
  1

  0
LINE
  5
105
330
102
100
AcDbEntity
  8
치수문자_일반주서
 62
     0
370
    -2
100
AcDbLine
 10
15.15000000000001
 20
5.573898828935197
 30
0.0
 11
15.15000000000001
 21
16.35731713152285
 31
0.0
  0
LINE
  5
106
330
102
100
AcDbEntity
  8
치수문자_일반주서
 62
     0
370
    -2
100
AcDbLine
 10
35.15000000000001
 20
-0.5375000000000059
 30
0.0
 11
35.15000000000001
 21
16.35731713152285
 31
0.0
  0
LINE
  5
107
330
102
100
AcDbEntity
  8
치수문자_일반주서
 62
     0
370
    -2
100
AcDbLine
 10
18.45200000000001
 20
16.35731713152285
 30
0.0
 11
31.84800000000001
 21
16.35731713152285
 31
0.0
  0
SOLID
  5
108
330
102
100
AcDbEntity
  8
치수문자_일반주서
 62
     0
100
AcDbTrace
 10
18.45200000000001
 20
16.90765046485619
 30
0.0
 11
18.45200000000001
 21
15.80698379818952
 31
0.0
 12
15.15000000000001
 22
16.35731713152285
 32
0.0
 13
15.15000000000001
 23
16.35731713152285
 33
0.0
  0
SOLID
  5
109
330
102
100
AcDbEntity
  8
치수문자_일반주서
 62
     0
100
AcDbTrace
 10
31.84800000000001
 20
15.80698379818952
 30
0.0
 11
31.84800000000001
 21
16.90765046485619
 31
0.0
 12
35.15000000000001
 22
16.35731713152285
 32
0.0
 13
35.15000000000001
 23
16.35731713152285
 33
0.0
  0
MTEXT
  5
10A
330
102
100
AcDbEntity
  8
치수문자_일반주서
 62
     0
100
AcDbMText
 10
25.15000000000001
 20
20.73231713152285
 30
0.0
 40
3.5
 41
0.0
 71
     2
 72
     1
  1
\A1;20
  7
SLDTEXTSTYLE0
 73
     1
 44
1.0
  0
POINT
  5
143
330
102
100
AcDbEntity
  8
Defpoints
 62
     0
100
AcDbPoint
 10
15.15000000000001
 20
5.511398828935197
 30
0.0
  0
POINT
  5
144
330
102
100
AcDbEntity
  8
Defpoints
 62
     0
100
AcDbPoint
 10
35.15000000000001
 20
-0.6000000000000059
 30
0.0
  0
POINT
  5
145
330
102
100
AcDbEntity
  8
Defpoints
 62
     0
100
AcDbPoint
 10
35.15000000000001
 20
16.35731713152285
 30
0.0
  0
ENDBLK
  5
104
330
102
100
AcDbEntity
  8
0
100
AcDbBlockEnd
  0
BLOCK
  5
10D
330
10C
100
AcDbEntity
  8
0
100
AcDbBlockBegin
  2
_D_4
 70
     0
 10
0.0
 20
0.0
 30
0.0
  3
_D_4
  1

  0
LINE
  5
10F
330
10C
100
AcDbEntity
  8
치수문자_일반주서
 62
     0
370
    -2
100
AcDbLine
 10
35.15000000000001
 20
6.032424622639716
 30
0.0
 11
35.15000000000001
 21
30.6697141489939
 31
0.0
  0
LINE
  5
110
330
10C
100
AcDbEntity
  8
치수문자_일반주서
 62
     0
370
    -2
100
AcDbLine
 10
0.1500000000000026
 20
5.91249999999999
 30
0.0
 11
0.1500000000000021
 21
30.6697141489939
 31
0.0
  0
LINE
  5
111
330
10C
100
AcDbEntity
  8
치수문자_일반주서
 62
     0
370
    -2
100
AcDbLine
 10
31.84800000000001
 20
30.6697141489939
 30
0.0
 11
3.452000000000002
 21
30.6697141489939
 31
0.0
  0
SOLID
  5
112
330
10C
100
AcDbEntity
  8
치수문자_일반주서
 62
     0
100
AcDbTrace
 10
31.84800000000001
 20
30.11938081566057
 30
0.0
 11
31.84800000000001
 21
31.22004748232724
 31
0.0
 12
35.15000000000001
 22
30.6697141489939
 32
0.0
 13
35.15000000000001
 23
30.6697141489939
 33
0.0
  0
SOLID
  5
113
330
10C
100
AcDbEntity
  8
치수문자_일반주서
 62
     0
100
AcDbTrace
 10
3.452000000000002
 20
31.22004748232724
 30
0.0
 11
3.452000000000002
 21
30.11938081566057
 31
0.0
 12
0.1500000000000021
 22
30.6697141489939
 32
0.0
 13
0.1500000000000021
 23
30.6697141489939
 33
0.0
  0
MTEXT
  5
114
330
10C
100
AcDbEntity
  8
치수문자_일반주서
 62
     0
100
AcDbMText
 10
18.43629469445928
 20
35.0447141489939
 30
0.0
 40
3.5
 41
0.0
 71
     2
 72
     1
  1
\A1;35
  7
SLDTEXTSTYLE0
 73
     1
 44
1.0
  0
POINT
  5
146
330
10C
100
AcDbEntity
  8
Defpoints
 62
     0
100
AcDbPoint
 10
35.15000000000001
 20
5.969924622639716
 30
0.0
  0
POINT
  5
147
330
10C
100
AcDbEntity
  8
Defpoints
 62
     0
100
AcDbPoint
 10
0.1500000000000026
 20
5.84999999999999
 30
0.0
  0
POINT
  5
148
330
10C
100
AcDbEntity
  8
Defpoints
 62
     0
100
AcDbPoint
 10
0.1500000000000026
 20
30.6697141489939
 30
0.0
  0
ENDBLK
  5
10E
330
10C
100
AcDbEntity
  8
0
100
AcDbBlockEnd
  0
BLOCK
  5
116
330
115
100
AcDbEntity
  8
0
100
AcDbBlockBegin
  2
SW_DOWELSYMBOL_0
 70
     0
 10
0.0
 20
0.0
 30
0.0
  3
SW_DOWELSYMBOL_0
  1

  0
CIRCLE
  5
118
330
115
100
AcDbEntity
  8
해칭선
 62
     0
100
AcDbCircle
 10
0.0
 20
0.0
 30
0.0
 40
3.000000000000003
  0
HATCH
  5
119
330
115
100
AcDbEntity
  8
0
  6
Continuous
 62
     0
370
    18
100
AcDbHatch
 10
0.0
 20
0.0
 30
0.0
210
0.0
220
0.0
230
1.0
  2
SOLID
 70
     1
 71
     0
 91
        1
 92
        0
 93
        3
 72
     2
 10
-0.0000000000000017
 20
-0.0000000000000035
 40
3.000000000000003
 50
0.0
 51
90.0
 73
     1
 72
     1
 10
-0.0000000000000017
 20
2.999999999999999
 11
-0.0000000000000017
 21
-0.0000000000000036
 72
     1
 10
-0.0000000000000017
 20
-0.0000000000000035
 11
3.000000000000001
 21
-0.0000000000000035
 97
        0
 75
     0
 76
     1
 98
        1
 10
0.0
 20
0.0
  0
HATCH
  5
11A
330
115
100
AcDbEntity
  8
0
  6
Continuous
 62
     0
370
    18
100
AcDbHatch
 10
0.0
 20
0.0
 30
0.0
210
0.0
220
0.0
230
1.0
  2
SOLID
 70
     1
 71
     0
 91
        1
 92
        0
 93
        3
 72
     2
 10
-0.0000000000000017
 20
-0.0000000000000035
 40
3.000000000000003
 50
180.0
 51
270.0000000000008
 73
     1
 72
     1
 10
-0.0000000000000017
 20
-3.000000000000006
 11
-0.0000000000000017
 21
-0.0000000000000036
 72
     1
 10
-0.0000000000000017
 20
-0.0000000000000035
 11
-3.000000000000004
 21
-0.0000000000000035
 97
        0
 75
     0
 76
     1
 98
        1
 10
0.0
 20
0.0
  0
ENDBLK
  5
117
330
115
100
AcDbEntity
  8
0
100
AcDbBlockEnd
  0
ENDSEC
  0
SECTION
  2
ENTITIES
  0
LINE
  5
99
330
1F
100
AcDbEntity
  8
0
  6
Continuous
 62
     4
370
    25
100
AcDbLine
 10
-0.0000000000000018
 20
5.999999999999996
 30
0.0
 11
-44.34999999999999
 21
5.999999999999981
 31
0.0
  0
LINE
  5
9A
330
1F
100
AcDbEntity
  8
0
  6
Continuous
 62
     4
370
    25
100
AcDbLine
 10
-44.34999999999999
 20
-6.00000000000001
 30
0.0
 11
0.0
 21
-5.999999999999996
 31
0.0
  0
LINE
  5
9B
330
1F
100
AcDbEntity
  8
0
  6
Continuous
 62
     4
370
    25
100
AcDbLine
 10
-44.34999999999999
 20
5.999999999999984
 30
0.0
 11
-44.84999999999999
 21
5.499999999999986
 31
0.0
  0
LINE
  5
9C
330
1F
100
AcDbEntity
  8
0
  6
Continuous
 62
     4
370
    25
100
AcDbLine
 10
-44.84999999999999
 20
-5.500000000000017
 30
0.0
 11
-44.34999999999999
 21
-6.000000000000016
 31
0.0
  0
LINE
  5
9D
330
1F
100
AcDbEntity
  8
0
  6
Continuous
 62
     4
370
    25
100
AcDbLine
 10
0.0000000000000018
 20
-5.999999999999992
 30
0.0
 11
0.1500000000000061
 21
-5.84999999999999
 31
0.0
  0
LINE
  5
9E
330
1F
100
AcDbEntity
  8
0
  6
Continuous
 62
     4
370
    25
100
AcDbLine
 10
0.1500000000000026
 20
5.84999999999999
 30
0.0
 11
-0.0000000000000018
 21
5.999999999999991
 31
0.0
  0
LINE
  5
9F
330
1F
100
AcDbEntity
  8
0
  6
Continuous
 62
     4
370
    25
100
AcDbLine
 10
13.12162128258225
 20
5.849999999999993
 30
0.0
 11
0.1500000000000026
 21
5.849999999999989
 31
0.0
  0
LINE
  5
A0
330
1F
100
AcDbEntity
  8
0
  6
Continuous
 62
     4
370
    25
100
AcDbLine
 10
0.1500000000000061
 20
-5.849999999999989
 30
0.0
 11
13.12162128258225
 21
-5.849999999999985
 31
0.0
  0
LINE
  5
A1
330
1F
100
AcDbEntity
  8
0
  6
Continuous
 62
     1
370
    25
100
AcDbLine
 10
33.37165251689955
 20
-6.000000000000009
 30
0.0
 11
35.15000000000001
 21
-6.000000000000009
 31
0.0
1001
PE_URL
1000

  0
LINE
  5
A2
330
1F
100
AcDbEntity
  8
0
  6
Continuous
 62
     1
370
    25
100
AcDbLine
 10
24.4204643593397
 20
5.999999999999995
 30
0.0
 11
20.8640029610902
 21
5.999999999999995
 31
0.0
1001
PE_URL
1000

  0
LINE
  5
A3
330
1F
100
AcDbEntity
  8
0
  6
Continuous
 62
     1
370
    25
100
AcDbLine
 10
20.86400296109016
 20
-6.000000000000009
 30
0.0
 11
24.4204643593397
 21
-6.000000000000009
 31
0.0
1001
PE_URL
1000

  0
LINE
  5
A4
330
1F
100
AcDbEntity
  8
0
  6
Continuous
 62
     1
370
    25
100
AcDbLine
 10
35.15000000000001
 20
5.999999999999995
 30
0.0
 11
33.37165251689954
 21
5.999999999999995
 31
0.0
1001
PE_URL
1000

  0
LINE
  5
A5
330
1F
100
AcDbEntity
  8
0
  6
Continuous
 62
     4
370
    25
100
AcDbLine
 10
-0.0000000000000018
 20
5.999999999999991
 30
0.0
 11
0.0000000000000018
 21
-5.999999999999992
 31
0.0
  0
LINE
  5
A6
330
1F
100
AcDbEntity
  8
0
  6
Continuous
 62
     4
370
    25
100
AcDbLine
 10
-44.34999999999999
 20
5.999999999999986
 30
0.0
 11
-44.34999999999999
 21
-6.000000000000015
 31
0.0
  0
LINE
  5
A7
330
1F
100
AcDbEntity
  8
0
  6
Continuous
 62
     4
370
    25
100
AcDbLine
 10
-44.84999999999999
 20
5.499999999999988
 30
0.0
 11
-44.84999999999999
 21
-5.500000000000021
 31
0.0
  0
LINE
  5
A8
330
1F
100
AcDbEntity
  8
0
  6
Continuous
 62
     4
370
    25
100
AcDbLine
 10
0.1500000000000026
 20
5.84999999999999
 30
0.0
 11
0.1500000000000061
 21
-5.849999999999981
 31
0.0
  0
SPLINE
  5
A9
330
1F
100
AcDbEntity
  8
0
  6
Continuous
 62
     4
370
    25
100
AcDbSpline
210
0.0
220
0.0
230
1.0
 70
    24
 71
     3
 72
    12
 73
     8
 74
     0
 42
0.000000001
 43
0.00000001
 40
0.0
 40
0.0
 40
0.0
 40
0.0
 40
0.5
 40
0.5
 40
0.75
 40
0.75
 40
1.0
 40
1.0
 40
1.0
 40
1.0
 10
15.15000000000001
 20
3.753227364109471
 30
0.0
 10
15.15000000000001
 20
3.496880482590289
 30
0.0
 10
15.15000000000001
 20
3.216993200901781
 30
0.0
 10
15.15000000000001
 20
2.759216138245996
 30
0.0
 10
15.15000000000001
 20
2.599048733192733
 30
0.0
 10
15.15000000000001
 20
2.272156850490659
 30
0.0
 10
15.15000000000001
 20
2.105099312095749
 30
0.0
 10
15.15000000000001
 20
1.93408773463592
 30
0.0
  0
SPLINE
  5
AA
330
1F
100
AcDbEntity
  8
0
  6
Continuous
 62
     4
370
    25
100
AcDbSpline
210
0.0
220
0.0
230
1.0
 70
     8
 71
     3
 72
    14
 73
    10
 74
     0
 42
0.000000001
 43
0.00000001
 40
0.0
 40
0.0
 40
0.0
 40
0.0
 40
0.25
 40
0.25
 40
0.5
 40
0.5
 40
0.75
 40
0.75
 40
1.0
 40
1.0
 40
1.0
 40
1.0
 10
13.7654541910839
 20
-1.323754549425413
 30
0.0
 10
13.65957542796422
 20
-1.247835813515877
 30
0.0
 10
13.56587924842168
 20
-1.160155876696023
 30
0.0
 10
13.40188407368984
 20
-0.9615691084445106
 30
0.0
 10
13.3321643581306
 20
-0.8503367148091896
 30
0.0
 10
13.22353441824695
 20
-0.6167348249134169
 30
0.0
 10
13.18317359339591
 20
-0.4912979884952811
 30
0.0
 10
13.13168287524697
 20
-0.2365545992719205
 30
0.0
 10
13.12007925488918
 20
-0.1071211093806629
 30
0.0
 10
13.12007925488918
 20
0.0240484159538403
 30
0.0
  0
SPLINE
  5
AB
330
1F
100
AcDbEntity
  8
0
  6
Continuous
 62
     4
370
    25
100
AcDbSpline
210
0.0
220
0.0
230
1.0
 70
     8
 71
     3
 72
    22
 73
    18
 74
     0
 42
0.000000001
 43
0.00000001
 40
0.0
 40
0.0
 40
0.0
 40
0.0
 40
0.125
 40
0.125
 40
0.25
 40
0.25
 40
0.375
 40
0.375
 40
0.5
 40
0.5
 40
0.625
 40
0.625
 40
0.75
 40
0.75
 40
0.875
 40
0.875
 40
1.0
 40
1.0
 40
1.0
 40
1.0
 10
13.12007925488918
 20
2.414237241725393
 30
0.0
 10
13.12007925488918
 20
2.529630716730822
 30
0.0
 10
13.13090350849211
 20
2.641664868961878
 30
0.0
 10
13.1785127730734
 20
2.858760600955085
 30
0.0
 10
13.21607459153716
 20
2.965012160236412
 30
0.0
 10
13.31701781040293
 20
3.160153359392875
 30
0.0
 10
13.38020869302656
 20
3.250083440719518
 30
0.0
 10
13.53405843495425
 20
3.415008894675037
 30
0.0
 10
13.62284201983835
 20
3.487652540447062
 30
0.0
 10
13.81912073756441
 20
3.611534342294964
 30
0.0
 10
13.92867579590861
 20
3.663708877056354
 30
0.0
 10
14.15716699297382
 20
3.743738167128885
 30
0.0
 10
14.27814452286348
 20
3.772635156457662
 30
0.0
 10
14.52682936398454
 20
3.807166620534783
 30
0.0
 10
14.65187589860142
 20
3.812669560133528
 30
0.0
 10
14.90336256317564
 20
3.800616841155203
 30
0.0
 10
15.02896977150275
 20
3.782828386956826
 30
0.0
 10
15.14999999999992
 20
3.753227364108811
 30
0.0
  0
SPLINE
  5
AC
330
1F
100
AcDbEntity
  8
0
  6
Continuous
 62
     4
370
    25
100
AcDbSpline
210
0.0
220
0.0
230
1.0
 70
     8
 71
     3
 72
    14
 73
    10
 74
     0
 42
0.000000001
 43
0.00000001
 40
0.0
 40
0.0
 40
0.0
 40
0.0
 40
0.2500000000000002
 40
0.2500000000000002
 40
0.5000000000000001
 40
0.5000000000000001
 40
0.7500000000000001
 40
0.7500000000000001
 40
1.0
 40
1.0
 40
1.0
 40
1.0
 10
13.7654541910839
 20
-5.698260602401001
 30
0.0
 10
13.65957542796422
 20
-5.715897172410548
 30
0.0
 10
13.56587924842168
 20
-5.734695525332508
 30
0.0
 10
13.40188407368984
 20
-5.771315211993386
 30
0.0
 10
13.3321643581306
 20
-5.789066233576962
 30
0.0
 10
13.22353441824695
 20
-5.81859076933861
 30
0.0
 10
13.18317359339592
 20
-5.830730045607662
 30
0.0
 10
13.13168287524697
 20
-5.846608290266652
 30
0.0
 10
13.12007925488918
 20
-5.850489791723526
 30
0.0
 10
13.12007925488918
 20
-5.84995057019202
 30
0.0
  0
SPLINE
  5
AD
330
1F
100
AcDbEntity
  8
0
  6
Continuous
 62
     4
370
    25
100
AcDbSpline
210
0.0
220
0.0
230
1.0
 70
     8
 71
     3
 72
    10
 73
     6
 74
     0
 42
0.000000001
 43
0.00000001
 40
0.0
 40
0.0
 40
0.0
 40
0.0
 40
0.5
 40
0.5
 40
1.0
 40
1.0
 40
1.0
 40
1.0
 10
15.15000000000001
 20
-5.383226497552649
 30
0.0
 10
14.91844657860953
 20
-5.449677878151699
 30
0.0
 10
14.68650748186231
 20
-5.509352711164911
 30
0.0
 10
14.22448804337995
 20
-5.614504807571394
 30
0.0
 10
13.99561252259507
 20
-5.65992238038769
 30
0.0
 10
13.7654541910839
 20
-5.698260602401001
 30
0.0
  0
SPLINE
  5
AE
330
1F
100
AcDbEntity
  8
0
  6
Continuous
 62
     4
370
    25
100
AcDbSpline
210
0.0
220
0.0
230
1.0
 70
     8
 71
     3
 72
    14
 73
    10
 74
     0
 42
0.000000001
 43
0.00000001
 40
0.0
 40
0.0
 40
0.0
 40
0.0
 40
0.2499999999999998
 40
0.2499999999999998
 40
0.4999999999999999
 40
0.4999999999999999
 40
0.7499999999999999
 40
0.7499999999999999
 40
1.0
 40
1.0
 40
1.0
 40
1.0
 10
13.76545419108389
 20
5.698260602400996
 30
0.0
 10
13.65957542796422
 20
5.715897172410543
 30
0.0
 10
13.56587924842167
 20
5.734695525332523
 30
0.0
 10
13.40188407368984
 20
5.771315211993395
 30
0.0
 10
13.33216435813059
 20
5.789066233576976
 30
0.0
 10
13.22353441824695
 20
5.818590769338623
 30
0.0
 10
13.18317359339591
 20
5.830730045607673
 30
0.0
 10
13.13168287524697
 20
5.846608290266663
 30
0.0
 10
13.12007925488917
 20
5.850489791723538
 30
0.0
 10
13.12007925488917
 20
5.849950570192028
 30
0.0
  0
SPLINE
  5
AF
330
1F
100
AcDbEntity
  8
0
  6
Continuous
 62
     4
370
    25
100
AcDbSpline
210
0.0
220
0.0
230
1.0
 70
     8
 71
     3
 72
    10
 73
     6
 74
     0
 42
0.000000001
 43
0.00000001
 40
0.0
 40
0.0
 40
0.0
 40
0.0
 40
0.5000000000000002
 40
0.5000000000000002
 40
1.0
 40
1.0
 40
1.0
 40
1.0
 10
15.15000000000001
 20
5.38322649755265
 30
0.0
 10
14.91844657860952
 20
5.4496778781517
 30
0.0
 10
14.68650748186231
 20
5.50935271116491
 30
0.0
 10
14.22448804337995
 20
5.614504807571391
 30
0.0
 10
13.99561252259507
 20
5.659922380387685
 30
0.0
 10
13.7654541910839
 20
5.698260602400995
 30
0.0
  0
LINE
  5
B0
330
1F
100
AcDbEntity
  8
0
  6
Continuous
 62
     4
370
    25
100
AcDbLine
 10
15.15000000000001
 20
3.949499537236331
 30
0.0
 11
15.15000000000001
 21
3.753227364109375
 31
0.0
  0
SPLINE
  5
B1
330
1F
100
AcDbEntity
  8
0
  6
Continuous
 62
     4
370
    25
100
AcDbSpline
210
0.0
220
0.0
230
1.0
 70
     8
 71
     3
 72
    10
 73
     6
 74
     0
 42
0.000000001
 43
0.00000001
 40
0.0
 40
0.0
 40
0.0
 40
0.0
 40
0.5
 40
0.5
 40
1.0
 40
1.0
 40
1.0
 40
1.0
 10
15.15000000000001
 20
-2.289841146465592
 30
0.0
 10
14.91844657860952
 20
-2.133619465589646
 30
0.0
 10
14.68650748186231
 20
-1.974413479202957
 30
0.0
 10
14.22448804337995
 20
-1.651850976521856
 30
0.0
 10
13.99561252259507
 20
-1.488786035178848
 30
0.0
 10
13.7654541910839
 20
-1.323754549425413
 30
0.0
  0
LINE
  5
B2
330
1F
100
AcDbEntity
  8
0
  6
Continuous
 62
     4
370
    25
100
AcDbLine
 10
15.15000000000001
 20
-2.289841146465592
 30
0.0
 11
15.15000000000001
 21
-2.375408135768522
 31
0.0
  0
SPLINE
  5
B3
330
1F
100
AcDbEntity
  8
0
  6
Continuous
 62
     4
370
    25
100
AcDbSpline
210
0.0
220
0.0
230
1.0
 70
     8
 71
     3
 72
    22
 73
    18
 74
     0
 42
0.000000001
 43
0.00000001
 40
0.0
 40
0.0
 40
0.0
 40
0.0
 40
0.125
 40
0.125
 40
0.25
 40
0.25
 40
0.375
 40
0.375
 40
0.5
 40
0.5
 40
0.625
 40
0.625
 40
0.75
 40
0.75
 40
0.875
 40
0.875
 40
1.0
 40
1.0
 40
1.0
 40
1.0
 10
13.12007925488918
 20
-5.328598177819969
 30
0.0
 10
13.12007925488918
 20
-5.276316655454515
 30
0.0
 10
13.13090350849212
 20
-5.221037477511167
 30
0.0
 10
13.1785127730734
 20
-5.105400419938723
 30
0.0
 10
13.21607459153717
 20
-5.044236033305202
 30
0.0
 10
13.31701781040294
 20
-4.924331935924135
 30
0.0
 10
13.38020869302656
 20
-4.86513357312003
 30
0.0
 10
13.53405843495426
 20
-4.750819014152116
 30
0.0
 10
13.62284201983835
 20
-4.697323924902046
 30
0.0
 10
13.81912073756441
 20
-4.60275917171082
 30
0.0
 10
13.92867579590862
 20
-4.56096586282497
 30
0.0
 10
14.15716699297383
 20
-4.49550852225404
 30
0.0
 10
14.27814452286348
 20
-4.471044362320103
 30
0.0
 10
14.52682936398454
 20
-4.441677164884956
 30
0.0
 10
14.65187589860142
 20
-4.436903628917903
 30
0.0
 10
14.90336256317564
 20
-4.447232241945668
 30
0.0
 10
15.02896977150275
 20
-4.462532756982542
 30
0.0
 10
15.14999999999992
 20
-4.487291427276041
 30
0.0
  0
LINE
  5
B4
330
1F
100
AcDbEntity
  8
0
  6
Continuous
 62
     4
370
    25
100
AcDbLine
 10
13.12007925488918
 20
-5.32859817781997
 30
0.0
 11
13.12007925488918
 21
-5.84995057019203
 31
0.0
  0
LINE
  5
B5
330
1F
100
AcDbEntity
  8
0
  6
Continuous
 62
     4
370
    25
100
AcDbLine
 10
13.12007925488918
 20
2.414237241725394
 30
0.0
 11
13.12007925488918
 21
0.0240484159538405
 31
0.0
  0
SPLINE
  5
B6
330
1F
100
AcDbEntity
  8
0
  6
Continuous
 62
     4
370
    25
100
AcDbSpline
210
0.0
220
0.0
230
1.0
 70
    24
 71
     3
 72
    14
 73
    10
 74
     0
 42
0.000000001
 43
0.00000001
 40
0.0
 40
0.0
 40
0.0
 40
0.0
 40
0.2500000000000001
 40
0.2500000000000001
 40
0.5000000000000001
 40
0.5000000000000001
 40
0.75
 40
0.75
 40
1.0
 40
1.0
 40
1.0
 40
1.0
 10
15.15000000000001
 20
1.934087734635918
 30
0.0
 10
15.15000000000001
 20
1.61373652223777
 30
0.0
 10
15.15000000000001
 20
1.262730897584769
 30
0.0
 10
15.15000000000001
 20
0.5206270948558691
 30
0.0
 10
15.15000000000001
 20
0.1294944267748133
 30
0.0
 10
15.15000000000001
 20
-0.6464201333421088
 30
0.0
 10
15.15000000000001
 20
-1.030561720391925
 30
0.0
 10
15.15000000000001
 20
-1.728048856575621
 30
0.0
 10
15.15000000000001
 20
-2.040304930448905
 30
0.0
 10
15.15000000000001
 20
-2.289841146465592
 30
0.0
  0
SPLINE
  5
B7
330
1F
100
AcDbEntity
  8
0
  6
Continuous
 62
     4
370
    25
100
AcDbSpline
210
0.0
220
0.0
230
1.0
 70
    24
 71
     3
 72
    10
 73
     6
 74
     0
 42
0.000000001
 43
0.00000001
 40
0.0
 40
0.0
 40
0.0
 40
0.0
 40
0.6384310332058701
 40
0.8190225176106836
 40
1.0
 40
1.0
 40
1.0
 40
1.0
 10
15.15000000000001
 20
-4.575432255025523
 30
0.0
 10
15.15000000000001
 20
-4.734519309312794
 30
0.0
 10
15.15000000000001
 20
-4.938606944381769
 30
0.0
 10
15.15000000000001
 20
-5.223060412006309
 30
0.0
 10
15.15000000000001
 20
-5.329799818657312
 30
0.0
 10
15.15000000000001
 20
-5.383226497552648
 30
0.0
  0
SPLINE
  5
B8
330
1F
100
AcDbEntity
  8
0
  6
Continuous
 62
     1
370
    25
100
AcDbSpline
210
0.0
220
0.0
230
1.0
 70
     8
 71
     3
 72
    21
 73
    17
 74
     0
 42
0.000000001
 43
0.00000001
 40
0.0
 40
0.0
 40
0.0
 40
0.0
 40
0.0748109619488853
 40
0.1497321503830186
 40
0.2246858683722979
 40
0.2995030688229142
 40
0.374354697202029
 40
0.4493450828384078
 40
0.5242018062079897
 40
0.5990170141661157
 40
0.6775071961478076
 40
0.7560249037965712
 40
0.834421379021531
 40
0.9128142805353101
 40
0.9913228420312906
 40
1.0
 40
1.0
 40
1.0
 40
1.0
 10
15.15
 20
3.946291487119722
 30
0.0
 10
15.60419290889285
 20
3.676994390543456
 30
0.0
 10
16.51324793459497
 20
3.138003414998747
 30
0.0
 10
17.8782209332303
 20
2.207181884141383
 30
0.0
 10
19.24363848827395
 20
1.220553612203692
 30
0.0
 10
20.6072787356768
 20
0.19450345074389
 30
0.0
 10
21.97140333912992
 20
-0.8364788702269609
 30
0.0
 10
23.3372772625454
 20
-1.841342789368473
 30
0.0
 10
24.70145419825314
 20
-2.793990290112086
 30
0.0
 10
26.08662668442282
 20
-3.678400410653705
 30
0.0
 10
27.49511698717764
 20
-4.462919920977066
 30
0.0
 10
28.92559599440374
 20
-5.114559093587716
 30
0.0
 10
30.35438551319308
 20
-5.607601158461317
 30
0.0
 10
31.78306641641226
 20
-5.900587269741936
 30
0.0
 10
32.78926046992136
 20
-6.024615078521047
 30
0.0
 10
33.31893651330514
 20
-5.993592543193036
 30
0.0
 10
33.37165251689956
 20
-5.990505025635302
 30
0.0
  0
LINE
  5
B9
330
1F
100
AcDbEntity
  8
0
  6
Continuous
 62
     4
370
    25
100
AcDbLine
 10
15.15000000000001
 20
3.946291487119736
 30
0.0
 11
15.15000000000001
 21
5.511398828935197
 31
0.0
  0
SPLINE
  5
BA
330
1F
100
AcDbEntity
  8
0
  6
Continuous
 62
     1
370
    25
100
AcDbSpline
210
0.0
220
0.0
230
1.0
 70
     8
 71
     3
 72
    50
 73
    46
 74
     0
 42
0.000000001
 43
0.00000001
 40
0.0
 40
0.0
 40
0.0
 40
0.0
 40
0.0625000000000001
 40
0.0625000000000001
 40
0.1250000000000001
 40
0.1250000000000001
 40
0.1875000000000002
 40
0.1875000000000002
 40
0.2500000000000002
 40
0.2500000000000002
 40
0.3125000000000003
 40
0.3125000000000003
 40
0.3750000000000003
 40
0.3750000000000003
 40
0.4062500000000003
 40
0.4062500000000003
 40
0.4375000000000003
 40
0.4375000000000003
 40
0.4687500000000003
 40
0.4687500000000003
 40
0.5000000000000002
 40
0.5000000000000002
 40
0.5625000000000003
 40
0.5625000000000003
 40
0.5937500000000003
 40
0.5937500000000003
 40
0.6250000000000003
 40
0.6250000000000003
 40
0.6562500000000004
 40
0.6562500000000004
 40
0.6875000000000003
 40
0.6875000000000003
 40
0.7500000000000002
 40
0.7500000000000002
 40
0.7812500000000003
 40
0.7812500000000003
 40
0.8125000000000003
 40
0.8125000000000003
 40
0.8437500000000002
 40
0.8437500000000002
 40
0.8750000000000002
 40
0.8750000000000002
 40
0.9375000000000001
 40
0.9375000000000001
 40
1.0
 40
1.0
 40
1.0
 40
1.0
 10
35.15000000000001
 20
-5.850994190130128
 30
0.0
 10
34.73635662277506
 20
-5.781621421969912
 30
0.0
 10
34.31679175676907
 20
-5.687852429388125
 30
0.0
 10
33.48120169229898
 20
-5.454500187924857
 30
0.0
 10
33.06856308111793
 20
-5.315451975988791
 30
0.0
 10
32.2336286808204
 20
-4.993851995106137
 30
0.0
 10
31.81377933899675
 20
-4.811420023357787
 30
0.0
 10
30.98473336543107
 20
-4.410279482866074
 30
0.0
 10
30.56718288487914
 20
-4.190281528968296
 30
0.0
 10
29.73112784360294
 20
-3.717426172857875
 30
0.0
 10
29.31814428291898
 20
-3.465719189533645
 30
0.0
 10
28.48405573513186
 20
-2.934352190080354
 30
0.0
 10
28.06401881783702
 20
-2.65480764912557
 30
0.0
 10
27.44105421939814
 20
-2.222479386535362
 30
0.0
 10
27.2344605225038
 20
-2.076195616185894
 30
0.0
 10
26.817663274371
 20
-1.778819323345461
 30
0.0
 10
26.60843978876186
 20
-1.627952261985322
 30
0.0
 10
26.19027530049683
 20
-1.323243213369522
 30
0.0
 10
25.98133628488842
 20
-1.169402682872247
 30
0.0
 10
25.565668192197
 20
-0.8601848168400567
 30
0.0
 10
25.35925657119851
 20
-0.7048904099391531
 30
0.0
 10
24.73446670868871
 20
-0.2359327782418239
 30
0.0
 10
24.31433926154032
 20
0.0798641283457662
 30
0.0
 10
23.69033473196384
 20
0.5495860647765912
 30
0.0
 10
23.48400753403633
 20
0.7053385952339299
 30
0.0
 10
23.06777522816
 20
1.015972146644077
 30
0.0
 10
22.85868365436497
 20
1.170646709549877
 30
0.0
 10
22.44047782363759
 20
1.47727215735679
 30
0.0
 10
22.23136555512549
 20
1.629221583809202
 30
0.0
 10
21.81505110515412
 20
1.92900467014232
 30
0.0
 10
21.60871066152675
 20
2.076640078226339
 30
0.0
 10
20.98483891672433
 20
2.513860459347764
 30
0.0
 10
20.56471805548133
 20
2.797140862609236
 30
0.0
 10
19.93981456881469
 20
3.201921354626852
 30
0.0
 10
19.73336321321855
 20
3.333308447250754
 30
0.0
 10
19.31779000603446
 20
3.589553481368173
 30
0.0
 10
19.10887816289564
 20
3.714352983477581
 30
0.0
 10
18.69072664638741
 20
3.956107945854
 30
0.0
 10
18.48148895963487
 20
4.07306223200395
 30
0.0
 10
18.06462237109104
 20
4.298068776047725
 30
0.0
 10
17.85796245820607
 20
4.405963188441157
 30
0.0
 10
17.2351497045902
 20
4.716287532052006
 30
0.0
 10
16.81513253990822
 20
4.905368817968567
 30
0.0
 10
15.98091815568131
 20
5.240797408733981
 30
0.0
 10
15.56800158701268
 20
5.387157329603181
 30
0.0
 10
15.1500000000001
 20
5.511398828933942
 30
0.0
1001
PE_URL
1000

  0
LINE
  5
BB
330
1F
100
AcDbEntity
  8
0
  6
Continuous
 62
     1
370
    25
100
AcDbLine
 10
35.15000000000001
 20
-6.000000000000011
 30
0.0
 11
35.15000000000001
 21
-5.850994190131573
 31
0.0
1001
PE_URL
1000

  0
SPLINE
  5
BC
330
1F
100
AcDbEntity
  8
0
  6
Continuous
 62
     1
370
    25
100
AcDbSpline
210
0.0
220
0.0
230
1.0
 70
     8
 71
     3
 72
    17
 73
    13
 74
     0
 42
0.000000001
 43
0.00000001
 40
0.0
 40
0.0
 40
0.0
 40
0.0
 40
0.0529395107559042
 40
0.1548452611321353
 40
0.2568441500731221
 40
0.3589747320693205
 40
0.4657891677171441
 40
0.5725596406290239
 40
0.6794117720311467
 40
0.7863916398066193
 40
0.8932307483567076
 40
1.0
 40
1.0
 40
1.0
 40
1.0
 10
28.87546791104332
 20
-5.065447456601174
 30
0.0
 10
28.63324782240158
 20
-5.165824389378424
 30
0.0
 10
27.92476691009935
 20
-5.4594215939163
 30
0.0
 10
26.75025579264596
 20
-5.770036881009387
 30
0.0
 10
25.35018447755545
 20
-5.991397454867661
 30
0.0
 10
23.92662976519395
 20
-6.020563269568291
 30
0.0
 10
22.48251129531441
 20
-5.856270296565004
 30
0.0
 10
21.01682212616894
 20
-5.490528935013423
 30
0.0
 10
19.55009613484539
 20
-4.939432377326872
 30
0.0
 10
18.08200533460585
 20
-4.220351251755288
 30
0.0
 10
16.61543404858599
 20
-3.363452493761077
 30
0.0
 10
15.63837150574652
 20
-2.702144900579981
 30
0.0
 10
15.15000000000011
 20
-2.371599238574752
 30
0.0
  0
SPLINE
  5
BD
330
1F
100
AcDbEntity
  8
0
  6
Continuous
 62
     4
370
    25
100
AcDbSpline
210
0.0
220
0.0
230
1.0
 70
    24
 71
     3
 72
    24
 73
    20
 74
     0
 42
0.000000001
 43
0.00000001
 40
0.0
 40
0.0
 40
0.0
 40
0.0
 40
0.0625000000000003
 40
0.0625000000000003
 40
0.1250000000000006
 40
0.1250000000000006
 40
0.2500000000000006
 40
0.2500000000000006
 40
0.3750000000000006
 40
0.3750000000000006
 40
0.5000000000000004
 40
0.5000000000000004
 40
0.6250000000000003
 40
0.6250000000000003
 40
0.7500000000000002
 40
0.7500000000000002
 40
0.8750000000000001
 40
0.8750000000000001
 40
1.0
 40
1.0
 40
1.0
 40
1.0
 10
15.15000000000001
 20
3.946291487119743
 30
0.0
 10
15.15000000000001
 20
3.866229427750461
 30
0.0
 10
15.15000000000001
 20
3.786374108194855
 30
0.0
 10
15.15000000000001
 20
3.628097985720458
 30
0.0
 10
15.15000000000001
 20
3.54629915839791
 30
0.0
 10
15.15000000000001
 20
3.282660176844445
 30
0.0
 10
15.15000000000001
 20
3.086259791979682
 30
0.0
 10
15.15000000000001
 20
2.647203899611998
 30
0.0
 10
15.15000000000001
 20
2.404413794695437
 30
0.0
 10
15.15000000000001
 20
1.872331656708734
 30
0.0
 10
15.15000000000001
 20
1.582876538319264
 30
0.0
 10
15.15000000000001
 20
0.9667267698911289
 30
0.0
 10
15.15000000000001
 20
0.6399386833173378
 30
0.0
 10
15.15000000000001
 20
-0.0277871890364533
 30
0.0
 10
15.15000000000001
 20
-0.3685880114347991
 30
0.0
 10
15.15000000000001
 20
-1.027446502336779
 30
0.0
 10
15.15000000000001
 20
-1.345066225888431
 30
0.0
 10
15.15000000000001
 20
-1.915447282898651
 30
0.0
 10
15.15000000000001
 20
-2.167687213428876
 30
0.0
 10
15.15000000000001
 20
-2.371599238575436
 30
0.0
  0
SPLINE
  5
BE
330
1F
100
AcDbEntity
  8
0
  6
Continuous
 62
     1
370
    25
100
AcDbSpline
210
0.0
220
0.0
230
1.0
 70
     8
 71
     3
 72
    21
 73
    17
 74
     0
 42
0.000000001
 43
0.00000001
 40
0.0
 40
0.0
 40
0.0
 40
0.0
 40
0.0071653418596244
 40
0.0819225872758609
 40
0.1567122910658654
 40
0.2313657760457475
 40
0.3060536136187174
 40
0.3808799048194444
 40
0.455572826233991
 40
0.5302243230813677
 40
0.6085427523509325
 40
0.6868886470557303
 40
0.7651135746182804
 40
0.8433349362896669
 40
0.9216717048553511
 40
1.0
 40
1.0
 40
1.0
 40
1.0
 10
16.38191476997709
 20
5.067930255667701
 30
0.0
 10
16.42551617011928
 20
5.087523287537818
 30
0.0
 10
16.92401848563683
 20
5.311533794618141
 30
0.0
 10
17.8782569649646
 20
5.600902517252977
 30
0.0
 10
19.2436288515065
 20
5.907211287638216
 30
0.0
 10
20.60728131734941
 20
6.025656170681859
 30
0.0
 10
21.9714026445556
 20
5.971295644917988
 30
0.0
 10
23.33727745296845
 20
5.741332087415906
 30
0.0
 10
24.70145413042564
 20
5.343058399939193
 30
0.0
 10
26.08662676797221
 20
4.77915600383318
 30
0.0
 10
27.49511670952351
 20
4.058711159781148
 30
0.0
 10
28.9255970154574
 20
3.197076110648058
 30
0.0
 10
30.35438171321385
 20
2.231652086349944
 30
0.0
 10
31.78308060590196
 20
1.195004523498986
 30
0.0
 10
33.21350978179137
 20
0.1187010092414963
 30
0.0
 10
34.16734765081325
 20
-0.5965368323921609
 30
0.0
 10
34.64424079058197
 20
-0.9541364109535149
 30
0.0
  0
SPLINE
  5
BF
330
1F
100
AcDbEntity
  8
0
  6
Continuous
 62
     1
370
    25
100
AcDbSpline
210
0.0
220
0.0
230
1.0
 70
    24
 71
     3
 72
    12
 73
     8
 74
     0
 42
0.000000001
 43
0.00000001
 40
0.0
 40
0.0
 40
0.0
 40
0.0
 40
0.1897699912968968
 40
0.4532359616354596
 40
0.722622077740983
 40
0.994743157290725
 40
1.0
 40
1.0
 40
1.0
 40
1.0
 10
34.64254446138026
 20
-0.9553241934478509
 30
0.0
 10
34.64197582995293
 20
-0.9557223534597298
 30
0.0
 10
34.6406177426704
 20
-0.9566732964124873
 30
0.0
 10
34.61341163540428
 20
-0.9757232178056024
 30
0.0
 10
34.56045028314003
 20
-1.012807155894653
 30
0.0
 10
34.50433498481863
 20
-1.05209951078861
 30
0.0
 10
34.47026751094696
 20
-1.075953812801013
 30
0.0
 10
34.46962186708971
 20
-1.076405897496858
 30
0.0
1001
PE_URL
1000

  0
SPLINE
  5
C0
330
1F
100
AcDbEntity
  8
0
  6
Continuous
 62
     1
370
    25
100
AcDbSpline
210
0.0
220
0.0
230
1.0
 70
     8
 71
     3
 72
     8
 73
     4
 74
     0
 42
0.000000001
 43
0.00000001
 40
0.0
 40
0.0
 40
0.0
 40
0.0
 40
1.0
 40
1.0
 40
1.0
 40
1.0
 10
35.15000000000001
 20
-1.506285641381556
 30
0.0
 10
34.92462260305482
 20
-1.366592708764794
 30
0.0
 10
34.69777928569071
 20
-1.223170726844732
 30
0.0
 10
34.46962186708972
 20
-1.076405897496862
 30
0.0
1001
PE_URL
1000

  0
LINE
  5
C1
330
1F
100
AcDbEntity
  8
0
  6
Continuous
 62
     1
370
    25
100
AcDbLine
 10
35.15000000000001
 20
-5.850994190131573
 30
0.0
 11
35.15000000000001
 21
-1.506285641381554
 31
0.0
1001
PE_URL
1000

  0
SPLINE
  5
C2
330
1F
100
AcDbEntity
  8
0
  6
Continuous
 62
     1
370
    25
100
AcDbSpline
210
0.0
220
0.0
230
1.0
 70
     8
 71
     3
 72
    15
 73
    11
 74
     0
 42
0.000000001
 43
0.00000001
 40
0.0
 40
0.0
 40
0.0
 40
0.0
 40
0.1305769531484642
 40
0.260952310236552
 40
0.3913674104344311
 40
0.5220153095147877
 40
0.652499500884793
 40
0.7828612371601127
 40
0.9133421198523022
 40
1.0
 40
1.0
 40
1.0
 40
1.0
 10
35.15000000000001
 20
1.328859280377889
 30
0.0
 10
34.68283460443396
 20
1.667864362579149
 30
0.0
 10
33.74922506388261
 20
2.345351141442558
 30
0.0
 10
32.35008981713987
 20
3.279407942070224
 30
0.0
 10
30.95058938659584
 20
4.115301265246202
 30
0.0
 10
29.54926793490543
 20
4.821898316968922
 30
0.0
 10
28.14921036223673
 20
5.382845028380413
 30
0.0
 10
26.75023860784083
 20
5.770461540822375
 30
0.0
 10
25.50748771429726
 20
5.980401029752564
 30
0.0
 10
24.73053736964453
 20
5.979599384031792
 30
0.0
 10
24.4204643593397
 20
5.979279455347097
 30
0.0
1001
PE_URL
1000

  0
LINE
  5
C3
330
1F
100
AcDbEntity
  8
0
  6
Continuous
 62
     1
370
    25
100
AcDbLine
 10
35.15000000000001
 20
-0.6000000000000267
 30
0.0
 11
35.15000000000001
 21
1.328859280378003
 31
0.0
1001
PE_URL
1000

  0
LINE
  5
C4
330
1F
100
AcDbEntity
  8
0
  6
Continuous
 62
     1
370
    25
100
AcDbLine
 10
35.15000000000001
 20
-0.6000000000000256
 30
0.0
 11
34.64424079058197
 21
-0.9541364109535228
 31
0.0
1001
PE_URL
1000

  0
SPLINE
  5
C5
330
1F
100
AcDbEntity
  8
0
  6
Continuous
 62
     1
370
    25
100
AcDbSpline
210
0.0
220
0.0
230
1.0
 70
     8
 71
     3
 72
    12
 73
     8
 74
     0
 42
0.000000001
 43
0.00000001
 40
0.0
 40
0.0
 40
0.0
 40
0.0
 40
0.008783064160812
 40
0.2564197987463963
 40
0.5040452447866138
 40
0.7520360345522017
 40
1.0
 40
1.0
 40
1.0
 40
1.0
 10
28.87546791104332
 20
5.065447456601168
 30
0.0
 10
28.89236185660106
 20
5.073146960568348
 30
0.0
 10
29.38557721295446
 20
5.297932436521064
 30
0.0
 10
30.35433467965256
 20
5.593606760796443
 30
0.0
 10
31.78309316865377
 20
5.913572615250974
 30
0.0
 10
33.21350663957091
 20
6.038929661092727
 30
0.0
 10
34.16734660344419
 20
5.96207485223797
 30
0.0
 10
34.64424079058197
 20
5.923649526203628
 30
0.0
1001
PE_URL
1000

  0
SPLINE
  5
C6
330
1F
100
AcDbEntity
  8
0
  6
Continuous
 62
     1
370
    25
100
AcDbSpline
210
0.0
220
0.0
230
1.0
 70
     8
 71
     3
 72
     8
 73
     4
 74
     0
 42
0.000000001
 43
0.00000001
 40
0.0
 40
0.0
 40
0.0
 40
0.0
 40
1.0
 40
1.0
 40
1.0
 40
1.0
 10
34.64424079058197
 20
5.923649526203636
 30
0.0
 10
34.64962019783494
 20
5.448178710383688
 30
0.0
 10
34.60341133311317
 20
4.981921976505456
 30
0.0
 10
34.46962186708972
 20
4.532699336925774
 30
0.0
1001
PE_URL
1000

  0
SPLINE
  5
C7
330
1F
100
AcDbEntity
  8
0
  6
Continuous
 62
     1
370
    25
100
AcDbSpline
210
0.0
220
0.0
230
1.0
 70
     8
 71
     3
 72
     8
 73
     4
 74
     0
 42
0.000000001
 43
0.00000001
 40
0.0
 40
0.0
 40
0.0
 40
0.0
 40
1.0
 40
1.0
 40
1.0
 40
1.0
 10
35.15000000000001
 20
4.263738716231409
 30
0.0
 10
34.92462260305482
 20
4.365563896534044
 30
0.0
 10
34.6977792856907
 20
4.4547822239417
 30
0.0
 10
34.46962186708971
 20
4.532699336925774
 30
0.0
1001
PE_URL
1000

  0
LINE
  5
C8
330
1F
100
AcDbEntity
  8
0
  6
Continuous
 62
     1
370
    25
100
AcDbLine
 10
35.15000000000001
 20
1.333609129977793
 30
0.0
 11
35.15000000000001
 21
4.26373871623141
 31
0.0
1001
PE_URL
1000

  0
SPLINE
  5
C9
330
1F
100
AcDbEntity
  8
0
  6
Continuous
 62
     1
370
    25
100
AcDbSpline
210
0.0
220
0.0
230
1.0
 70
     8
 71
     3
 72
    12
 73
     8
 74
     0
 42
0.000000001
 43
0.00000001
 40
0.0
 40
0.0
 40
0.0
 40
0.0
 40
0.2385527735420934
 40
0.4774570307850872
 40
0.7164650163507761
 40
0.9550376828584448
 40
1.0
 40
1.0
 40
1.0
 40
1.0
 10
15.15000000000001
 20
-4.519599926839384
 30
0.0
 10
15.60419381703509
 20
-4.731953235203513
 30
0.0
 10
16.51325066035972
 20
-5.156972733335809
 30
0.0
 10
17.87821000945051
 20
-5.611367590129009
 30
0.0
 10
19.24367943878013
 20
-5.895349487461051
 30
0.0
 10
20.23836907959759
 20
-6.017355430969099
 30
0.0
 10
20.7783707536825
 20
-5.990768181612241
 30
0.0
 10
20.86400296109016
 20
-5.986552037550867
 30
0.0
  0
LINE
  5
CA
330
1F
100
AcDbEntity
  8
0
  6
Continuous
 62
     4
370
    25
100
AcDbLine
 10
15.15000000000001
 20
-4.519599926839397
 30
0.0
 11
15.15000000000001
 21
-2.371599238575437
 31
0.0
  0
LINE
  5
CB
330
1F
100
AcDbEntity
  8
0
  6
Continuous
 62
     1
370
    25
100
AcDbLine
 10
35.15000000000001
 20
-0.6000000000000059
 30
0.0
 11
35.15000000000001
 21
-1.506285641381555
 31
0.0
1001
PE_URL
1000

  0
LINE
  5
CC
330
1F
100
AcDbEntity
  8
0
  6
Continuous
 62
     1
370
    25
100
AcDbLine
 10
16.38191476997704
 20
-5.067930255667712
 30
0.0
 11
15.15000000000011
 21
-5.511398828933938
 31
0.0
  0
SPLINE
  5
CD
330
1F
100
AcDbEntity
  8
0
  6
Continuous
 62
     4
370
    25
100
AcDbSpline
210
0.0
220
0.0
230
1.0
 70
    24
 71
     3
 72
    10
 73
     6
 74
     0
 42
0.000000001
 43
0.00000001
 40
0.0
 40
0.0
 40
0.0
 40
0.0
 40
0.4284554874713415
 40
0.7132163070891501
 40
1.0
 40
1.0
 40
1.0
 40
1.0
 10
15.15000000000001
 20
-4.575442255025522
 30
0.0
 10
15.15000000000001
 20
-4.693841140699335
 30
0.0
 10
15.15000000000001
 20
-4.890930496473768
 30
0.0
 10
15.15000000000001
 20
-5.215011798341721
 30
0.0
 10
15.15000000000001
 20
-5.412370314404493
 30
0.0
 10
15.15000000000001
 20
-5.511398828935194
 30
0.0
  0
ELLIPSE
  5
CE
330
1F
100
AcDbEntity
  8
0
  6
Continuous
 62
     1
370
    25
100
AcDbEllipse
 10
36.00688880404527
 20
-0.0000000000000071
 30
0.0
 11
8.568888040452656
 21
0.0
 31
0.0
210
0.0
220
0.0
230
1.0
 40
0.7002075382097125
 41
1.670963747956457
 42
1.730497039761978
1001
PE_URL
1000

  0
LINE
  5
CF
330
1F
100
AcDbEntity
  8
0
  6
Continuous
 62
     1
370
    25
100
AcDbLine
 10
35.15000000000001
 20
4.26373871623141
 30
0.0
 11
35.15000000000001
 21
5.969924622639716
 31
0.0
1001
PE_URL
1000

  0
LINE
  5
D0
330
1F
100
AcDbEntity
  8
0
  6
Continuous
 62
     1
370
    25
100
AcDbLine
 10
35.15000000000001
 20
5.969924622639716
 30
0.0
 11
35.15000000000001
 21
5.999999999999996
 31
0.0
1001
PE_URL
1000

  0
LINE
  5
D1
330
1F
100
AcDbEntity
  8
중심선
100
AcDbLine
 10
-47.84999999999999
 20
-0.0000000000000123
 30
0.0
 11
38.15000000000003
 21
-0.0000000000000018
 31
0.0
  0
CIRCLE
  5
D2
330
1F
100
AcDbEntity
  8
해칭선
100
AcDbCircle
 10
0.0
 20
0.0
 30
0.0
 40
3.000000000000003
  0
INSERT
  5
D3
330
1F
100
AcDbEntity
  8
0
  6
Continuous
 62
     7
100
AcDbBlockReference
 66
     1
  2
블럭10
 10
-18.79027293212519
 20
-52.04717430164394
 30
0.0
  0
ATTRIB
  5
D4
330
D3
100
AcDbEntity
  8
FORMAT
 62
     2
100
AcDbText
 10
-34.90953397156074
 20
-49.97180738881175
 30
0.0
 40
4.233333333333333
  1
SEME7312035E [ 4 FLUTE ]
 41
0.75
  7
SLDTEXTSTYLE0
 11
-34.90953397156074
 21
-52.08847405547841
 31
0.0
100
AcDbAttribute
  2
AUTOATTR0
 70
     0
 74
     1
  0
SEQEND
  5
D5
330
D3
100
AcDbEntity
  8
0
  6
Continuous
 62
     7
  0
HATCH
  5
D6
330
1F
100
AcDbEntity
  8
중심선
100
AcDbHatch
 10
0.0
 20
0.0
 30
0.0
210
0.0
220
0.0
230
1.0
  2
SOLID
 70
     1
 71
     0
 91
        1
 92
        0
 93
        4
 72
     1
 10
-13.07536362774434
 20
-35.8
 11
-16.52163887158162
 21
-35.8
 72
     1
 10
-16.52163887158163
 20
-35.8
 11
-18.64986873078565
 21
-38.3363255805726
 72
     1
 10
-18.64986873078565
 20
-38.3363255805726
 11
-15.20356040183522
 21
-38.33628615127011
 72
     1
 10
-15.20356040183522
 20
-38.33628615127011
 11
-13.07536362774434
 21
-35.8
 97
        0
 75
     0
 76
     1
 98
        1
 10
3.649945079010196
 20
-0.000000000000008
  0
HATCH
  5
D7
330
1F
100
AcDbEntity
  8
중심선
100
AcDbHatch
 10
0.0
 20
0.0
 30
0.0
210
0.0
220
0.0
230
1.0
  2
SOLID
 70
     1
 71
     0
 91
        1
 92
        0
 93
        4
 72
     1
 10
-8.062599636708363
 20
-35.8
 11
-11.50887488054565
 21
-35.8
 72
     1
 10
-11.50887488054565
 20
-35.8
 11
-16.04001288890306
 21
-41.20000000000002
 72
     1
 10
-16.04001288890306
 20
-41.20000000000002
 11
-12.59373764506578
 21
-41.20000000000002
 72
     1
 10
-12.59373764506578
 20
-41.20000000000002
 11
-8.062599636708363
 21
-35.8
 97
        0
 75
     0
 76
     1
 98
        1
 10
3.649945079010196
 20
-0.000000000000008
  0
HATCH
  5
D8
330
1F
100
AcDbEntity
  8
중심선
100
AcDbHatch
 10
0.0
 20
0.0
 30
0.0
210
0.0
220
0.0
230
1.0
  2
SOLID
 70
     1
 71
     0
 91
        1
 92
        0
 93
        4
 72
     1
 10
-3.049835645672495
 20
-35.8
 11
-6.496110889509582
 21
-35.8
 72
     1
 10
-6.496110889509582
 20
-35.8
 11
-13.54454779139886
 21
-44.20000000000002
 72
     1
 10
-13.54454779139886
 20
-44.20000000000002
 11
-10.09827254756158
 21
-44.20000000000002
 72
     1
 10
-10.09827254756158
 20
-44.20000000000002
 11
-3.049835645672495
 21
-35.8
 97
        0
 75
     0
 76
     1
 98
        1
 10
3.649945079010196
 20
-0.000000000000008
  0
HATCH
  5
D9
330
1F
100
AcDbEntity
  8
중심선
100
AcDbHatch
 10
0.0
 20
0.0
 30
0.0
210
0.0
220
0.0
230
1.0
  2
SOLID
 70
     1
 71
     0
 91
        1
 92
        0
 93
        6
 72
     3
 10
1.750054785339704
 20
-40.00000000005128
 11
3.960054785062284
 21
1.540882976769353E-10
 40
0.3939339440162627
 50
17.09539180608437
 51
320.0019657685086
 73
     0
 72
     1
 10
3.4330544410403
 20
-38.58789400463834
 11
5.738356314741337
 21
-36.65356729459039
 72
     3
 10
1.750054785286857
 20
-40.00000000000016
 11
6.60005478528683
 21
-1.278976924368180E-13
 40
0.636358354079598
 50
39.9987384933741
 51
368.4976242363725
 73
     1
 72
     1
 10
8.175387277187466
 20
-39.03999999993002
 11
0.4301220921227795
 21
-39.03999999993002
 72
     1
 10
0.43012209212278
 20
-39.03999999993002
 11
0.430097047676846
 21
-40.95999999992992
 72
     1
 10
0.430097047676846
 20
-40.95999999992992
 11
4.871476817148883
 21
-40.95999999992989
 97
        0
 75
     0
 76
     1
 98
        1
 10
3.649945079010196
 20
-0.000000000000008
  0
DIMENSION
  5
DA
330
1F
100
AcDbEntity
  8
치수문자_일반주서
100
AcDbDimension
  2
_D
 10
48.15
 20
6.000000000000046
 30
0.0
 11
48.15000000000002
 21
-0.0000000000000065
 31
0.0
 70
   160
  1
%%c<>
 71
     2
 42
12.00000000000001
 52
-270.0
  3
SLDDIMSTYLE0
100
AcDbAlignedDimension
 13
35.15000000000001
 23
-6.000000000000012
 33
0.0
 14
35.15000000000001
 24
5.999999999999997
 34
0.0
 50
90.0000000000002
100
AcDbRotatedDimension
  0
DIMENSION
  5
E8
330
1F
100
AcDbEntity
  8
치수문자_일반주서
100
AcDbDimension
  2
_D_1
 10
35.15000000000001
 20
40.00000000000001
 30
0.0
 11
-4.849999999999989
 21
40.00000000000001
 31
0.0
 70
   160
  1
<>
 71
     2
 42
80.0
  3
SLDDIMSTYLE1
100
AcDbAlignedDimension
 13
-44.84999999999999
 23
5.499999999999988
 33
0.0
 14
35.15000000000001
 24
-0.6000000000000059
 34
0.0
 50
0.0000000000000051
100
AcDbRotatedDimension
  0
DIMENSION
  5
F3
330
1F
100
AcDbEntity
  8
치수문자_일반주서
100
AcDbDimension
  2
_D_2
 10
-58.34263956161986
 20
-6.000000000000064
 30
0.0
 11
-58.34263956161988
 21
-2.179391697609278
 31
0.0
 70
   160
  1
%%c<>
 71
     2
 42
11.99999999999998
 52
-270.0
  3
SLDDIMSTYLE2
100
AcDbAlignedDimension
 13
-44.34999999999999
 23
5.999999999999971
 33
0.0
 14
-44.34999999999999
 24
-6.000000000000012
 34
0.0
 50
90.0000000000002
100
AcDbRotatedDimension
  0
DIMENSION
  5
101
330
1F
100
AcDbEntity
  8
치수문자_일반주서
100
AcDbDimension
  2
_D_3
 10
35.15000000000001
 20
16.35731713152285
 30
0.0
 11
25.15000000000001
 21
16.35731713152285
 31
0.0
 70
   160
  1
<>
 71
     2
 42
19.99999999999999
  3
SLDDIMSTYLE2
100
AcDbAlignedDimension
 13
15.15000000000001
 23
5.511398828935197
 33
0.0
 14
35.15000000000001
 24
-0.6000000000000059
 34
0.0
 50
0.0000000000000204
100
AcDbRotatedDimension
  0
DIMENSION
  5
10B
330
1F
100
AcDbEntity
  8
치수문자_일반주서
100
AcDbDimension
  2
_D_4
 10
0.1500000000000021
 20
30.6697141489939
 30
0.0
 11
18.43629469445928
 21
30.6697141489939
 31
0.0
 70
   160
  1
<>
 71
     2
 42
35.0
  3
SLDDIMSTYLE1
100
AcDbAlignedDimension
 13
35.15000000000001
 23
5.969924622639716
 33
0.0
 14
0.1500000000000026
 24
5.84999999999999
 34
0.0
 50
-0.0000000000000116
100
AcDbRotatedDimension
  0
INSERT
  5
11B
330
1F
100
AcDbEntity
  8
해칭선
100
AcDbBlockReference
  2
SW_DOWELSYMBOL_0
 10
0.0
 20
0.0
 30
0.0
  0
ENDSEC
  0
SECTION
  2
OBJECTS
  0
DICTIONARY
  5
C
330
0
100
AcDbDictionary
281
     1
  3
ACAD_GROUP
350
D
  3
ACAD_LAYOUT
350
1A
  3
ACAD_MLINESTYLE
350
17
  3
ACAD_PLOTSETTINGS
350
19
  3
ACAD_PLOTSTYLENAME
350
E
  3
ACAD_SCALELIST
350
47
  3
APPDATA
350
13D
  3
DWGPROPS
350
149
  0
DICTIONARY
  5
D
102
{ACAD_REACTORS
330
C
102
}
330
C
100
AcDbDictionary
281
     1
  0
DICTIONARY
  5
1A
102
{ACAD_REACTORS
330
C
102
}
330
C
100
AcDbDictionary
281
     1
  3
Layout1
350
1E
  3
Layout2
350
26
  3
Model
350
22
  0
DICTIONARY
  5
17
102
{ACAD_REACTORS
330
C
102
}
330
C
100
AcDbDictionary
281
     1
  3
Standard
350
18
  0
DICTIONARY
  5
19
102
{ACAD_REACTORS
330
C
102
}
330
C
100
AcDbDictionary
281
     1
  0
ACDBDICTIONARYWDFLT
  5
E
102
{ACAD_REACTORS
330
C
102
}
330
C
100
AcDbDictionary
281
     1
  3
Normal
350
F
100
AcDbDictionaryWithDefault
340
F
  0
DICTIONARY
  5
47
102
{ACAD_REACTORS
330
C
102
}
330
C
100
AcDbDictionary
281
     1
  3
A0
350
48
  3
A1
350
49
  3
A2
350
4A
  3
A3
350
4B
  3
A4
350
4C
  3
A5
350
4D
  3
A6
350
4E
  3
A7
350
4F
  3
A8
350
50
  3
A9
350
51
  3
B0
350
52
  3
B1
350
53
  3
B2
350
54
  3
B3
350
55
  3
B4
350
56
  3
B5
350
57
  3
B6
350
58
  3
B7
350
59
  3
B8
350
5A
  3
B9
350
5B
  3
C0
350
5C
  3
C1
350
5D
  3
C2
350
5E
  3
C3
350
5F
  3
C4
350
60
  3
C5
350
61
  3
C6
350
62
  3
C7
350
63
  3
C8
350
64
  3
C9
350
65
  3
D0
350
66
  3
D1
350
67
  3
D2
350
68
  0
DICTIONARY
  5
13D
102
{ACAD_REACTORS
330
C
102
}
330
C
100
AcDbDictionary
281
     1
  0
XRECORD
  5
149
102
{ACAD_REACTORS
330
C
102
}
330
C
100
AcDbXrecord
280
     1
  1
DWGPROPS COOKIE
  2

  3

  4

  6

  7

  8
12011908
  9

300
=
301
=
302
=
303
=
304
=
305
=
306
=
307
=
308
=
309
=
 40
0.0
 41
2458260.417927477
 42
2458268.370892222
  1

 90
        0
  0
LAYOUT
  5
1E
102
{ACAD_REACTORS
330
1A
102
}
330
1A
100
AcDbPlotSettings
  1

  2
none_device
  4

  6

 40
0.0
 41
0.0
 42
0.0
 43
0.0
 44
0.0
 45
0.0
 46
0.0
 47
0.0
 48
0.0
 49
0.0
140
0.0
141
0.0
142
1.0
143
1.0
 70
   688
 72
     1
 73
     0
 74
     5
  7

 75
    16
147
1.0
148
0.0
149
0.0
100
AcDbLayout
  1
Layout1
 70
     1
 71
     1
 10
0.0
 20
0.0
 11
420.0
 21
297.0
 12
0.0
 22
0.0
 32
0.0
 14
1.000000000000000E+20
 24
1.000000000000000E+20
 34
1.000000000000000E+20
 15
-1.000000000000000E+20
 25
-1.000000000000000E+20
 35
-1.000000000000000E+20
146
0.0
 13
0.0
 23
0.0
 33
0.0
 16
1.0
 26
0.0
 36
0.0
 17
0.0
 27
1.0
 37
0.0
 76
     0
330
1B
  0
LAYOUT
  5
26
102
{ACAD_REACTORS
330
1A
102
}
330
1A
100
AcDbPlotSettings
  1

  2
none_device
  4

  6

 40
0.0
 41
0.0
 42
0.0
 43
0.0
 44
0.0
 45
0.0
 46
0.0
 47
0.0
 48
0.0
 49
0.0
140
0.0
141
0.0
142
1.0
143
1.0
 70
   688
 72
     1
 73
     0
 74
     5
  7

 75
    16
147
1.0
148
0.0
149
0.0
100
AcDbLayout
  1
Layout2
 70
     1
 71
     2
 10
0.0
 20
0.0
 11
0.0
 21
0.0
 12
0.0
 22
0.0
 32
0.0
 14
0.0
 24
0.0
 34
0.0
 15
0.0
 25
0.0
 35
0.0
146
0.0
 13
0.0
 23
0.0
 33
0.0
 16
1.0
 26
0.0
 36
0.0
 17
0.0
 27
1.0
 37
0.0
 76
     0
330
23
  0
LAYOUT
  5
22
102
{ACAD_REACTORS
330
1A
102
}
330
1A
100
AcDbPlotSettings
  1

  2
none_device
  4
ANSI_A_(11.00_x_8.50_Inches)
  6

 40
6.35
 41
19.05
 42
6.35000508
 43
19.05000254
 44
279.4
 45
215.9
 46
153.8345630819633
 47
95.86257132817738
 48
0.0
 49
0.0
140
0.0
141
0.0
142
0.0883673215476656
143
1.0
 70
  1696
 72
     0
 73
     0
 74
     0
  7

 75
     0
147
0.0235690232323232
148
0.0
149
0.0
100
AcDbLayout
  1
Model
 70
     1
 71
     0
 10
0.0
 20
0.0
 11
420.0
 21
297.0
 12
0.0
 22
0.0
 32
0.0
 14
-62.71763956161989
 24
-49.97180738881175
 34
0.0
 15
48.70033333333336
 25
44.37500000000001
 35
0.0
146
0.0
 13
0.0
 23
0.0
 33
0.0
 16
1.0
 26
0.0
 36
0.0
 17
0.0
 27
1.0
 37
0.0
 76
     0
330
1F
331
29
  0
MLINESTYLE
  5
18
102
{ACAD_REACTORS
330
17
102
}
330
17
100
AcDbMlineStyle
  2
Standard
 70
     0
  3

 62
   256
 51
90.0
 52
90.0
 71
     2
 49
0.5
 62
   256
  6
BYLAYER
 49
-0.5
 62
   256
  6
BYLAYER
  0
ACDBPLACEHOLDER
  5
F
102
{ACAD_REACTORS
330
E
102
}
330
E
  0
SCALE
  5
48
102
{ACAD_REACTORS
330
47
102
}
330
47
100
AcDbScale
 70
     0
300
1:1
140
1.0
141
1.0
290
     1
  0
SCALE
  5
49
102
{ACAD_REACTORS
330
47
102
}
330
47
100
AcDbScale
 70
     0
300
1:2
140
1.0
141
2.0
290
     0
  0
SCALE
  5
4A
102
{ACAD_REACTORS
330
47
102
}
330
47
100
AcDbScale
 70
     0
300
1:4
140
1.0
141
4.0
290
     0
  0
SCALE
  5
4B
102
{ACAD_REACTORS
330
47
102
}
330
47
100
AcDbScale
 70
     0
300
1:5
140
1.0
141
5.0
290
     0
  0
SCALE
  5
4C
102
{ACAD_REACTORS
330
47
102
}
330
47
100
AcDbScale
 70
     0
300
1:8
140
1.0
141
8.0
290
     0
  0
SCALE
  5
4D
102
{ACAD_REACTORS
330
47
102
}
330
47
100
AcDbScale
 70
     0
300
1:10
140
1.0
141
10.0
290
     0
  0
SCALE
  5
4E
102
{ACAD_REACTORS
330
47
102
}
330
47
100
AcDbScale
 70
     0
300
1:16
140
1.0
141
16.0
290
     0
  0
SCALE
  5
4F
102
{ACAD_REACTORS
330
47
102
}
330
47
100
AcDbScale
 70
     0
300
1:20
140
1.0
141
20.0
290
     0
  0
SCALE
  5
50
102
{ACAD_REACTORS
330
47
102
}
330
47
100
AcDbScale
 70
     0
300
1:30
140
1.0
141
30.0
290
     0
  0
SCALE
  5
51
102
{ACAD_REACTORS
330
47
102
}
330
47
100
AcDbScale
 70
     0
300
1:40
140
1.0
141
40.0
290
     0
  0
SCALE
  5
52
102
{ACAD_REACTORS
330
47
102
}
330
47
100
AcDbScale
 70
     0
300
1:50
140
1.0
141
50.0
290
     0
  0
SCALE
  5
53
102
{ACAD_REACTORS
330
47
102
}
330
47
100
AcDbScale
 70
     0
300
1:100
140
1.0
141
100.0
290
     0
  0
SCALE
  5
54
102
{ACAD_REACTORS
330
47
102
}
330
47
100
AcDbScale
 70
     0
300
2:1
140
2.0
141
1.0
290
     0
  0
SCALE
  5
55
102
{ACAD_REACTORS
330
47
102
}
330
47
100
AcDbScale
 70
     0
300
4:1
140
4.0
141
1.0
290
     0
  0
SCALE
  5
56
102
{ACAD_REACTORS
330
47
102
}
330
47
100
AcDbScale
 70
     0
300
8:1
140
8.0
141
1.0
290
     0
  0
SCALE
  5
57
102
{ACAD_REACTORS
330
47
102
}
330
47
100
AcDbScale
 70
     0
300
10:1
140
10.0
141
1.0
290
     0
  0
SCALE
  5
58
102
{ACAD_REACTORS
330
47
102
}
330
47
100
AcDbScale
 70
     0
300
100:1
140
100.0
141
1.0
290
     0
  0
SCALE
  5
59
102
{ACAD_REACTORS
330
47
102
}
330
47
100
AcDbScale
 70
     0
300
1/128" = 1'-0"
140
0.0078125
141
12.0
290
     0
  0
SCALE
  5
5A
102
{ACAD_REACTORS
330
47
102
}
330
47
100
AcDbScale
 70
     0
300
1/64" = 1'-0"
140
0.015625
141
12.0
290
     0
  0
SCALE
  5
5B
102
{ACAD_REACTORS
330
47
102
}
330
47
100
AcDbScale
 70
     0
300
1/32" = 1'-0"
140
0.03125
141
12.0
290
     0
  0
SCALE
  5
5C
102
{ACAD_REACTORS
330
47
102
}
330
47
100
AcDbScale
 70
     0
300
1/16" = 1'-0"
140
0.0625
141
12.0
290
     0
  0
SCALE
  5
5D
102
{ACAD_REACTORS
330
47
102
}
330
47
100
AcDbScale
 70
     0
300
3/32" = 1'-0"
140
0.09375
141
12.0
290
     0
  0
SCALE
  5
5E
102
{ACAD_REACTORS
330
47
102
}
330
47
100
AcDbScale
 70
     0
300
1/8" = 1'-0"
140
0.125
141
12.0
290
     0
  0
SCALE
  5
5F
102
{ACAD_REACTORS
330
47
102
}
330
47
100
AcDbScale
 70
     0
300
3/16" = 1'-0"
140
0.1875
141
12.0
290
     0
  0
SCALE
  5
60
102
{ACAD_REACTORS
330
47
102
}
330
47
100
AcDbScale
 70
     0
300
1/4" = 1'-0"
140
0.25
141
12.0
290
     0
  0
SCALE
  5
61
102
{ACAD_REACTORS
330
47
102
}
330
47
100
AcDbScale
 70
     0
300
3/8" = 1'-0"
140
0.375
141
12.0
290
     0
  0
SCALE
  5
62
102
{ACAD_REACTORS
330
47
102
}
330
47
100
AcDbScale
 70
     0
300
1/2" = 1'-0"
140
0.5
141
12.0
290
     0
  0
SCALE
  5
63
102
{ACAD_REACTORS
330
47
102
}
330
47
100
AcDbScale
 70
     0
300
3/4" = 1'-0"
140
0.75
141
12.0
290
     0
  0
SCALE
  5
64
102
{ACAD_REACTORS
330
47
102
}
330
47
100
AcDbScale
 70
     0
300
1" = 1'-0"
140
1.0
141
12.0
290
     0
  0
SCALE
  5
65
102
{ACAD_REACTORS
330
47
102
}
330
47
100
AcDbScale
 70
     0
300
1-1/2" = 1'-0"
140
1.5
141
12.0
290
     0
  0
SCALE
  5
66
102
{ACAD_REACTORS
330
47
102
}
330
47
100
AcDbScale
 70
     0
300
3" = 1'-0"
140
3.0
141
12.0
290
     0
  0
SCALE
  5
67
102
{ACAD_REACTORS
330
47
102
}
330
47
100
AcDbScale
 70
     0
300
6" = 1'-0"
140
6.0
141
12.0
290
     0
  0
SCALE
  5
68
102
{ACAD_REACTORS
330
47
102
}
330
47
100
AcDbScale
 70
     0
300
1'-0" = 1'-0"
140
12.0
141
12.0
290
     0
  0
ENDSEC
  0
EOF
