  0
SECTION
  2
HEADER
  9
$ACADVER
  1
AC1015
  9
$ACADMAINTVER
 70
     6
  9
$DWGCODEPAGE
  3
ANSI_949
  9
$INSBASE
 10
0.0
 20
0.0
 30
0.0
  9
$EXTMIN
 10
-62.10260974387866
 20
-49.97073246008785
 30
0.0
  9
$EXTMAX
 10
50.65162972077809
 20
79.29049286448696
 30
0.0
  9
$LIMMIN
 10
0.0
 20
0.0
  9
$LIMMAX
 10
420.0
 20
297.0
  9
$ORTHOMODE
 70
     1
  9
$REGENMODE
 70
     1
  9
$FILLMODE
 70
     1
  9
$QTEXTMODE
 70
     0
  9
$MIRRTEXT
 70
     1
  9
$LTSCALE
 40
1.0
  9
$ATTMODE
 70
     1
  9
$TEXTSIZE
 40
3.5
  9
$TRACEWID
 40
1.0
  9
$TEXTSTYLE
  7
Standard
  9
$CLAYER
  8
0
  9
$CELTYPE
  6
ByLayer
  9
$CECOLOR
 62
   256
  9
$CELTSCALE
 40
1.0
  9
$DISPSILH
 70
     0
  9
$DIMSCALE
 40
1.0
  9
$DIMASZ
 40
3.302
  9
$DIMEXO
 40
1.0
  9
$DIMDLI
 40
3.75
  9
$DIMRND
 40
0.0
  9
$DIMDLE
 40
0.0
  9
$DIMEXE
 40
1.0
  9
$DIMTP
 40
0.0
  9
$DIMTM
 40
0.0
  9
$DIMTXT
 40
3.5
  9
$DIMCEN
 40
2.5
  9
$DIMTSZ
 40
0.0
  9
$DIMTOL
 70
     0
  9
$DIMLIM
 70
     0
  9
$DIMTIH
 70
     1
  9
$DIMTOH
 70
     1
  9
$DIMSE1
 70
     0
  9
$DIMSE2
 70
     0
  9
$DIMTAD
 70
     1
  9
$DIMZIN
 70
     0
  9
$DIMBLK
  1

  9
$DIMASO
 70
     1
  9
$DIMSHO
 70
     1
  9
$DIMPOST
  1

  9
$DIMAPOST
  1

  9
$DIMALT
 70
     0
  9
$DIMALTD
 70
     3
  9
$DIMALTF
 40
0.0393700787401575
  9
$DIMLFAC
 40
1.0
  9
$DIMTOFL
 70
     1
  9
$DIMTVP
 40
0.0
  9
$DIMTIX
 70
     0
  9
$DIMSOXD
 70
     0
  9
$DIMSAH
 70
     0
  9
$DIMBLK1
  1

  9
$DIMBLK2
  1

  9
$DIMSTYLE
  2
ISO-25
  9
$DIMCLRD
 70
     0
  9
$DIMCLRE
 70
     0
  9
$DIMCLRT
 70
     0
  9
$DIMTFAC
 40
1.0
  9
$DIMGAP
 40
1.524
  9
$DIMJUST
 70
     0
  9
$DIMSD1
 70
     0
  9
$DIMSD2
 70
     0
  9
$DIMTOLJ
 70
     0
  9
$DIMTZIN
 70
     0
  9
$DIMALTZ
 70
     0
  9
$DIMALTTZ
 70
     0
  9
$DIMUPT
 70
     0
  9
$DIMDEC
 70
     2
  9
$DIMTDEC
 70
     2
  9
$DIMALTU
 70
     2
  9
$DIMALTTD
 70
     3
  9
$DIMTXSTY
  7
Standard
  9
$DIMAUNIT
 70
     0
  9
$DIMADEC
 70
     2
  9
$DIMALTRND
 40
0.0
  9
$DIMAZIN
 70
     0
  9
$DIMDSEP
 70
    44
  9
$DIMATFIT
 70
     3
  9
$DIMFRAC
 70
     0
  9
$DIMLDRBLK
  1

  9
$DIMLUNIT
 70
     2
  9
$DIMLWD
 70
    -2
  9
$DIMLWE
 70
    -2
  9
$DIMTMOVE
 70
     0
  9
$LUNITS
 70
     2
  9
$LUPREC
 70
     2
  9
$SKETCHINC
 40
1.0
  9
$FILLETRAD
 40
10.0
  9
$AUNITS
 70
     0
  9
$AUPREC
 70
     2
  9
$MENU
  1
.
  9
$ELEVATION
 40
0.0
  9
$PELEVATION
 40
0.0
  9
$THICKNESS
 40
0.0
  9
$LIMCHECK
 70
     0
  9
$CHAMFERA
 40
0.0
  9
$CHAMFERB
 40
0.0
  9
$CHAMFERC
 40
0.0
  9
$CHAMFERD
 40
0.0
  9
$SKPOLY
 70
     0
  9
$TDCREATE
 40
2458268.769836018
  9
$TDUCREATE
 40
2458268.394836018
  9
$TDUPDATE
 40
2458270.365973102
  9
$TDUUPDATE
 40
2458269.990973102
  9
$TDINDWG
 40
0.0123353241
  9
$TDUSRTIMER
 40
2458269.978637859
  9
$USRTIMER
 70
     1
  9
$ANGBASE
 50
0.0
  9
$ANGDIR
 70
     0
  9
$PDMODE
 70
     0
  9
$PDSIZE
 40
-1.0
  9
$PLINEWID
 40
0.0
  9
$SPLFRAME
 70
     0
  9
$SPLINETYPE
 70
     6
  9
$SPLINESEGS
 70
     8
  9
$HANDSEED
  5
151
  9
$SURFTAB1
 70
     6
  9
$SURFTAB2
 70
     6
  9
$SURFTYPE
 70
     6
  9
$SURFU
 70
     6
  9
$SURFV
 70
     6
  9
$UCSBASE
  2

  9
$UCSNAME
  2

  9
$UCSORG
 10
0.0
 20
0.0
 30
0.0
  9
$UCSXDIR
 10
1.0
 20
0.0
 30
0.0
  9
$UCSYDIR
 10
0.0
 20
1.0
 30
0.0
  9
$UCSORTHOREF
  2

  9
$UCSORTHOVIEW
 70
     0
  9
$UCSORGTOP
 10
0.0
 20
0.0
 30
0.0
  9
$UCSORGBOTTOM
 10
0.0
 20
0.0
 30
0.0
  9
$UCSORGLEFT
 10
0.0
 20
0.0
 30
0.0
  9
$UCSORGRIGHT
 10
0.0
 20
0.0
 30
0.0
  9
$UCSORGFRONT
 10
0.0
 20
0.0
 30
0.0
  9
$UCSORGBACK
 10
0.0
 20
0.0
 30
0.0
  9
$PUCSBASE
  2

  9
$PUCSNAME
  2

  9
$PUCSORG
 10
0.0
 20
0.0
 30
0.0
  9
$PUCSXDIR
 10
1.0
 20
0.0
 30
0.0
  9
$PUCSYDIR
 10
0.0
 20
1.0
 30
0.0
  9
$PUCSORTHOREF
  2

  9
$PUCSORTHOVIEW
 70
     0
  9
$PUCSORGTOP
 10
0.0
 20
0.0
 30
0.0
  9
$PUCSORGBOTTOM
 10
0.0
 20
0.0
 30
0.0
  9
$PUCSORGLEFT
 10
0.0
 20
0.0
 30
0.0
  9
$PUCSORGRIGHT
 10
0.0
 20
0.0
 30
0.0
  9
$PUCSORGFRONT
 10
0.0
 20
0.0
 30
0.0
  9
$PUCSORGBACK
 10
0.0
 20
0.0
 30
0.0
  9
$USERI1
 70
     0
  9
$USERI2
 70
     0
  9
$USERI3
 70
     0
  9
$USERI4
 70
     0
  9
$USERI5
 70
     0
  9
$USERR1
 40
0.0
  9
$USERR2
 40
0.0
  9
$USERR3
 40
0.0
  9
$USERR4
 40
0.0
  9
$USERR5
 40
0.0
  9
$WORLDVIEW
 70
     1
  9
$SHADEDGE
 70
     3
  9
$SHADEDIF
 70
    70
  9
$TILEMODE
 70
     1
  9
$MAXACTVP
 70
    64
  9
$PINSBASE
 10
0.0
 20
0.0
 30
0.0
  9
$PLIMCHECK
 70
     0
  9
$PEXTMIN
 10
1.000000000000000E+20
 20
1.000000000000000E+20
 30
1.000000000000000E+20
  9
$PEXTMAX
 10
-1.000000000000000E+20
 20
-1.000000000000000E+20
 30
-1.000000000000000E+20
  9
$PLIMMIN
 10
0.0
 20
0.0
  9
$PLIMMAX
 10
0.0
 20
0.0
  9
$UNITMODE
 70
     0
  9
$VISRETAIN
 70
     1
  9
$PLINEGEN
 70
     0
  9
$PSLTSCALE
 70
     1
  9
$TREEDEPTH
 70
  3020
  9
$CMLSTYLE
  2
Standard
  9
$CMLJUST
 70
     0
  9
$CMLSCALE
 40
20.0
  9
$PROXYGRAPHICS
 70
     1
  9
$MEASUREMENT
 70
     1
  9
$CELWEIGHT
370
    -1
  9
$ENDCAPS
280
     0
  9
$JOINSTYLE
280
     0
  9
$LWDISPLAY
290
     1
  9
$INSUNITS
 70
     4
  9
$HYPERLINKBASE
  1

  9
$STYLESHEET
  1

  9
$XEDIT
290
     1
  9
$CEPSNTYPE
380
     0
  9
$PSTYLEMODE
290
     1
  9
$FINGERPRINTGUID
  2
{F2342FA6-3F9E-4B97-8757-B6814BB80EA2}
  9
$VERSIONGUID
  2
{FAEB1C32-E019-11D5-929B-00C0DF256EC4}
  9
$EXTNAMES
290
     1
  9
$PSVPSCALE
 40
0.0
  9
$OLESTARTUP
290
     0
  0
ENDSEC
  0
SECTION
  2
CLASSES
  0
CLASS
  1
ACDBDICTIONARYWDFLT
  2
AcDbDictionaryWithDefault
  3
ObjectDBX Classes
 90
        0
280
     0
281
     0
  0
CLASS
  1
VISUALSTYLE
  2
AcDbVisualStyle
  3
ObjectDBX Classes
 90
     4095
280
     0
281
     0
  0
CLASS
  1
MATERIAL
  2
AcDbMaterial
  3
ObjectDBX Classes
 90
     1153
280
     0
281
     0
  0
CLASS
  1
SCALE
  2
AcDbScale
  3
ObjectDBX Classes
 90
     1153
280
     0
281
     0
  0
CLASS
  1
SUN
  2
AcDbSun
  3
SCENEOE
 90
     1153
280
     0
281
     0
  0
CLASS
  1
ACDBPLACEHOLDER
  2
AcDbPlaceHolder
  3
ObjectDBX Classes
 90
        0
280
     0
281
     0
  0
CLASS
  1
LAYOUT
  2
AcDbLayout
  3
ObjectDBX Classes
 90
        0
280
     0
281
     0
  0
CLASS
  1
TABLESTYLE
  2
AcDbTableStyle
  3
ObjectDBX Classes
 90
     4095
280
     0
281
     0
  0
CLASS
  1
MLEADERSTYLE
  2
AcDbMLeaderStyle
  3
ACDB_MLEADERSTYLE_CLASS
 90
     4095
280
     0
281
     0
  0
CLASS
  1
RASTERVARIABLES
  2
AcDbRasterVariables
  3
ISM
 90
        0
280
     0
281
     0
  0
ENDSEC
  0
SECTION
  2
TABLES
  0
TABLE
  2
VPORT
  5
8
330
0
100
AcDbSymbolTable
 70
     1
  0
VPORT
  5
29
330
8
100
AcDbSymbolTableRecord
100
AcDbViewportTableRecord
  2
*Active
 70
     0
 10
0.0
 20
0.0
 11
1.0
 21
1.0
 12
-5.227408637691344
 22
-4.703999507942779
 13
0.0
 23
0.0
 14
10.0
 24
10.0
 15
10.0
 25
10.0
 16
0.0
 26
0.0
 36
1.0
 17
0.0
 27
0.0
 37
0.0
 40
35.16533033931429
 41
1.627413127413128
 42
50.0
 43
0.0
 44
0.0
 50
0.0
 51
0.0
 71
    16
 72
  2000
 73
     1
 74
     3
 75
     0
 76
     0
 77
     0
 78
     0
281
     0
 65
     1
110
0.0
120
0.0
130
0.0
111
1.0
121
0.0
131
0.0
112
0.0
122
1.0
132
0.0
 79
     0
146
0.0
  0
ENDTAB
  0
TABLE
  2
LTYPE
  5
5
330
0
100
AcDbSymbolTable
 70
     6
  0
LTYPE
  5
14
330
5
100
AcDbSymbolTableRecord
100
AcDbLinetypeTableRecord
  2
ByBlock
 70
     0
  3

 72
    65
 73
     0
 40
0.0
  0
LTYPE
  5
15
330
5
100
AcDbSymbolTableRecord
100
AcDbLinetypeTableRecord
  2
ByLayer
 70
     0
  3

 72
    65
 73
     0
 40
0.0
  0
LTYPE
  5
16
330
5
100
AcDbSymbolTableRecord
100
AcDbLinetypeTableRecord
  2
Continuous
 70
     0
  3
Solid line
 72
    65
 73
     0
 40
0.0
  0
LTYPE
  5
6A
330
5
100
AcDbSymbolTableRecord
100
AcDbLinetypeTableRecord
  2
HIDDEN
 70
     0
  3
Hidden __ __ __ __ __ __ __ __ __ __ __ __ __ __
 72
    65
 73
     2
 40
1.905
 49
1.27
 74
     0
 49
-0.635
 74
     0
  0
LTYPE
  5
6B
330
5
100
AcDbSymbolTableRecord
100
AcDbLinetypeTableRecord
  2
PHANTOM
 70
     0
  3
Phantom ______  __  __  ______  __  __  ______
 72
    65
 73
     6
 40
12.7
 49
6.35
 74
     0
 49
-1.27
 74
     0
 49
1.27
 74
     0
 49
-1.27
 74
     0
 49
1.27
 74
     0
 49
-1.27
 74
     0
  0
LTYPE
  5
6C
330
5
100
AcDbSymbolTableRecord
100
AcDbLinetypeTableRecord
  2
CENTER
 70
     0
  3
Center ____ _ ____ _ ____ _ ____ _ ____ _ ____
 72
    65
 73
     4
 40
10.16
 49
6.35
 74
     0
 49
-1.27
 74
     0
 49
1.27
 74
     0
 49
-1.27
 74
     0
  0
LTYPE
  5
6D
330
5
100
AcDbSymbolTableRecord
100
AcDbLinetypeTableRecord
  2
CENTERX2
 70
     0
  3
Center (2x) ________  __  ________  __  _____
 72
    65
 73
     4
 40
20.32
 49
12.7
 74
     0
 49
-2.54
 74
     0
 49
2.54
 74
     0
 49
-2.54
 74
     0
  0
LTYPE
  5
6E
330
5
100
AcDbSymbolTableRecord
100
AcDbLinetypeTableRecord
  2
DOT2
 70
     0
  3
Dot (.5x) ........................................
 72
    65
 73
     2
 40
0.635
 49
0.0
 74
     0
 49
-0.635
 74
     0
  0
ENDTAB
  0
TABLE
  2
LAYER
  5
2
330
0
100
AcDbSymbolTable
 70
    17
  0
LAYER
  5
10
330
2
100
AcDbSymbolTableRecord
100
AcDbLayerTableRecord
  2
0
 70
     0
 62
     7
  6
Continuous
370
    -3
390
F
  0
LAYER
  5
6F
330
2
100
AcDbSymbolTableRecord
100
AcDbLayerTableRecord
  2
FORMAT
 70
     0
 62
     2
  6
Continuous
370
    -3
390
F
  0
LAYER
  5
70
330
2
100
AcDbSymbolTableRecord
100
AcDbLayerTableRecord
  2
외형선
 70
     0
 62
   100
  6
Continuous
370
    30
390
F
  0
LAYER
  5
71
330
2
100
AcDbSymbolTableRecord
100
AcDbLayerTableRecord
  2
숨은선
 70
     0
 62
     2
  6
HIDDEN
370
    15
390
F
  0
LAYER
  5
72
330
2
100
AcDbSymbolTableRecord
100
AcDbLayerTableRecord
  2
중심선
 70
     0
 62
     1
  6
CENTERX2
370
    -3
390
F
  0
LAYER
  5
73
330
2
100
AcDbSymbolTableRecord
100
AcDbLayerTableRecord
  2
파단선
 70
     0
 62
     4
  6
Continuous
370
    -3
390
F
  0
LAYER
  5
74
330
2
100
AcDbSymbolTableRecord
100
AcDbLayerTableRecord
  2
해칭선
 70
     0
 62
     4
  6
Continuous
370
    -3
390
F
  0
LAYER
  5
75
330
2
100
AcDbSymbolTableRecord
100
AcDbLayerTableRecord
  2
가는실선
 70
     0
 62
     4
  6
Continuous
370
    -3
390
F
  0
LAYER
  5
76
330
2
100
AcDbSymbolTableRecord
100
AcDbLayerTableRecord
  2
치수_보조선
 70
     0
 62
     4
  6
Continuous
370
    -3
390
F
  0
LAYER
  5
77
330
2
100
AcDbSymbolTableRecord
100
AcDbLayerTableRecord
  2
치수문자_일반주서
 70
     0
 62
     7
  6
Continuous
370
    15
390
F
  0
LAYER
  5
78
330
2
100
AcDbSymbolTableRecord
100
AcDbLayerTableRecord
  2
개별주서
 70
     0
 62
   100
  6
Continuous
370
    30
390
F
  0
LAYER
  5
79
330
2
100
AcDbSymbolTableRecord
100
AcDbLayerTableRecord
  2
중간선
 70
     0
 62
     2
  6
Continuous
370
    15
390
F
  0
LAYER
  5
7A
330
2
100
AcDbSymbolTableRecord
100
AcDbLayerTableRecord
  2
윤곽선
 70
     0
 62
     3
  6
Continuous
370
    40
390
F
  0
LAYER
  5
7B
330
2
100
AcDbSymbolTableRecord
100
AcDbLayerTableRecord
  2
중심마크
 70
     0
 62
   100
  6
Continuous
370
    30
390
F
  0
LAYER
  5
7C
330
2
100
AcDbSymbolTableRecord
100
AcDbLayerTableRecord
  2
가상선
 70
     0
 62
     4
  6
PHANTOM
370
    -3
390
F
  0
LAYER
  5
7D
330
2
100
AcDbSymbolTableRecord
100
AcDbLayerTableRecord
  2
특수지정선
 70
     0
 62
     5
  6
CENTERX2
370
    60
390
F
  0
LAYER
  5
145
330
2
100
AcDbSymbolTableRecord
100
AcDbLayerTableRecord
  2
Defpoints
 70
     0
 62
     7
  6
Continuous
290
     0
370
    -3
390
F
  0
ENDTAB
  0
TABLE
  2
STYLE
  5
3
330
0
100
AcDbSymbolTable
 70
     2
  0
STYLE
  5
11
330
3
100
AcDbSymbolTableRecord
100
AcDbTextStyleTableRecord
  2
Standard
 70
     0
 40
0.0
 41
1.0
 50
0.0
 71
     0
 42
3.5
  3
txt
  4

  0
STYLE
  5
93
330
3
100
AcDbSymbolTableRecord
100
AcDbTextStyleTableRecord
  2
SLDTEXTSTYLE0
 70
     0
 40
0.0
 41
0.75
 50
0.0
 71
     0
 42
3.5
  3
TXT
  4

  0
ENDTAB
  0
TABLE
  2
VIEW
  5
6
330
0
100
AcDbSymbolTable
 70
     0
  0
ENDTAB
  0
TABLE
  2
UCS
  5
7
330
0
100
AcDbSymbolTable
 70
     0
  0
ENDTAB
  0
TABLE
  2
APPID
  5
9
330
0
100
AcDbSymbolTable
 70
     1
  0
APPID
  5
12
330
9
100
AcDbSymbolTableRecord
100
AcDbRegAppTableRecord
  2
ACAD
 70
     0
  0
ENDTAB
  0
TABLE
  2
DIMSTYLE
  5
A
330
0
100
AcDbSymbolTable
 70
     3
100
AcDbDimStyleTable
  0
DIMSTYLE
105
27
330
A
100
AcDbSymbolTableRecord
100
AcDbDimStyleTableRecord
  2
ISO-25
 70
     0
 41
2.5
 42
0.625
 43
3.75
 44
1.25
 73
     0
 74
     0
 77
     1
 78
     8
140
2.5
141
2.5
143
0.03937007874016
147
0.625
171
     3
172
     1
178
     0
271
     2
272
     2
274
     3
278
    44
283
     0
284
     8
340
11
  0
DIMSTYLE
105
EB
102
{ACAD_REACTORS
330
EA
330
F8
102
}
330
A
100
AcDbSymbolTableRecord
100
AcDbDimStyleTableRecord
  2
SLDDIMSTYLE0
 70
     0
 41
3.302
 44
0.0
 45
0.000000001
 73
     0
 74
     0
 77
     1
 78
    12
 79
     3
140
3.5
147
0.875
172
     1
173
     1
178
     0
271
     2
272
     2
276
     2
284
    12
289
     0
340
93
  0
DIMSTYLE
105
106
102
{ACAD_REACTORS
330
105
330
110
102
}
330
A
100
AcDbSymbolTableRecord
100
AcDbDimStyleTableRecord
  2
SLDDIMSTYLE1
 70
     0
 41
3.302
 44
0.0
 45
0.000000001
 73
     0
 74
     0
 77
     1
 78
    12
 79
     3
140
3.5
147
0.875
173
     1
178
     0
271
     2
272
     2
276
     2
284
    12
340
93
  0
ENDTAB
  0
TABLE
  2
BLOCK_RECORD
  5
1
330
0
100
AcDbSymbolTable
 70
     7
  0
BLOCK_RECORD
  5
1F
330
1
100
AcDbSymbolTableRecord
100
AcDbBlockTableRecord
  2
*Model_Space
340
22
  0
BLOCK_RECORD
  5
1B
330
1
100
AcDbSymbolTableRecord
100
AcDbBlockTableRecord
  2
*Paper_Space
340
1E
  0
BLOCK_RECORD
  5
23
330
1
100
AcDbSymbolTableRecord
100
AcDbBlockTableRecord
  2
*Paper_Space0
340
26
  0
BLOCK_RECORD
  5
7E
330
1
100
AcDbSymbolTableRecord
100
AcDbBlockTableRecord
  2
블럭10
340
0
102
{BLKREFS
331
E3
102
}
  0
BLOCK_RECORD
  5
EC
330
1
100
AcDbSymbolTableRecord
100
AcDbBlockTableRecord
  2
_D
340
0
  0
BLOCK_RECORD
  5
F9
330
1
100
AcDbSymbolTableRecord
100
AcDbBlockTableRecord
  2
_D_1
340
0
  0
BLOCK_RECORD
  5
107
330
1
100
AcDbSymbolTableRecord
100
AcDbBlockTableRecord
  2
_D_2
340
0
  0
BLOCK_RECORD
  5
111
330
1
100
AcDbSymbolTableRecord
100
AcDbBlockTableRecord
  2
_D_3
340
0
  0
BLOCK_RECORD
  5
11A
330
1
100
AcDbSymbolTableRecord
100
AcDbBlockTableRecord
  2
SW_DOWELSYMBOL_0
340
0
102
{BLKREFS
331
120
102
}
  0
ENDTAB
  0
ENDSEC
  0
SECTION
  2
BLOCKS
  0
BLOCK
  5
20
330
1F
100
AcDbEntity
  8
0
100
AcDbBlockBegin
  2
*Model_Space
 70
     0
 10
0.0
 20
0.0
 30
0.0
  3
*Model_Space
  1
*Model_Space
  0
ENDBLK
  5
21
330
1F
100
AcDbEntity
  8
0
100
AcDbBlockEnd
  0
BLOCK
  5
1C
330
1B
100
AcDbEntity
 67
     1
  8
0
100
AcDbBlockBegin
  2
*Paper_Space
 70
     0
 10
0.0
 20
0.0
 30
0.0
  3
*Paper_Space
  1
*Paper_Space
  0
ENDBLK
  5
1D
330
1B
100
AcDbEntity
 67
     1
  8
0
100
AcDbBlockEnd
  0
BLOCK
  5
24
330
23
100
AcDbEntity
  8
0
100
AcDbBlockBegin
  2
*Paper_Space0
 70
     0
 10
0.0
 20
0.0
 30
0.0
  3
*Paper_Space0
  1
*Paper_Space0
  0
ENDBLK
  5
25
330
23
100
AcDbEntity
  8
0
100
AcDbBlockEnd
  0
BLOCK
  5
7F
330
7E
100
AcDbEntity
  8
0
100
AcDbBlockBegin
  2
블럭10
 70
     2
 10
0.0
 20
0.0
 30
0.0
  3
블럭10
  1
블럭10
  0
ELLIPSE
  5
81
330
7E
100
AcDbEntity
  8
중심선
100
AcDbEllipse
 10
20.54032771741204
 20
12.0471743016438
 30
0.0
 11
6.600054785286829
 21
-1.261213355974178E-13
 31
0.0
210
0.0
220
0.0
230
1.0
 40
0.636358354079598
 41
0.9219305317359503
 42
6.513795318482858
  0
ELLIPSE
  5
82
330
7E
100
AcDbEntity
  8
중심선
100
AcDbEllipse
 10
20.54032771746488
 20
12.04717430159265
 30
0.0
 11
3.960054785062283
 21
1.540847449632565E-10
 31
0.0
210
0.0
220
0.0
230
1.0
 40
0.3939339440162632
 41
1.131841032648279
 42
5.62031148352944
  0
LINE
  5
83
330
7E
100
AcDbEntity
  8
중심선
100
AcDbLine
 10
2.268634060543552
 20
16.24717430164393
 30
0.0
 11
5.714909304380834
 21
16.24717430164393
 31
0.0
  0
LINE
  5
84
330
7E
100
AcDbEntity
  8
중심선
100
AcDbLine
 10
5.245725140726316
 20
7.84717430164391
 30
0.0
 11
8.692000384563599
 21
7.84717430164391
 31
0.0
  0
LINE
  5
85
330
7E
100
AcDbEntity
  8
중심선
100
AcDbLine
 10
15.74043728645272
 20
16.24717430164393
 30
0.0
 11
8.692000384563599
 21
7.84717430164391
 31
0.0
  0
LINE
  5
86
330
7E
100
AcDbEntity
  8
중심선
100
AcDbLine
 10
0.1404042013395286
 20
13.71084872107135
 30
0.0
 11
3.58671253028996
 21
13.71088815037384
 31
0.0
  0
LINE
  5
87
330
7E
100
AcDbEntity
  8
중심선
100
AcDbLine
 10
2.750260043222114
 20
10.84717430164391
 30
0.0
 11
6.196535287059397
 21
10.84717430164391
 31
0.0
  0
LINE
  5
88
330
7E
100
AcDbEntity
  8
중심선
100
AcDbLine
 10
12.29416204261559
 20
16.24717430164393
 30
0.0
 11
5.245725140726316
 21
7.84717430164391
 31
0.0
  0
LINE
  5
89
330
7E
100
AcDbEntity
  8
중심선
100
AcDbLine
 10
10.72767329541681
 20
16.24717430164393
 30
0.0
 11
6.196535287059397
 21
10.84717430164391
 31
0.0
  0
LINE
  5
8A
330
7E
100
AcDbEntity
  8
중심선
100
AcDbLine
 10
7.28139805157953
 20
16.24717430164393
 30
0.0
 11
2.750260043222114
 21
10.84717430164391
 31
0.0
  0
LINE
  5
8B
330
7E
100
AcDbEntity
  8
중심선
100
AcDbLine
 10
5.714909304380834
 20
16.24717430164393
 30
0.0
 11
3.58671253028996
 21
13.71088815037384
 31
0.0
  0
LINE
  5
8C
330
7E
100
AcDbEntity
  8
중심선
100
AcDbLine
 10
2.268634060543552
 20
16.24717430164393
 30
0.0
 11
0.1404042013395286
 21
13.71084872107135
 31
0.0
  0
LINE
  5
8D
330
7E
100
AcDbEntity
  8
중심선
100
AcDbLine
 10
7.28139805157953
 20
16.24717430164393
 30
0.0
 11
10.72767329541681
 21
16.24717430164393
 31
0.0
  0
LINE
  5
8E
330
7E
100
AcDbEntity
  8
중심선
100
AcDbLine
 10
12.29416204261559
 20
16.24717430164393
 30
0.0
 11
15.74043728645272
 21
16.24717430164393
 31
0.0
  0
LINE
  5
8F
330
7E
100
AcDbEntity
  8
중심선
100
AcDbLine
 10
19.22036997980202
 20
11.08717430171403
 30
0.0
 11
23.66174974927406
 21
11.08717430171406
 31
0.0
  0
LINE
  5
90
330
7E
100
AcDbEntity
  8
중심선
100
AcDbLine
 10
19.22039502424796
 20
13.00717430171391
 30
0.0
 11
19.22036997980202
 21
11.08717430171403
 31
0.0
  0
LINE
  5
91
330
7E
100
AcDbEntity
  8
중심선
100
AcDbLine
 10
19.22039502424796
 20
13.00717430171391
 30
0.0
 11
26.96566020931264
 21
13.00717430171391
 31
0.0
  0
LINE
  5
92
330
7E
100
AcDbEntity
  8
중심선
100
AcDbLine
 10
22.22332737316547
 20
13.45928029700563
 30
0.0
 11
24.52862924686651
 21
15.39360700705356
 31
0.0
  0
ATTDEF
  5
94
330
7E
100
AcDbEntity
  8
FORMAT
 62
     2
100
AcDbText
 10
-16.11926103943555
 20
2.075366912832191
 30
0.0
 40
4.233333333333333
  1
SEME7508030E [ 6 FLUTE ]
 41
0.75
  7
SLDTEXTSTYLE0
 11
-16.11926103943555
 21
-0.0412997538344756
 31
0.0
100
AcDbAttributeDefinition
  3

  2
AUTOATTR0
 70
     0
 74
     1
  0
ENDBLK
  5
80
330
7E
100
AcDbEntity
  8
0
100
AcDbBlockEnd
  0
BLOCK
  5
ED
330
EC
100
AcDbEntity
  8
0
100
AcDbBlockBegin
  2
_D
 70
     0
 10
0.0
 20
0.0
 30
0.0
  3
_D
  1
_D
  0
LINE
  5
EF
330
EC
100
AcDbEntity
  8
치수문자_일반주서
 62
     0
370
    -2
100
AcDbLine
 10
-39.16120361255521
 20
3.999999999999986
 30
0.0
 11
-57.72760974387867
 21
3.999999999999918
 31
0.0
  0
LINE
  5
F0
330
EC
100
AcDbEntity
  8
치수문자_일반주서
 62
     0
370
    -2
100
AcDbLine
 10
-39.16120361255521
 20
-4.00000000000002
 30
0.0
 11
-57.72760974387864
 21
-4.00000000000009
 31
0.0
  0
LINE
  5
F1
330
EC
100
AcDbEntity
  8
치수문자_일반주서
 62
     0
370
    -2
100
AcDbLine
 10
-57.72760974387865
 20
0.6979999999999182
 30
0.0
 11
-57.72760974387865
 21
-0.6980000000000901
 31
0.0
  0
SOLID
  5
F2
330
EC
100
AcDbEntity
  8
치수문자_일반주서
 62
     0
100
AcDbTrace
 10
-57.17727641054532
 20
0.6979999999999202
 30
0.0
 11
-58.27794307721199
 21
0.6979999999999162
 31
0.0
 12
-57.72760974387867
 22
3.999999999999918
 32
0.0
 13
-57.72760974387867
 23
3.999999999999918
 33
0.0
  0
SOLID
  5
F3
330
EC
100
AcDbEntity
  8
치수문자_일반주서
 62
     0
100
AcDbTrace
 10
-58.27794307721199
 20
-0.6980000000000921
 30
0.0
 11
-57.17727641054532
 21
-0.6980000000000881
 31
0.0
 12
-57.72760974387864
 22
-4.00000000000009
 32
0.0
 13
-57.72760974387864
 23
-4.00000000000009
 33
0.0
  0
MTEXT
  5
F4
330
EC
100
AcDbEntity
  8
치수문자_일반주서
 62
     0
100
AcDbMText
 10
-62.10260974387865
 20
-0.0000000000000319
 30
0.0
 40
3.5
 41
0.0
 71
     2
 72
     1
  1
\A1;%%c8
  7
SLDTEXTSTYLE0
 11
-3.552713678800498E-15
 21
1.0
 31
0.0
 73
     1
 44
1.0
  0
POINT
  5
F5
330
EC
100
AcDbEntity
  8
Defpoints
 62
     0
100
AcDbPoint
 10
-39.09870361255521
 20
3.999999999999987
 30
0.0
  0
POINT
  5
F6
330
EC
100
AcDbEntity
  8
Defpoints
 62
     0
100
AcDbPoint
 10
-39.09870361255521
 20
-4.00000000000002
 30
0.0
  0
POINT
  5
F7
330
EC
100
AcDbEntity
  8
Defpoints
 62
     0
100
AcDbPoint
 10
-57.72760974387865
 20
-4.00000000000009
 30
0.0
  0
ENDBLK
  5
EE
330
EC
100
AcDbEntity
  8
0
100
AcDbBlockEnd
  0
BLOCK
  5
FA
330
F9
100
AcDbEntity
  8
0
100
AcDbBlockBegin
  2
_D_1
 70
     0
 10
0.0
 20
0.0
 30
0.0
  3
_D_1
  1
_D_1
  0
LINE
  5
FC
330
F9
100
AcDbEntity
  8
치수문자_일반주서
 62
     0
370
    -2
100
AcDbLine
 10
40.16379638744478
 20
3.999999999999985
 30
0.0
 11
50.10129638744474
 21
4.000000000000022
 31
0.0
  0
LINE
  5
FD
330
F9
100
AcDbEntity
  8
치수문자_일반주서
 62
     0
370
    -2
100
AcDbLine
 10
40.16379638744478
 20
-4.000000000000019
 30
0.0
 11
50.10129638744477
 21
-3.999999999999982
 31
0.0
  0
LINE
  5
FE
330
F9
100
AcDbEntity
  8
치수문자_일반주서
 62
     0
370
    -2
100
AcDbLine
 10
50.10129638744475
 20
0.6980000000000226
 30
0.0
 11
50.10129638744475
 21
-0.6979999999999822
 31
0.0
  0
SOLID
  5
FF
330
F9
100
AcDbEntity
  8
치수문자_일반주서
 62
     0
100
AcDbTrace
 10
50.65162972077809
 20
0.6980000000000246
 30
0.0
 11
49.55096305411142
 21
0.6980000000000206
 31
0.0
 12
50.10129638744474
 22
4.000000000000022
 32
0.0
 13
50.10129638744474
 23
4.000000000000022
 33
0.0
  0
SOLID
  5
100
330
F9
100
AcDbEntity
  8
치수문자_일반주서
 62
     0
100
AcDbTrace
 10
49.55096305411142
 20
-0.6979999999999842
 30
0.0
 11
50.65162972077809
 21
-0.6979999999999802
 31
0.0
 12
50.10129638744477
 22
-3.999999999999982
 32
0.0
 13
50.10129638744477
 23
-3.999999999999982
 33
0.0
  0
MTEXT
  5
101
330
F9
100
AcDbEntity
  8
치수문자_일반주서
 62
     0
100
AcDbMText
 10
45.72629638744475
 20
0.5275446000767616
 30
0.0
 40
3.5
 41
0.0
 71
     2
 72
     1
  1
\A1;%%c8
  7
SLDTEXTSTYLE0
 11
-3.552713678800499E-15
 21
1.0
 31
0.0
 73
     1
 44
1.0
  0
POINT
  5
102
330
F9
100
AcDbEntity
  8
Defpoints
 62
     0
100
AcDbPoint
 10
40.10129638744478
 20
3.999999999999985
 30
0.0
  0
POINT
  5
103
330
F9
100
AcDbEntity
  8
Defpoints
 62
     0
100
AcDbPoint
 10
40.10129638744478
 20
-4.000000000000019
 30
0.0
  0
POINT
  5
104
330
F9
100
AcDbEntity
  8
Defpoints
 62
     0
100
AcDbPoint
 10
50.10129638744477
 20
-3.999999999999981
 30
0.0
  0
ENDBLK
  5
FB
330
F9
100
AcDbEntity
  8
0
100
AcDbBlockEnd
  0
BLOCK
  5
108
330
107
100
AcDbEntity
  8
0
100
AcDbBlockBegin
  2
_D_2
 70
     0
 10
0.0
 20
0.0
 30
0.0
  3
_D_2
  1
_D_2
  0
LINE
  5
10A
330
107
100
AcDbEntity
  8
치수문자_일반주서
 62
     0
370
    -2
100
AcDbLine
 10
10.1012963874448
 20
4.057715890502485
 30
0.0
 11
10.1012963874448
 21
47.49005650914429
 31
0.0
  0
LINE
  5
10B
330
107
100
AcDbEntity
  8
치수문자_일반주서
 62
     0
370
    -2
100
AcDbLine
 10
40.10129638744478
 20
4.033310203617335
 30
0.0
 11
40.10129638744478
 21
47.49005650914429
 31
0.0
  0
LINE
  5
10C
330
107
100
AcDbEntity
  8
치수문자_일반주서
 62
     0
370
    -2
100
AcDbLine
 10
13.4032963874448
 20
47.49005650914429
 30
0.0
 11
36.79929638744478
 21
47.49005650914429
 31
0.0
  0
SOLID
  5
10D
330
107
100
AcDbEntity
  8
치수문자_일반주서
 62
     0
100
AcDbTrace
 10
13.4032963874448
 20
48.04038984247762
 30
0.0
 11
13.4032963874448
 21
46.93972317581095
 31
0.0
 12
10.1012963874448
 22
47.49005650914429
 32
0.0
 13
10.1012963874448
 23
47.49005650914429
 33
0.0
  0
SOLID
  5
10E
330
107
100
AcDbEntity
  8
치수문자_일반주서
 62
     0
100
AcDbTrace
 10
36.79929638744478
 20
46.93972317581095
 30
0.0
 11
36.79929638744478
 21
48.04038984247762
 31
0.0
 12
40.10129638744478
 22
47.49005650914429
 32
0.0
 13
40.10129638744478
 23
47.49005650914429
 33
0.0
  0
MTEXT
  5
10F
330
107
100
AcDbEntity
  8
치수문자_일반주서
 62
     0
100
AcDbMText
 10
22.37879271668407
 20
51.86505650914429
 30
0.0
 40
3.5
 41
0.0
 71
     2
 72
     1
  1
\A1;30
  7
SLDTEXTSTYLE0
 73
     1
 44
1.0
  0
POINT
  5
14A
330
107
100
AcDbEntity
  8
Defpoints
 62
     0
100
AcDbPoint
 10
10.1012963874448
 20
3.995215890502485
 30
0.0
  0
POINT
  5
14B
330
107
100
AcDbEntity
  8
Defpoints
 62
     0
100
AcDbPoint
 10
40.10129638744478
 20
3.970810203617335
 30
0.0
  0
POINT
  5
14C
330
107
100
AcDbEntity
  8
Defpoints
 62
     0
100
AcDbPoint
 10
40.10129638744478
 20
47.49005650914429
 30
0.0
  0
ENDBLK
  5
109
330
107
100
AcDbEntity
  8
0
100
AcDbBlockEnd
  0
BLOCK
  5
112
330
111
100
AcDbEntity
  8
0
100
AcDbBlockBegin
  2
_D_3
 70
     0
 10
0.0
 20
0.0
 30
0.0
  3
_D_3
  1
_D_3
  0
LINE
  5
114
330
111
100
AcDbEntity
  8
치수문자_일반주서
 62
     0
370
    -2
100
AcDbLine
 10
40.10129638744478
 20
4.033310203617335
 30
0.0
 11
40.10129638744478
 21
74.91549286448696
 31
0.0
  0
LINE
  5
115
330
111
100
AcDbEntity
  8
치수문자_일반주서
 62
     0
370
    -2
100
AcDbLine
 10
-39.89870361255521
 20
3.262499999999987
 30
0.0
 11
-39.89870361255521
 21
74.91549286448696
 31
0.0
  0
LINE
  5
116
330
111
100
AcDbEntity
  8
치수문자_일반주서
 62
     0
370
    -2
100
AcDbLine
 10
36.79929638744478
 20
74.91549286448696
 30
0.0
 11
-36.59670361255521
 21
74.91549286448696
 31
0.0
  0
SOLID
  5
117
330
111
100
AcDbEntity
  8
치수문자_일반주서
 62
     0
100
AcDbTrace
 10
36.79929638744478
 20
74.36515953115364
 30
0.0
 11
36.79929638744478
 21
75.46582619782029
 31
0.0
 12
40.10129638744478
 22
74.91549286448696
 32
0.0
 13
40.10129638744478
 23
74.91549286448696
 33
0.0
  0
SOLID
  5
118
330
111
100
AcDbEntity
  8
치수문자_일반주서
 62
     0
100
AcDbTrace
 10
-36.59670361255521
 20
75.46582619782029
 30
0.0
 11
-36.59670361255521
 21
74.36515953115364
 31
0.0
 12
-39.89870361255521
 22
74.91549286448696
 32
0.0
 13
-39.89870361255521
 23
74.91549286448696
 33
0.0
  0
MTEXT
  5
119
330
111
100
AcDbEntity
  8
치수문자_일반주서
 62
     0
100
AcDbMText
 10
2.579826946186523
 20
79.29049286448696
 30
0.0
 40
3.5
 41
0.0
 71
     2
 72
     1
  1
\A1;80
  7
SLDTEXTSTYLE0
 73
     1
 44
1.0
  0
POINT
  5
14D
330
111
100
AcDbEntity
  8
Defpoints
 62
     0
100
AcDbPoint
 10
40.10129638744478
 20
3.970810203617335
 30
0.0
  0
POINT
  5
14E
330
111
100
AcDbEntity
  8
Defpoints
 62
     0
100
AcDbPoint
 10
-39.89870361255521
 20
3.199999999999987
 30
0.0
  0
POINT
  5
14F
330
111
100
AcDbEntity
  8
Defpoints
 62
     0
100
AcDbPoint
 10
-39.89870361255521
 20
74.91549286448696
 30
0.0
  0
ENDBLK
  5
113
330
111
100
AcDbEntity
  8
0
100
AcDbBlockEnd
  0
BLOCK
  5
11B
330
11A
100
AcDbEntity
  8
0
100
AcDbBlockBegin
  2
SW_DOWELSYMBOL_0
 70
     0
 10
0.0
 20
0.0
 30
0.0
  3
SW_DOWELSYMBOL_0
  1
SW_DOWELSYMBOL_0
  0
CIRCLE
  5
11D
330
11A
100
AcDbEntity
  8
외형선
 62
     0
100
AcDbCircle
 10
0.0
 20
0.0
 30
0.0
 40
3.000000000000003
  0
HATCH
  5
11E
330
11A
100
AcDbEntity
  8
0
  6
Continuous
 62
     0
370
    30
100
AcDbHatch
 10
0.0
 20
0.0
 30
0.0
210
0.0
220
0.0
230
1.0
  2
SOLID
 70
     1
 71
     0
 91
        1
 92
        0
 93
        3
 72
     2
 10
-0.0000000000000035
 20
0.0
 40
3.000000000000003
 50
0.0
 51
90.0
 73
     1
 72
     1
 10
-0.0000000000000035
 20
3.000000000000003
 11
-0.0000000000000035
 21
0.0
 72
     1
 10
-0.0000000000000035
 20
0.0
 11
2.999999999999999
 21
0.0
 97
        0
 75
     0
 76
     1
 98
        1
 10
0.0
 20
0.0
  0
HATCH
  5
11F
330
11A
100
AcDbEntity
  8
0
  6
Continuous
 62
     0
370
    30
100
AcDbHatch
 10
0.0
 20
0.0
 30
0.0
210
0.0
220
0.0
230
1.0
  2
SOLID
 70
     1
 71
     0
 91
        1
 92
        0
 93
        3
 72
     2
 10
-0.0000000000000035
 20
0.0
 40
3.000000000000003
 50
180.0
 51
270.0000000000008
 73
     1
 72
     1
 10
-0.0000000000000035
 20
-3.000000000000003
 11
-0.0000000000000035
 21
0.0
 72
     1
 10
-0.0000000000000035
 20
0.0
 11
-3.000000000000006
 21
0.0
 97
        0
 75
     0
 76
     1
 98
        1
 10
0.0
 20
0.0
  0
ENDBLK
  5
11C
330
11A
100
AcDbEntity
  8
0
100
AcDbBlockEnd
  0
ENDSEC
  0
SECTION
  2
ENTITIES
  0
LINE
  5
95
330
1F
100
AcDbEntity
  8
0
  6
Continuous
 62
   131
370
    15
100
AcDbLine
 10
14.12073874933767
 20
-0.7597772919102315
 30
0.0
 11
14.16167725475491
 21
-0.7992345295742327
 31
0.0
  0
LINE
  5
96
330
1F
100
AcDbEntity
  8
0
  6
Continuous
 62
   131
370
    15
100
AcDbLine
 10
24.19101723540222
 20
0.7617372359202452
 30
0.0
 11
24.15132817049802
 21
0.7999745401925007
 31
0.0
  0
LINE
  5
97
330
1F
100
AcDbEntity
  8
0
  6
Continuous
 62
   131
370
    15
100
AcDbLine
 10
22.39342426327552
 20
-0.6577220365684562
 30
0.0
 11
22.54143152792674
 21
-0.8002552611236124
 31
0.0
  0
LINE
  5
98
330
1F
100
AcDbEntity
  8
0
  6
Continuous
 62
     1
370
    15
100
AcDbLine
 10
35.06853675582788
 20
-0.7626427016376359
 30
0.0
 11
35.10822349719024
 21
-0.8006669695080579
 31
0.0
  0
LINE
  5
99
330
1F
100
AcDbEntity
  8
0
  6
Continuous
 62
     1
370
    15
100
AcDbLine
 10
39.61724524125331
 20
-4.000000000000019
 30
0.0
 11
40.10129638744478
 21
-4.000000000000019
 31
0.0
  0
LINE
  5
9A
330
1F
100
AcDbEntity
  8
0
  6
Continuous
 62
     1
370
    15
100
AcDbLine
 10
14.48554764708126
 20
-4.000000000000019
 30
0.0
 11
15.45135563819674
 21
-4.000000000000019
 31
0.0
  0
LINE
  5
9B
330
1F
100
AcDbEntity
  8
0
  6
Continuous
 62
     1
370
    15
100
AcDbLine
 10
28.01824610519146
 20
3.999999999999985
 30
0.0
 11
27.05095339991048
 21
3.999999999999985
 31
0.0
  0
LINE
  5
9C
330
1F
100
AcDbEntity
  8
0
  6
Continuous
 62
     1
370
    15
100
AcDbLine
 10
27.05095339991048
 20
-4.000000000000019
 30
0.0
 11
28.01824610519143
 21
-4.000000000000019
 31
0.0
  0
LINE
  5
9D
330
1F
100
AcDbEntity
  8
0
  6
Continuous
 62
     1
370
    15
100
AcDbLine
 10
15.45135563819671
 20
3.999999999999985
 30
0.0
 11
14.48554764708125
 21
3.999999999999985
 31
0.0
  0
LINE
  5
9E
330
1F
100
AcDbEntity
  8
0
  6
Continuous
 62
     1
370
    15
100
AcDbLine
 10
40.10129638744478
 20
3.999999999999985
 30
0.0
 11
39.61724524125331
 21
3.999999999999985
 31
0.0
  0
LINE
  5
9F
330
1F
100
AcDbEntity
  8
0
  6
Continuous
 62
     1
370
    15
100
AcDbLine
 10
31.24063849138747
 20
-4.000000000000019
 30
0.0
 11
32.20689468841023
 21
-4.000000000000019
 31
0.0
  0
LINE
  5
A0
330
1F
100
AcDbEntity
  8
0
  6
Continuous
 62
     1
370
    15
100
AcDbLine
 10
19.64094054946441
 20
3.999999999999985
 30
0.0
 11
18.67384489183094
 21
3.999999999999985
 31
0.0
  0
LINE
  5
A1
330
1F
100
AcDbEntity
  8
0
  6
Continuous
 62
     1
370
    15
100
AcDbLine
 10
22.86239329413728
 20
-4.000000000000019
 30
0.0
 11
23.83038546834687
 21
-4.000000000000019
 31
0.0
  0
LINE
  5
A2
330
1F
100
AcDbEntity
  8
0
  6
Continuous
 62
     1
370
    15
100
AcDbLine
 10
11.2632359465197
 20
3.999999999999985
 30
0.0
 11
10.29645052817037
 21
3.999999999999985
 31
0.0
  0
LINE
  5
A3
330
1F
100
AcDbEntity
  8
0
  6
Continuous
 62
     1
370
    15
100
AcDbLine
 10
36.3959697087226
 20
3.999999999999985
 30
0.0
 11
35.42944199939051
 21
3.999999999999985
 31
0.0
  0
LINE
  5
A4
330
1F
100
AcDbEntity
  8
0
  6
Continuous
 62
     1
370
    15
100
AcDbLine
 10
18.67384489183096
 20
-4.000000000000019
 30
0.0
 11
19.64094054946444
 21
-4.000000000000019
 31
0.0
  0
LINE
  5
A5
330
1F
100
AcDbEntity
  8
0
  6
Continuous
 62
     1
370
    15
100
AcDbLine
 10
32.20689468841026
 20
3.999999999999985
 30
0.0
 11
31.24063849138749
 21
3.999999999999985
 31
0.0
  0
LINE
  5
A6
330
1F
100
AcDbEntity
  8
0
  6
Continuous
 62
     1
370
    15
100
AcDbLine
 10
35.42944199939046
 20
-4.000000000000019
 30
0.0
 11
36.3959697087226
 21
-4.000000000000019
 31
0.0
  0
LINE
  5
A7
330
1F
100
AcDbEntity
  8
0
  6
Continuous
 62
     1
370
    15
100
AcDbLine
 10
10.29645052817035
 20
-4.000000000000019
 30
0.0
 11
11.2632359465197
 21
-4.000000000000019
 31
0.0
  0
LINE
  5
A8
330
1F
100
AcDbEntity
  8
0
  6
Continuous
 62
     1
370
    15
100
AcDbLine
 10
23.83038546834687
 20
3.999999999999985
 30
0.0
 11
22.86239329413725
 21
3.999999999999985
 31
0.0
  0
LINE
  5
A9
330
1F
100
AcDbEntity
  8
0
  6
Continuous
 62
   131
370
    15
100
AcDbLine
 10
-39.09870361255521
 20
-4.000000000000017
 30
0.0
 11
9.101584326441646
 21
-4.000000000000017
 31
0.0
  0
LINE
  5
AA
330
1F
100
AcDbEntity
  8
0
  6
Continuous
 62
   131
370
    15
100
AcDbLine
 10
9.101584326441646
 20
3.999999999999983
 30
0.0
 11
-39.09870361255521
 21
3.999999999999983
 31
0.0
  0
LINE
  5
AB
330
1F
100
AcDbEntity
  8
0
  6
Continuous
 62
   131
370
    15
100
AcDbLine
 10
-39.09870361255521
 20
3.999999999999985
 30
0.0
 11
-39.89870361255521
 21
3.199999999999987
 31
0.0
  0
LINE
  5
AC
330
1F
100
AcDbEntity
  8
0
  6
Continuous
 62
   131
370
    15
100
AcDbLine
 10
-39.89870361255521
 20
-3.200000000000021
 30
0.0
 11
-39.09870361255521
 21
-4.000000000000019
 31
0.0
  0
SPLINE
  5
AD
330
1F
100
AcDbEntity
  8
0
  6
Continuous
 62
     1
370
    15
100
AcDbSpline
210
0.0
220
0.0
230
1.0
 70
     8
 71
     3
 72
    26
 73
    22
 74
     0
 42
0.000000001
 43
0.00000001
 40
0.0
 40
0.0
 40
0.0
 40
0.0
 40
0.0218219751814935
 40
0.07650546163027
 40
0.1312406418673578
 40
0.1858324850739402
 40
0.2404949460024274
 40
0.2952463963278887
 40
0.349843849012192
 40
0.4044878932767295
 40
0.4592500791024689
 40
0.5138557773924731
 40
0.568484021567265
 40
0.6232514026247076
 40
0.6778679791848522
 40
0.7324830464705653
 40
0.7872500797414533
 40
0.8418801626687629
 40
0.8964846817959804
 40
0.9512458244461456
 40
1.0
 40
1.0
 40
1.0
 40
1.0
 10
19.64094054946441
 20
3.982025779712332
 30
0.0
 10
19.74397866354737
 20
3.986506808399637
 30
0.0
 10
20.10521903788867
 20
4.002216805567612
 30
0.0
 10
20.72556491048642
 20
3.872025197804545
 30
0.0
 10
21.50154717158611
 20
3.599582227011641
 30
0.0
 10
22.27548745794235
 20
3.182303941860988
 30
0.0
 10
23.05043373090745
 20
2.64870571184352
 30
0.0
 10
23.82664430333482
 20
2.016397843322862
 30
0.0
 10
24.60066742369576
 20
1.307116934336729
 30
0.0
 10
25.37535364361198
 20
0.5492841079410992
 30
0.0
 10
26.15171743558329
 20
-0.2274918059205531
 30
0.0
 10
26.92585913523758
 20
-0.9978100312140497
 30
0.0
 10
27.70032178529777
 20
-1.730430740048321
 30
0.0
 10
28.47675970492451
 20
-2.396720509277268
 30
0.0
 10
29.25105657332091
 20
-2.975006291251857
 30
0.0
 10
30.02533234567972
 20
-3.441749254761414
 30
0.0
 10
30.80176412919043
 20
-3.778550378465359
 30
0.0
 10
31.57625714034613
 20
-3.975703337011067
 30
0.0
 10
32.3503659151917
 20
-4.020310218103758
 30
0.0
 10
33.09888270370861
 20
-3.930844941879934
 30
0.0
 10
33.5877880551273
 20
-3.755811005268884
 30
0.0
 10
33.81805520539879
 20
-3.673372623959962
 30
0.0
  0
SPLINE
  5
AE
330
1F
100
AcDbEntity
  8
0
  6
Continuous
 62
     1
370
    15
100
AcDbSpline
210
0.0
220
0.0
230
1.0
 70
     8
 71
     3
 72
    26
 73
    22
 74
     0
 42
0.000000001
 43
0.00000001
 40
0.0
 40
0.0
 40
0.0
 40
0.0
 40
0.0531678179422281
 40
0.1077615104565134
 40
0.1624048079205956
 40
0.2171630301818885
 40
0.2717646372729
 40
0.3263918068006971
 40
0.3811559193685681
 40
0.4357680740555471
 40
0.4903817379364682
 40
0.5451461982723468
 40
0.5997715291456851
 40
0.654374315336599
 40
0.709133580717835
 40
0.763774710838307
 40
0.8183692518632538
 40
0.8731177823167301
 40
0.9277773281189995
 40
0.9823662599653782
 40
0.9999999999999999
 40
0.9999999999999999
 40
0.9999999999999999
 40
0.9999999999999999
 10
35.42944199939046
 20
-3.997899869595952
 30
0.0
 10
35.17789327944709
 20
-3.985101866097577
 30
0.0
 10
34.66804971122025
 20
-3.959162637421481
 30
0.0
 10
33.90143144675795
 20
-3.733075123524895
 30
0.0
 10
33.12673092441627
 20
-3.376496850384521
 30
0.0
 10
32.3503776346536
 20
-2.891524128464212
 30
0.0
 10
31.57625400252954
 20
-2.2978286767914
 30
0.0
 10
30.80176497257374
 20
-1.617955392993955
 30
0.0
 10
30.02533212009375
 20
-0.8793501805610056
 30
0.0
 10
29.25105663392725
 20
-0.1059010130318621
 30
0.0
 10
28.47675968775502
 20
0.671499026116344
 30
0.0
 10
27.70032179317737
 20
1.421836536393339
 30
0.0
 10
26.9258591209062
 20
2.120767838726923
 30
0.0
 10
26.15171748508878
 20
2.740375589807994
 30
0.0
 10
25.37535345951469
 20
3.255964211222701
 30
0.0
 10
24.60066810850647
 20
3.651021298187514
 30
0.0
 10
23.82664174687944
 20
3.908671994712088
 30
0.0
 10
23.05044329541232
 20
4.022221671495074
 30
0.0
 10
22.2754518500163
 20
3.975916631651293
 30
0.0
 10
21.67673589193552
 20
3.85250737335705
 30
0.0
 10
21.33514307122644
 20
3.701727182162731
 30
0.0
 10
21.25174046590603
 20
3.664912998684833
 30
0.0
  0
LINE
  5
AF
330
1F
100
AcDbEntity
  8
0
  6
Continuous
 62
     1
370
    15
100
AcDbLine
 10
10.29645052817035
 20
-3.987239634226427
 30
0.0
 11
10.1012963874447
 21
-3.99521589050243
 31
0.0
  0
LINE
  5
B0
330
1F
100
AcDbEntity
  8
0
  6
Continuous
 62
     1
370
    15
100
AcDbLine
 10
40.10129638744478
 20
-1.567673435381214
 30
0.0
 11
40.10129638744478
 21
1.567673435381255
 31
0.0
  0
SPLINE
  5
B1
330
1F
100
AcDbEntity
  8
0
  6
Continuous
 62
     1
370
    15
100
AcDbSpline
210
0.0
220
0.0
230
1.0
 70
     8
 71
     3
 72
    22
 73
    18
 74
     0
 42
0.000000001
 43
0.00000001
 40
0.0
 40
0.0
 40
0.0
 40
0.0
 40
0.0643665021719092
 40
0.1288852252447181
 40
0.1933981582279071
 40
0.2577657051474327
 40
0.3273704252804841
 40
0.3968729341925872
 40
0.4662780017180069
 40
0.5358602723092323
 40
0.6053903430655676
 40
0.6747924754932743
 40
0.7443453553999789
 40
0.8139062095104177
 40
0.8833087630905642
 40
0.9528316061957569
 40
1.0
 40
1.0
 40
1.0
 40
1.0
 10
10.10129638744468
 20
2.908921277268624
 30
0.0
 10
10.34025033408038
 20
2.735473880762189
 30
0.0
 10
10.81872333161879
 20
2.388168900492531
 30
0.0
 10
11.5379429991316
 20
1.765960776269033
 30
0.0
 10
12.25727192709514
 20
1.093793777457783
 30
0.0
 10
12.99360544175822
 20
0.3641565236438008
 30
0.0
 10
13.75115819651819
 20
-0.3944254692152634
 30
0.0
 10
14.52612915643503
 20
-1.158428708343318
 30
0.0
 10
15.30006797283574
 20
-1.879799867215838
 30
0.0
 10
16.07597259283926
 20
-2.529281029264405
 30
0.0
 10
16.85129498782453
 20
-3.084688906630372
 30
0.0
 10
17.62518659937303
 20
-3.525382545872325
 30
0.0
 10
18.40076134001472
 20
-3.832961220413265
 30
0.0
 10
19.17643520796354
 20
-3.998763606067609
 30
0.0
 10
19.95030481838413
 20
-4.009713446558883
 30
0.0
 10
20.64227984365887
 20
-3.903063159206582
 30
0.0
 10
21.07630202195785
 20
-3.733466555818536
 30
0.0
 10
21.25174046590607
 20
-3.664912998684868
 30
0.0
  0
SPLINE
  5
B2
330
1F
100
AcDbEntity
  8
0
  6
Continuous
 62
     1
370
    15
100
AcDbSpline
210
0.0
220
0.0
230
1.0
 70
     8
 71
     3
 72
    18
 73
    14
 74
     0
 42
0.000000001
 43
0.00000001
 40
0.0
 40
0.0
 40
0.0
 40
0.0
 40
0.0181381108442858
 40
0.1164829613389907
 40
0.21462140882182
 40
0.3126707666452291
 40
0.4109950895403972
 40
0.5091671999678231
 40
0.6072070781734076
 40
0.705500935622798
 40
0.8037113923302088
 40
0.9017465297306847
 40
0.9999999999999999
 40
0.9999999999999999
 40
0.9999999999999999
 40
0.9999999999999999
 10
32.20689468841026
 20
3.988713670980307
 30
0.0
 10
32.25458830081008
 20
3.992257736349497
 30
0.0
 10
32.56087671513166
 20
4.015017726787649
 30
0.0
 10
33.12679460978299
 20
3.911090918208646
 30
0.0
 10
33.90142635237552
 20
3.671905861064535
 30
0.0
 10
34.67545994618602
 20
3.281393232531201
 30
0.0
 10
35.45163967889957
 20
2.772848818174772
 30
0.0
 10
36.22662246658057
 20
2.158915839218724
 30
0.0
 10
37.00055564867592
 20
1.463634577441978
 30
0.0
 10
37.77649960181193
 20
0.7148644144814249
 30
0.0
 10
38.55178095667227
 20
-0.0600823915997686
 30
0.0
 10
39.32567461549846
 20
-0.838142927056296
 30
0.0
 10
39.84256415046399
 20
-1.324316341509283
 30
0.0
 10
40.10129638744479
 20
-1.567673435381214
 30
0.0
  0
SPLINE
  5
B3
330
1F
100
AcDbEntity
  8
0
  6
Continuous
 62
   131
370
    15
100
AcDbSpline
210
0.0
220
0.0
230
1.0
 70
    24
 71
     3
 72
    12
 73
     8
 74
     0
 42
0.000000001
 43
0.00000001
 40
0.0
 40
0.0
 40
0.0
 40
0.0
 40
0.2254334619439575
 40
0.4743373743741496
 40
0.7304595171267715
 40
0.979363429556902
 40
1.0
 40
1.0
 40
1.0
 40
1.0
 10
10.1012963874448
 20
3.995215890502395
 30
0.0
 10
10.1012963874448
 20
3.915349556328302
 30
0.0
 10
10.10129638744483
 20
3.747301801011278
 30
0.0
 10
10.10129638744483
 20
3.486124474411829
 30
0.0
 10
10.10129638744469
 20
3.227096716676644
 30
0.0
 10
10.10129638744488
 20
3.050021045144772
 30
0.0
 10
10.10129638744481
 20
2.970462220162386
 30
0.0
 10
10.10129638744481
 20
2.96437103386407
 30
0.0
  0
SPLINE
  5
B4
330
1F
100
AcDbEntity
  8
0
  6
Continuous
 62
     1
370
    15
100
AcDbSpline
210
0.0
220
0.0
230
1.0
 70
     8
 71
     3
 72
    16
 73
    12
 74
     0
 42
0.000000001
 43
0.00000001
 40
0.0
 40
0.0
 40
0.0
 40
0.0
 40
0.1234402069983414
 40
0.2466061126977039
 40
0.3699922798441161
 40
0.4934832270540203
 40
0.6166550888378084
 40
0.7399930798462565
 40
0.8635223021514119
 40
0.9867060736009182
 40
1.0
 40
1.0
 40
1.0
 40
1.0
 10
40.10129638744478
 20
1.567673435381255
 30
0.0
 10
39.84256414266169
 20
1.799683287459592
 30
0.0
 10
39.32567459210897
 20
2.263187433474001
 30
0.0
 10
38.55178105005719
 20
2.859501292645009
 30
0.0
 10
37.77649925076703
 20
3.351968329206571
 30
0.0
 10
37.00055695897878
 20
3.718021017577388
 30
0.0
 10
36.22661758778561
 20
3.944911588636608
 30
0.0
 10
35.45165792766726
 20
4.027318334497895
 30
0.0
 10
34.67539180658623
 20
3.945552208625208
 30
0.0
 10
34.13170069246613
 20
3.820109413864625
 30
0.0
 10
33.8458947914447
 20
3.686397174470276
 30
0.0
 10
33.81805520539881
 20
3.673372623959929
 30
0.0
  0
SPLINE
  5
B5
330
1F
100
AcDbEntity
  8
0
  6
Continuous
 62
     1
370
    15
100
AcDbSpline
210
0.0
220
0.0
230
1.0
 70
     8
 71
     3
 72
    24
 73
    20
 74
     0
 42
0.000000001
 43
0.00000001
 40
0.0
 40
0.0
 40
0.0
 40
0.0
 40
0.0460046958671594
 40
0.1066492337565942
 40
0.1674530007078612
 40
0.2281993424886304
 40
0.2888405799860479
 40
0.3496201342968714
 40
0.4103927210602835
 40
0.4710335905711685
 40
0.5317862475908864
 40
0.5925845147851803
 40
0.6532279488696763
 40
0.7139565234276447
 40
0.7747744061537493
 40
0.8310162517130124
 40
0.8873851299297307
 40
0.9437590673003512
 40
1.0
 40
1.0
 40
1.0
 40
1.0
 10
22.86239329413728
 20
-3.986233067032498
 30
0.0
 10
22.66665225778209
 20
-3.983449332322109
 30
0.0
 10
22.21288050364899
 20
-3.976996009063501
 30
0.0
 10
21.5015696078887
 20
-3.790823458861625
 30
0.0
 10
20.72556163079474
 20
-3.46524894945349
 30
0.0
 10
19.95032776502342
 20
-3.004989587726531
 30
0.0
 10
19.17642904827342
 20
-2.432673483280953
 30
0.0
 10
18.40076299198893
 20
-1.770125376999996
 30
0.0
 10
17.62518615784495
 20
-1.041477211575663
 30
0.0
 10
16.85129510626346
 20
-0.2724050133812815
 30
0.0
 10
16.07597256104975
 20
0.5056708379780473
 30
0.0
 10
15.30006798133192
 20
1.264312808629929
 30
0.0
 10
14.52612915415706
 20
1.977276422688983
 30
0.0
 10
13.75115819713147
 20
2.615384040069202
 30
0.0
 10
12.99360544160751
 20
3.141663990088185
 30
0.0
 10
12.25727192713427
 20
3.548824883402482
 30
0.0
 10
11.53794299912118
 20
3.827787096394873
 30
0.0
 10
10.81872333162142
 20
3.992997440345199
 30
0.0
 10
10.34025033408125
 20
3.99447698959439
 30
0.0
 10
10.1012963874447
 20
3.995215890502393
 30
0.0
  0
LINE
  5
B6
330
1F
100
AcDbEntity
  8
0
  6
Continuous
 62
     1
370
    15
100
AcDbLine
 10
40.10129638744478
 20
2.384456648251648
 30
0.0
 11
40.10129638744478
 21
3.970810203617335
 31
0.0
  0
SPLINE
  5
B7
330
1F
100
AcDbEntity
  8
0
  6
Continuous
 62
     1
370
    15
100
AcDbSpline
210
0.0
220
0.0
230
1.0
 70
     8
 71
     3
 72
    27
 73
    23
 74
     0
 42
0.000000001
 43
0.00000001
 40
0.0
 40
0.0
 40
0.0
 40
0.0
 40
0.0193744210837989
 40
0.0701154292834173
 40
0.1207420877688415
 40
0.1754879117716601
 40
0.230153344135773
 40
0.2847421364531225
 40
0.3394703033392484
 40
0.3941574137716108
 40
0.4487438975624333
 40
0.5034489479524508
 40
0.5581602702497951
 40
0.6127470852873679
 40
0.6674285109943747
 40
0.7221616285416176
 40
0.7767514144599968
 40
0.8314118154390591
 40
0.8861612024615388
 40
0.9407565976462465
 40
0.9953985826553892
 40
1.0
 40
1.0
 40
1.0
 40
1.0
 10
11.2632359465197
 20
3.984755009288552
 30
0.0
 10
11.35481266259875
 20
3.988676567811677
 30
0.0
 10
11.68622595915484
 20
4.002868566536169
 30
0.0
 10
12.25729652415845
 20
3.893206436502037
 30
0.0
 10
12.99359825778928
 20
3.653629843482423
 30
0.0
 10
13.75116018205372
 20
3.271393457634298
 30
0.0
 10
14.52612862365531
 20
2.759289449276602
 30
0.0
 10
15.30006812323412
 20
2.14241756382052
 30
0.0
 10
16.0759725251458
 20
1.447011825852448
 30
0.0
 10
16.85129510792581
 20
0.6969901205811352
 30
0.0
 10
17.62518618697037
 20
-0.0803164476006957
 30
0.0
 10
18.40076287349856
 20
-0.8531781625686092
 30
0.0
 10
19.1764294926311
 20
-1.594088933071638
 30
0.0
 10
19.95032610898256
 20
-2.276702732951022
 30
0.0
 10
20.72556782627432
 20
-2.873083735083818
 30
0.0
 10
21.50154648849159
 20
-3.36158371920514
 30
0.0
 10
22.27548728306369
 20
-3.725544793631173
 30
0.0
 10
23.05043511703747
 20
-3.948466388352557
 30
0.0
 10
23.8266389308466
 20
-4.027501748577207
 30
0.0
 10
24.6006874696779
 20
-3.941559581328909
 30
0.0
 10
25.13836962740652
 20
-3.816452826820861
 30
0.0
 10
25.41859599975461
 20
-3.684904399592651
 30
0.0
 10
25.44036109829572
 20
-3.674687072588207
 30
0.0
  0
SPLINE
  5
B8
330
1F
100
AcDbEntity
  8
0
  6
Continuous
 62
     1
370
    15
100
AcDbSpline
210
0.0
220
0.0
230
1.0
 70
     8
 71
     3
 72
    12
 73
     8
 74
     0
 42
0.000000001
 43
0.00000001
 40
0.0
 40
0.0
 40
0.0
 40
0.0
 40
0.1631826223532905
 40
0.3725906932703406
 40
0.5818210848395231
 40
0.7906779710970572
 40
1.0
 40
1.0
 40
1.0
 40
1.0
 10
36.3959697087226
 20
3.98720706748746
 30
0.0
 10
36.59731848671729
 20
3.983480656670134
 30
0.0
 10
37.05705298356679
 20
3.974972238495359
 30
0.0
 10
37.77649777698624
 20
3.785264912954417
 30
0.0
 10
38.55178144211238
 20
3.454768674872883
 30
0.0
 10
39.32567449391361
 20
2.996001479631773
 30
0.0
 10
39.84256410990566
 20
2.600904828074679
 30
0.0
 10
40.1012963874448
 20
2.403136768236098
 30
0.0
  0
SPLINE
  5
B9
330
1F
100
AcDbEntity
  8
0
  6
Continuous
 62
     1
370
    15
100
AcDbSpline
210
0.0
220
0.0
230
1.0
 70
     8
 71
     3
 72
    10
 73
     6
 74
     0
 42
0.000000001
 43
0.00000001
 40
0.0
 40
0.0
 40
0.0
 40
0.0
 40
0.370434510559087
 40
0.7400458641427945
 40
1.0
 40
1.0
 40
1.0
 40
1.0
 10
40.10129638744479
 20
3.970810203617336
 30
0.0
 10
39.84255791720989
 20
3.986636514626005
 30
0.0
 10
39.32565592958729
 20
4.018253968380314
 30
0.0
 10
38.628738267804
 20
3.904972352235544
 30
0.0
 10
38.18914843509999
 20
3.735528524465982
 30
0.0
 10
38.00763722298821
 20
3.665563406360018
 30
0.0
  0
SPLINE
  5
BA
330
1F
100
AcDbEntity
  8
0
  6
Continuous
 62
     1
370
    15
100
AcDbSpline
210
0.0
220
0.0
230
1.0
 70
     8
 71
     3
 72
    27
 73
    23
 74
     0
 42
0.000000001
 43
0.00000001
 40
0.0
 40
0.0
 40
0.0
 40
0.0
 40
0.0088306185387744
 40
0.0634340268328238
 40
0.1181939161000019
 40
0.1728356687604712
 40
0.2274308317946146
 40
0.282179986011727
 40
0.3368401545638084
 40
0.3914297083554766
 40
0.4461625931665339
 40
0.500843786357159
 40
0.5554303692806528
 40
0.6101414589344888
 40
0.6648462767076664
 40
0.7194325283858197
 40
0.7741194062776279
 40
0.8288473404486181
 40
0.8834359006434814
 40
0.9381011005592201
 40
0.9928466917718204
 40
1.0
 40
1.0
 40
1.0
 40
1.0
 10
27.05095339991048
 20
-3.989850813304626
 30
0.0
 10
27.00923414454935
 20
-3.993080243296899
 30
0.0
 10
26.70954728202633
 20
-4.016278589809675
 30
0.0
 10
26.15177008261012
 20
-3.914649420962046
 30
0.0
 10
25.37533955444002
 20
-3.679679983891616
 30
0.0
 10
24.60067118774969
 20
-3.292648467060054
 30
0.0
 10
23.82664330594619
 20
-2.785523933219518
 30
0.0
 10
23.0504339454248
 20
-2.174634596421185
 30
0.0
 10
22.27548759627636
 20
-1.481771560329643
 30
0.0
 10
21.50154640446261
 20
-0.7324944051227478
 30
0.0
 10
20.7255678484238
 20
0.0423921244669125
 30
0.0
 10
19.95032610443423
 20
0.8163998773912515
 30
0.0
 10
19.17642948873631
 20
1.560914301875518
 30
0.0
 10
18.40076289369036
 20
2.245561788088258
 30
0.0
 10
17.62518611019603
 20
2.846421559157251
 30
0.0
 10
16.85129539438355
 20
3.341626357322767
 30
0.0
 10
16.07597145335124
 20
3.711183840479547
 30
0.0
 10
15.30007212206376
 20
3.941024846435438
 30
0.0
 10
14.52611373371946
 20
4.026980052149966
 30
0.0
 10
13.75121587813164
 20
3.949704078172922
 30
0.0
 10
13.19925363106401
 20
3.822567381757151
 30
0.0
 10
12.90703691377907
 20
3.688327093897789
 30
0.0
 10
12.87326706864369
 20
3.672813697627856
 30
0.0
  0
SPLINE
  5
BB
330
1F
100
AcDbEntity
  8
0
  6
Continuous
 62
     1
370
    15
100
AcDbSpline
210
0.0
220
0.0
230
1.0
 70
     8
 71
     3
 72
    26
 73
    22
 74
     0
 42
0.000000001
 43
0.00000001
 40
0.0
 40
0.0
 40
0.0
 40
0.0
 40
0.0440384419347943
 40
0.0987251696831138
 40
0.1533112714940485
 40
0.2080159390744846
 40
0.2627268785183586
 40
0.3173133115737256
 40
0.3719943546364696
 40
0.4267270891777256
 40
0.4813164930931098
 40
0.5359765115750339
 40
0.5907255154776778
 40
0.6453205286201384
 40
0.6999621312610124
 40
0.7547218701842472
 40
0.8093251285639756
 40
0.8639509318210888
 40
0.9187158657438917
 40
0.973330001907694
 40
1.0
 40
1.0
 40
1.0
 40
1.0
 10
15.45135563819671
 20
3.988205468229722
 30
0.0
 10
15.65959711359041
 20
3.983564354471028
 30
0.0
 10
16.12643186273404
 20
3.973159927719871
 30
0.0
 10
16.85131700606788
 20
3.778912120155245
 30
0.0
 10
17.62518030989414
 20
3.44574975579378
 30
0.0
 10
18.40076444951721
 20
2.979820294176201
 30
0.0
 10
19.17642907326636
 20
2.40384206023218
 30
0.0
 10
19.95032621455314
 20
1.736297629071961
 30
0.0
 10
20.72556782376633
 20
1.004784095686405
 30
0.0
 10
21.5015463927501
 20
0.2363940140204578
 30
0.0
 10
22.27548766753009
 20
-0.5426508623344563
 30
0.0
 10
23.05043367146746
 20
-1.30051751010792
 30
0.0
 10
23.82664433096369
 20
-2.008666634344873
 30
0.0
 10
24.60066737261805
 20
-2.643409390481117
 30
0.0
 10
25.37535382068076
 20
-3.178543338581727
 30
0.0
 10
26.15171677771885
 20
-3.594094523676567
 30
0.0
 10
26.92586158186381
 20
-3.875650695614206
 30
0.0
 10
27.70031263977694
 20
-4.013692666070298
 30
0.0
 10
28.47679389309852
 20
-3.994265954583621
 30
0.0
 10
29.11902404362382
 20
-3.876770513533805
 30
0.0
 10
29.50300665541924
 20
-3.715639180796636
 30
0.0
 10
29.62899453260811
 20
-3.662770655148434
 30
0.0
  0
SPLINE
  5
BC
330
1F
100
AcDbEntity
  8
0
  6
Continuous
 62
     1
370
    15
100
AcDbSpline
210
0.0
220
0.0
230
1.0
 70
     8
 71
     3
 72
    26
 73
    22
 74
     0
 42
0.000000001
 43
0.00000001
 40
0.0
 40
0.0
 40
0.0
 40
0.0
 40
0.0309440234345646
 40
0.085710969968855
 40
0.1403259507586452
 40
0.1949424408204761
 40
0.2497097351407707
 40
0.3043378927987694
 40
0.3589435046076878
 40
0.4137056037045084
 40
0.4683495614272296
 40
0.5229469276435054
 40
0.5776982912570484
 40
0.6323606656145532
 40
0.6869524223619933
 40
0.7416875159129309
 40
0.7963709157574265
 40
0.8509597015168032
 40
0.9056729990309782
 40
0.9603800244113939
 40
1.0
 40
1.0
 40
1.0
 40
1.0
 10
31.24063849138747
 20
-3.981588707668606
 30
0.0
 10
31.09450385862121
 20
-3.984105853946616
 30
0.0
 10
30.6897296977263
 20
-3.99107802579421
 30
0.0
 10
30.02530129405514
 20
-3.836937753777641
 30
0.0
 10
29.25106488334707
 20
-3.538791022849121
 30
0.0
 10
28.47675747120344
 20
-3.100913008587136
 30
0.0
 10
27.7003223828086
 20
-2.550263054500962
 30
0.0
 10
26.92585897547049
 20
-1.90237853878568
 30
0.0
 10
26.15171747824322
 20
-1.183019355671697
 30
0.0
 10
25.37535363324916
 20
-0.4213461608548024
 30
0.0
 10
24.60066742254421
 20
0.3576312354978886
 30
0.0
 10
23.8266443182871
 20
1.123750091743373
 30
0.0
 10
23.05043367209608
 20
1.845918360897413
 30
0.0
 10
22.27548767765731
 20
2.500202072842274
 30
0.0
 10
21.5015463516256
 20
3.061372894500275
 30
0.0
 10
20.72556797853952
 20
3.506879251926505
 30
0.0
 10
19.95032563776919
 20
3.821392498566553
 30
0.0
 10
19.17643122389715
 20
3.994334750539067
 30
0.0
 10
18.40075640276345
 20
4.012688013103014
 30
0.0
 10
17.69599155181875
 20
3.909497543986582
 30
0.0
 10
17.25065692081028
 20
3.738228006881328
 30
0.0
 10
17.06360393462334
 20
3.666290016597819
 30
0.0
  0
LINE
  5
BD
330
1F
100
AcDbEntity
  8
0
  6
Continuous
 62
     1
370
    15
100
AcDbLine
 10
40.10129638744478
 20
-3.970810203617367
 30
0.0
 11
40.10129638744478
 21
-2.393652206610845
 31
0.0
  0
SPLINE
  5
BE
330
1F
100
AcDbEntity
  8
0
  6
Continuous
 62
     1
370
    15
100
AcDbSpline
210
0.0
220
0.0
230
1.0
 70
     8
 71
     3
 72
    17
 73
    13
 74
     0
 42
0.000000001
 43
0.00000001
 40
0.0
 40
0.0
 40
0.0
 40
0.0
 40
0.1030819281659264
 40
0.2064076356804646
 40
0.3097240704586862
 40
0.4128076717712822
 40
0.5242785225812537
 40
0.6355856837486316
 40
0.746736794087029
 40
0.8581716923132842
 40
0.9695229933352665
 40
1.0
 40
1.0
 40
1.0
 40
1.0
 10
10.10129638744468
 20
-0.92327625849927
 30
0.0
 10
10.34025033426752
 20
-1.153421585132041
 30
0.0
 10
10.81872333218065
 20
-1.614256511082531
 30
0.0
 10
11.53794299687811
 20
-2.244631295670036
 30
0.0
 10
12.25727193553624
 20
-2.804956519740634
 30
0.0
 10
12.99360540924328
 20
-3.287825425630786
 30
0.0
 10
13.7511583288389
 20
-3.666392257052439
 30
0.0
 10
14.52612866498216
 20
-3.917128537734468
 30
0.0
 10
15.30006980582447
 20
-4.024003184151105
 30
0.0
 10
16.07596573450783
 20
-3.969722674072695
 30
0.0
 10
16.66401505478461
 20
-3.845648204946063
 30
0.0
 10
16.99292548225039
 20
-3.698014520988432
 30
0.0
 10
17.06360393462336
 20
-3.666290016597851
 30
0.0
  0
SPLINE
  5
BF
330
1F
100
AcDbEntity
  8
0
  6
Continuous
 62
     1
370
    15
100
AcDbSpline
210
0.0
220
0.0
230
1.0
 70
     8
 71
     3
 72
    23
 73
    19
 74
     0
 42
0.000000001
 43
0.00000001
 40
0.0
 40
0.0
 40
0.0
 40
0.0
 40
0.0379427370117123
 40
0.1020241496238458
 40
0.1661037914102761
 40
0.2303617342842578
 40
0.2944589938634057
 40
0.3585262595373181
 40
0.4227772909693739
 40
0.4868934744013874
 40
0.550951453438571
 40
0.6151890737012934
 40
0.6793272499361886
 40
0.7433790357134327
 40
0.807596752175352
 40
0.8717599809476014
 40
0.9358086694440372
 40
1.0
 40
1.0
 40
1.0
 40
1.0
 10
28.01824610519145
 20
3.981826632533987
 30
0.0
 10
28.17124500233387
 20
3.98388727159801
 30
0.0
 10
28.58264343069504
 20
3.989428119853733
 30
0.0
 10
29.25106002461235
 20
3.831375469909009
 30
0.0
 10
30.02533119218435
 20
3.529455611603753
 30
0.0
 10
30.80176528252999
 20
3.089886862880256
 30
0.0
 10
31.57625369006231
 20
2.535478969729538
 30
0.0
 10
32.35037857593899
 20
1.885232544973943
 30
0.0
 10
33.1267274641219
 20
1.166426340851
 30
0.0
 10
33.90144430824945
 20
0.40253590396465
 30
0.0
 10
34.67545512149161
 20
-0.3770355674504656
 30
0.0
 10
35.45164097102234
 20
-1.140524166064194
 30
0.0
 10
36.22662212113245
 20
-1.862556903980912
 30
0.0
 10
37.00055574145326
 20
-2.515328367851542
 30
0.0
 10
37.77649957695586
 20
-3.073322080367666
 30
0.0
 10
38.5517809632845
 20
-3.514073867290176
 30
0.0
 10
39.32567461384232
 20
-3.834339066391065
 30
0.0
 10
39.84256414991154
 20
-3.925286104249615
 30
0.0
 10
40.10129638744479
 20
-3.970810203617367
 30
0.0
  0
SPLINE
  5
C0
330
1F
100
AcDbEntity
  8
0
  6
Continuous
 62
   131
370
    15
100
AcDbSpline
210
0.0
220
0.0
230
1.0
 70
    24
 71
     3
 72
    24
 73
    20
 74
     0
 42
0.000000001
 43
0.00000001
 40
0.0
 40
0.0
 40
0.0
 40
0.0
 40
0.1249999999999996
 40
0.1249999999999996
 40
0.1874999999999998
 40
0.1874999999999998
 40
0.2499999999999999
 40
0.2499999999999999
 40
0.3749999999999999
 40
0.3749999999999999
 40
0.4999999999999998
 40
0.4999999999999998
 40
0.6249999999999998
 40
0.6249999999999998
 40
0.7499999999999999
 40
0.7499999999999999
 40
0.875
 40
0.875
 40
1.0
 40
1.0
 40
1.0
 40
1.0
 10
10.10129638744479
 20
2.166981766155597
 30
0.0
 10
10.10129638744481
 20
2.111913751512984
 30
0.0
 10
10.10129638744479
 20
2.042883745760934
 30
0.0
 10
10.10129638744479
 20
1.934621355540468
 30
0.0
 10
10.10129638744479
 20
1.899046906427855
 30
0.0
 10
10.1012963874448
 20
1.817818296503214
 30
0.0
 10
10.1012963874448
 20
1.772487798966483
 30
0.0
 10
10.10129638744477
 20
1.620064988321027
 30
0.0
 10
10.1012963874448
 20
1.496149880896651
 30
0.0
 10
10.1012963874448
 20
1.196605551878295
 30
0.0
 10
10.1012963874448
 20
1.020353778507946
 30
0.0
 10
10.10129638744481
 20
0.6285040184802533
 30
0.0
 10
10.1012963874448
 20
0.4128587747350422
 30
0.0
 10
10.1012963874448
 20
-0.0108962916172152
 30
0.0
 10
10.10129638744479
 20
-0.2175162489343896
 30
0.0
 10
10.10129638744479
 20
-0.5615201033816263
 30
0.0
 10
10.1012963874448
 20
-0.6976181657215015
 30
0.0
 10
10.1012963874448
 20
-0.8751153619926856
 30
0.0
 10
10.10129638744481
 20
-0.9172244948327223
 30
0.0
 10
10.1012963874448
 20
-0.9232762584993809
 30
0.0
  0
SPLINE
  5
C1
330
1F
100
AcDbEntity
  8
0
  6
Continuous
 62
     1
370
    15
100
AcDbSpline
210
0.0
220
0.0
230
1.0
 70
     8
 71
     3
 72
    21
 73
    17
 74
     0
 42
0.000000001
 43
0.00000001
 40
0.0
 40
0.0
 40
0.0
 40
0.0
 40
0.0740655540041551
 40
0.1479665240516969
 40
0.2219996535187521
 40
0.2960956522375675
 40
0.370000196004754
 40
0.4440044192310076
 40
0.5181233834503133
 40
0.59203507315488
 40
0.6660139205380785
 40
0.7401483588981757
 40
0.8140707637552111
 40
0.8880277763262294
 40
0.9621701892799474
 40
1.0
 40
1.0
 40
1.0
 40
1.0
 10
40.10129638744478
 20
-2.40313676823611
 30
0.0
 10
39.84256414990637
 20
-2.18791055945668
 30
0.0
 10
39.3256746138269
 20
-1.757936404451634
 30
0.0
 10
38.55178096334609
 20
-1.021515781289816
 30
0.0
 10
37.77649957672404
 20
-0.2543745708392586
 30
0.0
 10
37.00055574231836
 20
0.5233661616361275
 30
0.0
 10
36.22662211791123
 20
1.282827473140976
 30
0.0
 10
35.45164098307094
 20
1.993480682115988
 30
0.0
 10
34.67545507650271
 20
2.628652873994834
 30
0.0
 10
33.9014444756827
 20
3.166953413852809
 30
0.0
 10
33.12672683800821
 20
3.586237156138432
 30
0.0
 10
32.35038091521085
 20
3.8703310702898
 30
0.0
 10
31.57624498647493
 20
4.012154602443675
 30
0.0
 10
30.80179781906326
 20
3.996353922327776
 30
0.0
 10
30.15149611809073
 20
3.880385306228009
 30
0.0
 10
29.76094291474942
 20
3.717725323111116
 30
0.0
 10
29.62899453260817
 20
3.6627706551484
 30
0.0
  0
SPLINE
  5
C2
330
1F
100
AcDbEntity
  8
0
  6
Continuous
 62
     1
370
    15
100
AcDbSpline
210
0.0
220
0.0
230
1.0
 70
     8
 71
     3
 72
    19
 73
    15
 74
     0
 42
0.000000001
 43
0.00000001
 40
0.0
 40
0.0
 40
0.0
 40
0.0
 40
0.0318416522455732
 40
0.1223079939826717
 40
0.212578260834458
 40
0.3030149350668513
 40
0.3935195048070649
 40
0.4837935892944835
 40
0.5741944142676871
 40
0.6647281837754055
 40
0.7484500440953722
 40
0.8323610057916853
 40
0.9162794985668973
 40
1.0
 40
1.0
 40
1.0
 40
1.0
 10
18.67384489183096
 20
-3.982878264994155
 30
0.0
 10
18.58281634035234
 20
-3.987487347460823
 30
0.0
 10
18.23316364517704
 20
-4.005191442281379
 30
0.0
 10
17.62515789811897
 20
-3.881581458276124
 30
0.0
 10
16.85130268687276
 20
-3.615762603546167
 30
0.0
 10
16.07597052638439
 20
-3.204911265375302
 30
0.0
 10
15.30006852512581
 20
-2.677384310963022
 30
0.0
 10
14.52612900835744
 20
-2.047619720921166
 30
0.0
 10
13.75115823638712
 20
-1.342001987292249
 30
0.0
 10
12.9936054319613
 20
-0.6057148244526381
 30
0.0
 10
12.2572719296385
 20
0.1353459215067831
 30
0.0
 10
11.53794299845263
 20
0.8499548430622441
 30
0.0
 10
10.8187233317881
 20
1.542331819635059
 30
0.0
 10
10.34025033413679
 20
1.958929125815125
 30
0.0
 10
10.10129638744471
 20
2.16698176615568
 30
0.0
  0
SPLINE
  5
C3
330
1F
100
AcDbEntity
  8
0
  6
Continuous
 62
     1
370
    15
100
AcDbSpline
210
0.0
220
0.0
230
1.0
 70
     8
 71
     3
 72
    11
 73
     7
 74
     0
 42
0.000000001
 43
0.00000001
 40
0.0
 40
0.0
 40
0.0
 40
0.0
 40
0.258842184082811
 40
0.5182965062983839
 40
0.7777275443616
 40
1.0
 40
1.0
 40
1.0
 40
1.0
 10
10.10129638744468
 20
-3.832197535767916
 30
0.0
 10
10.34024824602102
 20
-3.889058724454662
 30
0.0
 10
10.81871706250269
 20
-4.002915573347907
 30
0.0
 10
11.53796814385856
 20
-4.008626087620889
 30
0.0
 10
12.2233558975663
 20
-3.910935161494887
 30
0.0
 10
12.66806495616013
 20
-3.747997860614634
 30
0.0
 10
12.87326706864369
 20
-3.672813697627889
 30
0.0
  0
SPLINE
  5
C4
330
1F
100
AcDbEntity
  8
0
  6
Continuous
 62
     1
370
    15
100
AcDbSpline
210
0.0
220
0.0
230
1.0
 70
     8
 71
     3
 72
    26
 73
    22
 74
     0
 42
0.000000001
 43
0.00000001
 40
0.0
 40
0.0
 40
0.0
 40
0.0
 40
0.0543580565991893
 40
0.109000094617915
 40
0.1637602698602975
 40
0.2183639633123551
 40
0.2729902018214325
 40
0.3277555721047762
 40
0.3823701434275806
 40
0.4369832055313662
 40
0.4917482280409242
 40
0.5463763052350099
 40
0.6009788195675736
 40
0.6557379516726818
 40
0.7103821570710298
 40
0.7649767566953606
 40
0.8197244588828964
 40
0.8743874080550255
 40
0.9289767293588121
 40
0.9837074681632973
 40
0.9999999999999999
 40
0.9999999999999999
 40
0.9999999999999999
 40
0.9999999999999999
 10
23.83038546834687
 20
3.999676366379603
 30
0.0
 10
24.08710400457378
 20
3.985463164347722
 30
0.0
 10
24.60188224518002
 20
3.956962506612258
 30
0.0
 10
25.37532848852429
 20
3.726029939959228
 30
0.0
 10
26.15172416074508
 20
3.367001186863659
 30
0.0
 10
26.92585733356831
 20
2.878039188223326
 30
0.0
 10
27.70032227389105
 20
2.282067604401022
 30
0.0
 10
28.47675955803831
 20
1.602131717456603
 30
0.0
 10
29.25105667298086
 20
0.8605378193538672
 30
0.0
 10
30.02533209337671
 20
0.0866242424338519
 30
0.0
 10
30.80176504040306
 20
-0.6885177354091108
 30
0.0
 10
31.57625375870072
 20
-1.439728899553578
 30
0.0
 10
32.35037854304159
 20
-2.137206881548233
 30
0.0
 10
33.12672752700198
 20
-2.753045009170045
 30
0.0
 10
33.90144409025726
 20
-3.267099093786973
 30
0.0
 10
34.67545593094563
 20
-3.659150184695891
 30
0.0
 10
35.45163794370127
 20
-3.912763529241519
 30
0.0
 10
36.22663339202845
 20
-4.023185099035158
 30
0.0
 10
37.0005136931733
 20
-3.972723771821483
 30
0.0
 10
37.59496959882674
 20
-3.849234072600052
 30
0.0
 10
37.93063626538571
 20
-3.699835097076533
 30
0.0
 10
38.00763722298821
 20
-3.665563406360052
 30
0.0
  0
SPLINE
  5
C5
330
1F
100
AcDbEntity
  8
0
  6
Continuous
 62
   131
370
    15
100
AcDbSpline
210
0.0
220
0.0
230
1.0
 70
    24
 71
     3
 72
    15
 73
    11
 74
     0
 42
0.000000001
 43
0.00000001
 40
0.0
 40
0.0
 40
0.0
 40
0.0
 40
0.0735374413938057
 40
0.1979061094115814
 40
0.3258814772272041
 40
0.4502501452450113
 40
0.5782255130606699
 40
0.7025941810779713
 40
0.8305695488941028
 40
1.0
 40
1.0
 40
1.0
 40
1.0
 10
10.10129638744481
 20
-1.883683880942357
 30
0.0
 10
10.1012963874448
 20
-1.917936729929502
 30
0.0
 10
10.10129638744479
 20
-2.010118997232039
 30
0.0
 10
10.10129638744484
 20
-2.197725268072905
 30
0.0
 10
10.1012963874448
 20
-2.433741669762195
 30
0.0
 10
10.10129638744476
 20
-2.691783242467307
 30
0.0
 10
10.10129638744482
 20
-2.958067343821061
 30
0.0
 10
10.10129638744479
 20
-3.229815741084053
 30
0.0
 10
10.10129638744474
 20
-3.528304935994895
 30
0.0
 10
10.10129638744476
 20
-3.721904776672316
 30
0.0
 10
10.10129638744478
 20
-3.832197535767944
 30
0.0
  0
SPLINE
  5
C6
330
1F
100
AcDbEntity
  8
0
  6
Continuous
 62
     1
370
    15
100
AcDbSpline
210
0.0
220
0.0
230
1.0
 70
     8
 71
     3
 72
    26
 73
    22
 74
     0
 42
0.000000001
 43
0.00000001
 40
0.0
 40
0.0
 40
0.0
 40
0.0
 40
0.0205801805400747
 40
0.0751692523992614
 40
0.1298559476055305
 40
0.1845890829884288
 40
0.2391807946781666
 40
0.2938461374603027
 40
0.348596236969054
 40
0.4031932272104657
 40
0.4578398253980569
 40
0.5126013553248809
 40
0.5672062606210981
 40
0.6218367298981976
 40
0.6766041504874031
 40
0.7312196040167144
 40
0.7858365668311306
 40
0.8406043352093506
 40
0.8952329657209276
 40
0.9498390501882705
 40
1.0
 40
1.0
 40
1.0
 40
1.0
 10
39.61724524125331
 20
-3.982383562256451
 30
0.0
 10
39.51993416219078
 20
-3.98696414112267
 30
0.0
 10
39.16450476986584
 20
-4.003694737254184
 30
0.0
 10
38.55181721600419
 20
-3.876730189279079
 30
0.0
 10
37.77648984574115
 20
-3.607534823387345
 30
0.0
 10
37.00055834222597
 20
-3.194182525162589
 30
0.0
 10
36.22662142403006
 20
-2.66278305254403
 30
0.0
 10
35.45164115816502
 20
-2.031508744933869
 30
0.0
 10
34.67545507181289
 20
-1.325518764696006
 30
0.0
 10
33.90144432028919
 20
-0.5680263976316249
 30
0.0
 10
33.12672746563074
 20
0.2101729037683474
 30
0.0
 10
32.35037855780537
 20
0.978987302540686
 30
0.0
 10
31.5762537608561
 20
1.713176790107471
 30
0.0
 10
30.80176501698763
 20
2.382822949752846
 30
0.0
 10
30.02533218503365
 20
2.961941128244278
 30
0.0
 10
29.2510563308951
 20
3.431761206148309
 30
0.0
 10
28.47676083665475
 20
3.772579831922566
 30
0.0
 10
27.70031749239524
 20
3.972562090906578
 30
0.0
 10
26.92587512318514
 20
4.021135664537611
 30
0.0
 10
26.17338159063764
 20
3.933512728723108
 30
0.0
 10
25.67769074757188
 20
3.758486915615649
 30
0.0
 10
25.44036109829572
 20
3.674687072588173
 30
0.0
  0
SPLINE
  5
C7
330
1F
100
AcDbEntity
  8
0
  6
Continuous
 62
     1
370
    15
100
AcDbSpline
210
0.0
220
0.0
230
1.0
 70
     8
 71
     3
 72
    13
 73
     9
 74
     0
 42
0.000000001
 43
0.00000001
 40
0.0
 40
0.0
 40
0.0
 40
0.0
 40
0.1674525876192945
 40
0.3444668355819941
 40
0.5081622414306769
 40
0.6722273837666917
 40
0.8363072510862664
 40
1.0
 40
1.0
 40
1.0
 40
1.0
 10
14.48554764708127
 20
-3.996266695784377
 30
0.0
 10
14.24088520218759
 20
-3.984768830416705
 30
0.0
 10
13.7375899149873
 20
-3.961116563494714
 30
0.0
 10
12.99359307978323
 20
-3.745492245495817
 30
0.0
 10
12.25727513634773
 20
-3.41396872802138
 30
0.0
 10
11.53794214236254
 20
-2.977701501244491
 30
0.0
 10
10.81872354522961
 20
-2.450698219991243
 30
0.0
 10
10.34025040522791
 20
-2.035558721647045
 30
0.0
 10
10.1012963874447
 20
-1.828234124346764
 30
0.0
  0
LINE
  5
C8
330
1F
100
AcDbEntity
  8
0
  6
Continuous
 62
     1
370
    15
100
AcDbLine
 10
40.10129638744478
 20
-4.000000000000019
 30
0.0
 11
40.10129638744478
 21
-3.970810203617367
 31
0.0
  0
LINE
  5
C9
330
1F
100
AcDbEntity
  8
0
  6
Continuous
 62
   131
370
    15
100
AcDbLine
 10
10.10129638744479
 20
-1.828234124346842
 30
0.0
 11
10.10129638744478
 21
-0.9232762584993678
 31
0.0
  0
LINE
  5
CA
330
1F
100
AcDbEntity
  8
0
  6
Continuous
 62
   131
370
    15
100
AcDbLine
 10
40.10129638744478
 20
3.970810203617335
 30
0.0
 11
40.10129638744478
 21
3.999999999999985
 31
0.0
  0
LINE
  5
CB
330
1F
100
AcDbEntity
  8
0
  6
Continuous
 62
     1
370
    15
100
AcDbLine
 10
40.10129638744478
 20
1.567673435381255
 30
0.0
 11
40.10129638744478
 21
2.403136768236097
 31
0.0
  0
LINE
  5
CC
330
1F
100
AcDbEntity
  8
0
  6
Continuous
 62
     1
370
    15
100
AcDbLine
 10
40.10129638744478
 20
-2.403136768236111
 30
0.0
 11
40.10129638744478
 21
-1.567673435381214
 31
0.0
  0
LINE
  5
CD
330
1F
100
AcDbEntity
  8
0
  6
Continuous
 62
   131
370
    15
100
AcDbLine
 10
10.10129638744479
 20
2.166981766155603
 30
0.0
 11
10.10129638744478
 21
2.908921277268555
 31
0.0
  0
LINE
  5
CE
330
1F
100
AcDbEntity
  8
0
  6
Continuous
 62
   131
370
    15
100
AcDbLine
 10
10.10129638744479
 20
-3.99521589050243
 30
0.0
 11
10.10129638744478
 21
-3.832197535767944
 31
0.0
  0
LINE
  5
CF
330
1F
100
AcDbEntity
  8
0
  6
Continuous
 62
   131
370
    15
100
AcDbLine
 10
9.101584326441639
 20
3.497592151499658
 30
0.0
 11
9.101584326441646
 21
3.999999999999983
 31
0.0
  0
SPLINE
  5
D0
330
1F
100
AcDbEntity
  8
0
  6
Continuous
 62
   131
370
    15
100
AcDbSpline
210
0.0
220
0.0
230
1.0
 70
     8
 71
     3
 72
    10
 73
     6
 74
     0
 42
0.000000001
 43
0.00000001
 40
0.0
 40
0.0
 40
0.0
 40
0.0
 40
0.5
 40
0.5
 40
1.0
 40
1.0
 40
1.0
 40
1.0
 10
10.1012963874447
 20
2.908921277268603
 30
0.0
 10
9.934421743863119
 20
3.023340078595991
 30
0.0
 10
9.766476812609161
 20
3.130394628370786
 30
0.0
 10
9.43237367645235
 20
3.327254827428416
 30
0.0
 10
9.26769068771895
 20
3.416833151540458
 30
0.0
 10
9.101584326441658
 20
3.497591328522347
 30
0.0
  0
SPLINE
  5
D1
330
1F
100
AcDbEntity
  8
0
  6
Continuous
 62
   131
370
    15
100
AcDbSpline
210
0.0
220
0.0
230
1.0
 70
     8
 71
     3
 72
    10
 73
     6
 74
     0
 42
0.000000001
 43
0.00000001
 40
0.0
 40
0.0
 40
0.0
 40
0.0
 40
0.5
 40
0.5
 40
1.0
 40
1.0
 40
1.0
 40
1.0
 10
10.10129638744469
 20
2.166981766155693
 30
0.0
 10
9.934421743863114
 20
2.307096547377333
 30
0.0
 10
9.766476812609168
 20
2.441842103556588
 30
0.0
 10
9.43237367645235
 20
2.697430667769897
 30
0.0
 10
9.267690687718993
 20
2.817946107764127
 30
0.0
 10
9.101584326441646
 20
2.931199092102446
 30
0.0
  0
SPLINE
  5
D2
330
1F
100
AcDbEntity
  8
0
  6
Continuous
 62
   131
370
    15
100
AcDbSpline
210
0.0
220
0.0
230
1.0
 70
     8
 71
     3
 72
    10
 73
     6
 74
     0
 42
0.000000001
 43
0.00000001
 40
0.0
 40
0.0
 40
0.0
 40
0.0
 40
0.5
 40
0.5
 40
1.0
 40
1.0
 40
1.0
 40
1.0
 10
10.1012963874447
 20
-0.9232762584992971
 30
0.0
 10
9.934421743863119
 20
-0.7610819603994982
 30
0.0
 10
9.766476812609161
 20
-0.5961280653939972
 30
0.0
 10
9.43237367645235
 20
-0.2645548334888946
 30
0.0
 10
9.26769068771895
 20
-0.0984356742650521
 30
0.0
 10
9.101584326441658
 20
0.0679800366613089
 30
0.0
  0
SPLINE
  5
D3
330
1F
100
AcDbEntity
  8
0
  6
Continuous
 62
   131
370
    15
100
AcDbSpline
210
0.0
220
0.0
230
1.0
 70
     8
 71
     3
 72
    10
 73
     6
 74
     0
 42
0.000000001
 43
0.00000001
 40
0.0
 40
0.0
 40
0.0
 40
0.0
 40
0.5
 40
0.5
 40
1.0
 40
1.0
 40
1.0
 40
1.0
 10
10.10129638744469
 20
-1.828234124346748
 30
0.0
 10
9.934421743863114
 20
-1.679968925142574
 30
0.0
 10
9.766476812609168
 20
-1.526607046237707
 30
0.0
 10
9.43237367645235
 20
-1.213267518876654
 30
0.0
 10
9.267690687718993
 20
-1.053781794424991
 30
0.0
 10
9.101584326441646
 20
-0.891528772866412
 30
0.0
  0
LINE
  5
D4
330
1F
100
AcDbEntity
  8
0
  6
Continuous
 62
   131
370
    15
100
AcDbLine
 10
9.101584326441639
 20
-3.429610418955548
 30
0.0
 11
9.101584326441653
 21
-0.8915329701105185
 31
0.0
  0
SPLINE
  5
D5
330
1F
100
AcDbEntity
  8
0
  6
Continuous
 62
   131
370
    15
100
AcDbSpline
210
0.0
220
0.0
230
1.0
 70
     8
 71
     3
 72
    10
 73
     6
 74
     0
 42
0.000000001
 43
0.00000001
 40
0.0
 40
0.0
 40
0.0
 40
0.0
 40
0.5
 40
0.5
 40
1.0
 40
1.0
 40
1.0
 40
1.0
 10
10.1012963874447
 20
-3.832197535767921
 30
0.0
 10
9.934421743863119
 20
-3.784422038995513
 30
0.0
 10
9.766476812609161
 20
-3.726522693764807
 30
0.0
 10
9.43237367645235
 20
-3.591809660917337
 30
0.0
 10
9.26769068771895
 20
-3.515268825805539
 30
0.0
 10
9.101584326441658
 20
-3.42961129186107
 30
0.0
  0
SPLINE
  5
D6
330
1F
100
AcDbEntity
  8
0
  6
Continuous
 62
   131
370
    15
100
AcDbSpline
210
0.0
220
0.0
230
1.0
 70
     8
 71
     3
 72
    10
 73
     6
 74
     0
 42
0.000000001
 43
0.00000001
 40
0.0
 40
0.0
 40
0.0
 40
0.0
 40
0.5
 40
0.5
 40
1.0
 40
1.0
 40
1.0
 40
1.0
 10
10.10129638744469
 20
-3.995215890502427
 30
0.0
 10
9.934421743863114
 20
-3.987065472519894
 30
0.0
 10
9.766476812609168
 20
-3.968449149794283
 30
0.0
 10
9.43237367645235
 20
-3.910698186646539
 30
0.0
 10
9.267690687718993
 20
-3.871727902189104
 30
0.0
 10
9.101584326441646
 20
-3.822727864968846
 30
0.0
  0
LINE
  5
D7
330
1F
100
AcDbEntity
  8
0
  6
Continuous
 62
   131
370
    15
100
AcDbLine
 10
9.101584326441646
 20
-4.000000000000017
 30
0.0
 11
9.101584326441653
 21
-3.8227291325248
 31
0.0
  0
SPLINE
  5
D8
330
1F
100
AcDbEntity
  8
0
  6
Continuous
 62
   131
370
    15
100
AcDbSpline
210
0.0
220
0.0
230
1.0
 70
     8
 71
     3
 72
    10
 73
     6
 74
     0
 42
0.000000001
 43
0.00000001
 40
0.0
 40
0.0
 40
0.0
 40
0.0
 40
0.5
 40
0.5
 40
1.0
 40
1.0
 40
1.0
 40
1.0
 10
10.10129638744469
 20
3.995215890502391
 30
0.0
 10
9.934421743863114
 20
3.987065472519856
 30
0.0
 10
9.766476812609168
 20
3.968449149794243
 30
0.0
 10
9.43237367645235
 20
3.910698186646499
 30
0.0
 10
9.267690687718993
 20
3.871727902189062
 30
0.0
 10
9.101584326441646
 20
3.822727864968803
 30
0.0
  0
LINE
  5
D9
330
1F
100
AcDbEntity
  8
0
  6
Continuous
 62
   131
370
    15
100
AcDbLine
 10
-39.09870361255521
 20
-0.000000000000017
 30
0.0
 11
-39.09870361255521
 21
3.999999999999983
 31
0.0
  0
LINE
  5
DA
330
1F
100
AcDbEntity
  8
0
  6
Continuous
 62
   131
370
    15
100
AcDbLine
 10
-39.09870361255521
 20
-4.000000000000017
 30
0.0
 11
-39.09870361255521
 21
-0.000000000000017
 31
0.0
  0
LINE
  5
DB
330
1F
100
AcDbEntity
  8
0
  6
Continuous
 62
   131
370
    15
100
AcDbLine
 10
9.101584326441639
 20
0.0679817325441404
 30
0.0
 11
9.101584326441653
 21
2.931196162414294
 31
0.0
  0
SPLINE
  5
DC
330
1F
100
AcDbEntity
  8
0
  6
Continuous
 62
   131
370
    15
100
AcDbSpline
210
0.0
220
0.0
230
1.0
 70
    24
 71
     3
 72
    24
 73
    20
 74
     0
 42
0.000000001
 43
0.00000001
 40
0.0
 40
0.0
 40
0.0
 40
0.0
 40
0.1249999999999999
 40
0.1249999999999999
 40
0.2499999999999999
 40
0.2499999999999999
 40
0.3749999999999998
 40
0.3749999999999998
 40
0.4999999999999998
 40
0.4999999999999998
 40
0.6249999999999998
 40
0.6249999999999998
 40
0.7499999999999997
 40
0.7499999999999997
 40
0.8124999999999998
 40
0.8124999999999998
 40
0.8749999999999998
 40
0.8749999999999998
 40
1.0
 40
1.0
 40
1.0
 40
1.0
 10
10.10129638744478
 20
-0.9232762584993754
 30
0.0
 10
10.10129638744479
 20
-0.9172244948327163
 30
0.0
 10
10.10129638744479
 20
-0.8751153619926783
 30
0.0
 10
10.10129638744479
 20
-0.6976181657214848
 30
0.0
 10
10.10129638744478
 20
-0.5615201033816025
 30
0.0
 10
10.10129638744479
 20
-0.2175162489343505
 30
0.0
 10
10.10129638744478
 20
-0.0108962916171672
 30
0.0
 10
10.10129638744477
 20
0.4128587747351022
 30
0.0
 10
10.10129638744479
 20
0.6285040184803183
 30
0.0
 10
10.10129638744478
 20
1.020353778508014
 30
0.0
 10
10.10129638744479
 20
1.196605551878361
 30
0.0
 10
10.10129638744481
 20
1.496149880896711
 30
0.0
 10
10.1012963874448
 20
1.620064988321084
 30
0.0
 10
10.1012963874448
 20
1.772487798966532
 30
0.0
 10
10.1012963874448
 20
1.817818296503262
 30
0.0
 10
10.1012963874448
 20
1.899046906427899
 30
0.0
 10
10.1012963874448
 20
1.934621355540513
 30
0.0
 10
10.10129638744479
 20
2.04288374576098
 30
0.0
 10
10.10129638744479
 20
2.111913751513029
 30
0.0
 10
10.10129638744478
 20
2.166981766155637
 30
0.0
  0
LINE
  5
DD
330
1F
100
AcDbEntity
  8
0
  6
Continuous
 62
   131
370
    15
100
AcDbLine
 10
-39.89870361255521
 20
-0.000000000000017
 30
0.0
 11
-39.89870361255521
 21
3.199999999999987
 31
0.0
  0
LINE
  5
DE
330
1F
100
AcDbEntity
  8
0
  6
Continuous
 62
   131
370
    15
100
AcDbLine
 10
-39.89870361255521
 20
-3.200000000000021
 30
0.0
 11
-39.89870361255521
 21
-0.000000000000017
 31
0.0
  0
SPLINE
  5
DF
330
1F
100
AcDbEntity
  8
0
  6
Continuous
 62
   131
370
    15
100
AcDbSpline
210
0.0
220
0.0
230
1.0
 70
    24
 71
     3
 72
    12
 73
     8
 74
     0
 42
0.000000001
 43
0.00000001
 40
0.0
 40
0.0
 40
0.0
 40
0.0
 40
0.1313711897326941
 40
0.3812619033565168
 40
0.6311526169803356
 40
0.8810433306041562
 40
1.0
 40
1.0
 40
1.0
 40
1.0
 10
10.1012963874448
 20
-3.832197535767949
 30
0.0
 10
10.1012963874448
 20
-3.746835152491954
 30
0.0
 10
10.10129638744478
 20
-3.499098759230419
 30
0.0
 10
10.10129638744478
 20
-3.038162323762994
 30
0.0
 10
10.1012963874448
 20
-2.507659022207998
 30
0.0
 10
10.1012963874448
 20
-2.098762778030634
 30
0.0
 10
10.10129638744478
 20
-1.936133361688285
 30
0.0
 10
10.10129638744479
 20
-1.883683880942357
 30
0.0
  0
SPLINE
  5
E0
330
1F
100
AcDbEntity
  8
0
  6
Continuous
 62
   131
370
    15
100
AcDbSpline
210
0.0
220
0.0
230
1.0
 70
    24
 71
     3
 72
    12
 73
     8
 74
     0
 42
0.000000001
 43
0.00000001
 40
0.0
 40
0.0
 40
0.0
 40
0.0
 40
0.1955706202649066
 40
0.444155657987415
 40
0.6999496786442271
 40
0.8492193786573341
 40
1.0
 40
1.0
 40
1.0
 40
1.0
 10
10.10129638744478
 20
2.964371033864071
 30
0.0
 10
10.1012963874448
 20
3.025560604927505
 30
0.0
 10
10.10129638744481
 20
3.16452674493787
 30
0.0
 10
10.10129638744478
 20
3.40563177664822
 30
0.0
 10
10.10129638744481
 20
3.637089048307226
 30
0.0
 10
10.10129638744476
 20
3.835668699405662
 30
0.0
 10
10.10129638744479
 20
3.941855257217056
 30
0.0
 10
10.1012963874448
 20
3.995215890502485
 30
0.0
  0
LINE
  5
E1
330
1F
100
AcDbEntity
  8
중심선
 62
     1
100
AcDbLine
 10
-43.10129638744476
 20
-0.000000000000022
 30
0.0
 11
43.10129638744476
 21
0.000000000000022
 31
0.0
  0
CIRCLE
  5
E2
330
1F
100
AcDbEntity
  8
외형선
100
AcDbCircle
 10
0.1012963874447834
 20
-0.0000000000000208
 30
0.0
 40
3.000000000000003
  0
INSERT
  5
E3
330
1F
100
AcDbEntity
  8
0
  6
Continuous
 62
     7
100
AcDbBlockReference
 66
     1
  2
블럭10
 10
-22.93944368806589
 20
-52.04609937292004
 30
0.0
  0
ATTRIB
  5
E4
330
E3
100
AcDbEntity
  8
FORMAT
 62
     2
100
AcDbText
 10
-39.05870472750145
 20
-49.97073246008785
 30
0.0
 40
4.233333333333333
  1
SEME7508030E [ 6 FLUTE ]
 41
0.75
  7
SLDTEXTSTYLE0
 11
-39.05870472750145
 21
-52.08739912675452
 31
0.0
100
AcDbAttribute
  2
AUTOATTR0
 70
     0
 74
     1
  0
SEQEND
  5
E5
330
E3
100
AcDbEntity
  8
0
  6
Continuous
 62
     7
  0
HATCH
  5
E6
330
1F
100
AcDbEntity
  8
중심선
100
AcDbHatch
 10
0.0
 20
0.0
 30
0.0
210
0.0
220
0.0
230
1.0
  2
SOLID
 70
     1
 71
     0
 91
        1
 92
        0
 93
        4
 72
     1
 10
-17.22453438368504
 20
-35.7989250712761
 11
-20.67080962752232
 21
-35.7989250712761
 72
     1
 10
-20.67080962752232
 20
-35.7989250712761
 11
-22.79903948672635
 21
-38.3352506518487
 72
     1
 10
-22.79903948672635
 20
-38.3352506518487
 11
-19.35273115777591
 21
-38.33521122254621
 72
     1
 10
-19.35273115777591
 20
-38.33521122254621
 11
-17.22453438368504
 21
-35.7989250712761
 97
        0
 75
     0
 76
     1
 98
        1
 10
0.0
 20
0.0
  0
HATCH
  5
E7
330
1F
100
AcDbEntity
  8
중심선
100
AcDbHatch
 10
0.0
 20
0.0
 30
0.0
210
0.0
220
0.0
230
1.0
  2
SOLID
 70
     1
 71
     0
 91
        1
 92
        0
 93
        4
 72
     1
 10
-12.21177039264909
 20
-35.7989250712761
 11
-15.65804563648637
 21
-35.7989250712761
 72
     1
 10
-15.65804563648637
 20
-35.7989250712761
 11
-20.18918364484376
 21
-41.19892507127612
 72
     1
 10
-20.18918364484376
 20
-41.19892507127612
 11
-16.74290840100648
 21
-41.19892507127612
 72
     1
 10
-16.74290840100648
 20
-41.19892507127612
 11
-12.21177039264909
 21
-35.7989250712761
 97
        0
 75
     0
 76
     1
 98
        1
 10
0.0
 20
0.0
  0
HATCH
  5
E8
330
1F
100
AcDbEntity
  8
중심선
100
AcDbHatch
 10
0.0
 20
0.0
 30
0.0
210
0.0
220
0.0
230
1.0
  2
SOLID
 70
     1
 71
     0
 91
        1
 92
        0
 93
        4
 72
     1
 10
-7.199006401613195
 20
-35.79892507127613
 11
-10.64528164545031
 21
-35.7989250712761
 72
     1
 10
-10.64528164545031
 20
-35.7989250712761
 11
-17.69371854733956
 21
-44.19892507127612
 72
     1
 10
-17.69371854733956
 20
-44.19892507127612
 11
-14.24744330350228
 21
-44.19892507127612
 72
     1
 10
-14.24744330350228
 20
-44.19892507127612
 11
-7.199006401613195
 21
-35.79892507127613
 97
        0
 75
     0
 76
     1
 98
        1
 10
0.0
 20
0.0
  0
HATCH
  5
E9
330
1F
100
AcDbEntity
  8
중심선
100
AcDbHatch
 10
0.0
 20
0.0
 30
0.0
210
0.0
220
0.0
230
1.0
  2
SOLID
 70
     1
 71
     0
 91
        1
 92
        0
 93
        6
 72
     3
 10
-2.399115970600996
 20
-39.99892507132738
 11
3.960054785062284
 21
1.540850780301639E-10
 40
0.3939339440162633
 50
17.09539180608433
 51
320.0019657685079
 73
     0
 72
     1
 10
-0.7161163149004002
 20
-38.58681907591441
 11
1.589185558800638
 21
-36.65249236586649
 72
     3
 10
-2.399115970653842
 20
-39.99892507127625
 11
6.600054785286829
 21
-1.249000902703301E-13
 40
0.6363583540795982
 50
39.99873849337408
 51
368.4976242363725
 73
     1
 72
     1
 10
4.026216521246767
 20
-39.03892507120613
 11
-3.71904866381792
 21
-39.0389250712061
 72
     1
 10
-3.71904866381792
 20
-39.0389250712061
 11
-3.719073708263854
 21
-40.95892507120602
 72
     1
 10
-3.719073708263854
 20
-40.95892507120602
 11
0.7223060612081831
 21
-40.95892507120599
 97
        0
 75
     0
 76
     1
 98
        1
 10
0.0
 20
0.0
  0
DIMENSION
  5
EA
330
1F
100
AcDbEntity
  8
치수문자_일반주서
100
AcDbDimension
  2
_D
 10
-57.72760974387864
 20
-4.00000000000009
 30
0.0
 11
-57.72760974387865
 21
-0.0000000000000164
 31
0.0
 70
   160
  1
%%c<>
 71
     2
 42
8.000000000000007
 52
-270.0
  3
SLDDIMSTYLE0
100
AcDbAlignedDimension
 13
-39.09870361255521
 23
3.999999999999987
 33
0.0
 14
-39.09870361255521
 24
-4.00000000000002
 34
0.0
 50
90.0000000000002
100
AcDbRotatedDimension
  0
DIMENSION
  5
F8
330
1F
100
AcDbEntity
  8
치수문자_일반주서
100
AcDbDimension
  2
_D_1
 10
50.10129638744477
 20
-3.999999999999982
 30
0.0
 11
50.10129638744475
 21
0.5275446000767771
 31
0.0
 70
   160
  1
%%c<>
 71
     2
 42
8.000000000000004
 52
-270.0
  3
SLDDIMSTYLE0
100
AcDbAlignedDimension
 13
40.10129638744478
 23
3.999999999999985
 33
0.0
 14
40.10129638744478
 24
-4.000000000000019
 34
0.0
 50
90.0000000000002
100
AcDbRotatedDimension
  0
DIMENSION
  5
105
330
1F
100
AcDbEntity
  8
치수문자_일반주서
100
AcDbDimension
  2
_D_2
 10
40.10129638744478
 20
47.49005650914429
 30
0.0
 11
22.37879271668407
 21
47.49005650914429
 31
0.0
 70
   160
  1
<>
 71
     2
 42
29.99999999999997
  3
SLDDIMSTYLE1
100
AcDbAlignedDimension
 13
10.1012963874448
 23
3.995215890502485
 33
0.0
 14
40.10129638744478
 24
3.970810203617335
 34
0.0
100
AcDbRotatedDimension
  0
DIMENSION
  5
110
330
1F
100
AcDbEntity
  8
치수문자_일반주서
100
AcDbDimension
  2
_D_3
 10
-39.89870361255521
 20
74.91549286448696
 30
0.0
 11
2.579826946186523
 21
74.91549286448696
 31
0.0
 70
   160
  1
<>
 71
     2
 42
79.99999999999999
  3
SLDDIMSTYLE1
100
AcDbAlignedDimension
 13
40.10129638744478
 23
3.970810203617335
 33
0.0
 14
-39.89870361255521
 24
3.199999999999987
 34
0.0
100
AcDbRotatedDimension
  0
INSERT
  5
120
330
1F
100
AcDbEntity
  8
외형선
100
AcDbBlockReference
  2
SW_DOWELSYMBOL_0
 10
0.1012963874447834
 20
-0.0000000000000208
 30
0.0
  0
ENDSEC
  0
SECTION
  2
OBJECTS
  0
DICTIONARY
  5
C
330
0
100
AcDbDictionary
281
     1
  3
ACAD_GROUP
350
D
  3
ACAD_IMAGE_VARS
350
144
  3
ACAD_LAYOUT
350
1A
  3
ACAD_MLINESTYLE
350
17
  3
ACAD_PLOTSETTINGS
350
19
  3
ACAD_PLOTSTYLENAME
350
E
  3
ACAD_SCALELIST
350
47
  3
APPDATA
350
142
  3
DWGPROPS
350
150
  0
DICTIONARY
  5
D
102
{ACAD_REACTORS
330
C
102
}
330
C
100
AcDbDictionary
281
     1
  0
RASTERVARIABLES
  5
144
102
{ACAD_REACTORS
330
C
102
}
330
C
100
AcDbRasterVariables
 90
        0
 70
     1
 71
     1
 72
     1
  0
DICTIONARY
  5
1A
102
{ACAD_REACTORS
330
C
102
}
330
C
100
AcDbDictionary
281
     1
  3
Layout1
350
1E
  3
Layout2
350
26
  3
Model
350
22
  0
DICTIONARY
  5
17
102
{ACAD_REACTORS
330
C
102
}
330
C
100
AcDbDictionary
281
     1
  3
Standard
350
18
  0
DICTIONARY
  5
19
102
{ACAD_REACTORS
330
C
102
}
330
C
100
AcDbDictionary
281
     1
  0
ACDBDICTIONARYWDFLT
  5
E
102
{ACAD_REACTORS
330
C
102
}
330
C
100
AcDbDictionary
281
     1
  3
Normal
350
F
100
AcDbDictionaryWithDefault
340
F
  0
DICTIONARY
  5
47
102
{ACAD_REACTORS
330
C
102
}
330
C
100
AcDbDictionary
281
     1
  3
A0
350
48
  3
A1
350
49
  3
A2
350
4A
  3
A3
350
4B
  3
A4
350
4C
  3
A5
350
4D
  3
A6
350
4E
  3
A7
350
4F
  3
A8
350
50
  3
A9
350
51
  3
B0
350
52
  3
B1
350
53
  3
B2
350
54
  3
B3
350
55
  3
B4
350
56
  3
B5
350
57
  3
B6
350
58
  3
B7
350
59
  3
B8
350
5A
  3
B9
350
5B
  3
C0
350
5C
  3
C1
350
5D
  3
C2
350
5E
  3
C3
350
5F
  3
C4
350
60
  3
C5
350
61
  3
C6
350
62
  3
C7
350
63
  3
C8
350
64
  3
C9
350
65
  3
D0
350
66
  3
D1
350
67
  3
D2
350
68
  0
DICTIONARY
  5
142
102
{ACAD_REACTORS
330
C
102
}
330
C
100
AcDbDictionary
281
     1
  0
XRECORD
  5
150
102
{ACAD_REACTORS
330
C
102
}
330
C
100
AcDbXrecord
280
     1
  1
DWGPROPS COOKIE
  2

  3

  4

  6

  7

  8
12016016
  9

300
=
301
=
302
=
303
=
304
=
305
=
306
=
307
=
308
=
309
=
 40
0.0
 41
2458268.394836018
 42
2458269.990973102
  1

 90
        0
  0
LAYOUT
  5
1E
102
{ACAD_REACTORS
330
1A
102
}
330
1A
100
AcDbPlotSettings
  1

  2
none_device
  4

  6

 40
0.0
 41
0.0
 42
0.0
 43
0.0
 44
0.0
 45
0.0
 46
0.0
 47
0.0
 48
0.0
 49
0.0
140
0.0
141
0.0
142
1.0
143
1.0
 70
   688
 72
     1
 73
     0
 74
     5
  7

 75
    16
147
1.0
148
0.0
149
0.0
100
AcDbLayout
  1
Layout1
 70
     1
 71
     1
 10
0.0
 20
0.0
 11
420.0
 21
297.0
 12
0.0
 22
0.0
 32
0.0
 14
1.000000000000000E+20
 24
1.000000000000000E+20
 34
1.000000000000000E+20
 15
-1.000000000000000E+20
 25
-1.000000000000000E+20
 35
-1.000000000000000E+20
146
0.0
 13
0.0
 23
0.0
 33
0.0
 16
1.0
 26
0.0
 36
0.0
 17
0.0
 27
1.0
 37
0.0
 76
     0
330
1B
  0
LAYOUT
  5
26
102
{ACAD_REACTORS
330
1A
102
}
330
1A
100
AcDbPlotSettings
  1

  2
none_device
  4

  6

 40
0.0
 41
0.0
 42
0.0
 43
0.0
 44
0.0
 45
0.0
 46
0.0
 47
0.0
 48
0.0
 49
0.0
140
0.0
141
0.0
142
1.0
143
1.0
 70
   688
 72
     1
 73
     0
 74
     5
  7

 75
    16
147
1.0
148
0.0
149
0.0
100
AcDbLayout
  1
Layout2
 70
     1
 71
     2
 10
0.0
 20
0.0
 11
0.0
 21
0.0
 12
0.0
 22
0.0
 32
0.0
 14
0.0
 24
0.0
 34
0.0
 15
0.0
 25
0.0
 35
0.0
146
0.0
 13
0.0
 23
0.0
 33
0.0
 16
1.0
 26
0.0
 36
0.0
 17
0.0
 27
1.0
 37
0.0
 76
     0
330
23
  0
LAYOUT
  5
22
102
{ACAD_REACTORS
330
1A
102
}
330
1A
100
AcDbPlotSettings
  1

  2
none_device
  4
ANSI_A_(11.00_x_8.50_Inches)
  6

 40
6.35
 41
19.05
 42
6.35000508
 43
19.05000254
 44
279.4
 45
215.9
 46
149.2738027521397
 47
65.32103239301733
 48
0.0
 49
0.0
140
0.0
141
0.0
142
0.064659642179104
143
1.0
 70
  1696
 72
     0
 73
     0
 74
     0
  7

 75
     0
147
0.0235690232323232
148
0.0
149
0.0
100
AcDbLayout
  1
Model
 70
     1
 71
     0
 10
0.0
 20
0.0
 11
420.0
 21
297.0
 12
0.0
 22
0.0
 32
0.0
 14
-62.10260974387866
 24
-49.97073246008785
 34
0.0
 15
50.65162972077809
 25
79.29049286448696
 35
0.0
146
0.0
 13
0.0
 23
0.0
 33
0.0
 16
1.0
 26
0.0
 36
0.0
 17
0.0
 27
1.0
 37
0.0
 76
     0
330
1F
331
29
  0
MLINESTYLE
  5
18
102
{ACAD_REACTORS
330
17
102
}
330
17
100
AcDbMlineStyle
  2
Standard
 70
     0
  3

 62
   256
 51
90.0
 52
90.0
 71
     2
 49
0.5
 62
   256
  6
BYLAYER
 49
-0.5
 62
   256
  6
BYLAYER
  0
ACDBPLACEHOLDER
  5
F
102
{ACAD_REACTORS
330
E
102
}
330
E
  0
SCALE
  5
48
102
{ACAD_REACTORS
330
47
102
}
330
47
100
AcDbScale
 70
     0
300
1:1
140
1.0
141
1.0
290
     1
  0
SCALE
  5
49
102
{ACAD_REACTORS
330
47
102
}
330
47
100
AcDbScale
 70
     0
300
1:2
140
1.0
141
2.0
290
     0
  0
SCALE
  5
4A
102
{ACAD_REACTORS
330
47
102
}
330
47
100
AcDbScale
 70
     0
300
1:4
140
1.0
141
4.0
290
     0
  0
SCALE
  5
4B
102
{ACAD_REACTORS
330
47
102
}
330
47
100
AcDbScale
 70
     0
300
1:5
140
1.0
141
5.0
290
     0
  0
SCALE
  5
4C
102
{ACAD_REACTORS
330
47
102
}
330
47
100
AcDbScale
 70
     0
300
1:8
140
1.0
141
8.0
290
     0
  0
SCALE
  5
4D
102
{ACAD_REACTORS
330
47
102
}
330
47
100
AcDbScale
 70
     0
300
1:10
140
1.0
141
10.0
290
     0
  0
SCALE
  5
4E
102
{ACAD_REACTORS
330
47
102
}
330
47
100
AcDbScale
 70
     0
300
1:16
140
1.0
141
16.0
290
     0
  0
SCALE
  5
4F
102
{ACAD_REACTORS
330
47
102
}
330
47
100
AcDbScale
 70
     0
300
1:20
140
1.0
141
20.0
290
     0
  0
SCALE
  5
50
102
{ACAD_REACTORS
330
47
102
}
330
47
100
AcDbScale
 70
     0
300
1:30
140
1.0
141
30.0
290
     0
  0
SCALE
  5
51
102
{ACAD_REACTORS
330
47
102
}
330
47
100
AcDbScale
 70
     0
300
1:40
140
1.0
141
40.0
290
     0
  0
SCALE
  5
52
102
{ACAD_REACTORS
330
47
102
}
330
47
100
AcDbScale
 70
     0
300
1:50
140
1.0
141
50.0
290
     0
  0
SCALE
  5
53
102
{ACAD_REACTORS
330
47
102
}
330
47
100
AcDbScale
 70
     0
300
1:100
140
1.0
141
100.0
290
     0
  0
SCALE
  5
54
102
{ACAD_REACTORS
330
47
102
}
330
47
100
AcDbScale
 70
     0
300
2:1
140
2.0
141
1.0
290
     0
  0
SCALE
  5
55
102
{ACAD_REACTORS
330
47
102
}
330
47
100
AcDbScale
 70
     0
300
4:1
140
4.0
141
1.0
290
     0
  0
SCALE
  5
56
102
{ACAD_REACTORS
330
47
102
}
330
47
100
AcDbScale
 70
     0
300
8:1
140
8.0
141
1.0
290
     0
  0
SCALE
  5
57
102
{ACAD_REACTORS
330
47
102
}
330
47
100
AcDbScale
 70
     0
300
10:1
140
10.0
141
1.0
290
     0
  0
SCALE
  5
58
102
{ACAD_REACTORS
330
47
102
}
330
47
100
AcDbScale
 70
     0
300
100:1
140
100.0
141
1.0
290
     0
  0
SCALE
  5
59
102
{ACAD_REACTORS
330
47
102
}
330
47
100
AcDbScale
 70
     0
300
1/128" = 1'-0"
140
0.0078125
141
12.0
290
     0
  0
SCALE
  5
5A
102
{ACAD_REACTORS
330
47
102
}
330
47
100
AcDbScale
 70
     0
300
1/64" = 1'-0"
140
0.015625
141
12.0
290
     0
  0
SCALE
  5
5B
102
{ACAD_REACTORS
330
47
102
}
330
47
100
AcDbScale
 70
     0
300
1/32" = 1'-0"
140
0.03125
141
12.0
290
     0
  0
SCALE
  5
5C
102
{ACAD_REACTORS
330
47
102
}
330
47
100
AcDbScale
 70
     0
300
1/16" = 1'-0"
140
0.0625
141
12.0
290
     0
  0
SCALE
  5
5D
102
{ACAD_REACTORS
330
47
102
}
330
47
100
AcDbScale
 70
     0
300
3/32" = 1'-0"
140
0.09375
141
12.0
290
     0
  0
SCALE
  5
5E
102
{ACAD_REACTORS
330
47
102
}
330
47
100
AcDbScale
 70
     0
300
1/8" = 1'-0"
140
0.125
141
12.0
290
     0
  0
SCALE
  5
5F
102
{ACAD_REACTORS
330
47
102
}
330
47
100
AcDbScale
 70
     0
300
3/16" = 1'-0"
140
0.1875
141
12.0
290
     0
  0
SCALE
  5
60
102
{ACAD_REACTORS
330
47
102
}
330
47
100
AcDbScale
 70
     0
300
1/4" = 1'-0"
140
0.25
141
12.0
290
     0
  0
SCALE
  5
61
102
{ACAD_REACTORS
330
47
102
}
330
47
100
AcDbScale
 70
     0
300
3/8" = 1'-0"
140
0.375
141
12.0
290
     0
  0
SCALE
  5
62
102
{ACAD_REACTORS
330
47
102
}
330
47
100
AcDbScale
 70
     0
300
1/2" = 1'-0"
140
0.5
141
12.0
290
     0
  0
SCALE
  5
63
102
{ACAD_REACTORS
330
47
102
}
330
47
100
AcDbScale
 70
     0
300
3/4" = 1'-0"
140
0.75
141
12.0
290
     0
  0
SCALE
  5
64
102
{ACAD_REACTORS
330
47
102
}
330
47
100
AcDbScale
 70
     0
300
1" = 1'-0"
140
1.0
141
12.0
290
     0
  0
SCALE
  5
65
102
{ACAD_REACTORS
330
47
102
}
330
47
100
AcDbScale
 70
     0
300
1-1/2" = 1'-0"
140
1.5
141
12.0
290
     0
  0
SCALE
  5
66
102
{ACAD_REACTORS
330
47
102
}
330
47
100
AcDbScale
 70
     0
300
3" = 1'-0"
140
3.0
141
12.0
290
     0
  0
SCALE
  5
67
102
{ACAD_REACTORS
330
47
102
}
330
47
100
AcDbScale
 70
     0
300
6" = 1'-0"
140
6.0
141
12.0
290
     0
  0
SCALE
  5
68
102
{ACAD_REACTORS
330
47
102
}
330
47
100
AcDbScale
 70
     0
300
1'-0" = 1'-0"
140
12.0
141
12.0
290
     0
  0
ENDSEC
  0
EOF
