  0
SECTION
  2
HEADER
  9
$ACADVER
  1
AC1015
  9
$ACADMAINTVER
 70
     6
  9
$DWGCODEPAGE
  3
ANSI_949
  9
$INSBASE
 10
0.0
 20
0.0
 30
0.0
  9
$EXTMIN
 10
-61.90260974387866
 20
-49.97180738881177
 30
0.0
  9
$EXTMAX
 10
50.6516297207781
 20
80.2831954153913
 30
0.0
  9
$LIMMIN
 10
0.0
 20
0.0
  9
$LIMMAX
 10
420.0
 20
297.0
  9
$ORTHOMODE
 70
     1
  9
$REGENMODE
 70
     1
  9
$FILLMODE
 70
     1
  9
$QTEXTMODE
 70
     0
  9
$MIRRTEXT
 70
     1
  9
$LTSCALE
 40
1.0
  9
$ATTMODE
 70
     1
  9
$TEXTSIZE
 40
3.5
  9
$TRACEWID
 40
1.0
  9
$TEXTSTYLE
  7
Standard
  9
$CLAYER
  8
0
  9
$CELTYPE
  6
ByLayer
  9
$CECOLOR
 62
   256
  9
$CELTSCALE
 40
1.0
  9
$DISPSILH
 70
     0
  9
$DIMSCALE
 40
1.0
  9
$DIMASZ
 40
3.302
  9
$DIMEXO
 40
1.0
  9
$DIMDLI
 40
3.75
  9
$DIMRND
 40
0.0
  9
$DIMDLE
 40
0.0
  9
$DIMEXE
 40
1.0
  9
$DIMTP
 40
0.0
  9
$DIMTM
 40
0.0
  9
$DIMTXT
 40
3.5
  9
$DIMCEN
 40
2.5
  9
$DIMTSZ
 40
0.0
  9
$DIMTOL
 70
     0
  9
$DIMLIM
 70
     0
  9
$DIMTIH
 70
     1
  9
$DIMTOH
 70
     1
  9
$DIMSE1
 70
     0
  9
$DIMSE2
 70
     0
  9
$DIMTAD
 70
     1
  9
$DIMZIN
 70
     0
  9
$DIMBLK
  1

  9
$DIMASO
 70
     1
  9
$DIMSHO
 70
     1
  9
$DIMPOST
  1

  9
$DIMAPOST
  1

  9
$DIMALT
 70
     0
  9
$DIMALTD
 70
     3
  9
$DIMALTF
 40
0.0393700787401575
  9
$DIMLFAC
 40
1.0
  9
$DIMTOFL
 70
     1
  9
$DIMTVP
 40
0.0
  9
$DIMTIX
 70
     0
  9
$DIMSOXD
 70
     0
  9
$DIMSAH
 70
     0
  9
$DIMBLK1
  1

  9
$DIMBLK2
  1

  9
$DIMSTYLE
  2
ISO-25
  9
$DIMCLRD
 70
     0
  9
$DIMCLRE
 70
     0
  9
$DIMCLRT
 70
     0
  9
$DIMTFAC
 40
1.0
  9
$DIMGAP
 40
1.524
  9
$DIMJUST
 70
     0
  9
$DIMSD1
 70
     0
  9
$DIMSD2
 70
     0
  9
$DIMTOLJ
 70
     0
  9
$DIMTZIN
 70
     0
  9
$DIMALTZ
 70
     0
  9
$DIMALTTZ
 70
     0
  9
$DIMUPT
 70
     0
  9
$DIMDEC
 70
     2
  9
$DIMTDEC
 70
     2
  9
$DIMALTU
 70
     2
  9
$DIMALTTD
 70
     3
  9
$DIMTXSTY
  7
Standard
  9
$DIMAUNIT
 70
     0
  9
$DIMADEC
 70
     2
  9
$DIMALTRND
 40
0.0
  9
$DIMAZIN
 70
     0
  9
$DIMDSEP
 70
    44
  9
$DIMATFIT
 70
     3
  9
$DIMFRAC
 70
     0
  9
$DIMLDRBLK
  1

  9
$DIMLUNIT
 70
     2
  9
$DIMLWD
 70
    -2
  9
$DIMLWE
 70
    -2
  9
$DIMTMOVE
 70
     0
  9
$LUNITS
 70
     2
  9
$LUPREC
 70
     2
  9
$SKETCHINC
 40
1.0
  9
$FILLETRAD
 40
10.0
  9
$AUNITS
 70
     0
  9
$AUPREC
 70
     2
  9
$MENU
  1
.
  9
$ELEVATION
 40
0.0
  9
$PELEVATION
 40
0.0
  9
$THICKNESS
 40
0.0
  9
$LIMCHECK
 70
     0
  9
$CHAMFERA
 40
0.0
  9
$CHAMFERB
 40
0.0
  9
$CHAMFERC
 40
0.0
  9
$CHAMFERD
 40
0.0
  9
$SKPOLY
 70
     0
  9
$TDCREATE
 40
2458268.770774167
  9
$TDUCREATE
 40
2458268.395774167
  9
$TDUPDATE
 40
2458270.381938518
  9
$TDUUPDATE
 40
2458270.006938518
  9
$TDINDWG
 40
0.0004932523
  9
$TDUSRTIMER
 40
2458270.006445405
  9
$USRTIMER
 70
     1
  9
$ANGBASE
 50
0.0
  9
$ANGDIR
 70
     0
  9
$PDMODE
 70
     0
  9
$PDSIZE
 40
-1.0
  9
$PLINEWID
 40
0.0
  9
$SPLFRAME
 70
     0
  9
$SPLINETYPE
 70
     6
  9
$SPLINESEGS
 70
     8
  9
$HANDSEED
  5
145
  9
$SURFTAB1
 70
     6
  9
$SURFTAB2
 70
     6
  9
$SURFTYPE
 70
     6
  9
$SURFU
 70
     6
  9
$SURFV
 70
     6
  9
$UCSBASE
  2

  9
$UCSNAME
  2

  9
$UCSORG
 10
0.0
 20
0.0
 30
0.0
  9
$UCSXDIR
 10
1.0
 20
0.0
 30
0.0
  9
$UCSYDIR
 10
0.0
 20
1.0
 30
0.0
  9
$UCSORTHOREF
  2

  9
$UCSORTHOVIEW
 70
     0
  9
$UCSORGTOP
 10
0.0
 20
0.0
 30
0.0
  9
$UCSORGBOTTOM
 10
0.0
 20
0.0
 30
0.0
  9
$UCSORGLEFT
 10
0.0
 20
0.0
 30
0.0
  9
$UCSORGRIGHT
 10
0.0
 20
0.0
 30
0.0
  9
$UCSORGFRONT
 10
0.0
 20
0.0
 30
0.0
  9
$UCSORGBACK
 10
0.0
 20
0.0
 30
0.0
  9
$PUCSBASE
  2

  9
$PUCSNAME
  2

  9
$PUCSORG
 10
0.0
 20
0.0
 30
0.0
  9
$PUCSXDIR
 10
1.0
 20
0.0
 30
0.0
  9
$PUCSYDIR
 10
0.0
 20
1.0
 30
0.0
  9
$PUCSORTHOREF
  2

  9
$PUCSORTHOVIEW
 70
     0
  9
$PUCSORGTOP
 10
0.0
 20
0.0
 30
0.0
  9
$PUCSORGBOTTOM
 10
0.0
 20
0.0
 30
0.0
  9
$PUCSORGLEFT
 10
0.0
 20
0.0
 30
0.0
  9
$PUCSORGRIGHT
 10
0.0
 20
0.0
 30
0.0
  9
$PUCSORGFRONT
 10
0.0
 20
0.0
 30
0.0
  9
$PUCSORGBACK
 10
0.0
 20
0.0
 30
0.0
  9
$USERI1
 70
     0
  9
$USERI2
 70
     0
  9
$USERI3
 70
     0
  9
$USERI4
 70
     0
  9
$USERI5
 70
     0
  9
$USERR1
 40
0.0
  9
$USERR2
 40
0.0
  9
$USERR3
 40
0.0
  9
$USERR4
 40
0.0
  9
$USERR5
 40
0.0
  9
$WORLDVIEW
 70
     1
  9
$SHADEDGE
 70
     3
  9
$SHADEDIF
 70
    70
  9
$TILEMODE
 70
     1
  9
$MAXACTVP
 70
    64
  9
$PINSBASE
 10
0.0
 20
0.0
 30
0.0
  9
$PLIMCHECK
 70
     0
  9
$PEXTMIN
 10
1.000000000000000E+20
 20
1.000000000000000E+20
 30
1.000000000000000E+20
  9
$PEXTMAX
 10
-1.000000000000000E+20
 20
-1.000000000000000E+20
 30
-1.000000000000000E+20
  9
$PLIMMIN
 10
0.0
 20
0.0
  9
$PLIMMAX
 10
0.0
 20
0.0
  9
$UNITMODE
 70
     0
  9
$VISRETAIN
 70
     1
  9
$PLINEGEN
 70
     0
  9
$PSLTSCALE
 70
     1
  9
$TREEDEPTH
 70
  3020
  9
$CMLSTYLE
  2
Standard
  9
$CMLJUST
 70
     0
  9
$CMLSCALE
 40
20.0
  9
$PROXYGRAPHICS
 70
     1
  9
$MEASUREMENT
 70
     1
  9
$CELWEIGHT
370
    -1
  9
$ENDCAPS
280
     0
  9
$JOINSTYLE
280
     0
  9
$LWDISPLAY
290
     1
  9
$INSUNITS
 70
     4
  9
$HYPERLINKBASE
  1

  9
$STYLESHEET
  1

  9
$XEDIT
290
     1
  9
$CEPSNTYPE
380
     0
  9
$PSTYLEMODE
290
     1
  9
$FINGERPRINTGUID
  2
{3AD856C4-7B34-46C4-8429-CE392DF68791}
  9
$VERSIONGUID
  2
{FAEB1C32-E019-11D5-929B-00C0DF256EC4}
  9
$EXTNAMES
290
     1
  9
$PSVPSCALE
 40
0.0
  9
$OLESTARTUP
290
     0
  0
ENDSEC
  0
SECTION
  2
CLASSES
  0
CLASS
  1
ACDBDICTIONARYWDFLT
  2
AcDbDictionaryWithDefault
  3
ObjectDBX Classes
 90
        0
280
     0
281
     0
  0
CLASS
  1
VISUALSTYLE
  2
AcDbVisualStyle
  3
ObjectDBX Classes
 90
     4095
280
     0
281
     0
  0
CLASS
  1
MATERIAL
  2
AcDbMaterial
  3
ObjectDBX Classes
 90
     1153
280
     0
281
     0
  0
CLASS
  1
SCALE
  2
AcDbScale
  3
ObjectDBX Classes
 90
     1153
280
     0
281
     0
  0
CLASS
  1
SUN
  2
AcDbSun
  3
SCENEOE
 90
     1153
280
     0
281
     0
  0
CLASS
  1
ACDBPLACEHOLDER
  2
AcDbPlaceHolder
  3
ObjectDBX Classes
 90
        0
280
     0
281
     0
  0
CLASS
  1
LAYOUT
  2
AcDbLayout
  3
ObjectDBX Classes
 90
        0
280
     0
281
     0
  0
CLASS
  1
TABLESTYLE
  2
AcDbTableStyle
  3
ObjectDBX Classes
 90
     4095
280
     0
281
     0
  0
CLASS
  1
MLEADERSTYLE
  2
AcDbMLeaderStyle
  3
ACDB_MLEADERSTYLE_CLASS
 90
     4095
280
     0
281
     0
  0
CLASS
  1
RASTERVARIABLES
  2
AcDbRasterVariables
  3
ISM
 90
        0
280
     0
281
     0
  0
ENDSEC
  0
SECTION
  2
TABLES
  0
TABLE
  2
VPORT
  5
8
330
0
100
AcDbSymbolTable
 70
     1
  0
VPORT
  5
29
330
8
100
AcDbSymbolTableRecord
100
AcDbViewportTableRecord
  2
*Active
 70
     0
 10
0.0
 20
0.0
 11
1.0
 21
1.0
 12
5.502650486627914
 22
-2.58504464569769
 13
0.0
 23
0.0
 14
10.0
 24
10.0
 15
10.0
 25
10.0
 16
0.0
 26
0.0
 36
1.0
 17
0.0
 27
0.0
 37
0.0
 40
18.14055218031041
 41
1.627413127413127
 42
50.0
 43
0.0
 44
0.0
 50
0.0
 51
0.0
 71
    16
 72
  2000
 73
     1
 74
     3
 75
     0
 76
     0
 77
     0
 78
     0
281
     0
 65
     1
110
0.0
120
0.0
130
0.0
111
1.0
121
0.0
131
0.0
112
0.0
122
1.0
132
0.0
 79
     0
146
0.0
  0
ENDTAB
  0
TABLE
  2
LTYPE
  5
5
330
0
100
AcDbSymbolTable
 70
     6
  0
LTYPE
  5
14
330
5
100
AcDbSymbolTableRecord
100
AcDbLinetypeTableRecord
  2
ByBlock
 70
     0
  3

 72
    65
 73
     0
 40
0.0
  0
LTYPE
  5
15
330
5
100
AcDbSymbolTableRecord
100
AcDbLinetypeTableRecord
  2
ByLayer
 70
     0
  3

 72
    65
 73
     0
 40
0.0
  0
LTYPE
  5
16
330
5
100
AcDbSymbolTableRecord
100
AcDbLinetypeTableRecord
  2
Continuous
 70
     0
  3
Solid line
 72
    65
 73
     0
 40
0.0
  0
LTYPE
  5
6A
330
5
100
AcDbSymbolTableRecord
100
AcDbLinetypeTableRecord
  2
HIDDEN
 70
     0
  3
Hidden __ __ __ __ __ __ __ __ __ __ __ __ __ __
 72
    65
 73
     2
 40
1.905
 49
1.27
 74
     0
 49
-0.635
 74
     0
  0
LTYPE
  5
6B
330
5
100
AcDbSymbolTableRecord
100
AcDbLinetypeTableRecord
  2
PHANTOM
 70
     0
  3
Phantom ______  __  __  ______  __  __  ______
 72
    65
 73
     6
 40
12.7
 49
6.35
 74
     0
 49
-1.27
 74
     0
 49
1.27
 74
     0
 49
-1.27
 74
     0
 49
1.27
 74
     0
 49
-1.27
 74
     0
  0
LTYPE
  5
6C
330
5
100
AcDbSymbolTableRecord
100
AcDbLinetypeTableRecord
  2
CENTER
 70
     0
  3
Center ____ _ ____ _ ____ _ ____ _ ____ _ ____
 72
    65
 73
     4
 40
10.16
 49
6.35
 74
     0
 49
-1.27
 74
     0
 49
1.27
 74
     0
 49
-1.27
 74
     0
  0
LTYPE
  5
6D
330
5
100
AcDbSymbolTableRecord
100
AcDbLinetypeTableRecord
  2
CENTERX2
 70
     0
  3
Center (2x) ________  __  ________  __  _____
 72
    65
 73
     4
 40
20.32
 49
12.7
 74
     0
 49
-2.54
 74
     0
 49
2.54
 74
     0
 49
-2.54
 74
     0
  0
LTYPE
  5
6E
330
5
100
AcDbSymbolTableRecord
100
AcDbLinetypeTableRecord
  2
DOT2
 70
     0
  3
Dot (.5x) ........................................
 72
    65
 73
     2
 40
0.635
 49
0.0
 74
     0
 49
-0.635
 74
     0
  0
ENDTAB
  0
TABLE
  2
LAYER
  5
2
330
0
100
AcDbSymbolTable
 70
    17
  0
LAYER
  5
10
330
2
100
AcDbSymbolTableRecord
100
AcDbLayerTableRecord
  2
0
 70
     0
 62
     7
  6
Continuous
370
    -3
390
F
  0
LAYER
  5
6F
330
2
100
AcDbSymbolTableRecord
100
AcDbLayerTableRecord
  2
FORMAT
 70
     0
 62
     2
  6
Continuous
370
    -3
390
F
  0
LAYER
  5
70
330
2
100
AcDbSymbolTableRecord
100
AcDbLayerTableRecord
  2
외형선
 70
     0
 62
   100
  6
Continuous
370
    30
390
F
  0
LAYER
  5
71
330
2
100
AcDbSymbolTableRecord
100
AcDbLayerTableRecord
  2
숨은선
 70
     0
 62
     2
  6
HIDDEN
370
    15
390
F
  0
LAYER
  5
72
330
2
100
AcDbSymbolTableRecord
100
AcDbLayerTableRecord
  2
중심선
 70
     0
 62
     1
  6
CENTERX2
370
    -3
390
F
  0
LAYER
  5
73
330
2
100
AcDbSymbolTableRecord
100
AcDbLayerTableRecord
  2
파단선
 70
     0
 62
     4
  6
Continuous
370
    -3
390
F
  0
LAYER
  5
74
330
2
100
AcDbSymbolTableRecord
100
AcDbLayerTableRecord
  2
해칭선
 70
     0
 62
     4
  6
Continuous
370
    -3
390
F
  0
LAYER
  5
75
330
2
100
AcDbSymbolTableRecord
100
AcDbLayerTableRecord
  2
가는실선
 70
     0
 62
     4
  6
Continuous
370
    -3
390
F
  0
LAYER
  5
76
330
2
100
AcDbSymbolTableRecord
100
AcDbLayerTableRecord
  2
치수_보조선
 70
     0
 62
     4
  6
Continuous
370
    -3
390
F
  0
LAYER
  5
77
330
2
100
AcDbSymbolTableRecord
100
AcDbLayerTableRecord
  2
치수문자_일반주서
 70
     0
 62
     7
  6
Continuous
370
    15
390
F
  0
LAYER
  5
78
330
2
100
AcDbSymbolTableRecord
100
AcDbLayerTableRecord
  2
개별주서
 70
     0
 62
   100
  6
Continuous
370
    30
390
F
  0
LAYER
  5
79
330
2
100
AcDbSymbolTableRecord
100
AcDbLayerTableRecord
  2
중간선
 70
     0
 62
     2
  6
Continuous
370
    15
390
F
  0
LAYER
  5
7A
330
2
100
AcDbSymbolTableRecord
100
AcDbLayerTableRecord
  2
윤곽선
 70
     0
 62
     3
  6
Continuous
370
    40
390
F
  0
LAYER
  5
7B
330
2
100
AcDbSymbolTableRecord
100
AcDbLayerTableRecord
  2
중심마크
 70
     0
 62
   100
  6
Continuous
370
    30
390
F
  0
LAYER
  5
7C
330
2
100
AcDbSymbolTableRecord
100
AcDbLayerTableRecord
  2
가상선
 70
     0
 62
     4
  6
PHANTOM
370
    -3
390
F
  0
LAYER
  5
7D
330
2
100
AcDbSymbolTableRecord
100
AcDbLayerTableRecord
  2
특수지정선
 70
     0
 62
     5
  6
CENTERX2
370
    60
390
F
  0
LAYER
  5
13C
330
2
100
AcDbSymbolTableRecord
100
AcDbLayerTableRecord
  2
Defpoints
 70
     0
 62
     7
  6
Continuous
290
     0
370
    -3
390
F
  0
ENDTAB
  0
TABLE
  2
STYLE
  5
3
330
0
100
AcDbSymbolTable
 70
     2
  0
STYLE
  5
11
330
3
100
AcDbSymbolTableRecord
100
AcDbTextStyleTableRecord
  2
Standard
 70
     0
 40
0.0
 41
1.0
 50
0.0
 71
     0
 42
3.5
  3
txt
  4

  0
STYLE
  5
93
330
3
100
AcDbSymbolTableRecord
100
AcDbTextStyleTableRecord
  2
SLDTEXTSTYLE0
 70
     0
 40
0.0
 41
0.75
 50
0.0
 71
     0
 42
3.5
  3
TXT
  4

  0
ENDTAB
  0
TABLE
  2
VIEW
  5
6
330
0
100
AcDbSymbolTable
 70
     0
  0
ENDTAB
  0
TABLE
  2
UCS
  5
7
330
0
100
AcDbSymbolTable
 70
     0
  0
ENDTAB
  0
TABLE
  2
APPID
  5
9
330
0
100
AcDbSymbolTable
 70
     1
  0
APPID
  5
12
330
9
100
AcDbSymbolTableRecord
100
AcDbRegAppTableRecord
  2
ACAD
 70
     0
  0
ENDTAB
  0
TABLE
  2
DIMSTYLE
  5
A
330
0
100
AcDbSymbolTable
 70
     3
100
AcDbDimStyleTable
  0
DIMSTYLE
105
27
330
A
100
AcDbSymbolTableRecord
100
AcDbDimStyleTableRecord
  2
ISO-25
 70
     0
 41
2.5
 42
0.625
 43
3.75
 44
1.25
 73
     0
 74
     0
 77
     1
 78
     8
140
2.5
141
2.5
143
0.03937007874016
147
0.625
171
     3
172
     1
178
     0
271
     2
272
     2
274
     3
278
    44
283
     0
284
     8
340
11
  0
DIMSTYLE
105
E2
102
{ACAD_REACTORS
330
E1
330
EF
102
}
330
A
100
AcDbSymbolTableRecord
100
AcDbDimStyleTableRecord
  2
SLDDIMSTYLE0
 70
     0
 41
3.302
 44
0.0
 45
0.000000001
 73
     0
 74
     0
 77
     1
 78
    12
 79
     3
140
3.5
147
0.875
172
     1
173
     1
178
     0
271
     2
272
     2
276
     2
284
    12
289
     0
340
93
  0
DIMSTYLE
105
FD
102
{ACAD_REACTORS
330
FC
330
107
102
}
330
A
100
AcDbSymbolTableRecord
100
AcDbDimStyleTableRecord
  2
SLDDIMSTYLE1
 70
     0
 41
3.302
 44
0.0
 45
0.000000001
 73
     0
 74
     0
 77
     1
 78
    12
 79
     3
140
3.5
147
0.875
173
     1
178
     0
271
     2
272
     2
276
     2
284
    12
340
93
  0
ENDTAB
  0
TABLE
  2
BLOCK_RECORD
  5
1
330
0
100
AcDbSymbolTable
 70
     7
  0
BLOCK_RECORD
  5
1F
330
1
100
AcDbSymbolTableRecord
100
AcDbBlockTableRecord
  2
*Model_Space
340
22
  0
BLOCK_RECORD
  5
1B
330
1
100
AcDbSymbolTableRecord
100
AcDbBlockTableRecord
  2
*Paper_Space
340
1E
  0
BLOCK_RECORD
  5
23
330
1
100
AcDbSymbolTableRecord
100
AcDbBlockTableRecord
  2
*Paper_Space0
340
26
  0
BLOCK_RECORD
  5
7E
330
1
100
AcDbSymbolTableRecord
100
AcDbBlockTableRecord
  2
블럭10
340
0
102
{BLKREFS
331
DA
102
}
  0
BLOCK_RECORD
  5
E3
330
1
100
AcDbSymbolTableRecord
100
AcDbBlockTableRecord
  2
_D
340
0
  0
BLOCK_RECORD
  5
F0
330
1
100
AcDbSymbolTableRecord
100
AcDbBlockTableRecord
  2
_D_1
340
0
  0
BLOCK_RECORD
  5
FE
330
1
100
AcDbSymbolTableRecord
100
AcDbBlockTableRecord
  2
_D_2
340
0
  0
BLOCK_RECORD
  5
108
330
1
100
AcDbSymbolTableRecord
100
AcDbBlockTableRecord
  2
_D_3
340
0
  0
BLOCK_RECORD
  5
111
330
1
100
AcDbSymbolTableRecord
100
AcDbBlockTableRecord
  2
SW_DOWELSYMBOL_0
340
0
102
{BLKREFS
331
117
102
}
  0
ENDTAB
  0
ENDSEC
  0
SECTION
  2
BLOCKS
  0
BLOCK
  5
20
330
1F
100
AcDbEntity
  8
0
100
AcDbBlockBegin
  2
*Model_Space
 70
     0
 10
0.0
 20
0.0
 30
0.0
  3
*Model_Space
  1
*Model_Space
  0
ENDBLK
  5
21
330
1F
100
AcDbEntity
  8
0
100
AcDbBlockEnd
  0
BLOCK
  5
1C
330
1B
100
AcDbEntity
 67
     1
  8
0
100
AcDbBlockBegin
  2
*Paper_Space
 70
     0
 10
0.0
 20
0.0
 30
0.0
  3
*Paper_Space
  1
*Paper_Space
  0
ENDBLK
  5
1D
330
1B
100
AcDbEntity
 67
     1
  8
0
100
AcDbBlockEnd
  0
BLOCK
  5
24
330
23
100
AcDbEntity
  8
0
100
AcDbBlockBegin
  2
*Paper_Space0
 70
     0
 10
0.0
 20
0.0
 30
0.0
  3
*Paper_Space0
  1
*Paper_Space0
  0
ENDBLK
  5
25
330
23
100
AcDbEntity
  8
0
100
AcDbBlockEnd
  0
BLOCK
  5
7F
330
7E
100
AcDbEntity
  8
0
100
AcDbBlockBegin
  2
블럭10
 70
     2
 10
0.0
 20
0.0
 30
0.0
  3
블럭10
  1
블럭10
  0
ELLIPSE
  5
81
330
7E
100
AcDbEntity
  8
중심선
100
AcDbEllipse
 10
20.54032771741204
 20
12.0471743016438
 30
0.0
 11
6.600054785286829
 21
-1.261213355974178E-13
 31
0.0
210
0.0
220
0.0
230
1.0
 40
0.636358354079598
 41
0.9219305317359503
 42
6.513795318482858
  0
ELLIPSE
  5
82
330
7E
100
AcDbEntity
  8
중심선
100
AcDbEllipse
 10
20.54032771746488
 20
12.04717430159265
 30
0.0
 11
3.960054785062283
 21
1.540847449632565E-10
 31
0.0
210
0.0
220
0.0
230
1.0
 40
0.3939339440162632
 41
1.131841032648279
 42
5.62031148352944
  0
LINE
  5
83
330
7E
100
AcDbEntity
  8
중심선
100
AcDbLine
 10
2.268634060543552
 20
16.24717430164393
 30
0.0
 11
5.714909304380834
 21
16.24717430164393
 31
0.0
  0
LINE
  5
84
330
7E
100
AcDbEntity
  8
중심선
100
AcDbLine
 10
5.245725140726316
 20
7.84717430164391
 30
0.0
 11
8.692000384563599
 21
7.84717430164391
 31
0.0
  0
LINE
  5
85
330
7E
100
AcDbEntity
  8
중심선
100
AcDbLine
 10
15.74043728645272
 20
16.24717430164393
 30
0.0
 11
8.692000384563599
 21
7.84717430164391
 31
0.0
  0
LINE
  5
86
330
7E
100
AcDbEntity
  8
중심선
100
AcDbLine
 10
0.1404042013395286
 20
13.71084872107135
 30
0.0
 11
3.58671253028996
 21
13.71088815037384
 31
0.0
  0
LINE
  5
87
330
7E
100
AcDbEntity
  8
중심선
100
AcDbLine
 10
2.750260043222114
 20
10.84717430164391
 30
0.0
 11
6.196535287059397
 21
10.84717430164391
 31
0.0
  0
LINE
  5
88
330
7E
100
AcDbEntity
  8
중심선
100
AcDbLine
 10
12.29416204261559
 20
16.24717430164393
 30
0.0
 11
5.245725140726316
 21
7.84717430164391
 31
0.0
  0
LINE
  5
89
330
7E
100
AcDbEntity
  8
중심선
100
AcDbLine
 10
10.72767329541681
 20
16.24717430164393
 30
0.0
 11
6.196535287059397
 21
10.84717430164391
 31
0.0
  0
LINE
  5
8A
330
7E
100
AcDbEntity
  8
중심선
100
AcDbLine
 10
7.28139805157953
 20
16.24717430164393
 30
0.0
 11
2.750260043222114
 21
10.84717430164391
 31
0.0
  0
LINE
  5
8B
330
7E
100
AcDbEntity
  8
중심선
100
AcDbLine
 10
5.714909304380834
 20
16.24717430164393
 30
0.0
 11
3.58671253028996
 21
13.71088815037384
 31
0.0
  0
LINE
  5
8C
330
7E
100
AcDbEntity
  8
중심선
100
AcDbLine
 10
2.268634060543552
 20
16.24717430164393
 30
0.0
 11
0.1404042013395286
 21
13.71084872107135
 31
0.0
  0
LINE
  5
8D
330
7E
100
AcDbEntity
  8
중심선
100
AcDbLine
 10
7.28139805157953
 20
16.24717430164393
 30
0.0
 11
10.72767329541681
 21
16.24717430164393
 31
0.0
  0
LINE
  5
8E
330
7E
100
AcDbEntity
  8
중심선
100
AcDbLine
 10
12.29416204261559
 20
16.24717430164393
 30
0.0
 11
15.74043728645272
 21
16.24717430164393
 31
0.0
  0
LINE
  5
8F
330
7E
100
AcDbEntity
  8
중심선
100
AcDbLine
 10
19.22036997980202
 20
11.08717430171403
 30
0.0
 11
23.66174974927406
 21
11.08717430171406
 31
0.0
  0
LINE
  5
90
330
7E
100
AcDbEntity
  8
중심선
100
AcDbLine
 10
19.22039502424796
 20
13.00717430171391
 30
0.0
 11
19.22036997980202
 21
11.08717430171403
 31
0.0
  0
LINE
  5
91
330
7E
100
AcDbEntity
  8
중심선
100
AcDbLine
 10
19.22039502424796
 20
13.00717430171391
 30
0.0
 11
26.96566020931264
 21
13.00717430171391
 31
0.0
  0
LINE
  5
92
330
7E
100
AcDbEntity
  8
중심선
100
AcDbLine
 10
22.22332737316547
 20
13.45928029700563
 30
0.0
 11
24.52862924686651
 21
15.39360700705356
 31
0.0
  0
ATTDEF
  5
94
330
7E
100
AcDbEntity
  8
FORMAT
 62
     2
100
AcDbText
 10
-16.11926103943555
 20
2.075366912832191
 30
0.0
 40
4.233333333333333
  1
SEME7510030E [ 6 FLUTE ]
 41
0.75
  7
SLDTEXTSTYLE0
 11
-16.11926103943555
 21
-0.0412997538344756
 31
0.0
100
AcDbAttributeDefinition
  3

  2
AUTOATTR0
 70
     0
 74
     1
  0
ENDBLK
  5
80
330
7E
100
AcDbEntity
  8
0
100
AcDbBlockEnd
  0
BLOCK
  5
E4
330
E3
100
AcDbEntity
  8
0
100
AcDbBlockBegin
  2
_D
 70
     0
 10
0.0
 20
0.0
 30
0.0
  3
_D
  1
_D
  0
LINE
  5
E6
330
E3
100
AcDbEntity
  8
치수문자_일반주서
 62
     0
370
    -2
100
AcDbLine
 10
-38.96120361255521
 20
4.999999999999983
 30
0.0
 11
-57.52760974387866
 21
4.999999999999914
 31
0.0
  0
LINE
  5
E7
330
E3
100
AcDbEntity
  8
치수문자_일반주서
 62
     0
370
    -2
100
AcDbLine
 10
-38.96120361255521
 20
-5.000000000000026
 30
0.0
 11
-57.52760974387863
 21
-5.000000000000095
 31
0.0
  0
LINE
  5
E8
330
E3
100
AcDbEntity
  8
치수문자_일반주서
 62
     0
370
    -2
100
AcDbLine
 10
-57.52760974387865
 20
1.697999999999914
 30
0.0
 11
-57.52760974387864
 21
-1.698000000000095
 31
0.0
  0
SOLID
  5
E9
330
E3
100
AcDbEntity
  8
치수문자_일반주서
 62
     0
100
AcDbTrace
 10
-56.97727641054531
 20
1.697999999999916
 30
0.0
 11
-58.07794307721198
 21
1.697999999999912
 31
0.0
 12
-57.52760974387866
 22
4.999999999999914
 32
0.0
 13
-57.52760974387866
 23
4.999999999999914
 33
0.0
  0
SOLID
  5
EA
330
E3
100
AcDbEntity
  8
치수문자_일반주서
 62
     0
100
AcDbTrace
 10
-58.07794307721198
 20
-1.698000000000097
 30
0.0
 11
-56.97727641054531
 21
-1.698000000000093
 31
0.0
 12
-57.52760974387863
 22
-5.000000000000095
 32
0.0
 13
-57.52760974387863
 23
-5.000000000000095
 33
0.0
  0
MTEXT
  5
EB
330
E3
100
AcDbEntity
  8
치수문자_일반주서
 62
     0
100
AcDbMText
 10
-61.90260974387865
 20
-0.0000000000000348
 30
0.0
 40
3.5
 41
0.0
 71
     2
 72
     1
  1
\A1;%%c10
  7
SLDTEXTSTYLE0
 11
-3.552713678800498E-15
 21
1.0
 31
0.0
 73
     1
 44
1.0
  0
POINT
  5
EC
330
E3
100
AcDbEntity
  8
Defpoints
 62
     0
100
AcDbPoint
 10
-38.89870361255521
 20
4.999999999999983
 30
0.0
  0
POINT
  5
ED
330
E3
100
AcDbEntity
  8
Defpoints
 62
     0
100
AcDbPoint
 10
-38.89870361255521
 20
-5.000000000000026
 30
0.0
  0
POINT
  5
EE
330
E3
100
AcDbEntity
  8
Defpoints
 62
     0
100
AcDbPoint
 10
-57.52760974387865
 20
-5.000000000000095
 30
0.0
  0
ENDBLK
  5
E5
330
E3
100
AcDbEntity
  8
0
100
AcDbBlockEnd
  0
BLOCK
  5
F1
330
F0
100
AcDbEntity
  8
0
100
AcDbBlockBegin
  2
_D_1
 70
     0
 10
0.0
 20
0.0
 30
0.0
  3
_D_1
  1
_D_1
  0
LINE
  5
F3
330
F0
100
AcDbEntity
  8
치수문자_일반주서
 62
     0
370
    -2
100
AcDbLine
 10
40.16379638744478
 20
4.999999999999981
 30
0.0
 11
50.10129638744474
 21
5.000000000000019
 31
0.0
  0
LINE
  5
F4
330
F0
100
AcDbEntity
  8
치수문자_일반주서
 62
     0
370
    -2
100
AcDbLine
 10
40.16379638744478
 20
-5.000000000000024
 30
0.0
 11
50.10129638744478
 21
-4.999999999999987
 31
0.0
  0
LINE
  5
F5
330
F0
100
AcDbEntity
  8
치수문자_일반주서
 62
     0
370
    -2
100
AcDbLine
 10
50.10129638744475
 20
1.698000000000019
 30
0.0
 11
50.10129638744476
 21
-1.697999999999987
 31
0.0
  0
SOLID
  5
F6
330
F0
100
AcDbEntity
  8
치수문자_일반주서
 62
     0
100
AcDbTrace
 10
50.65162972077809
 20
1.698000000000021
 30
0.0
 11
49.55096305411142
 21
1.698000000000017
 31
0.0
 12
50.10129638744474
 22
5.000000000000019
 32
0.0
 13
50.10129638744474
 23
5.000000000000019
 33
0.0
  0
SOLID
  5
F7
330
F0
100
AcDbEntity
  8
치수문자_일반주서
 62
     0
100
AcDbTrace
 10
49.55096305411143
 20
-1.697999999999989
 30
0.0
 11
50.6516297207781
 21
-1.697999999999985
 31
0.0
 12
50.10129638744478
 22
-4.999999999999987
 32
0.0
 13
50.10129638744478
 23
-4.999999999999987
 33
0.0
  0
MTEXT
  5
F8
330
F0
100
AcDbEntity
  8
치수문자_일반주서
 62
     0
100
AcDbMText
 10
45.72629638744475
 20
0.6594307500959535
 30
0.0
 40
3.5
 41
0.0
 71
     2
 72
     1
  1
\A1;%%c10
  7
SLDTEXTSTYLE0
 11
-3.552713678800499E-15
 21
1.0
 31
0.0
 73
     1
 44
1.0
  0
POINT
  5
F9
330
F0
100
AcDbEntity
  8
Defpoints
 62
     0
100
AcDbPoint
 10
40.10129638744478
 20
4.999999999999981
 30
0.0
  0
POINT
  5
FA
330
F0
100
AcDbEntity
  8
Defpoints
 62
     0
100
AcDbPoint
 10
40.10129638744478
 20
-5.000000000000024
 30
0.0
  0
POINT
  5
FB
330
F0
100
AcDbEntity
  8
Defpoints
 62
     0
100
AcDbPoint
 10
50.10129638744478
 20
-4.999999999999987
 30
0.0
  0
ENDBLK
  5
F2
330
F0
100
AcDbEntity
  8
0
100
AcDbBlockEnd
  0
BLOCK
  5
FF
330
FE
100
AcDbEntity
  8
0
100
AcDbBlockBegin
  2
_D_2
 70
     0
 10
0.0
 20
0.0
 30
0.0
  3
_D_2
  1
_D_2
  0
LINE
  5
101
330
FE
100
AcDbEntity
  8
치수문자_일반주서
 62
     0
370
    -2
100
AcDbLine
 10
10.1012963874448
 20
4.99671309698797
 30
0.0
 11
10.1012963874448
 21
48.42905371562978
 31
0.0
  0
LINE
  5
102
330
FE
100
AcDbEntity
  8
치수문자_일반주서
 62
     0
370
    -2
100
AcDbLine
 10
40.10129638744478
 20
5.026012754521668
 30
0.0
 11
40.10129638744478
 21
48.42905371562978
 31
0.0
  0
LINE
  5
103
330
FE
100
AcDbEntity
  8
치수문자_일반주서
 62
     0
370
    -2
100
AcDbLine
 10
13.4032963874448
 20
48.42905371562978
 30
0.0
 11
36.79929638744478
 21
48.42905371562978
 31
0.0
  0
SOLID
  5
104
330
FE
100
AcDbEntity
  8
치수문자_일반주서
 62
     0
100
AcDbTrace
 10
13.4032963874448
 20
48.97938704896311
 30
0.0
 11
13.4032963874448
 21
47.87872038229644
 31
0.0
 12
10.1012963874448
 22
48.42905371562978
 32
0.0
 13
10.1012963874448
 23
48.42905371562978
 33
0.0
  0
SOLID
  5
105
330
FE
100
AcDbEntity
  8
치수문자_일반주서
 62
     0
100
AcDbTrace
 10
36.79929638744478
 20
47.87872038229644
 30
0.0
 11
36.79929638744478
 21
48.97938704896311
 31
0.0
 12
40.10129638744478
 22
48.42905371562978
 32
0.0
 13
40.10129638744478
 23
48.42905371562978
 33
0.0
  0
MTEXT
  5
106
330
FE
100
AcDbEntity
  8
치수문자_일반주서
 62
     0
100
AcDbMText
 10
22.37879271668406
 20
52.80405371562978
 30
0.0
 40
3.5
 41
0.0
 71
     2
 72
     1
  1
\A1;30
  7
SLDTEXTSTYLE0
 73
     1
 44
1.0
  0
POINT
  5
13E
330
FE
100
AcDbEntity
  8
Defpoints
 62
     0
100
AcDbPoint
 10
10.1012963874448
 20
4.93421309698797
 30
0.0
  0
POINT
  5
13F
330
FE
100
AcDbEntity
  8
Defpoints
 62
     0
100
AcDbPoint
 10
40.10129638744478
 20
4.963512754521668
 30
0.0
  0
POINT
  5
140
330
FE
100
AcDbEntity
  8
Defpoints
 62
     0
100
AcDbPoint
 10
40.10129638744478
 20
48.42905371562978
 30
0.0
  0
ENDBLK
  5
100
330
FE
100
AcDbEntity
  8
0
100
AcDbBlockEnd
  0
BLOCK
  5
109
330
108
100
AcDbEntity
  8
0
100
AcDbBlockBegin
  2
_D_3
 70
     0
 10
0.0
 20
0.0
 30
0.0
  3
_D_3
  1
_D_3
  0
LINE
  5
10B
330
108
100
AcDbEntity
  8
치수문자_일반주서
 62
     0
370
    -2
100
AcDbLine
 10
40.10129638744478
 20
5.026012754521668
 30
0.0
 11
40.10129638744478
 21
75.9081954153913
 31
0.0
  0
LINE
  5
10C
330
108
100
AcDbEntity
  8
치수문자_일반주서
 62
     0
370
    -2
100
AcDbLine
 10
-39.89870361255521
 20
4.062499999999982
 30
0.0
 11
-39.89870361255521
 21
75.9081954153913
 31
0.0
  0
LINE
  5
10D
330
108
100
AcDbEntity
  8
치수문자_일반주서
 62
     0
370
    -2
100
AcDbLine
 10
36.79929638744478
 20
75.9081954153913
 30
0.0
 11
-36.59670361255521
 21
75.9081954153913
 31
0.0
  0
SOLID
  5
10E
330
108
100
AcDbEntity
  8
치수문자_일반주서
 62
     0
100
AcDbTrace
 10
36.79929638744478
 20
75.35786208205798
 30
0.0
 11
36.79929638744478
 21
76.45852874872463
 31
0.0
 12
40.10129638744478
 22
75.9081954153913
 32
0.0
 13
40.10129638744478
 23
75.9081954153913
 33
0.0
  0
SOLID
  5
10F
330
108
100
AcDbEntity
  8
치수문자_일반주서
 62
     0
100
AcDbTrace
 10
-36.59670361255521
 20
76.45852874872463
 30
0.0
 11
-36.59670361255521
 21
75.35786208205798
 31
0.0
 12
-39.89870361255521
 22
75.9081954153913
 32
0.0
 13
-39.89870361255521
 23
75.9081954153913
 33
0.0
  0
MTEXT
  5
110
330
108
100
AcDbEntity
  8
치수문자_일반주서
 62
     0
100
AcDbMText
 10
2.579826946186523
 20
80.2831954153913
 30
0.0
 40
3.5
 41
0.0
 71
     2
 72
     1
  1
\A1;80
  7
SLDTEXTSTYLE0
 73
     1
 44
1.0
  0
POINT
  5
141
330
108
100
AcDbEntity
  8
Defpoints
 62
     0
100
AcDbPoint
 10
40.10129638744478
 20
4.963512754521668
 30
0.0
  0
POINT
  5
142
330
108
100
AcDbEntity
  8
Defpoints
 62
     0
100
AcDbPoint
 10
-39.89870361255521
 20
3.999999999999982
 30
0.0
  0
POINT
  5
143
330
108
100
AcDbEntity
  8
Defpoints
 62
     0
100
AcDbPoint
 10
-39.89870361255521
 20
75.9081954153913
 30
0.0
  0
ENDBLK
  5
10A
330
108
100
AcDbEntity
  8
0
100
AcDbBlockEnd
  0
BLOCK
  5
112
330
111
100
AcDbEntity
  8
0
100
AcDbBlockBegin
  2
SW_DOWELSYMBOL_0
 70
     0
 10
0.0
 20
0.0
 30
0.0
  3
SW_DOWELSYMBOL_0
  1
SW_DOWELSYMBOL_0
  0
CIRCLE
  5
114
330
111
100
AcDbEntity
  8
외형선
 62
     0
100
AcDbCircle
 10
0.0
 20
0.0
 30
0.0
 40
3.000000000000001
  0
HATCH
  5
115
330
111
100
AcDbEntity
  8
0
  6
Continuous
 62
     0
370
    30
100
AcDbHatch
 10
0.0
 20
0.0
 30
0.0
210
0.0
220
0.0
230
1.0
  2
SOLID
 70
     1
 71
     0
 91
        1
 92
        0
 93
        3
 72
     2
 10
0.0000000000000139
 20
0.0
 40
3.000000000000001
 50
0.0
 51
90.0
 73
     1
 72
     1
 10
0.0000000000000139
 20
3.000000000000001
 11
0.0000000000000139
 21
0.0
 72
     1
 10
0.0000000000000139
 20
0.0
 11
3.000000000000015
 21
0.0
 97
        0
 75
     0
 76
     1
 98
        1
 10
0.0
 20
0.0
  0
HATCH
  5
116
330
111
100
AcDbEntity
  8
0
  6
Continuous
 62
     0
370
    30
100
AcDbHatch
 10
0.0
 20
0.0
 30
0.0
210
0.0
220
0.0
230
1.0
  2
SOLID
 70
     1
 71
     0
 91
        1
 92
        0
 93
        3
 72
     2
 10
0.0000000000000139
 20
0.0
 40
3.000000000000001
 50
180.0
 51
270.0000000000008
 73
     1
 72
     1
 10
0.0000000000000139
 20
-3.000000000000001
 11
0.0000000000000139
 21
0.0
 72
     1
 10
0.0000000000000139
 20
0.0
 11
-2.999999999999988
 21
0.0
 97
        0
 75
     0
 76
     1
 98
        1
 10
0.0
 20
0.0
  0
ENDBLK
  5
113
330
111
100
AcDbEntity
  8
0
100
AcDbBlockEnd
  0
ENDSEC
  0
SECTION
  2
ENTITIES
  0
LINE
  5
95
330
1F
100
AcDbEntity
  8
0
  6
Continuous
 62
   131
370
    15
100
AcDbLine
 10
18.10720515928337
 20
-0.9588490967900422
 30
0.0
 11
18.14980051128281
 21
-0.9999614010785134
 31
0.0
  0
LINE
  5
96
330
1F
100
AcDbEntity
  8
0
  6
Continuous
 62
   131
370
    15
100
AcDbLine
 10
20.20528800915199
 20
0.9606892744534469
 30
0.0
 11
20.16545870599059
 21
0.9994045945953612
 31
0.0
  0
LINE
  5
97
330
1F
100
AcDbEntity
  8
0
  6
Continuous
 62
     1
370
    15
100
AcDbLine
 10
39.49627360870533
 20
-5.000000000000024
 30
0.0
 11
40.10129638744478
 21
-5.000000000000024
 31
0.0
  0
LINE
  5
98
330
1F
100
AcDbEntity
  8
0
  6
Continuous
 62
     1
370
    15
100
AcDbLine
 10
24.99743184249651
 20
4.999999999999981
 30
0.0
 11
23.78828276736189
 21
4.999999999999981
 31
0.0
  0
LINE
  5
99
330
1F
100
AcDbEntity
  8
0
  6
Continuous
 62
     1
370
    15
100
AcDbLine
 10
18.55375484036461
 20
-5.000000000000024
 30
0.0
 11
19.76159244408572
 21
-5.000000000000024
 31
0.0
  0
LINE
  5
9A
330
1F
100
AcDbEntity
  8
0
  6
Continuous
 62
     1
370
    15
100
AcDbLine
 10
35.4688818618332
 20
4.999999999999981
 30
0.0
 11
34.26120916877838
 21
4.999999999999981
 31
0.0
  0
LINE
  5
9B
330
1F
100
AcDbEntity
  8
0
  6
Continuous
 62
     1
370
    15
100
AcDbLine
 10
13.31625839856427
 20
-5.000000000000024
 30
0.0
 11
14.52628892475276
 21
-5.000000000000024
 31
0.0
  0
LINE
  5
9C
330
1F
100
AcDbEntity
  8
0
  6
Continuous
 62
     1
370
    15
100
AcDbLine
 10
30.23443633291256
 20
4.999999999999981
 30
0.0
 11
29.02511303198314
 21
4.999999999999981
 31
0.0
  0
LINE
  5
9D
330
1F
100
AcDbEntity
  8
0
  6
Continuous
 62
     1
370
    15
100
AcDbLine
 10
23.78828276736187
 20
-5.000000000000024
 30
0.0
 11
24.99743184249649
 21
-5.000000000000024
 31
0.0
  0
LINE
  5
9E
330
1F
100
AcDbEntity
  8
0
  6
Continuous
 62
     1
370
    15
100
AcDbLine
 10
40.10129638744478
 20
4.999999999999981
 30
0.0
 11
39.49627360870533
 21
4.999999999999981
 31
0.0
  0
LINE
  5
9F
330
1F
100
AcDbEntity
  8
0
  6
Continuous
 62
     1
370
    15
100
AcDbLine
 10
34.26120916877835
 20
-5.000000000000024
 30
0.0
 11
35.46888186183318
 21
-5.000000000000024
 31
0.0
  0
LINE
  5
A0
330
1F
100
AcDbEntity
  8
0
  6
Continuous
 62
     1
370
    15
100
AcDbLine
 10
19.76159244408573
 20
4.999999999999981
 30
0.0
 11
18.55375484036457
 21
4.999999999999981
 31
0.0
  0
LINE
  5
A1
330
1F
100
AcDbEntity
  8
0
  6
Continuous
 62
     1
370
    15
100
AcDbLine
 10
29.0251130319831
 20
-5.000000000000024
 30
0.0
 11
30.23443633291251
 21
-5.000000000000024
 31
0.0
  0
LINE
  5
A2
330
1F
100
AcDbEntity
  8
0
  6
Continuous
 62
     1
370
    15
100
AcDbLine
 10
14.52628892475273
 20
4.999999999999981
 30
0.0
 11
13.31625839856423
 21
4.999999999999981
 31
0.0
  0
LINE
  5
A3
330
1F
100
AcDbEntity
  8
0
  6
Continuous
 62
   131
370
    15
100
AcDbLine
 10
-38.89870361255521
 20
-5.000000000000021
 30
0.0
 11
9.288897731580624
 21
-5.000000000000021
 31
0.0
  0
LINE
  5
A4
330
1F
100
AcDbEntity
  8
0
  6
Continuous
 62
   131
370
    15
100
AcDbLine
 10
9.28889773158059
 20
4.999999999999979
 30
0.0
 11
-38.89870361255521
 21
4.999999999999979
 31
0.0
  0
LINE
  5
A5
330
1F
100
AcDbEntity
  8
0
  6
Continuous
 62
   131
370
    15
100
AcDbLine
 10
-38.89870361255521
 20
4.99999999999998
 30
0.0
 11
-39.89870361255521
 21
3.999999999999982
 31
0.0
  0
LINE
  5
A6
330
1F
100
AcDbEntity
  8
0
  6
Continuous
 62
   131
370
    15
100
AcDbLine
 10
-39.89870361255521
 20
-4.000000000000025
 30
0.0
 11
-38.89870361255521
 21
-5.000000000000022
 31
0.0
  0
LINE
  5
A7
330
1F
100
AcDbEntity
  8
0
  6
Continuous
 62
   131
370
    15
100
AcDbLine
 10
10.10129638745234
 20
0.5950142925047968
 30
0.0
 11
10.06559377761831
 21
0.630546659122965
 31
0.0
  0
LINE
  5
A8
330
1F
100
AcDbEntity
  8
0
  6
Continuous
 62
     1
370
    15
100
AcDbLine
 10
40.10129638744478
 20
3.000986201482185
 30
0.0
 11
40.10129638744478
 21
4.963512754521668
 31
0.0
  0
SPLINE
  5
A9
330
1F
100
AcDbEntity
  8
0
  6
Continuous
 62
     1
370
    15
100
AcDbSpline
210
0.0
220
0.0
230
1.0
 70
     8
 71
     3
 72
    20
 73
    16
 74
     0
 42
0.000000001
 43
0.00000001
 40
0.0
 40
0.0
 40
0.0
 40
0.0
 40
0.0821864816654297
 40
0.1642254563230716
 40
0.2462387371229787
 40
0.329263426293698
 40
0.4123141276302566
 40
0.4952317007933165
 40
0.5781499965382965
 40
0.6612024306344545
 40
0.74422518315294
 40
0.8271340777852432
 40
0.9100644427241719
 40
0.9931369521523182
 40
1.0
 40
1.0
 40
1.0
 40
1.0
 10
10.10129638745232
 20
1.766995246525477
 30
0.0
 10
10.4213845933736
 20
1.461796167245343
 30
0.0
 10
11.06098651592633
 20
0.8519457752039952
 30
0.0
 10
12.01875385778954
 20
-0.1121965579299892
 30
0.0
 10
12.97961188815259
 20
-1.070999940965756
 30
0.0
 10
13.9454386858606
 20
-1.994422385212944
 30
0.0
 10
14.9150610993918
 20
-2.84602564424973
 30
0.0
 10
15.88303483894619
 20
-3.591931262698217
 30
0.0
 10
16.85101481317117
 20
-4.203188825872405
 30
0.0
 10
17.82066619357807
 20
-4.657078657658789
 30
0.0
 10
18.78993218258217
 20
-4.93564425343454
 30
0.0
 10
19.75781854553016
 20
-5.034398271823584
 30
0.0
 10
20.72587352599973
 20
-4.926644222793269
 30
0.0
 10
21.39939688875834
 20
-4.770623797657391
 30
0.0
 10
21.74940680812927
 20
-4.606026125044217
 30
0.0
 10
21.77611631987931
 20
-4.593465556822055
 30
0.0
  0
SPLINE
  5
AA
330
1F
100
AcDbEntity
  8
0
  6
Continuous
 62
     1
370
    15
100
AcDbSpline
210
0.0
220
0.0
230
1.0
 70
     8
 71
     3
 72
    12
 73
     8
 74
     0
 42
0.000000001
 43
0.00000001
 40
0.0
 40
0.0
 40
0.0
 40
0.0
 40
0.1634138744268758
 40
0.372758250853423
 40
0.5817513611240608
 40
0.790718324307671
 40
1.0
 40
1.0
 40
1.0
 40
1.0
 10
35.4688818618332
 20
4.983972321422751
 30
0.0
 10
35.72121702417037
 20
4.979328031098609
 30
0.0
 10
36.29681082898961
 20
4.968734086467196
 30
0.0
 10
37.19588422323432
 20
4.731623713706442
 30
0.0
 10
38.16390754446691
 20
4.31813748215619
 30
0.0
 10
39.13183187998785
 20
3.745204162777961
 30
0.0
 10
39.77797948635705
 20
3.251139281349328
 30
0.0
 10
40.10129638744479
 20
3.003920960295124
 30
0.0
  0
SPLINE
  5
AB
330
1F
100
AcDbEntity
  8
0
  6
Continuous
 62
   131
370
    15
100
AcDbSpline
210
0.0
220
0.0
230
1.0
 70
    24
 71
     3
 72
    18
 73
    14
 74
     0
 42
0.000000001
 43
0.00000001
 40
0.0
 40
0.0
 40
0.0
 40
0.0
 40
0.0093137841847025
 40
0.1154266370724066
 40
0.2246167698824501
 40
0.3307296227701435
 40
0.4399197555801751
 40
0.5460326084678707
 40
0.6552227412779045
 40
0.7613355941656
 40
0.8705257269756344
 40
0.9766385798633309
 40
1.0
 40
1.0
 40
1.0
 40
1.0
 10
10.1012963874448
 20
4.59716030323399
 30
0.0
 10
10.1012963874448
 20
4.589144280473089
 30
0.0
 10
10.10129638744485
 20
4.489800927477384
 30
0.0
 10
10.10129638744483
 20
4.283715122657979
 30
0.0
 10
10.10129638744476
 20
3.966027613674125
 30
0.0
 10
10.10129638744481
 20
3.63079731703719
 30
0.0
 10
10.10129638744477
 20
3.293799121650526
 30
0.0
 10
10.10129638744481
 20
2.958345472669301
 30
0.0
 10
10.10129638744476
 20
2.640358597077897
 30
0.0
 10
10.10129638744483
 20
2.341714869716923
 30
0.0
 10
10.10129638744477
 20
2.081446173094028
 30
0.0
 10
10.1012963874448
 20
1.905906069716711
 30
0.0
 10
10.10129638744479
 20
1.835594397790463
 30
0.0
 10
10.10129638744479
 20
1.82290785806321
 30
0.0
  0
SPLINE
  5
AC
330
1F
100
AcDbEntity
  8
0
  6
Continuous
 62
     1
370
    15
100
AcDbSpline
210
0.0
220
0.0
230
1.0
 70
     8
 71
     3
 72
    10
 73
     6
 74
     0
 42
0.000000001
 43
0.00000001
 40
0.0
 40
0.0
 40
0.0
 40
0.0
 40
0.3704018896778077
 40
0.7402467783303298
 40
1.0
 40
1.0
 40
1.0
 40
1.0
 10
40.10129638744478
 20
4.963512754521668
 30
0.0
 10
39.77797308969089
 20
4.983281487954701
 30
0.0
 10
39.13181269960851
 20
5.022789227097724
 30
0.0
 10
38.26000341730344
 20
4.881324905492616
 30
0.0
 10
37.71089092113894
 20
4.66940999623396
 30
0.0
 10
37.48434364026351
 20
4.581980285919863
 30
0.0
  0
SPLINE
  5
AD
330
1F
100
AcDbEntity
  8
0
  6
Continuous
 62
     1
370
    15
100
AcDbSpline
210
0.0
220
0.0
230
1.0
 70
     8
 71
     3
 72
    22
 73
    18
 74
     0
 42
0.000000001
 43
0.00000001
 40
0.0
 40
0.0
 40
0.0
 40
0.0
 40
0.0113885796868015
 40
0.0821018020382071
 40
0.1528945439742944
 40
0.2237520181925489
 40
0.2944882489386944
 40
0.3652061663859078
 40
0.4360211999824981
 40
0.5068615507584904
 40
0.577587486972726
 40
0.6483128068539528
 40
0.7191516796564329
 40
0.7899683651386652
 40
0.8599223603873637
 40
0.9298982714524318
 40
0.9999999999999999
 40
0.9999999999999999
 40
0.9999999999999999
 40
0.9999999999999999
 10
23.78828276736187
 20
-4.987354079296725
 30
0.0
 10
23.73633327731701
 20
-4.991378885725926
 30
0.0
 10
23.36182241951522
 20
-5.020394256367402
 30
0.0
 10
22.66481107867628
 20
-4.893668906995061
 30
0.0
 10
21.69582387019874
 20
-4.599579837361054
 30
0.0
 10
20.72592864664434
 20
-4.116361816380589
 30
0.0
 10
19.75780379162691
 20
-3.483212090650784
 30
0.0
 10
18.78993614145781
 20
-2.718447680688475
 30
0.0
 10
17.82066513170593
 20
-1.852665732288384
 30
0.0
 10
16.8510150972294
 20
-0.917788826564973
 30
0.0
 10
15.88303476288963
 20
0.0522098092534161
 30
0.0
 10
14.91506111980824
 20
1.020317407169003
 30
0.0
 10
13.9454386803861
 20
1.949215038624935
 30
0.0
 10
12.97961188959887
 20
2.80325579555045
 30
0.0
 10
12.01875385740576
 20
3.547693274920984
 30
0.0
 10
11.06098651602247
 20
4.171524326381077
 30
0.0
 10
10.42138459340566
 20
4.45519671293956
 30
0.0
 10
10.10129638745233
 20
4.597160303231025
 30
0.0
  0
SPLINE
  5
AE
330
1F
100
AcDbEntity
  8
0
  6
Continuous
 62
     1
370
    15
100
AcDbSpline
210
0.0
220
0.0
230
1.0
 70
     8
 71
     3
 72
    26
 73
    22
 74
     0
 42
0.000000001
 43
0.00000001
 40
0.0
 40
0.0
 40
0.0
 40
0.0
 40
0.0219472109376567
 40
0.0765740428554145
 40
0.1312013508165438
 40
0.1859170303120054
 40
0.2406131553210931
 40
0.2952342697458895
 40
0.3498695289989353
 40
0.4045984343009948
 40
0.4592773416743967
 40
0.513894829700473
 40
0.5685401248342968
 40
0.6232763343516579
 40
0.6779400886459378
 40
0.7325560430364335
 40
0.7872134540283069
 40
0.8419510420334985
 40
0.8966017147525247
 40
0.951218228976497
 40
1.0
 40
1.0
 40
1.0
 40
1.0
 10
14.52628892475273
 20
4.977456711826646
 30
0.0
 10
14.65599906775407
 20
4.983069726212086
 30
0.0
 10
15.10855907992059
 20
5.002653590663913
 30
0.0
 10
15.88301356141985
 20
4.839902286626519
 30
0.0
 10
16.85102077544484
 20
4.498479407398147
 30
0.0
 10
17.82066365848618
 20
3.977533518943784
 30
0.0
 10
18.78993635377832
 20
3.310780631829826
 30
0.0
 10
19.75780441204838
 20
2.518951697236136
 30
0.0
 10
20.72592594967859
 20
1.632896909181098
 30
0.0
 10
21.69583405251927
 20
0.6867229143508944
 30
0.0
 10
22.66477310938772
 20
-0.2858472394270117
 30
0.0
 10
23.63257562139896
 20
-1.247880495697239
 30
0.0
 10
24.60087983891398
 20
-2.163336092114638
 30
0.0
 10
25.57093068315005
 20
-2.996825994731877
 30
0.0
 10
26.53958080569769
 20
-3.719048247204743
 30
0.0
 10
27.5073550312899
 20
-4.302085893986622
 30
0.0
 10
28.47588659384702
 20
-4.723788622544139
 30
0.0
 10
29.44595936435568
 20
-4.969594223586435
 30
0.0
 10
30.41438210783939
 20
-5.02544909391563
 30
0.0
 10
31.34732979881789
 20
-4.913234269540449
 30
0.0
 10
31.95819267439188
 20
-4.694781486863657
 30
0.0
 10
32.24638868123753
 20
-4.591718717510367
 30
0.0
  0
SPLINE
  5
AF
330
1F
100
AcDbEntity
  8
0
  6
Continuous
 62
     1
370
    15
100
AcDbSpline
210
0.0
220
0.0
230
1.0
 70
     8
 71
     3
 72
    26
 73
    22
 74
     0
 42
0.000000001
 43
0.00000001
 40
0.0
 40
0.0
 40
0.0
 40
0.0
 40
0.0530513453157826
 40
0.1077784177848856
 40
0.1624440582320896
 40
0.2170546176450697
 40
0.2716993318288189
 40
0.3264309518224043
 40
0.3810824035443307
 40
0.4356924031848707
 40
0.4903501975175973
 40
0.5450804391736478
 40
0.59971977635851
 40
0.6543313094674197
 40
0.7090042552271355
 40
0.7637271934642585
 40
0.8183564958625505
 40
0.8729716549747965
 40
0.9276618164929678
 40
0.9823715303654961
 40
0.9999999999999999
 40
0.9999999999999999
 40
0.9999999999999999
 40
0.9999999999999999
 10
34.26120916877835
 20
-4.997369572461269
 30
0.0
 10
33.94796794440786
 20
-4.981349838015493
 30
0.0
 10
33.31159117871618
 20
-4.948804355490544
 30
0.0
 10
32.35094908929564
 20
-4.666616856209394
 30
0.0
 10
31.38215270411581
 20
-4.221290683680868
 30
0.0
 10
30.41436715087178
 20
-3.614038582041625
 30
0.0
 10
29.44596338042683
 20
-2.872391973655935
 30
0.0
 10
28.47588551873624
 20
-2.023994224095533
 30
0.0
 10
27.50735531899358
 20
-1.09896177259222
 30
0.0
 10
26.53958072833885
 20
-0.1328599521886161
 30
0.0
 10
25.57093070474597
 20
0.8382510893947215
 30
0.0
 10
24.60087983004079
 20
1.777003571095508
 30
0.0
 10
23.63257563529328
 20
2.650384426610609
 30
0.0
 10
22.66477306267084
 20
3.424393981512729
 30
0.0
 10
21.69583422577861
 20
4.070042204319996
 30
0.0
 10
20.72592530326895
 20
4.56329144313019
 30
0.0
 10
19.75780681944562
 20
4.885427203686022
 30
0.0
 10
18.78992736616082
 20
5.027800783638469
 30
0.0
 10
17.82069725750695
 20
4.96989564208112
 30
0.0
 10
17.06962177812608
 20
4.816135549938048
 30
0.0
 10
16.64248787949379
 20
4.627204383081479
 30
0.0
 10
16.5383973895636
 20
4.581162760573518
 30
0.0
  0
SPLINE
  5
B0
330
1F
100
AcDbEntity
  8
0
  6
Continuous
 62
     1
370
    15
100
AcDbSpline
210
0.0
220
0.0
230
1.0
 70
     8
 71
     3
 72
    26
 73
    22
 74
     0
 42
0.000000001
 43
0.00000001
 40
0.0
 40
0.0
 40
0.0
 40
0.0
 40
0.0544114807867342
 40
0.1091345519452467
 40
0.1638076305049192
 40
0.2184192962646162
 40
0.2730587661678014
 40
0.3277891407629804
 40
0.382447067858861
 40
0.437057200146464
 40
0.491708784616139
 40
0.5464405375522007
 40
0.6010853844673336
 40
0.6556960765287346
 40
0.7103618497581523
 40
0.7650890551586856
 40
0.8197228991792044
 40
0.8743362440026318
 40
0.9290182736766238
 40
0.9837350082405931
 40
1.0
 40
1.0
 40
1.0
 40
1.0
 10
19.76159244408573
 20
4.999628453502399
 30
0.0
 10
20.08285224122285
 20
4.981792354247752
 30
0.0
 10
20.72721154759791
 20
4.946018016323805
 30
0.0
 10
21.69583491097686
 20
4.657601352072251
 30
0.0
 10
22.6647728793804
 20
4.20795281441161
 30
0.0
 10
23.63257568439401
 20
3.5970628299719
 30
0.0
 10
24.6008798169078
 20
2.852332587520376
 30
0.0
 10
25.57093070807065
 20
2.001623577207158
 30
0.0
 10
26.53958072816334
 20
1.075187782612823
 30
0.0
 10
27.50735531637792
 20
0.1085183840880875
 30
0.0
 10
28.47588552939115
 20
-0.8623097620492148
 30
0.0
 10
29.44596334038925
 20
-1.799798708014523
 30
0.0
 10
30.41436730004594
 20
-2.671055447163982
 30
0.0
 10
31.38215214749622
 20
-3.442187851178898
 30
0.0
 10
32.35095117000398
 20
-4.084354907820774
 30
0.0
 10
33.3209410148464
 20
-4.573507523374668
 30
0.0
 10
34.28913868592896
 20
-4.891161135874289
 30
0.0
 10
35.2569844192505
 20
-5.028975828620399
 30
0.0
 10
36.22604838764251
 20
-4.965952400173685
 30
0.0
 10
36.96916603142577
 20
-4.811510331918297
 30
0.0
 10
37.38830152261704
 20
-4.624770483519749
 30
0.0
 10
37.48434364026351
 20
-4.581980285919906
 30
0.0
  0
SPLINE
  5
B1
330
1F
100
AcDbEntity
  8
0
  6
Continuous
 62
     1
370
    15
100
AcDbSpline
210
0.0
220
0.0
230
1.0
 70
     8
 71
     3
 72
    26
 73
    22
 74
     0
 42
0.000000001
 43
0.00000001
 40
0.0
 40
0.0
 40
0.0
 40
0.0
 40
0.0205758090882325
 40
0.0751995690739115
 40
0.1298301638825913
 40
0.1845525793211882
 40
0.2392402862666294
 40
0.2938593012304145
 40
0.3484988175195864
 40
0.4032317048818647
 40
0.4579031536949323
 40
0.5125195156212735
 40
0.5671700359474168
 40
0.6219074713173637
 40
0.6765647298975649
 40
0.7311805319919888
 40
0.7858441338569091
 40
0.8405801907428689
 40
0.8952253334988051
 40
0.9498426692245336
 40
1.0
 40
1.0
 40
1.0
 40
1.0
 10
39.49627360870533
 20
-4.977983967195505
 30
0.0
 10
39.37467885508914
 20
-4.983705658189594
 30
0.0
 10
38.93027965628362
 20
-5.004617044725333
 30
0.0
 10
38.16393601753927
 20
-4.846064212939089
 30
0.0
 10
37.19586332811235
 20
-4.509431413134512
 30
0.0
 10
36.22608742759231
 20
-3.992433499088625
 30
0.0
 10
35.25697397612537
 20
-3.329069752175071
 30
0.0
 10
34.28914148369266
 20
-2.540008990939103
 30
0.0
 10
33.3209402635911
 20
-1.655923880041676
 30
0.0
 10
32.35095137128295
 20
-0.7109162260228472
 30
0.0
 10
31.3821520933502
 20
0.2615433356343422
 30
0.0
 10
30.4143673156794
 20
1.224270661051554
 30
0.0
 10
29.44596333199861
 20
2.141292184884883
 30
0.0
 10
28.47588554730652
 20
2.977183340891388
 30
0.0
 10
27.50735525323512
 20
3.702607141619804
 30
0.0
 10
26.53958096275371
 20
4.28940546580287
 30
0.0
 10
25.57092983145657
 20
4.715342082907329
 30
0.0
 10
24.60088309084554
 20
4.96566491949438
 30
0.0
 10
23.63256349168476
 20
5.026415461849483
 30
0.0
 10
22.691508348275
 20
4.917093786176377
 30
0.0
 10
22.07246324346205
 20
4.698236220295867
 30
0.0
 10
21.77611631987931
 20
4.593465556822011
 30
0.0
  0
SPLINE
  5
B2
330
1F
100
AcDbEntity
  8
0
  6
Continuous
 62
     1
370
    15
100
AcDbSpline
210
0.0
220
0.0
230
1.0
 70
     8
 71
     3
 72
    25
 73
    21
 74
     0
 42
0.000000001
 43
0.00000001
 40
0.0
 40
0.0
 40
0.0
 40
0.0
 40
0.0567407718583827
 40
0.1133797062696967
 40
0.1700009018839436
 40
0.2273203642990197
 40
0.284657785268076
 40
0.3419032958016526
 40
0.3991493051989722
 40
0.4564879224489146
 40
0.5138060478175526
 40
0.5710455667753402
 40
0.6282999086303401
 40
0.685652385700161
 40
0.7429524680611704
 40
0.8001881867794268
 40
0.8574530456111324
 40
0.9148131770427259
 40
0.9720973799225348
 40
1.0
 40
1.0
 40
1.0
 40
1.0
 10
10.10129638745232
 20
4.934213096986754
 30
0.0
 10
10.42138459340408
 20
4.86505207728441
 30
0.0
 10
11.06098651601773
 20
4.726854166992749
 30
0.0
 10
12.01875385742471
 20
4.297776062217397
 30
0.0
 10
12.97961188952739
 20
3.722085811757583
 30
0.0
 10
13.9454386806567
 20
3.003022813966585
 30
0.0
 10
14.91506111879925
 20
2.170219498913482
 30
0.0
 10
15.88303476664833
 20
1.2552296582869
 30
0.0
 10
16.85101508319127
 20
0.2932882778516683
 30
0.0
 10
17.82066518418351
 20
-0.6788072221321647
 30
0.0
 10
18.7899359458109
 20
-1.625811177190722
 30
0.0
 10
19.75780452076212
 20
-2.512397428058318
 30
0.0
 10
20.72592592259211
 20
-3.305009458760741
 30
0.0
 10
21.69583405191302
 20
-3.973126570843276
 30
0.0
 10
22.66477313884277
 20
-4.493301556642881
 30
0.0
 10
23.63257550430388
 20
-4.844693333577118
 30
0.0
 10
24.60088027844606
 20
-5.017169208789238
 30
0.0
 10
25.57092904017333
 20
-4.99269027145526
 30
0.0
 10
26.37428300784132
 20
-4.845928557783923
 30
0.0
 10
26.85420667447267
 20
-4.644457495104968
 30
0.0
 10
27.01140384736073
 20
-4.578466414285421
 30
0.0
  0
SPLINE
  5
B3
330
1F
100
AcDbEntity
  8
0
  6
Continuous
 62
     1
370
    15
100
AcDbSpline
210
0.0
220
0.0
230
1.0
 70
     8
 71
     3
 72
    26
 73
    22
 74
     0
 42
0.000000001
 43
0.00000001
 40
0.0
 40
0.0
 40
0.0
 40
0.0
 40
0.0309873967521615
 40
0.0856436739112066
 40
0.1402584953288638
 40
0.1949211156587286
 40
0.2496561897086367
 40
0.3043003512609675
 40
0.3589167062823915
 40
0.4135944793770372
 40
0.4683222493631643
 40
0.5229563752429058
 40
0.577576356587823
 40
0.6322713469609856
 40
0.6869858914148758
 40
0.7416120661676445
 40
0.7962377648869177
 40
0.8509511678071121
 40
0.905647434037458
 40
0.9596773892936826
 40
1.0
 40
1.0
 40
1.0
 40
1.0
 10
29.02511303198311
 20
-4.976938617557932
 30
0.0
 10
28.84193159503917
 20
-4.980122183631315
 30
0.0
 10
28.33565056156975
 20
-4.988920996156432
 30
0.0
 10
27.50735115136234
 20
-4.796126169363268
 30
0.0
 10
26.53958184594848
 20
-4.423679681529819
 30
0.0
 10
25.5709304039237
 20
-3.876879573087407
 30
0.0
 10
24.60087991349408
 20
-3.188089421169808
 30
0.0
 10
23.63257560197346
 20
-2.378524235413669
 30
0.0
 10
22.66477311261265
 20
-1.480197465564997
 30
0.0
 10
21.6958340590764
 20
-0.5265701358791673
 30
0.0
 10
20.72592592021212
 20
0.446000269421344
 30
0.0
 10
19.75780452312505
 20
1.402968131660292
 30
0.0
 10
18.7899359387336
 20
2.307268475792376
 30
0.0
 10
17.82066521017223
 20
3.124827745974544
 30
0.0
 10
16.85101498635735
 20
3.825275199687373
 30
0.0
 10
15.88303512734736
 20
4.383257931693775
 30
0.0
 10
14.91505977168961
 20
4.776651836873723
 30
0.0
 10
13.94544371647641
 20
4.99261283915843
 30
0.0
 10
12.97959319986835
 20
5.016080227785774
 30
0.0
 10
12.09983037770325
 20
4.887106660822905
 30
0.0
 10
11.5426173840573
 20
4.674769293020784
 30
0.0
 10
11.30448625965091
 20
4.584024574708743
 30
0.0
  0
LINE
  5
B4
330
1F
100
AcDbEntity
  8
0
  6
Continuous
 62
     1
370
    15
100
AcDbLine
 10
40.10129638744478
 20
-4.963512754521711
 30
0.0
 11
40.10129638744478
 21
-2.99368837805984
 31
0.0
  0
SPLINE
  5
B5
330
1F
100
AcDbEntity
  8
0
  6
Continuous
 62
     1
370
    15
100
AcDbSpline
210
0.0
220
0.0
230
1.0
 70
     8
 71
     3
 72
     9
 73
     5
 74
     0
 42
0.000000001
 43
0.00000001
 40
0.0
 40
0.0
 40
0.0
 40
0.0
 40
0.7977809178512177
 40
1.0
 40
1.0
 40
1.0
 40
1.0
 10
10.10129638745232
 20
-4.934213096986803
 30
0.0
 10
10.42142963565588
 20
-4.875601754230437
 30
0.0
 10
10.82270928654776
 20
-4.802133786465258
 30
0.0
 10
11.22344903544785
 20
-4.620711602276803
 30
0.0
 10
11.30448625965094
 20
-4.584024574708786
 30
0.0
  0
SPLINE
  5
B6
330
1F
100
AcDbEntity
  8
0
  6
Continuous
 62
     1
370
    15
100
AcDbSpline
210
0.0
220
0.0
230
1.0
 70
     8
 71
     3
 72
    23
 73
    19
 74
     0
 42
0.000000001
 43
0.00000001
 40
0.0
 40
0.0
 40
0.0
 40
0.0
 40
0.0379614211348845
 40
0.1020957368421411
 40
0.1661739712545861
 40
0.2303008446746374
 40
0.2945217858723414
 40
0.3586407536056414
 40
0.4227196448433888
 40
0.4868631670177048
 40
0.5510787722450424
 40
0.6151848294426823
 40
0.679266833368494
 40
0.7434294304694308
 40
0.8076327494654094
 40
0.8717283394961045
 40
0.9358159105401046
 40
1.0
 40
1.0
 40
1.0
 40
1.0
 10
24.99743184249653
 20
4.97730911999177
 30
0.0
 10
25.18869336707005
 20
4.97985868574887
 30
0.0
 10
25.70308365323716
 20
4.986715641753589
 30
0.0
 10
26.53958792148393
 20
4.789031117825695
 30
0.0
 10
27.5073533878588
 20
4.411951909879345
 30
0.0
 10
28.47588604809284
 20
3.861295031909545
 30
0.0
 10
29.4459631981285
 20
3.16917968000443
 30
0.0
 10
30.4143673508908
 20
2.357034685908334
 30
0.0
 10
31.38215208617849
 20
1.456917167155215
 30
0.0
 10
32.35095136471828
 20
0.5022689027650751
 30
0.0
 10
33.32094029705222
 20
-0.4702669557564143
 30
0.0
 10
34.28914135668798
 20
-1.426335299704349
 30
0.0
 10
35.25697445083321
 20
-2.328907323884672
 30
0.0
 10
36.22608565280068
 20
-3.143787612194809
 30
0.0
 10
37.19586995148045
 20
-3.841658547504736
 30
0.0
 10
38.163911346847
 20
-4.392869291320143
 30
0.0
 10
39.13183092777206
 20
-4.79282482213754
 30
0.0
 10
39.77797916879259
 20
-4.90658824317855
 30
0.0
 10
40.10129638744479
 20
-4.963512754521711
 30
0.0
  0
SPLINE
  5
B7
330
1F
100
AcDbEntity
  8
0
  6
Continuous
 62
   131
370
    15
100
AcDbSpline
210
0.0
220
0.0
230
1.0
 70
    24
 71
     3
 72
    11
 73
     7
 74
     0
 42
0.000000001
 43
0.00000001
 40
0.0
 40
0.0
 40
0.0
 40
0.0
 40
0.1966631138082083
 40
0.5648924373082481
 40
0.9438004361354185
 40
1.0
 40
1.0
 40
1.0
 40
1.0
 10
10.1012963874448
 20
-4.057310386904533
 30
0.0
 10
10.10129638744481
 20
-4.111028226812408
 30
0.0
 10
10.10129638744484
 20
-4.26532661518272
 30
0.0
 10
10.10129638744476
 20
-4.545020163377742
 30
0.0
 10
10.1012963874448
 20
-4.786541752428234
 30
0.0
 10
10.10129638744479
 20
-4.917321289987938
 30
0.0
 10
10.1012963874448
 20
-4.934213096988024
 30
0.0
  0
SPLINE
  5
B8
330
1F
100
AcDbEntity
  8
0
  6
Continuous
 62
     1
370
    15
100
AcDbSpline
210
0.0
220
0.0
230
1.0
 70
     8
 71
     3
 72
    21
 73
    17
 74
     0
 42
0.000000001
 43
0.00000001
 40
0.0
 40
0.0
 40
0.0
 40
0.0
 40
0.0740587059238196
 40
0.1480060442324072
 40
0.2219626352355887
 40
0.2960435291279519
 40
0.3700774361287821
 40
0.4440183508272161
 40
0.517987019353738
 40
0.5920820896939217
 40
0.6660939871220825
 40
0.7400313102505209
 40
0.8140148755773526
 40
0.888116102818156
 40
0.9621087901086269
 40
0.9999999999999999
 40
0.9999999999999999
 40
0.9999999999999999
 40
0.9999999999999999
 10
40.10129638744478
 20
-3.003920960295138
 30
0.0
 10
39.77797916879291
 20
-2.734859839654094
 30
0.0
 10
39.13183092777304
 20
-2.197142205703225
 30
0.0
 10
38.16391134684303
 20
-1.277471364730929
 30
0.0
 10
37.19586995149545
 20
-0.3179432855169597
 30
0.0
 10
36.22608565274447
 20
0.6546698369157424
 30
0.0
 10
35.25697445104261
 20
1.602742079140696
 30
0.0
 10
34.28914135590745
 20
2.491267175701573
 30
0.0
 10
33.3209402999686
 20
3.286597308919522
 30
0.0
 10
32.35095135381889
 20
3.958093062015712
 30
0.0
 10
31.38215212678494
 20
4.48229260749185
 30
0.0
 10
30.41436719947052
 20
4.838086696807048
 30
0.0
 10
29.4459637640306
 20
5.015117965997838
 30
0.0
 10
28.47588393372656
 20
4.995658809480313
 30
0.0
 10
27.66459527820394
 20
4.8503324130583
 30
0.0
 10
27.17665302720763
 20
4.647245077329808
 30
0.0
 10
27.01140384736078
 20
4.578466414285375
 30
0.0
  0
SPLINE
  5
B9
330
1F
100
AcDbEntity
  8
0
  6
Continuous
 62
     1
370
    15
100
AcDbSpline
210
0.0
220
0.0
230
1.0
 70
     8
 71
     3
 72
    11
 73
     7
 74
     0
 42
0.000000001
 43
0.00000001
 40
0.0
 40
0.0
 40
0.0
 40
0.0
 40
0.1058519975645867
 40
0.4036605879481059
 40
0.7015624784834883
 40
1.0
 40
1.0
 40
1.0
 40
1.0
 10
13.31625839856427
 20
-4.978628828814876
 30
0.0
 10
13.20277665956448
 20
-4.984430020511147
 30
0.0
 10
12.77002048547267
 20
-5.006552535955294
 30
0.0
 10
12.01878316229721
 20
-4.852484836923848
 30
0.0
 10
11.06097917347157
 20
-4.535311326927546
 30
0.0
 10
10.42138214442357
 20
-4.179475496261252
 30
0.0
 10
10.10129638745233
 20
-4.001397775378406
 30
0.0
  0
LINE
  5
BA
330
1F
100
AcDbEntity
  8
0
  6
Continuous
 62
     1
370
    15
100
AcDbLine
 10
40.10129638744478
 20
-1.959591794226518
 30
0.0
 11
40.10129638744478
 21
1.959591794226568
 31
0.0
  0
SPLINE
  5
BB
330
1F
100
AcDbEntity
  8
0
  6
Continuous
 62
     1
370
    15
100
AcDbSpline
210
0.0
220
0.0
230
1.0
 70
     8
 71
     3
 72
    14
 73
    10
 74
     0
 42
0.000000001
 43
0.00000001
 40
0.0
 40
0.0
 40
0.0
 40
0.0
 40
0.1490535429223877
 40
0.2978395668845882
 40
0.4465789924227028
 40
0.5971527099022177
 40
0.7477736030899376
 40
0.8981530547957899
 40
1.0
 40
1.0
 40
1.0
 40
1.0
 10
10.10129638745232
 20
-3.167217850461255
 30
0.0
 10
10.42138462205762
 20
-3.403249438334531
 30
0.0
 10
11.06098660192692
 20
-3.874888988290501
 30
0.0
 10
12.01875351455216
 20
-4.410050061545721
 30
0.0
 10
12.97961318161943
 20
-4.79279392003971
 30
0.0
 10
13.94543378983776
 20
-4.998549842477447
 30
0.0
 10
14.9150793585971
 20
-5.012125491474095
 30
0.0
 10
15.7788967276961
 20
-4.878595053233602
 30
0.0
 10
16.31993185406218
 20
-4.666717268099103
 30
0.0
 10
16.53839738956363
 20
-4.581162760573561
 30
0.0
  0
SPLINE
  5
BC
330
1F
100
AcDbEntity
  8
0
  6
Continuous
 62
     1
370
    15
100
AcDbSpline
210
0.0
220
0.0
230
1.0
 70
     8
 71
     3
 72
    18
 73
    14
 74
     0
 42
0.000000001
 43
0.00000001
 40
0.0
 40
0.0
 40
0.0
 40
0.0
 40
0.0182548196918022
 40
0.1163420352201024
 40
0.2145281829939917
 40
0.3128246701607932
 40
0.410953469326256
 40
0.5090454495266526
 40
0.6072607957838879
 40
0.7055384760986971
 40
0.8036512529010971
 40
0.9017517548332382
 40
1.0
 40
1.0
 40
1.0
 40
1.0
 10
30.23443633291254
 20
4.985820620459386
 30
0.0
 10
30.29446989049433
 20
4.990273458941394
 30
0.0
 10
30.6770771355116
 20
5.01865239120418
 30
0.0
 10
31.38211378943811
 20
4.888641676520042
 30
0.0
 10
32.35096164410555
 20
4.589469607459876
 30
0.0
 10
33.32093754659812
 20
4.10233986721682
 30
0.0
 10
34.28914209279857
 20
3.465585381301399
 30
0.0
 10
35.25697425335186
 20
2.69792940719167
 30
0.0
 10
36.22608570578282
 20
1.829974426936753
 30
0.0
 10
37.19586993731151
 20
0.8936124361726617
 30
0.0
 10
38.16391135062198
 20
-0.075703540235145
 30
0.0
 10
39.13183092682669
 20
-1.047377312386872
 30
0.0
 10
39.77797916847733
 20
-1.655367805491322
 30
0.0
 10
40.10129638744479
 20
-1.959591794226518
 30
0.0
  0
SPLINE
  5
BD
330
1F
100
AcDbEntity
  8
0
  6
Continuous
 62
   131
370
    15
100
AcDbSpline
210
0.0
220
0.0
230
1.0
 70
    24
 71
     3
 72
    24
 73
    20
 74
     0
 42
0.000000001
 43
0.00000001
 40
0.0
 40
0.0
 40
0.0
 40
0.0
 40
0.0048315335480701
 40
0.0713933537426888
 40
0.1360792777586997
 40
0.2026410979533106
 40
0.2673270219693231
 40
0.3338888421639351
 40
0.3985747661799474
 40
0.4651365863745599
 40
0.5298225103905728
 40
0.5963843305851859
 40
0.6610702546011983
 40
0.7276320747958109
 40
0.792317998811789
 40
0.8588798190064341
 40
0.9235657430224489
 40
0.9901275632170635
 40
0.9999999999999999
 40
0.9999999999999999
 40
0.9999999999999999
 40
0.9999999999999999
 10
10.10129638744478
 20
0.5930838124788452
 30
0.0
 10
10.10129638744478
 20
0.592995638376191
 30
0.0
 10
10.10129638744483
 20
0.5916927301299553
 30
0.0
 10
10.10129638744474
 20
0.536278998035034
 30
0.0
 10
10.10129638744483
 20
0.4234021458418379
 30
0.0
 10
10.10129638744475
 20
0.2541122666499725
 30
0.0
 10
10.10129638744482
 20
0.0378186665501542
 30
0.0
 10
10.10129638744476
 20
-0.2175130349487948
 30
0.0
 10
10.10129638744485
 20
-0.5087010115774635
 30
0.0
 10
10.1012963874448
 20
-0.8224095071688108
 30
0.0
 10
10.10129638744475
 20
-1.155365584410085
 30
0.0
 10
10.10129638744484
 20
-1.49216342817927
 30
0.0
 10
10.10129638744475
 20
-1.829326948384945
 30
0.0
 10
10.1012963874448
 20
-2.151252553648185
 30
0.0
 10
10.10129638744474
 20
-2.454594473806675
 30
0.0
 10
10.10129638744488
 20
-2.725409802114504
 30
0.0
 10
10.10129638744479
 20
-2.960523174729183
 30
0.0
 10
10.10129638744478
 20
-3.097337858118364
 30
0.0
 10
10.1012963874448
 20
-3.159224428662954
 30
0.0
 10
10.1012963874448
 20
-3.167217850455406
 30
0.0
  0
SPLINE
  5
BE
330
1F
100
AcDbEntity
  8
0
  6
Continuous
 62
     1
370
    15
100
AcDbSpline
210
0.0
220
0.0
230
1.0
 70
     8
 71
     3
 72
    16
 73
    12
 74
     0
 42
0.000000001
 43
0.00000001
 40
0.0
 40
0.0
 40
0.0
 40
0.0
 40
0.1234197662211695
 40
0.246653936908835
 40
0.3699035273285826
 40
0.4933602700787963
 40
0.6167387085824516
 40
0.7399621742428881
 40
0.8632318920074038
 40
0.9867122599864685
 40
1.0
 40
1.0
 40
1.0
 40
1.0
 10
40.10129638744478
 20
1.959591794226568
 30
0.0
 10
39.77797917511361
 20
2.249618597960744
 30
0.0
 10
39.13183094672558
 20
2.829236070432106
 30
0.0
 10
38.163911271162
 20
3.573941190995588
 30
0.0
 10
37.19587023555471
 20
4.190000642553214
 30
0.0
 10
36.22608459055727
 20
4.647694878096573
 30
0.0
 10
35.25697841015347
 20
4.930934475480721
 30
0.0
 10
34.28912659834508
 20
5.034191422150862
 30
0.0
 10
33.32099544113662
 20
4.931723786715111
 30
0.0
 10
32.63926805992146
 20
4.775468222116436
 30
0.0
 10
32.28117892173798
 20
4.607990096981797
 30
0.0
 10
32.24638868123755
 20
4.591718717510324
 30
0.0
  0
SPLINE
  5
BF
330
1F
100
AcDbEntity
  8
0
  6
Continuous
 62
     1
370
    15
100
AcDbSpline
210
0.0
220
0.0
230
1.0
 70
     8
 71
     3
 72
    16
 73
    12
 74
     0
 42
0.000000001
 43
0.00000001
 40
0.0
 40
0.0
 40
0.0
 40
0.0
 40
0.0867057133683922
 40
0.2014229467549752
 40
0.3159548998339355
 40
0.4304858548374086
 40
0.5452006948277073
 40
0.659879605182322
 40
0.7731614948308482
 40
0.8864788744479276
 40
0.9999999999999999
 40
0.9999999999999999
 40
0.9999999999999999
 40
0.9999999999999999
 10
18.55375484036461
 20
-4.982708567946911
 30
0.0
 10
18.30943270474854
 20
-4.979269138000517
 30
0.0
 10
17.74185667542538
 20
-4.971279121102588
 30
0.0
 10
16.85100002010185
 20
-4.739251151093584
 30
0.0
 10
15.8830387997895
 20
-4.33199628306089
 30
0.0
 10
14.91506003615359
 20
-3.756351559499553
 30
0.0
 10
13.94543897095723
 20
-3.042377547578591
 30
0.0
 10
12.97961181283367
 20
-2.216865646730898
 30
0.0
 10
12.01875387777635
 20
-1.312591237893522
 30
0.0
 10
11.06098651091848
 20
-0.3618327357647216
 30
0.0
 10
10.42138459170332
 20
0.2763730282259717
 30
0.0
 10
10.10129638745233
 20
0.5957625278526708
 30
0.0
  0
LINE
  5
C0
330
1F
100
AcDbEntity
  8
0
  6
Continuous
 62
   131
370
    15
100
AcDbLine
 10
40.10129638744478
 20
-5.000000000000022
 30
0.0
 11
40.10129638744478
 21
-4.963512754521711
 31
0.0
  0
LINE
  5
C1
330
1F
100
AcDbEntity
  8
0
  6
Continuous
 62
   131
370
    15
100
AcDbLine
 10
10.1012963874448
 20
0.5957625278601737
 30
0.0
 11
10.10129638744479
 21
1.766995246532546
 31
0.0
  0
LINE
  5
C2
330
1F
100
AcDbEntity
  8
0
  6
Continuous
 62
     1
370
    15
100
AcDbLine
 10
40.10129638744478
 20
1.959591794226568
 30
0.0
 11
40.10129638744478
 21
3.003920960295123
 31
0.0
  0
LINE
  5
C3
330
1F
100
AcDbEntity
  8
0
  6
Continuous
 62
     1
370
    15
100
AcDbLine
 10
40.10129638744478
 20
-3.003920960295138
 30
0.0
 11
40.10129638744478
 21
-1.959591794226518
 31
0.0
  0
LINE
  5
C4
330
1F
100
AcDbEntity
  8
0
  6
Continuous
 62
   131
370
    15
100
AcDbLine
 10
10.1012963874448
 20
-4.001397775373869
 30
0.0
 11
10.1012963874448
 21
-3.167217850455406
 31
0.0
  0
LINE
  5
C5
330
1F
100
AcDbEntity
  8
0
  6
Continuous
 62
   131
370
    15
100
AcDbLine
 10
40.10129638744478
 20
4.963512754521668
 30
0.0
 11
40.10129638744478
 21
4.99999999999998
 31
0.0
  0
LINE
  5
C6
330
1F
100
AcDbEntity
  8
0
  6
Continuous
 62
   131
370
    15
100
AcDbLine
 10
10.1012963874448
 20
4.59716030323399
 30
0.0
 11
10.1012963874448
 21
4.934213096987976
 31
0.0
  0
SPLINE
  5
C7
330
1F
100
AcDbEntity
  8
0
  6
Continuous
 62
   131
370
    15
100
AcDbSpline
210
0.0
220
0.0
230
1.0
 70
     8
 71
     3
 72
     8
 73
     4
 74
     0
 42
0.000000001
 43
0.00000001
 40
0.0
 40
0.0
 40
0.0
 40
0.0
 40
1.0
 40
1.0
 40
1.0
 40
1.0
 10
10.10129638745233
 20
-3.167217850461256
 30
0.0
 10
9.769503031931682
 20
-2.909672188753048
 30
0.0
 10
9.4352621855365
 20
-2.630341677761695
 30
0.0
 10
9.10104129284393
 20
-2.335324275196934
 30
0.0
  0
SPLINE
  5
C8
330
1F
100
AcDbEntity
  8
0
  6
Continuous
 62
   131
370
    15
100
AcDbSpline
210
0.0
220
0.0
230
1.0
 70
     8
 71
     3
 72
     8
 73
     4
 74
     0
 42
0.000000001
 43
0.00000001
 40
0.0
 40
0.0
 40
0.0
 40
0.0
 40
1.0
 40
1.0
 40
1.0
 40
1.0
 10
10.10129638745233
 20
-4.0013977753784
 30
0.0
 10
9.769503031931677
 20
-3.801819627949823
 30
0.0
 10
9.43526218553648
 20
-3.575025647175512
 30
0.0
 10
9.10104129284393
 20
-3.325897775771834
 30
0.0
  0
LINE
  5
C9
330
1F
100
AcDbEntity
  8
0
  6
Continuous
 62
   131
370
    15
100
AcDbLine
 10
9.101041292843917
 20
-4.996460125360258
 30
0.0
 11
9.101041292843917
 21
-3.325901101121579
 31
0.0
  0
SPLINE
  5
CA
330
1F
100
AcDbEntity
  8
0
  6
Continuous
 62
   131
370
    15
100
AcDbSpline
210
0.0
220
0.0
230
1.0
 70
     8
 71
     3
 72
     8
 73
     4
 74
     0
 42
0.000000001
 43
0.00000001
 40
0.0
 40
0.0
 40
0.0
 40
0.0
 40
1.0
 40
1.0
 40
1.0
 40
1.0
 10
10.10129638745233
 20
-4.934213096986797
 30
0.0
 10
9.769503031931682
 20
-4.988027459797729
 30
0.0
 10
9.4352621855365
 20
-5.009012563384151
 30
0.0
 10
9.10104129284393
 20
-4.996460303767206
 30
0.0
  0
LINE
  5
CB
330
1F
100
AcDbEntity
  8
0
  6
Continuous
 62
   131
370
    15
100
AcDbLine
 10
9.28889773158059
 20
4.984769747377996
 30
0.0
 11
10.10129638745233
 21
4.934213096986749
 31
0.0
  0
SPLINE
  5
CC
330
1F
100
AcDbEntity
  8
0
  6
Continuous
 62
   131
370
    15
100
AcDbSpline
210
0.0
220
0.0
230
1.0
 70
     8
 71
     3
 72
     8
 73
     4
 74
     0
 42
0.000000001
 43
0.00000001
 40
0.0
 40
0.0
 40
0.0
 40
0.0
 40
1.0
 40
1.0
 40
1.0
 40
1.0
 10
10.10129638745233
 20
4.597160303231028
 30
0.0
 10
9.769503031931677
 20
4.728048127993254
 30
0.0
 10
9.43526218553648
 20
4.828546103336084
 30
0.0
 10
9.10104129284393
 20
4.896183025531507
 30
0.0
  0
LINE
  5
CD
330
1F
100
AcDbEntity
  8
0
  6
Continuous
 62
   131
370
    15
100
AcDbLine
 10
9.101041292843917
 20
2.661140043233358
 30
0.0
 11
9.101041292843917
 21
4.896182122714034
 31
0.0
  0
SPLINE
  5
CE
330
1F
100
AcDbEntity
  8
0
  6
Continuous
 62
   131
370
    15
100
AcDbSpline
210
0.0
220
0.0
230
1.0
 70
     8
 71
     3
 72
     8
 73
     4
 74
     0
 42
0.000000001
 43
0.00000001
 40
0.0
 40
0.0
 40
0.0
 40
0.0
 40
1.0
 40
1.0
 40
1.0
 40
1.0
 10
10.10129638745233
 20
1.766995246525467
 30
0.0
 10
9.769503031931682
 20
2.078355271044606
 30
0.0
 10
9.4352621855365
 20
2.378670885622383
 30
0.0
 10
9.10104129284393
 20
2.661136028570201
 30
0.0
  0
SPLINE
  5
CF
330
1F
100
AcDbEntity
  8
0
  6
Continuous
 62
   131
370
    15
100
AcDbSpline
210
0.0
220
0.0
230
1.0
 70
     8
 71
     3
 72
     8
 73
     4
 74
     0
 42
0.000000001
 43
0.00000001
 40
0.0
 40
0.0
 40
0.0
 40
0.0
 40
1.0
 40
1.0
 40
1.0
 40
1.0
 10
10.10129638745233
 20
0.5957625278526779
 30
0.0
 10
9.769503031931677
 20
0.9262285000434789
 30
0.0
 10
9.43526218553648
 20
1.253520456160617
 30
0.0
 10
9.10104129284393
 20
1.570285249759715
 30
0.0
  0
LINE
  5
D0
330
1F
100
AcDbEntity
  8
0
  6
Continuous
 62
   131
370
    15
100
AcDbLine
 10
-38.89870361255521
 20
-0.0000000000000217
 30
0.0
 11
-38.89870361255521
 21
4.999999999999979
 31
0.0
  0
LINE
  5
D1
330
1F
100
AcDbEntity
  8
0
  6
Continuous
 62
   131
370
    15
100
AcDbLine
 10
-38.89870361255521
 20
-5.000000000000021
 30
0.0
 11
-38.89870361255521
 21
-0.0000000000000217
 31
0.0
  0
LINE
  5
D2
330
1F
100
AcDbEntity
  8
0
  6
Continuous
 62
   131
370
    15
100
AcDbLine
 10
9.101041292843917
 20
-2.335320082126829
 30
0.0
 11
9.101041292843917
 21
1.570281021592497
 31
0.0
  0
LINE
  5
D3
330
1F
100
AcDbEntity
  8
0
  6
Continuous
 62
   131
370
    15
100
AcDbLine
 10
-39.89870361255521
 20
-0.0000000000000217
 30
0.0
 11
-39.89870361255521
 21
3.999999999999982
 31
0.0
  0
LINE
  5
D4
330
1F
100
AcDbEntity
  8
0
  6
Continuous
 62
   131
370
    15
100
AcDbLine
 10
-39.89870361255521
 20
-4.000000000000025
 30
0.0
 11
-39.89870361255521
 21
-0.0000000000000217
 31
0.0
  0
SPLINE
  5
D5
330
1F
100
AcDbEntity
  8
0
  6
Continuous
 62
   131
370
    15
100
AcDbSpline
210
0.0
220
0.0
230
1.0
 70
    24
 71
     3
 72
    22
 73
    18
 74
     0
 42
0.000000001
 43
0.00000001
 40
0.0
 40
0.0
 40
0.0
 40
0.0
 40
0.0371954680032086
 40
0.1063380093125441
 40
0.1774856890038022
 40
0.2466282303130626
 40
0.3177759100043385
 40
0.3869184513136493
 40
0.45806613100498
 40
0.5272086723140729
 40
0.5983563520055699
 40
0.6674988933148555
 40
0.7386465730061587
 40
0.8077891143154423
 40
0.878936794006743
 40
0.9480793353160327
 40
1.0
 40
1.0
 40
1.0
 40
1.0
 10
10.1012963874448
 20
-3.167217850455408
 30
0.0
 10
10.1012963874448
 20
-3.138045042587095
 30
0.0
 10
10.10129638744481
 20
-3.054642991710731
 30
0.0
 10
10.10129638744479
 20
-2.878507227312891
 30
0.0
 10
10.1012963874448
 20
-2.631317144539822
 30
0.0
 10
10.10129638744481
 20
-2.345983527725586
 30
0.0
 10
10.10129638744482
 20
-2.036608938454266
 30
0.0
 10
10.10129638744474
 20
-1.706142677191907
 30
0.0
 10
10.10129638744483
 20
-1.369951143142875
 30
0.0
 10
10.10129638744476
 20
-1.031479039402413
 30
0.0
 10
10.10129638744479
 20
-0.7064150389475509
 30
0.0
 10
10.10129638744482
 20
-0.3980642341977113
 30
0.0
 10
10.10129638744475
 20
-0.1208685099693558
 30
0.0
 10
10.10129638744483
 20
0.1229283896799171
 30
0.0
 10
10.10129638744473
 20
0.3197539353884303
 30
0.0
 10
10.10129638744481
 20
0.4619018133694483
 30
0.0
 10
10.10129638744479
 20
0.5125079534469997
 30
0.0
 10
10.10129638744479
 20
0.5342115289335332
 30
0.0
  0
SPLINE
  5
D6
330
1F
100
AcDbEntity
  8
0
  6
Continuous
 62
   131
370
    15
100
AcDbSpline
210
0.0
220
0.0
230
1.0
 70
    24
 71
     3
 72
    17
 73
    13
 74
     0
 42
0.000000001
 43
0.00000001
 40
0.0
 40
0.0
 40
0.0
 40
0.0
 40
0.0634774345875523
 40
0.1710322365111413
 40
0.2785870384347294
 40
0.3861418403583174
 40
0.4936966422819023
 40
0.6012514442054872
 40
0.7072742316774104
 40
0.814829033600997
 40
0.9223838355245835
 40
1.0
 40
1.0
 40
1.0
 40
1.0
 10
10.10129638744479
 20
1.822917858063201
 30
0.0
 10
10.10129638744478
 20
1.860256835341163
 30
0.0
 10
10.10129638744479
 20
1.960862173826927
 30
0.0
 10
10.10129638744476
 20
2.1738523269219
 30
0.0
 10
10.10129638744478
 20
2.450008283043021
 30
0.0
 10
10.10129638744479
 20
2.756285724262312
 30
0.0
 10
10.10129638744476
 20
3.082375387097065
 30
0.0
 10
10.10129638744475
 20
3.417417553789447
 30
0.0
 10
10.1012963874448
 20
3.753792208738635
 30
0.0
 10
10.10129638744476
 20
4.081254706727006
 30
0.0
 10
10.10129638744474
 20
4.365819636568292
 30
0.0
 10
10.10129638744476
 20
4.528832089542647
 30
0.0
 10
10.10129638744478
 20
4.597160303234288
 30
0.0
  0
SPLINE
  5
D7
330
1F
100
AcDbEntity
  8
0
  6
Continuous
 62
   131
370
    15
100
AcDbSpline
210
0.0
220
0.0
230
1.0
 70
    24
 71
     3
 72
    13
 73
     9
 74
     0
 42
0.000000001
 43
0.00000001
 40
0.0
 40
0.0
 40
0.0
 40
0.0
 40
0.1984884872786512
 40
0.3824940064577943
 40
0.5677771079125058
 40
0.7570896331963841
 40
0.9477944985822675
 40
1.0
 40
1.0
 40
1.0
 40
1.0
 10
10.1012963874448
 20
-4.934213096988018
 30
0.0
 10
10.10129638744481
 20
-4.8746154934149
 30
0.0
 10
10.10129638744483
 20
-4.759768902166698
 30
0.0
 10
10.10129638744476
 20
-4.589912812520219
 30
0.0
 10
10.10129638744481
 20
-4.424577173329909
 30
0.0
 10
10.10129638744479
 20
-4.260763423368029
 30
0.0
 10
10.10129638744475
 20
-4.13755647739361
 30
0.0
 10
10.1012963874448
 20
-4.071505785532346
 30
0.0
 10
10.1012963874448
 20
-4.057310386904533
 30
0.0
  0
LINE
  5
D8
330
1F
100
AcDbEntity
  8
중심선
 62
     1
100
AcDbLine
 10
-43.10129638744476
 20
-0.000000000000027
 30
0.0
 11
43.10129638744476
 21
0.000000000000027
 31
0.0
  0
CIRCLE
  5
D9
330
1F
100
AcDbEntity
  8
외형선
100
AcDbCircle
 10
0.1012963874448127
 20
-0.0000000000000003
 30
0.0
 40
3.000000000000001
  0
INSERT
  5
DA
330
1F
100
AcDbEntity
  8
0
  6
Continuous
 62
     7
100
AcDbBlockReference
 66
     1
  2
블럭10
 10
-18.83948991223664
 20
-52.04717430164396
 30
0.0
  0
ATTRIB
  5
DB
330
DA
100
AcDbEntity
  8
FORMAT
 62
     2
100
AcDbText
 10
-34.9587509516722
 20
-49.97180738881177
 30
0.0
 40
4.233333333333333
  1
SEME7510030E [ 6 FLUTE ]
 41
0.75
  7
SLDTEXTSTYLE0
 11
-34.9587509516722
 21
-52.08847405547844
 31
0.0
100
AcDbAttribute
  2
AUTOATTR0
 70
     0
 74
     1
  0
SEQEND
  5
DC
330
DA
100
AcDbEntity
  8
0
  6
Continuous
 62
     7
  0
HATCH
  5
DD
330
1F
100
AcDbEntity
  8
중심선
100
AcDbHatch
 10
0.0
 20
0.0
 30
0.0
210
0.0
220
0.0
230
1.0
  2
SOLID
 70
     1
 71
     0
 91
        1
 92
        0
 93
        4
 72
     1
 10
-13.12458060785579
 20
-35.80000000000002
 11
-16.57085585169308
 21
-35.80000000000002
 72
     1
 10
-16.57085585169308
 20
-35.80000000000002
 11
-18.6990857108971
 21
-38.33632558057262
 72
     1
 10
-18.6990857108971
 20
-38.33632558057262
 11
-15.25277738194666
 21
-38.33628615127013
 72
     1
 10
-15.25277738194666
 20
-38.33628615127013
 11
-13.12458060785579
 21
-35.80000000000002
 97
        0
 75
     0
 76
     1
 98
        1
 10
4.099953775829249
 20
-0.0010749287239148
  0
HATCH
  5
DE
330
1F
100
AcDbEntity
  8
중심선
100
AcDbHatch
 10
0.0
 20
0.0
 30
0.0
210
0.0
220
0.0
230
1.0
  2
SOLID
 70
     1
 71
     0
 91
        1
 92
        0
 93
        4
 72
     1
 10
-8.11181661681984
 20
-35.80000000000002
 11
-11.55809186065712
 21
-35.80000000000002
 72
     1
 10
-11.55809186065712
 20
-35.80000000000002
 11
-16.08922986901451
 21
-41.20000000000004
 72
     1
 10
-16.08922986901451
 20
-41.20000000000004
 11
-12.64295462517723
 21
-41.20000000000004
 72
     1
 10
-12.64295462517723
 20
-41.20000000000004
 11
-8.11181661681984
 21
-35.80000000000002
 97
        0
 75
     0
 76
     1
 98
        1
 10
4.099953775829249
 20
-0.0010749287239148
  0
HATCH
  5
DF
330
1F
100
AcDbEntity
  8
중심선
100
AcDbHatch
 10
0.0
 20
0.0
 30
0.0
210
0.0
220
0.0
230
1.0
  2
SOLID
 70
     1
 71
     0
 91
        1
 92
        0
 93
        4
 72
     1
 10
-3.099052625783946
 20
-35.80000000000005
 11
-6.545327869621062
 21
-35.80000000000002
 72
     1
 10
-6.545327869621062
 20
-35.80000000000002
 11
-13.59376477151031
 21
-44.20000000000004
 72
     1
 10
-13.59376477151031
 20
-44.20000000000004
 11
-10.14748952767303
 21
-44.20000000000004
 72
     1
 10
-10.14748952767303
 20
-44.20000000000004
 11
-3.099052625783946
 21
-35.80000000000005
 97
        0
 75
     0
 76
     1
 98
        1
 10
4.099953775829249
 20
-0.0010749287239148
  0
HATCH
  5
E0
330
1F
100
AcDbEntity
  8
중심선
100
AcDbHatch
 10
0.0
 20
0.0
 30
0.0
210
0.0
220
0.0
230
1.0
  2
SOLID
 70
     1
 71
     0
 91
        1
 92
        0
 93
        6
 72
     3
 10
1.700837805228253
 20
-40.00000000005129
 11
3.960054785062284
 21
1.540882976769353E-10
 40
0.3939339440162627
 50
17.09539180608438
 51
320.0019657685081
 73
     0
 72
     1
 10
3.383837460928849
 20
-38.58789400463832
 11
5.689139334629886
 21
-36.6535672945904
 72
     3
 10
1.700837805175407
 20
-40.00000000000017
 11
6.600054785286829
 21
-1.278976924368180E-13
 40
0.636358354079598
 50
39.99873849337411
 51
368.4976242363725
 73
     1
 72
     1
 10
8.126170297076015
 20
-39.03999999993005
 11
0.3809051120113285
 21
-39.03999999993002
 72
     1
 10
0.3809051120113294
 20
-39.03999999993002
 11
0.3808800675653954
 21
-40.95999999992993
 72
     1
 10
0.3808800675653954
 20
-40.95999999992993
 11
4.822259837037432
 21
-40.95999999992991
 97
        0
 75
     0
 76
     1
 98
        1
 10
4.099953775829249
 20
-0.0010749287239148
  0
DIMENSION
  5
E1
330
1F
100
AcDbEntity
  8
치수문자_일반주서
100
AcDbDimension
  2
_D
 10
-57.52760974387863
 20
-5.000000000000095
 30
0.0
 11
-57.52760974387865
 21
-0.0000000000000194
 31
0.0
 70
   160
  1
%%c<>
 71
     2
 42
10.00000000000001
 52
-270.0
  3
SLDDIMSTYLE0
100
AcDbAlignedDimension
 13
-38.89870361255521
 23
4.999999999999983
 33
0.0
 14
-38.89870361255521
 24
-5.000000000000026
 34
0.0
 50
90.0000000000002
100
AcDbRotatedDimension
  0
DIMENSION
  5
EF
330
1F
100
AcDbEntity
  8
치수문자_일반주서
100
AcDbDimension
  2
_D_1
 10
50.10129638744478
 20
-4.999999999999987
 30
0.0
 11
50.10129638744475
 21
0.659430750095969
 31
0.0
 70
   160
  1
%%c<>
 71
     2
 42
10.00000000000001
 52
-270.0
  3
SLDDIMSTYLE0
100
AcDbAlignedDimension
 13
40.10129638744478
 23
4.999999999999981
 33
0.0
 14
40.10129638744478
 24
-5.000000000000024
 34
0.0
 50
90.0000000000002
100
AcDbRotatedDimension
  0
DIMENSION
  5
FC
330
1F
100
AcDbEntity
  8
치수문자_일반주서
100
AcDbDimension
  2
_D_2
 10
40.10129638744478
 20
48.42905371562978
 30
0.0
 11
22.37879271668406
 21
48.42905371562978
 31
0.0
 70
   160
  1
<>
 71
     2
 42
29.99999999999998
  3
SLDDIMSTYLE1
100
AcDbAlignedDimension
 13
10.1012963874448
 23
4.93421309698797
 33
0.0
 14
40.10129638744478
 24
4.963512754521668
 34
0.0
100
AcDbRotatedDimension
  0
DIMENSION
  5
107
330
1F
100
AcDbEntity
  8
치수문자_일반주서
100
AcDbDimension
  2
_D_3
 10
-39.89870361255521
 20
75.9081954153913
 30
0.0
 11
2.579826946186523
 21
75.9081954153913
 31
0.0
 70
   160
  1
<>
 71
     2
 42
79.99999999999999
  3
SLDDIMSTYLE1
100
AcDbAlignedDimension
 13
40.10129638744478
 23
4.963512754521668
 33
0.0
 14
-39.89870361255521
 24
3.999999999999982
 34
0.0
100
AcDbRotatedDimension
  0
INSERT
  5
117
330
1F
100
AcDbEntity
  8
외형선
100
AcDbBlockReference
  2
SW_DOWELSYMBOL_0
 10
0.1012963874448127
 20
-0.0000000000000003
 30
0.0
  0
ENDSEC
  0
SECTION
  2
OBJECTS
  0
DICTIONARY
  5
C
330
0
100
AcDbDictionary
281
     1
  3
ACAD_GROUP
350
D
  3
ACAD_IMAGE_VARS
350
13B
  3
ACAD_LAYOUT
350
1A
  3
ACAD_MLINESTYLE
350
17
  3
ACAD_PLOTSETTINGS
350
19
  3
ACAD_PLOTSTYLENAME
350
E
  3
ACAD_SCALELIST
350
47
  3
APPDATA
350
139
  3
DWGPROPS
350
144
  0
DICTIONARY
  5
D
102
{ACAD_REACTORS
330
C
102
}
330
C
100
AcDbDictionary
281
     1
  0
RASTERVARIABLES
  5
13B
102
{ACAD_REACTORS
330
C
102
}
330
C
100
AcDbRasterVariables
 90
        0
 70
     1
 71
     1
 72
     1
  0
DICTIONARY
  5
1A
102
{ACAD_REACTORS
330
C
102
}
330
C
100
AcDbDictionary
281
     1
  3
Layout1
350
1E
  3
Layout2
350
26
  3
Model
350
22
  0
DICTIONARY
  5
17
102
{ACAD_REACTORS
330
C
102
}
330
C
100
AcDbDictionary
281
     1
  3
Standard
350
18
  0
DICTIONARY
  5
19
102
{ACAD_REACTORS
330
C
102
}
330
C
100
AcDbDictionary
281
     1
  0
ACDBDICTIONARYWDFLT
  5
E
102
{ACAD_REACTORS
330
C
102
}
330
C
100
AcDbDictionary
281
     1
  3
Normal
350
F
100
AcDbDictionaryWithDefault
340
F
  0
DICTIONARY
  5
47
102
{ACAD_REACTORS
330
C
102
}
330
C
100
AcDbDictionary
281
     1
  3
A0
350
48
  3
A1
350
49
  3
A2
350
4A
  3
A3
350
4B
  3
A4
350
4C
  3
A5
350
4D
  3
A6
350
4E
  3
A7
350
4F
  3
A8
350
50
  3
A9
350
51
  3
B0
350
52
  3
B1
350
53
  3
B2
350
54
  3
B3
350
55
  3
B4
350
56
  3
B5
350
57
  3
B6
350
58
  3
B7
350
59
  3
B8
350
5A
  3
B9
350
5B
  3
C0
350
5C
  3
C1
350
5D
  3
C2
350
5E
  3
C3
350
5F
  3
C4
350
60
  3
C5
350
61
  3
C6
350
62
  3
C7
350
63
  3
C8
350
64
  3
C9
350
65
  3
D0
350
66
  3
D1
350
67
  3
D2
350
68
  0
DICTIONARY
  5
139
102
{ACAD_REACTORS
330
C
102
}
330
C
100
AcDbDictionary
281
     1
  0
XRECORD
  5
144
102
{ACAD_REACTORS
330
C
102
}
330
C
100
AcDbXrecord
280
     1
  1
DWGPROPS COOKIE
  2

  3

  4

  6

  7

  8
12016016
  9

300
=
301
=
302
=
303
=
304
=
305
=
306
=
307
=
308
=
309
=
 40
0.0
 41
2458268.395774167
 42
2458270.006938518
  1

 90
        0
  0
LAYOUT
  5
1E
102
{ACAD_REACTORS
330
1A
102
}
330
1A
100
AcDbPlotSettings
  1

  2
none_device
  4

  6

 40
0.0
 41
0.0
 42
0.0
 43
0.0
 44
0.0
 45
0.0
 46
0.0
 47
0.0
 48
0.0
 49
0.0
140
0.0
141
0.0
142
1.0
143
1.0
 70
   688
 72
     1
 73
     0
 74
     5
  7

 75
    16
147
1.0
148
0.0
149
0.0
100
AcDbLayout
  1
Layout1
 70
     1
 71
     1
 10
0.0
 20
0.0
 11
420.0
 21
297.0
 12
0.0
 22
0.0
 32
0.0
 14
1.000000000000000E+20
 24
1.000000000000000E+20
 34
1.000000000000000E+20
 15
-1.000000000000000E+20
 25
-1.000000000000000E+20
 35
-1.000000000000000E+20
146
0.0
 13
0.0
 23
0.0
 33
0.0
 16
1.0
 26
0.0
 36
0.0
 17
0.0
 27
1.0
 37
0.0
 76
     0
330
1B
  0
LAYOUT
  5
26
102
{ACAD_REACTORS
330
1A
102
}
330
1A
100
AcDbPlotSettings
  1

  2
none_device
  4

  6

 40
0.0
 41
0.0
 42
0.0
 43
0.0
 44
0.0
 45
0.0
 46
0.0
 47
0.0
 48
0.0
 49
0.0
140
0.0
141
0.0
142
1.0
143
1.0
 70
   688
 72
     1
 73
     0
 74
     5
  7

 75
    16
147
1.0
148
0.0
149
0.0
100
AcDbLayout
  1
Layout2
 70
     1
 71
     2
 10
0.0
 20
0.0
 11
0.0
 21
0.0
 12
0.0
 22
0.0
 32
0.0
 14
0.0
 24
0.0
 34
0.0
 15
0.0
 25
0.0
 35
0.0
146
0.0
 13
0.0
 23
0.0
 33
0.0
 16
1.0
 26
0.0
 36
0.0
 17
0.0
 27
1.0
 37
0.0
 76
     0
330
23
  0
LAYOUT
  5
22
102
{ACAD_REACTORS
330
1A
102
}
330
1A
100
AcDbPlotSettings
  1

  2
none_device
  4
ANSI_A_(11.00_x_8.50_Inches)
  6

 40
6.35
 41
19.05
 42
6.35000508
 43
19.05000254
 44
279.4
 45
215.9
 46
148.9902666854054
 47
64.69051214189213
 48
0.0
 49
0.0
140
0.0
141
0.0
142
0.064170166093943
143
1.0
 70
  1696
 72
     0
 73
     0
 74
     0
  7

 75
     0
147
0.0235690232323232
148
0.0
149
0.0
100
AcDbLayout
  1
Model
 70
     1
 71
     0
 10
0.0
 20
0.0
 11
420.0
 21
297.0
 12
0.0
 22
0.0
 32
0.0
 14
-61.90260974387866
 24
-49.97180738881177
 34
0.0
 15
50.6516297207781
 25
80.2831954153913
 35
0.0
146
0.0
 13
0.0
 23
0.0
 33
0.0
 16
1.0
 26
0.0
 36
0.0
 17
0.0
 27
1.0
 37
0.0
 76
     0
330
1F
331
29
  0
MLINESTYLE
  5
18
102
{ACAD_REACTORS
330
17
102
}
330
17
100
AcDbMlineStyle
  2
Standard
 70
     0
  3

 62
   256
 51
90.0
 52
90.0
 71
     2
 49
0.5
 62
   256
  6
BYLAYER
 49
-0.5
 62
   256
  6
BYLAYER
  0
ACDBPLACEHOLDER
  5
F
102
{ACAD_REACTORS
330
E
102
}
330
E
  0
SCALE
  5
48
102
{ACAD_REACTORS
330
47
102
}
330
47
100
AcDbScale
 70
     0
300
1:1
140
1.0
141
1.0
290
     1
  0
SCALE
  5
49
102
{ACAD_REACTORS
330
47
102
}
330
47
100
AcDbScale
 70
     0
300
1:2
140
1.0
141
2.0
290
     0
  0
SCALE
  5
4A
102
{ACAD_REACTORS
330
47
102
}
330
47
100
AcDbScale
 70
     0
300
1:4
140
1.0
141
4.0
290
     0
  0
SCALE
  5
4B
102
{ACAD_REACTORS
330
47
102
}
330
47
100
AcDbScale
 70
     0
300
1:5
140
1.0
141
5.0
290
     0
  0
SCALE
  5
4C
102
{ACAD_REACTORS
330
47
102
}
330
47
100
AcDbScale
 70
     0
300
1:8
140
1.0
141
8.0
290
     0
  0
SCALE
  5
4D
102
{ACAD_REACTORS
330
47
102
}
330
47
100
AcDbScale
 70
     0
300
1:10
140
1.0
141
10.0
290
     0
  0
SCALE
  5
4E
102
{ACAD_REACTORS
330
47
102
}
330
47
100
AcDbScale
 70
     0
300
1:16
140
1.0
141
16.0
290
     0
  0
SCALE
  5
4F
102
{ACAD_REACTORS
330
47
102
}
330
47
100
AcDbScale
 70
     0
300
1:20
140
1.0
141
20.0
290
     0
  0
SCALE
  5
50
102
{ACAD_REACTORS
330
47
102
}
330
47
100
AcDbScale
 70
     0
300
1:30
140
1.0
141
30.0
290
     0
  0
SCALE
  5
51
102
{ACAD_REACTORS
330
47
102
}
330
47
100
AcDbScale
 70
     0
300
1:40
140
1.0
141
40.0
290
     0
  0
SCALE
  5
52
102
{ACAD_REACTORS
330
47
102
}
330
47
100
AcDbScale
 70
     0
300
1:50
140
1.0
141
50.0
290
     0
  0
SCALE
  5
53
102
{ACAD_REACTORS
330
47
102
}
330
47
100
AcDbScale
 70
     0
300
1:100
140
1.0
141
100.0
290
     0
  0
SCALE
  5
54
102
{ACAD_REACTORS
330
47
102
}
330
47
100
AcDbScale
 70
     0
300
2:1
140
2.0
141
1.0
290
     0
  0
SCALE
  5
55
102
{ACAD_REACTORS
330
47
102
}
330
47
100
AcDbScale
 70
     0
300
4:1
140
4.0
141
1.0
290
     0
  0
SCALE
  5
56
102
{ACAD_REACTORS
330
47
102
}
330
47
100
AcDbScale
 70
     0
300
8:1
140
8.0
141
1.0
290
     0
  0
SCALE
  5
57
102
{ACAD_REACTORS
330
47
102
}
330
47
100
AcDbScale
 70
     0
300
10:1
140
10.0
141
1.0
290
     0
  0
SCALE
  5
58
102
{ACAD_REACTORS
330
47
102
}
330
47
100
AcDbScale
 70
     0
300
100:1
140
100.0
141
1.0
290
     0
  0
SCALE
  5
59
102
{ACAD_REACTORS
330
47
102
}
330
47
100
AcDbScale
 70
     0
300
1/128" = 1'-0"
140
0.0078125
141
12.0
290
     0
  0
SCALE
  5
5A
102
{ACAD_REACTORS
330
47
102
}
330
47
100
AcDbScale
 70
     0
300
1/64" = 1'-0"
140
0.015625
141
12.0
290
     0
  0
SCALE
  5
5B
102
{ACAD_REACTORS
330
47
102
}
330
47
100
AcDbScale
 70
     0
300
1/32" = 1'-0"
140
0.03125
141
12.0
290
     0
  0
SCALE
  5
5C
102
{ACAD_REACTORS
330
47
102
}
330
47
100
AcDbScale
 70
     0
300
1/16" = 1'-0"
140
0.0625
141
12.0
290
     0
  0
SCALE
  5
5D
102
{ACAD_REACTORS
330
47
102
}
330
47
100
AcDbScale
 70
     0
300
3/32" = 1'-0"
140
0.09375
141
12.0
290
     0
  0
SCALE
  5
5E
102
{ACAD_REACTORS
330
47
102
}
330
47
100
AcDbScale
 70
     0
300
1/8" = 1'-0"
140
0.125
141
12.0
290
     0
  0
SCALE
  5
5F
102
{ACAD_REACTORS
330
47
102
}
330
47
100
AcDbScale
 70
     0
300
3/16" = 1'-0"
140
0.1875
141
12.0
290
     0
  0
SCALE
  5
60
102
{ACAD_REACTORS
330
47
102
}
330
47
100
AcDbScale
 70
     0
300
1/4" = 1'-0"
140
0.25
141
12.0
290
     0
  0
SCALE
  5
61
102
{ACAD_REACTORS
330
47
102
}
330
47
100
AcDbScale
 70
     0
300
3/8" = 1'-0"
140
0.375
141
12.0
290
     0
  0
SCALE
  5
62
102
{ACAD_REACTORS
330
47
102
}
330
47
100
AcDbScale
 70
     0
300
1/2" = 1'-0"
140
0.5
141
12.0
290
     0
  0
SCALE
  5
63
102
{ACAD_REACTORS
330
47
102
}
330
47
100
AcDbScale
 70
     0
300
3/4" = 1'-0"
140
0.75
141
12.0
290
     0
  0
SCALE
  5
64
102
{ACAD_REACTORS
330
47
102
}
330
47
100
AcDbScale
 70
     0
300
1" = 1'-0"
140
1.0
141
12.0
290
     0
  0
SCALE
  5
65
102
{ACAD_REACTORS
330
47
102
}
330
47
100
AcDbScale
 70
     0
300
1-1/2" = 1'-0"
140
1.5
141
12.0
290
     0
  0
SCALE
  5
66
102
{ACAD_REACTORS
330
47
102
}
330
47
100
AcDbScale
 70
     0
300
3" = 1'-0"
140
3.0
141
12.0
290
     0
  0
SCALE
  5
67
102
{ACAD_REACTORS
330
47
102
}
330
47
100
AcDbScale
 70
     0
300
6" = 1'-0"
140
6.0
141
12.0
290
     0
  0
SCALE
  5
68
102
{ACAD_REACTORS
330
47
102
}
330
47
100
AcDbScale
 70
     0
300
1'-0" = 1'-0"
140
12.0
141
12.0
290
     0
  0
ENDSEC
  0
EOF
