  0
SECTION
  2
HEADER
  9
$ACADVER
  1
AC1015
  9
$ACADMAINTVER
 70
     6
  9
$DWGCODEPAGE
  3
ANSI_949
  9
$INSBASE
 10
0.0
 20
0.0
 30
0.0
  9
$EXTMIN
 10
-62.00390613132348
 20
-49.97180738881176
 30
0.0
  9
$EXTMAX
 10
60.55033333333329
 20
80.2831954153913
 30
0.0
  9
$LIMMIN
 10
0.0
 20
0.0
  9
$LIMMAX
 10
420.0
 20
297.0
  9
$ORTHOMODE
 70
     1
  9
$REGENMODE
 70
     1
  9
$FILLMODE
 70
     1
  9
$QTEXTMODE
 70
     0
  9
$MIRRTEXT
 70
     1
  9
$LTSCALE
 40
1.0
  9
$ATTMODE
 70
     1
  9
$TEXTSIZE
 40
3.5
  9
$TRACEWID
 40
1.0
  9
$TEXTSTYLE
  7
Standard
  9
$CLAYER
  8
0
  9
$CELTYPE
  6
ByLayer
  9
$CECOLOR
 62
   256
  9
$CELTSCALE
 40
1.0
  9
$DISPSILH
 70
     0
  9
$DIMSCALE
 40
1.0
  9
$DIMASZ
 40
3.302
  9
$DIMEXO
 40
1.0
  9
$DIMDLI
 40
3.75
  9
$DIMRND
 40
0.0
  9
$DIMDLE
 40
0.0
  9
$DIMEXE
 40
1.0
  9
$DIMTP
 40
0.0
  9
$DIMTM
 40
0.0
  9
$DIMTXT
 40
3.5
  9
$DIMCEN
 40
2.5
  9
$DIMTSZ
 40
0.0
  9
$DIMTOL
 70
     0
  9
$DIMLIM
 70
     0
  9
$DIMTIH
 70
     1
  9
$DIMTOH
 70
     1
  9
$DIMSE1
 70
     0
  9
$DIMSE2
 70
     0
  9
$DIMTAD
 70
     1
  9
$DIMZIN
 70
     0
  9
$DIMBLK
  1

  9
$DIMASO
 70
     1
  9
$DIMSHO
 70
     1
  9
$DIMPOST
  1

  9
$DIMAPOST
  1

  9
$DIMALT
 70
     0
  9
$DIMALTD
 70
     3
  9
$DIMALTF
 40
0.0393700787401575
  9
$DIMLFAC
 40
1.0
  9
$DIMTOFL
 70
     1
  9
$DIMTVP
 40
0.0
  9
$DIMTIX
 70
     0
  9
$DIMSOXD
 70
     0
  9
$DIMSAH
 70
     0
  9
$DIMBLK1
  1

  9
$DIMBLK2
  1

  9
$DIMSTYLE
  2
ISO-25
  9
$DIMCLRD
 70
     0
  9
$DIMCLRE
 70
     0
  9
$DIMCLRT
 70
     0
  9
$DIMTFAC
 40
1.0
  9
$DIMGAP
 40
1.524
  9
$DIMJUST
 70
     0
  9
$DIMSD1
 70
     0
  9
$DIMSD2
 70
     0
  9
$DIMTOLJ
 70
     0
  9
$DIMTZIN
 70
     0
  9
$DIMALTZ
 70
     0
  9
$DIMALTTZ
 70
     0
  9
$DIMUPT
 70
     0
  9
$DIMDEC
 70
     2
  9
$DIMTDEC
 70
     2
  9
$DIMALTU
 70
     2
  9
$DIMALTTD
 70
     3
  9
$DIMTXSTY
  7
Standard
  9
$DIMAUNIT
 70
     0
  9
$DIMADEC
 70
     2
  9
$DIMALTRND
 40
0.0
  9
$DIMAZIN
 70
     0
  9
$DIMDSEP
 70
    44
  9
$DIMATFIT
 70
     3
  9
$DIMFRAC
 70
     0
  9
$DIMLDRBLK
  1

  9
$DIMLUNIT
 70
     2
  9
$DIMLWD
 70
    -2
  9
$DIMLWE
 70
    -2
  9
$DIMTMOVE
 70
     0
  9
$LUNITS
 70
     2
  9
$LUPREC
 70
     2
  9
$SKETCHINC
 40
1.0
  9
$FILLETRAD
 40
10.0
  9
$AUNITS
 70
     0
  9
$AUPREC
 70
     2
  9
$MENU
  1
.
  9
$ELEVATION
 40
0.0
  9
$PELEVATION
 40
0.0
  9
$THICKNESS
 40
0.0
  9
$LIMCHECK
 70
     0
  9
$CHAMFERA
 40
0.0
  9
$CHAMFERB
 40
0.0
  9
$CHAMFERC
 40
0.0
  9
$CHAMFERD
 40
0.0
  9
$SKPOLY
 70
     0
  9
$TDCREATE
 40
2458268.770962373
  9
$TDUCREATE
 40
2458268.395962373
  9
$TDUPDATE
 40
2458270.381431262
  9
$TDUUPDATE
 40
2458270.006431262
  9
$TDINDWG
 40
0.000522419
  9
$TDUSRTIMER
 40
2458270.00590897
  9
$USRTIMER
 70
     1
  9
$ANGBASE
 50
0.0
  9
$ANGDIR
 70
     0
  9
$PDMODE
 70
     0
  9
$PDSIZE
 40
-1.0
  9
$PLINEWID
 40
0.0
  9
$SPLFRAME
 70
     0
  9
$SPLINETYPE
 70
     6
  9
$SPLINESEGS
 70
     8
  9
$HANDSEED
  5
14E
  9
$SURFTAB1
 70
     6
  9
$SURFTAB2
 70
     6
  9
$SURFTYPE
 70
     6
  9
$SURFU
 70
     6
  9
$SURFV
 70
     6
  9
$UCSBASE
  2

  9
$UCSNAME
  2

  9
$UCSORG
 10
0.0
 20
0.0
 30
0.0
  9
$UCSXDIR
 10
1.0
 20
0.0
 30
0.0
  9
$UCSYDIR
 10
0.0
 20
1.0
 30
0.0
  9
$UCSORTHOREF
  2

  9
$UCSORTHOVIEW
 70
     0
  9
$UCSORGTOP
 10
0.0
 20
0.0
 30
0.0
  9
$UCSORGBOTTOM
 10
0.0
 20
0.0
 30
0.0
  9
$UCSORGLEFT
 10
0.0
 20
0.0
 30
0.0
  9
$UCSORGRIGHT
 10
0.0
 20
0.0
 30
0.0
  9
$UCSORGFRONT
 10
0.0
 20
0.0
 30
0.0
  9
$UCSORGBACK
 10
0.0
 20
0.0
 30
0.0
  9
$PUCSBASE
  2

  9
$PUCSNAME
  2

  9
$PUCSORG
 10
0.0
 20
0.0
 30
0.0
  9
$PUCSXDIR
 10
1.0
 20
0.0
 30
0.0
  9
$PUCSYDIR
 10
0.0
 20
1.0
 30
0.0
  9
$PUCSORTHOREF
  2

  9
$PUCSORTHOVIEW
 70
     0
  9
$PUCSORGTOP
 10
0.0
 20
0.0
 30
0.0
  9
$PUCSORGBOTTOM
 10
0.0
 20
0.0
 30
0.0
  9
$PUCSORGLEFT
 10
0.0
 20
0.0
 30
0.0
  9
$PUCSORGRIGHT
 10
0.0
 20
0.0
 30
0.0
  9
$PUCSORGFRONT
 10
0.0
 20
0.0
 30
0.0
  9
$PUCSORGBACK
 10
0.0
 20
0.0
 30
0.0
  9
$USERI1
 70
     0
  9
$USERI2
 70
     0
  9
$USERI3
 70
     0
  9
$USERI4
 70
     0
  9
$USERI5
 70
     0
  9
$USERR1
 40
0.0
  9
$USERR2
 40
0.0
  9
$USERR3
 40
0.0
  9
$USERR4
 40
0.0
  9
$USERR5
 40
0.0
  9
$WORLDVIEW
 70
     1
  9
$SHADEDGE
 70
     3
  9
$SHADEDIF
 70
    70
  9
$TILEMODE
 70
     1
  9
$MAXACTVP
 70
    64
  9
$PINSBASE
 10
0.0
 20
0.0
 30
0.0
  9
$PLIMCHECK
 70
     0
  9
$PEXTMIN
 10
1.000000000000000E+20
 20
1.000000000000000E+20
 30
1.000000000000000E+20
  9
$PEXTMAX
 10
-1.000000000000000E+20
 20
-1.000000000000000E+20
 30
-1.000000000000000E+20
  9
$PLIMMIN
 10
0.0
 20
0.0
  9
$PLIMMAX
 10
0.0
 20
0.0
  9
$UNITMODE
 70
     0
  9
$VISRETAIN
 70
     1
  9
$PLINEGEN
 70
     0
  9
$PSLTSCALE
 70
     1
  9
$TREEDEPTH
 70
  3020
  9
$CMLSTYLE
  2
Standard
  9
$CMLJUST
 70
     0
  9
$CMLSCALE
 40
20.0
  9
$PROXYGRAPHICS
 70
     1
  9
$MEASUREMENT
 70
     1
  9
$CELWEIGHT
370
    -1
  9
$ENDCAPS
280
     0
  9
$JOINSTYLE
280
     0
  9
$LWDISPLAY
290
     1
  9
$INSUNITS
 70
     4
  9
$HYPERLINKBASE
  1

  9
$STYLESHEET
  1

  9
$XEDIT
290
     1
  9
$CEPSNTYPE
380
     0
  9
$PSTYLEMODE
290
     1
  9
$FINGERPRINTGUID
  2
{6577B442-B216-4B8C-9464-4D47862C0338}
  9
$VERSIONGUID
  2
{FAEB1C32-E019-11D5-929B-00C0DF256EC4}
  9
$EXTNAMES
290
     1
  9
$PSVPSCALE
 40
0.0
  9
$OLESTARTUP
290
     0
  0
ENDSEC
  0
SECTION
  2
CLASSES
  0
CLASS
  1
ACDBDICTIONARYWDFLT
  2
AcDbDictionaryWithDefault
  3
ObjectDBX Classes
 90
        0
280
     0
281
     0
  0
CLASS
  1
VISUALSTYLE
  2
AcDbVisualStyle
  3
ObjectDBX Classes
 90
     4095
280
     0
281
     0
  0
CLASS
  1
MATERIAL
  2
AcDbMaterial
  3
ObjectDBX Classes
 90
     1153
280
     0
281
     0
  0
CLASS
  1
SCALE
  2
AcDbScale
  3
ObjectDBX Classes
 90
     1153
280
     0
281
     0
  0
CLASS
  1
SUN
  2
AcDbSun
  3
SCENEOE
 90
     1153
280
     0
281
     0
  0
CLASS
  1
ACDBPLACEHOLDER
  2
AcDbPlaceHolder
  3
ObjectDBX Classes
 90
        0
280
     0
281
     0
  0
CLASS
  1
LAYOUT
  2
AcDbLayout
  3
ObjectDBX Classes
 90
        0
280
     0
281
     0
  0
CLASS
  1
TABLESTYLE
  2
AcDbTableStyle
  3
ObjectDBX Classes
 90
     4095
280
     0
281
     0
  0
CLASS
  1
MLEADERSTYLE
  2
AcDbMLeaderStyle
  3
ACDB_MLEADERSTYLE_CLASS
 90
     4095
280
     0
281
     0
  0
CLASS
  1
RASTERVARIABLES
  2
AcDbRasterVariables
  3
ISM
 90
        0
280
     0
281
     0
  0
ENDSEC
  0
SECTION
  2
TABLES
  0
TABLE
  2
VPORT
  5
8
330
0
100
AcDbSymbolTable
 70
     1
  0
VPORT
  5
29
330
8
100
AcDbSymbolTableRecord
100
AcDbViewportTableRecord
  2
*Active
 70
     0
 10
0.0
 20
0.0
 11
1.0
 21
1.0
 12
6.135822411757268
 22
-1.592570166892906
 13
0.0
 23
0.0
 14
10.0
 24
10.0
 15
10.0
 25
10.0
 16
0.0
 26
0.0
 36
1.0
 17
0.0
 27
0.0
 37
0.0
 40
28.34461278173498
 41
1.627413127413127
 42
50.0
 43
0.0
 44
0.0
 50
0.0
 51
0.0
 71
    16
 72
  2000
 73
     1
 74
     3
 75
     0
 76
     0
 77
     0
 78
     0
281
     0
 65
     1
110
0.0
120
0.0
130
0.0
111
1.0
121
0.0
131
0.0
112
0.0
122
1.0
132
0.0
 79
     0
146
0.0
  0
ENDTAB
  0
TABLE
  2
LTYPE
  5
5
330
0
100
AcDbSymbolTable
 70
     6
  0
LTYPE
  5
14
330
5
100
AcDbSymbolTableRecord
100
AcDbLinetypeTableRecord
  2
ByBlock
 70
     0
  3

 72
    65
 73
     0
 40
0.0
  0
LTYPE
  5
15
330
5
100
AcDbSymbolTableRecord
100
AcDbLinetypeTableRecord
  2
ByLayer
 70
     0
  3

 72
    65
 73
     0
 40
0.0
  0
LTYPE
  5
16
330
5
100
AcDbSymbolTableRecord
100
AcDbLinetypeTableRecord
  2
Continuous
 70
     0
  3
Solid line
 72
    65
 73
     0
 40
0.0
  0
LTYPE
  5
6A
330
5
100
AcDbSymbolTableRecord
100
AcDbLinetypeTableRecord
  2
HIDDEN
 70
     0
  3
Hidden __ __ __ __ __ __ __ __ __ __ __ __ __ __
 72
    65
 73
     2
 40
1.905
 49
1.27
 74
     0
 49
-0.635
 74
     0
  0
LTYPE
  5
6B
330
5
100
AcDbSymbolTableRecord
100
AcDbLinetypeTableRecord
  2
PHANTOM
 70
     0
  3
Phantom ______  __  __  ______  __  __  ______
 72
    65
 73
     6
 40
12.7
 49
6.35
 74
     0
 49
-1.27
 74
     0
 49
1.27
 74
     0
 49
-1.27
 74
     0
 49
1.27
 74
     0
 49
-1.27
 74
     0
  0
LTYPE
  5
6C
330
5
100
AcDbSymbolTableRecord
100
AcDbLinetypeTableRecord
  2
CENTER
 70
     0
  3
Center ____ _ ____ _ ____ _ ____ _ ____ _ ____
 72
    65
 73
     4
 40
10.16
 49
6.35
 74
     0
 49
-1.27
 74
     0
 49
1.27
 74
     0
 49
-1.27
 74
     0
  0
LTYPE
  5
6D
330
5
100
AcDbSymbolTableRecord
100
AcDbLinetypeTableRecord
  2
CENTERX2
 70
     0
  3
Center (2x) ________  __  ________  __  _____
 72
    65
 73
     4
 40
20.32
 49
12.7
 74
     0
 49
-2.54
 74
     0
 49
2.54
 74
     0
 49
-2.54
 74
     0
  0
LTYPE
  5
6E
330
5
100
AcDbSymbolTableRecord
100
AcDbLinetypeTableRecord
  2
DOT2
 70
     0
  3
Dot (.5x) ........................................
 72
    65
 73
     2
 40
0.635
 49
0.0
 74
     0
 49
-0.635
 74
     0
  0
ENDTAB
  0
TABLE
  2
LAYER
  5
2
330
0
100
AcDbSymbolTable
 70
    17
  0
LAYER
  5
10
330
2
100
AcDbSymbolTableRecord
100
AcDbLayerTableRecord
  2
0
 70
     0
 62
     7
  6
Continuous
370
    -3
390
F
  0
LAYER
  5
6F
330
2
100
AcDbSymbolTableRecord
100
AcDbLayerTableRecord
  2
FORMAT
 70
     0
 62
     2
  6
Continuous
370
    -3
390
F
  0
LAYER
  5
70
330
2
100
AcDbSymbolTableRecord
100
AcDbLayerTableRecord
  2
외형선
 70
     0
 62
   100
  6
Continuous
370
    30
390
F
  0
LAYER
  5
71
330
2
100
AcDbSymbolTableRecord
100
AcDbLayerTableRecord
  2
숨은선
 70
     0
 62
     2
  6
HIDDEN
370
    15
390
F
  0
LAYER
  5
72
330
2
100
AcDbSymbolTableRecord
100
AcDbLayerTableRecord
  2
중심선
 70
     0
 62
     1
  6
CENTERX2
370
    -3
390
F
  0
LAYER
  5
73
330
2
100
AcDbSymbolTableRecord
100
AcDbLayerTableRecord
  2
파단선
 70
     0
 62
     4
  6
Continuous
370
    -3
390
F
  0
LAYER
  5
74
330
2
100
AcDbSymbolTableRecord
100
AcDbLayerTableRecord
  2
해칭선
 70
     0
 62
     4
  6
Continuous
370
    -3
390
F
  0
LAYER
  5
75
330
2
100
AcDbSymbolTableRecord
100
AcDbLayerTableRecord
  2
가는실선
 70
     0
 62
     4
  6
Continuous
370
    -3
390
F
  0
LAYER
  5
76
330
2
100
AcDbSymbolTableRecord
100
AcDbLayerTableRecord
  2
치수_보조선
 70
     0
 62
     4
  6
Continuous
370
    -3
390
F
  0
LAYER
  5
77
330
2
100
AcDbSymbolTableRecord
100
AcDbLayerTableRecord
  2
치수문자_일반주서
 70
     0
 62
     7
  6
Continuous
370
    15
390
F
  0
LAYER
  5
78
330
2
100
AcDbSymbolTableRecord
100
AcDbLayerTableRecord
  2
개별주서
 70
     0
 62
   100
  6
Continuous
370
    30
390
F
  0
LAYER
  5
79
330
2
100
AcDbSymbolTableRecord
100
AcDbLayerTableRecord
  2
중간선
 70
     0
 62
     2
  6
Continuous
370
    15
390
F
  0
LAYER
  5
7A
330
2
100
AcDbSymbolTableRecord
100
AcDbLayerTableRecord
  2
윤곽선
 70
     0
 62
     3
  6
Continuous
370
    40
390
F
  0
LAYER
  5
7B
330
2
100
AcDbSymbolTableRecord
100
AcDbLayerTableRecord
  2
중심마크
 70
     0
 62
   100
  6
Continuous
370
    30
390
F
  0
LAYER
  5
7C
330
2
100
AcDbSymbolTableRecord
100
AcDbLayerTableRecord
  2
가상선
 70
     0
 62
     4
  6
PHANTOM
370
    -3
390
F
  0
LAYER
  5
7D
330
2
100
AcDbSymbolTableRecord
100
AcDbLayerTableRecord
  2
특수지정선
 70
     0
 62
     5
  6
CENTERX2
370
    60
390
F
  0
LAYER
  5
145
330
2
100
AcDbSymbolTableRecord
100
AcDbLayerTableRecord
  2
Defpoints
 70
     0
 62
     7
  6
Continuous
290
     0
370
    -3
390
F
  0
ENDTAB
  0
TABLE
  2
STYLE
  5
3
330
0
100
AcDbSymbolTable
 70
     2
  0
STYLE
  5
11
330
3
100
AcDbSymbolTableRecord
100
AcDbTextStyleTableRecord
  2
Standard
 70
     0
 40
0.0
 41
1.0
 50
0.0
 71
     0
 42
3.5
  3
txt
  4

  0
STYLE
  5
93
330
3
100
AcDbSymbolTableRecord
100
AcDbTextStyleTableRecord
  2
SLDTEXTSTYLE0
 70
     0
 40
0.0
 41
0.75
 50
0.0
 71
     0
 42
3.5
  3
TXT
  4

  0
ENDTAB
  0
TABLE
  2
VIEW
  5
6
330
0
100
AcDbSymbolTable
 70
     0
  0
ENDTAB
  0
TABLE
  2
UCS
  5
7
330
0
100
AcDbSymbolTable
 70
     0
  0
ENDTAB
  0
TABLE
  2
APPID
  5
9
330
0
100
AcDbSymbolTable
 70
     1
  0
APPID
  5
12
330
9
100
AcDbSymbolTableRecord
100
AcDbRegAppTableRecord
  2
ACAD
 70
     0
  0
ENDTAB
  0
TABLE
  2
DIMSTYLE
  5
A
330
0
100
AcDbSymbolTable
 70
     3
100
AcDbDimStyleTable
  0
DIMSTYLE
105
27
330
A
100
AcDbSymbolTableRecord
100
AcDbDimStyleTableRecord
  2
ISO-25
 70
     0
 41
2.5
 42
0.625
 43
3.75
 44
1.25
 73
     0
 74
     0
 77
     1
 78
     8
140
2.5
141
2.5
143
0.03937007874016
147
0.625
171
     3
172
     1
178
     0
271
     2
272
     2
274
     3
278
    44
283
     0
284
     8
340
11
  0
DIMSTYLE
105
EB
102
{ACAD_REACTORS
330
EA
330
F8
102
}
330
A
100
AcDbSymbolTableRecord
100
AcDbDimStyleTableRecord
  2
SLDDIMSTYLE0
 70
     0
 41
3.302
 44
0.0
 45
0.000000001
 73
     0
 74
     0
 77
     1
 78
    12
 79
     3
140
3.5
147
0.875
172
     1
173
     1
178
     0
271
     2
272
     2
276
     2
284
    12
289
     0
340
93
  0
DIMSTYLE
105
106
102
{ACAD_REACTORS
330
105
330
110
102
}
330
A
100
AcDbSymbolTableRecord
100
AcDbDimStyleTableRecord
  2
SLDDIMSTYLE1
 70
     0
 41
3.302
 44
0.0
 45
0.000000001
 73
     0
 74
     0
 77
     1
 78
    12
 79
     3
140
3.5
147
0.875
173
     1
178
     0
271
     2
272
     2
276
     2
284
    12
340
93
  0
ENDTAB
  0
TABLE
  2
BLOCK_RECORD
  5
1
330
0
100
AcDbSymbolTable
 70
     7
  0
BLOCK_RECORD
  5
1F
330
1
100
AcDbSymbolTableRecord
100
AcDbBlockTableRecord
  2
*Model_Space
340
22
  0
BLOCK_RECORD
  5
1B
330
1
100
AcDbSymbolTableRecord
100
AcDbBlockTableRecord
  2
*Paper_Space
340
1E
  0
BLOCK_RECORD
  5
23
330
1
100
AcDbSymbolTableRecord
100
AcDbBlockTableRecord
  2
*Paper_Space0
340
26
  0
BLOCK_RECORD
  5
7E
330
1
100
AcDbSymbolTableRecord
100
AcDbBlockTableRecord
  2
블럭10
340
0
102
{BLKREFS
331
E3
102
}
  0
BLOCK_RECORD
  5
EC
330
1
100
AcDbSymbolTableRecord
100
AcDbBlockTableRecord
  2
_D
340
0
  0
BLOCK_RECORD
  5
F9
330
1
100
AcDbSymbolTableRecord
100
AcDbBlockTableRecord
  2
_D_1
340
0
  0
BLOCK_RECORD
  5
107
330
1
100
AcDbSymbolTableRecord
100
AcDbBlockTableRecord
  2
_D_2
340
0
  0
BLOCK_RECORD
  5
111
330
1
100
AcDbSymbolTableRecord
100
AcDbBlockTableRecord
  2
_D_3
340
0
  0
BLOCK_RECORD
  5
11A
330
1
100
AcDbSymbolTableRecord
100
AcDbBlockTableRecord
  2
SW_DOWELSYMBOL_0
340
0
102
{BLKREFS
331
120
102
}
  0
ENDTAB
  0
ENDSEC
  0
SECTION
  2
BLOCKS
  0
BLOCK
  5
20
330
1F
100
AcDbEntity
  8
0
100
AcDbBlockBegin
  2
*Model_Space
 70
     0
 10
0.0
 20
0.0
 30
0.0
  3
*Model_Space
  1
*Model_Space
  0
ENDBLK
  5
21
330
1F
100
AcDbEntity
  8
0
100
AcDbBlockEnd
  0
BLOCK
  5
1C
330
1B
100
AcDbEntity
 67
     1
  8
0
100
AcDbBlockBegin
  2
*Paper_Space
 70
     0
 10
0.0
 20
0.0
 30
0.0
  3
*Paper_Space
  1
*Paper_Space
  0
ENDBLK
  5
1D
330
1B
100
AcDbEntity
 67
     1
  8
0
100
AcDbBlockEnd
  0
BLOCK
  5
24
330
23
100
AcDbEntity
  8
0
100
AcDbBlockBegin
  2
*Paper_Space0
 70
     0
 10
0.0
 20
0.0
 30
0.0
  3
*Paper_Space0
  1
*Paper_Space0
  0
ENDBLK
  5
25
330
23
100
AcDbEntity
  8
0
100
AcDbBlockEnd
  0
BLOCK
  5
7F
330
7E
100
AcDbEntity
  8
0
100
AcDbBlockBegin
  2
블럭10
 70
     2
 10
0.0
 20
0.0
 30
0.0
  3
블럭10
  1
블럭10
  0
ELLIPSE
  5
81
330
7E
100
AcDbEntity
  8
중심선
100
AcDbEllipse
 10
20.54032771741204
 20
12.0471743016438
 30
0.0
 11
6.600054785286829
 21
-1.261213355974178E-13
 31
0.0
210
0.0
220
0.0
230
1.0
 40
0.636358354079598
 41
0.9219305317359503
 42
6.513795318482858
  0
ELLIPSE
  5
82
330
7E
100
AcDbEntity
  8
중심선
100
AcDbEllipse
 10
20.54032771746488
 20
12.04717430159265
 30
0.0
 11
3.960054785062283
 21
1.540847449632565E-10
 31
0.0
210
0.0
220
0.0
230
1.0
 40
0.3939339440162632
 41
1.131841032648279
 42
5.62031148352944
  0
LINE
  5
83
330
7E
100
AcDbEntity
  8
중심선
100
AcDbLine
 10
2.268634060543552
 20
16.24717430164393
 30
0.0
 11
5.714909304380834
 21
16.24717430164393
 31
0.0
  0
LINE
  5
84
330
7E
100
AcDbEntity
  8
중심선
100
AcDbLine
 10
5.245725140726316
 20
7.84717430164391
 30
0.0
 11
8.692000384563599
 21
7.84717430164391
 31
0.0
  0
LINE
  5
85
330
7E
100
AcDbEntity
  8
중심선
100
AcDbLine
 10
15.74043728645272
 20
16.24717430164393
 30
0.0
 11
8.692000384563599
 21
7.84717430164391
 31
0.0
  0
LINE
  5
86
330
7E
100
AcDbEntity
  8
중심선
100
AcDbLine
 10
0.1404042013395286
 20
13.71084872107135
 30
0.0
 11
3.58671253028996
 21
13.71088815037384
 31
0.0
  0
LINE
  5
87
330
7E
100
AcDbEntity
  8
중심선
100
AcDbLine
 10
2.750260043222114
 20
10.84717430164391
 30
0.0
 11
6.196535287059397
 21
10.84717430164391
 31
0.0
  0
LINE
  5
88
330
7E
100
AcDbEntity
  8
중심선
100
AcDbLine
 10
12.29416204261559
 20
16.24717430164393
 30
0.0
 11
5.245725140726316
 21
7.84717430164391
 31
0.0
  0
LINE
  5
89
330
7E
100
AcDbEntity
  8
중심선
100
AcDbLine
 10
10.72767329541681
 20
16.24717430164393
 30
0.0
 11
6.196535287059397
 21
10.84717430164391
 31
0.0
  0
LINE
  5
8A
330
7E
100
AcDbEntity
  8
중심선
100
AcDbLine
 10
7.28139805157953
 20
16.24717430164393
 30
0.0
 11
2.750260043222114
 21
10.84717430164391
 31
0.0
  0
LINE
  5
8B
330
7E
100
AcDbEntity
  8
중심선
100
AcDbLine
 10
5.714909304380834
 20
16.24717430164393
 30
0.0
 11
3.58671253028996
 21
13.71088815037384
 31
0.0
  0
LINE
  5
8C
330
7E
100
AcDbEntity
  8
중심선
100
AcDbLine
 10
2.268634060543552
 20
16.24717430164393
 30
0.0
 11
0.1404042013395286
 21
13.71084872107135
 31
0.0
  0
LINE
  5
8D
330
7E
100
AcDbEntity
  8
중심선
100
AcDbLine
 10
7.28139805157953
 20
16.24717430164393
 30
0.0
 11
10.72767329541681
 21
16.24717430164393
 31
0.0
  0
LINE
  5
8E
330
7E
100
AcDbEntity
  8
중심선
100
AcDbLine
 10
12.29416204261559
 20
16.24717430164393
 30
0.0
 11
15.74043728645272
 21
16.24717430164393
 31
0.0
  0
LINE
  5
8F
330
7E
100
AcDbEntity
  8
중심선
100
AcDbLine
 10
19.22036997980202
 20
11.08717430171403
 30
0.0
 11
23.66174974927406
 21
11.08717430171406
 31
0.0
  0
LINE
  5
90
330
7E
100
AcDbEntity
  8
중심선
100
AcDbLine
 10
19.22039502424796
 20
13.00717430171391
 30
0.0
 11
19.22036997980202
 21
11.08717430171403
 31
0.0
  0
LINE
  5
91
330
7E
100
AcDbEntity
  8
중심선
100
AcDbLine
 10
19.22039502424796
 20
13.00717430171391
 30
0.0
 11
26.96566020931264
 21
13.00717430171391
 31
0.0
  0
LINE
  5
92
330
7E
100
AcDbEntity
  8
중심선
100
AcDbLine
 10
22.22332737316547
 20
13.45928029700563
 30
0.0
 11
24.52862924686651
 21
15.39360700705356
 31
0.0
  0
ATTDEF
  5
94
330
7E
100
AcDbEntity
  8
FORMAT
 62
     2
100
AcDbText
 10
-16.11926103943555
 20
2.075366912832191
 30
0.0
 40
4.233333333333333
  1
SEME7510040E [ 6 FLUTE ]
 41
0.75
  7
SLDTEXTSTYLE0
 11
-16.11926103943555
 21
-0.0412997538344756
 31
0.0
100
AcDbAttributeDefinition
  3

  2
AUTOATTR0
 70
     0
 74
     1
  0
ENDBLK
  5
80
330
7E
100
AcDbEntity
  8
0
100
AcDbBlockEnd
  0
BLOCK
  5
ED
330
EC
100
AcDbEntity
  8
0
100
AcDbBlockBegin
  2
_D
 70
     0
 10
0.0
 20
0.0
 30
0.0
  3
_D
  1
_D
  0
LINE
  5
EF
330
EC
100
AcDbEntity
  8
치수문자_일반주서
 62
     0
370
    -2
100
AcDbLine
 10
-39.06250000000003
 20
4.999999999999986
 30
0.0
 11
-57.62890613132348
 21
4.999999999999917
 31
0.0
  0
LINE
  5
F0
330
EC
100
AcDbEntity
  8
치수문자_일반주서
 62
     0
370
    -2
100
AcDbLine
 10
-39.06250000000003
 20
-5.000000000000023
 30
0.0
 11
-57.62890613132345
 21
-5.000000000000092
 31
0.0
  0
LINE
  5
F1
330
EC
100
AcDbEntity
  8
치수문자_일반주서
 62
     0
370
    -2
100
AcDbLine
 10
-57.62890613132347
 20
1.697999999999917
 30
0.0
 11
-57.62890613132346
 21
-1.698000000000093
 31
0.0
  0
SOLID
  5
F2
330
EC
100
AcDbEntity
  8
치수문자_일반주서
 62
     0
100
AcDbTrace
 10
-57.07857279799013
 20
1.697999999999919
 30
0.0
 11
-58.1792394646568
 21
1.697999999999915
 31
0.0
 12
-57.62890613132348
 22
4.999999999999917
 32
0.0
 13
-57.62890613132348
 23
4.999999999999917
 33
0.0
  0
SOLID
  5
F3
330
EC
100
AcDbEntity
  8
치수문자_일반주서
 62
     0
100
AcDbTrace
 10
-58.1792394646568
 20
-1.698000000000095
 30
0.0
 11
-57.07857279799013
 21
-1.698000000000091
 31
0.0
 12
-57.62890613132345
 22
-5.000000000000092
 32
0.0
 13
-57.62890613132345
 23
-5.000000000000092
 33
0.0
  0
MTEXT
  5
F4
330
EC
100
AcDbEntity
  8
치수문자_일반주서
 62
     0
100
AcDbMText
 10
-62.00390613132347
 20
-0.0000000000000321
 30
0.0
 40
3.5
 41
0.0
 71
     2
 72
     1
  1
\A1;%%c10
  7
SLDTEXTSTYLE0
 11
-3.552713678800498E-15
 21
1.0
 31
0.0
 73
     1
 44
1.0
  0
POINT
  5
F5
330
EC
100
AcDbEntity
  8
Defpoints
 62
     0
100
AcDbPoint
 10
-39.00000000000003
 20
4.999999999999986
 30
0.0
  0
POINT
  5
F6
330
EC
100
AcDbEntity
  8
Defpoints
 62
     0
100
AcDbPoint
 10
-39.00000000000003
 20
-5.000000000000023
 30
0.0
  0
POINT
  5
F7
330
EC
100
AcDbEntity
  8
Defpoints
 62
     0
100
AcDbPoint
 10
-57.62890613132347
 20
-5.000000000000092
 30
0.0
  0
ENDBLK
  5
EE
330
EC
100
AcDbEntity
  8
0
100
AcDbBlockEnd
  0
BLOCK
  5
FA
330
F9
100
AcDbEntity
  8
0
100
AcDbBlockBegin
  2
_D_1
 70
     0
 10
0.0
 20
0.0
 30
0.0
  3
_D_1
  1
_D_1
  0
LINE
  5
FC
330
F9
100
AcDbEntity
  8
치수문자_일반주서
 62
     0
370
    -2
100
AcDbLine
 10
50.06249999999996
 20
4.999999999999984
 30
0.0
 11
59.99999999999994
 21
5.000000000000021
 31
0.0
  0
LINE
  5
FD
330
F9
100
AcDbEntity
  8
치수문자_일반주서
 62
     0
370
    -2
100
AcDbLine
 10
50.06249999999996
 20
-5.000000000000021
 30
0.0
 11
59.99999999999997
 21
-4.999999999999984
 31
0.0
  0
LINE
  5
FE
330
F9
100
AcDbEntity
  8
치수문자_일반주서
 62
     0
370
    -2
100
AcDbLine
 10
59.99999999999995
 20
1.698000000000022
 30
0.0
 11
59.99999999999996
 21
-1.697999999999984
 31
0.0
  0
SOLID
  5
FF
330
F9
100
AcDbEntity
  8
치수문자_일반주서
 62
     0
100
AcDbTrace
 10
60.55033333333328
 20
1.698000000000024
 30
0.0
 11
59.44966666666662
 21
1.69800000000002
 31
0.0
 12
59.99999999999994
 22
5.000000000000021
 32
0.0
 13
59.99999999999994
 23
5.000000000000021
 33
0.0
  0
SOLID
  5
100
330
F9
100
AcDbEntity
  8
치수문자_일반주서
 62
     0
100
AcDbTrace
 10
59.44966666666662
 20
-1.697999999999986
 30
0.0
 11
60.55033333333329
 21
-1.697999999999982
 31
0.0
 12
59.99999999999997
 22
-4.999999999999984
 32
0.0
 13
59.99999999999997
 23
-4.999999999999984
 33
0.0
  0
MTEXT
  5
101
330
F9
100
AcDbEntity
  8
치수문자_일반주서
 62
     0
100
AcDbMText
 10
55.62499999999995
 20
0.6594307500959562
 30
0.0
 40
3.5
 41
0.0
 71
     2
 72
     1
  1
\A1;%%c10
  7
SLDTEXTSTYLE0
 11
-3.552713678800499E-15
 21
1.0
 31
0.0
 73
     1
 44
1.0
  0
POINT
  5
102
330
F9
100
AcDbEntity
  8
Defpoints
 62
     0
100
AcDbPoint
 10
49.99999999999996
 20
4.999999999999984
 30
0.0
  0
POINT
  5
103
330
F9
100
AcDbEntity
  8
Defpoints
 62
     0
100
AcDbPoint
 10
49.99999999999996
 20
-5.000000000000021
 30
0.0
  0
POINT
  5
104
330
F9
100
AcDbEntity
  8
Defpoints
 62
     0
100
AcDbPoint
 10
59.99999999999997
 20
-4.999999999999984
 30
0.0
  0
ENDBLK
  5
FB
330
F9
100
AcDbEntity
  8
0
100
AcDbBlockEnd
  0
BLOCK
  5
108
330
107
100
AcDbEntity
  8
0
100
AcDbBlockBegin
  2
_D_2
 70
     0
 10
0.0
 20
0.0
 30
0.0
  3
_D_2
  1
_D_2
  0
LINE
  5
10A
330
107
100
AcDbEntity
  8
치수문자_일반주서
 62
     0
370
    -2
100
AcDbLine
 10
9.99999999999997
 20
4.898614565394242
 30
0.0
 11
9.999999999999972
 21
48.33095518403605
 31
0.0
  0
LINE
  5
10B
330
107
100
AcDbEntity
  8
치수문자_일반주서
 62
     0
370
    -2
100
AcDbLine
 10
49.99999999999996
 20
5.026012754521671
 30
0.0
 11
49.99999999999996
 21
48.33095518403605
 31
0.0
  0
LINE
  5
10C
330
107
100
AcDbEntity
  8
치수문자_일반주서
 62
     0
370
    -2
100
AcDbLine
 10
13.30199999999997
 20
48.33095518403605
 30
0.0
 11
46.69799999999996
 21
48.33095518403605
 31
0.0
  0
SOLID
  5
10D
330
107
100
AcDbEntity
  8
치수문자_일반주서
 62
     0
100
AcDbTrace
 10
13.30199999999997
 20
48.88128851736938
 30
0.0
 11
13.30199999999997
 21
47.78062185070272
 31
0.0
 12
9.999999999999972
 22
48.33095518403605
 32
0.0
 13
9.999999999999972
 23
48.33095518403605
 33
0.0
  0
SOLID
  5
10E
330
107
100
AcDbEntity
  8
치수문자_일반주서
 62
     0
100
AcDbTrace
 10
46.69799999999996
 20
47.78062185070272
 30
0.0
 11
46.69799999999996
 21
48.88128851736938
 31
0.0
 12
49.99999999999996
 22
48.33095518403605
 32
0.0
 13
49.99999999999996
 23
48.33095518403605
 33
0.0
  0
MTEXT
  5
10F
330
107
100
AcDbEntity
  8
치수문자_일반주서
 62
     0
100
AcDbMText
 10
26.36999510565234
 20
52.70595518403605
 30
0.0
 40
3.5
 41
0.0
 71
     2
 72
     1
  1
\A1;40
  7
SLDTEXTSTYLE0
 73
     1
 44
1.0
  0
POINT
  5
147
330
107
100
AcDbEntity
  8
Defpoints
 62
     0
100
AcDbPoint
 10
9.99999999999997
 20
4.836114565394242
 30
0.0
  0
POINT
  5
148
330
107
100
AcDbEntity
  8
Defpoints
 62
     0
100
AcDbPoint
 10
49.99999999999996
 20
4.963512754521671
 30
0.0
  0
POINT
  5
149
330
107
100
AcDbEntity
  8
Defpoints
 62
     0
100
AcDbPoint
 10
49.99999999999996
 20
48.33095518403605
 30
0.0
  0
ENDBLK
  5
109
330
107
100
AcDbEntity
  8
0
100
AcDbBlockEnd
  0
BLOCK
  5
112
330
111
100
AcDbEntity
  8
0
100
AcDbBlockBegin
  2
_D_3
 70
     0
 10
0.0
 20
0.0
 30
0.0
  3
_D_3
  1
_D_3
  0
LINE
  5
114
330
111
100
AcDbEntity
  8
치수문자_일반주서
 62
     0
370
    -2
100
AcDbLine
 10
49.99999999999996
 20
5.026012754521671
 30
0.0
 11
49.99999999999997
 21
75.9081954153913
 31
0.0
  0
LINE
  5
115
330
111
100
AcDbEntity
  8
치수문자_일반주서
 62
     0
370
    -2
100
AcDbLine
 10
-40.00000000000003
 20
4.062499999999985
 30
0.0
 11
-40.00000000000002
 21
75.9081954153913
 31
0.0
  0
LINE
  5
116
330
111
100
AcDbEntity
  8
치수문자_일반주서
 62
     0
370
    -2
100
AcDbLine
 10
46.69799999999997
 20
75.9081954153913
 30
0.0
 11
-36.69800000000002
 21
75.9081954153913
 31
0.0
  0
SOLID
  5
117
330
111
100
AcDbEntity
  8
치수문자_일반주서
 62
     0
100
AcDbTrace
 10
46.69799999999997
 20
75.35786208205798
 30
0.0
 11
46.69799999999997
 21
76.45852874872463
 31
0.0
 12
49.99999999999997
 22
75.9081954153913
 32
0.0
 13
49.99999999999997
 23
75.9081954153913
 33
0.0
  0
SOLID
  5
118
330
111
100
AcDbEntity
  8
치수문자_일반주서
 62
     0
100
AcDbTrace
 10
-36.69800000000002
 20
76.45852874872463
 30
0.0
 11
-36.69800000000002
 21
75.35786208205798
 31
0.0
 12
-40.00000000000002
 22
75.9081954153913
 32
0.0
 13
-40.00000000000002
 23
75.9081954153913
 33
0.0
  0
MTEXT
  5
119
330
111
100
AcDbEntity
  8
치수문자_일반주서
 62
     0
100
AcDbMText
 10
7.788346878584425
 20
80.2831954153913
 30
0.0
 40
3.5
 41
0.0
 71
     2
 72
     1
  1
\A1;90
  7
SLDTEXTSTYLE0
 73
     1
 44
1.0
  0
POINT
  5
14A
330
111
100
AcDbEntity
  8
Defpoints
 62
     0
100
AcDbPoint
 10
49.99999999999996
 20
4.963512754521671
 30
0.0
  0
POINT
  5
14B
330
111
100
AcDbEntity
  8
Defpoints
 62
     0
100
AcDbPoint
 10
-40.00000000000003
 20
3.999999999999985
 30
0.0
  0
POINT
  5
14C
330
111
100
AcDbEntity
  8
Defpoints
 62
     0
100
AcDbPoint
 10
-40.00000000000003
 20
75.9081954153913
 30
0.0
  0
ENDBLK
  5
113
330
111
100
AcDbEntity
  8
0
100
AcDbBlockEnd
  0
BLOCK
  5
11B
330
11A
100
AcDbEntity
  8
0
100
AcDbBlockBegin
  2
SW_DOWELSYMBOL_0
 70
     0
 10
0.0
 20
0.0
 30
0.0
  3
SW_DOWELSYMBOL_0
  1
SW_DOWELSYMBOL_0
  0
CIRCLE
  5
11D
330
11A
100
AcDbEntity
  8
외형선
 62
     0
100
AcDbCircle
 10
0.0
 20
0.0
 30
0.0
 40
3.000000000000001
  0
HATCH
  5
11E
330
11A
100
AcDbEntity
  8
0
  6
Continuous
 62
     0
370
    30
100
AcDbHatch
 10
0.0
 20
0.0
 30
0.0
210
0.0
220
0.0
230
1.0
  2
SOLID
 70
     1
 71
     0
 91
        1
 92
        0
 93
        3
 72
     2
 10
0.0000000000000139
 20
0.0
 40
3.000000000000001
 50
0.0
 51
90.0
 73
     1
 72
     1
 10
0.0000000000000139
 20
3.000000000000001
 11
0.0000000000000139
 21
0.0
 72
     1
 10
0.0000000000000139
 20
0.0
 11
3.000000000000015
 21
0.0
 97
        0
 75
     0
 76
     1
 98
        1
 10
0.0
 20
0.0
  0
HATCH
  5
11F
330
11A
100
AcDbEntity
  8
0
  6
Continuous
 62
     0
370
    30
100
AcDbHatch
 10
0.0
 20
0.0
 30
0.0
210
0.0
220
0.0
230
1.0
  2
SOLID
 70
     1
 71
     0
 91
        1
 92
        0
 93
        3
 72
     2
 10
0.0000000000000139
 20
0.0
 40
3.000000000000001
 50
180.0
 51
270.0000000000008
 73
     1
 72
     1
 10
0.0000000000000139
 20
-3.000000000000001
 11
0.0000000000000139
 21
0.0
 72
     1
 10
0.0000000000000139
 20
0.0
 11
-2.999999999999988
 21
0.0
 97
        0
 75
     0
 76
     1
 98
        1
 10
0.0
 20
0.0
  0
ENDBLK
  5
11C
330
11A
100
AcDbEntity
  8
0
100
AcDbBlockEnd
  0
ENDSEC
  0
SECTION
  2
ENTITIES
  0
LINE
  5
95
330
1F
100
AcDbEntity
  8
0
  6
Continuous
 62
   131
370
    15
100
AcDbLine
 10
22.76844464374019
 20
-0.9572139745856113
 30
0.0
 11
22.81255717901439
 21
-1.000001372807209
 31
0.0
  0
LINE
  5
96
330
1F
100
AcDbEntity
  8
0
  6
Continuous
 62
     1
370
    15
100
AcDbLine
 10
40.67295256671397
 20
0.8674152679899104
 30
0.0
 11
40.53564972374771
 21
0.9998826707130116
 31
0.0
  0
LINE
  5
97
330
1F
100
AcDbEntity
  8
0
  6
Continuous
 62
   131
370
    15
100
AcDbLine
 10
17.52734732833041
 20
-0.9526747093869278
 30
0.0
 11
17.57649711461718
 21
-0.999930551618596
 31
0.0
  0
LINE
  5
98
330
1F
100
AcDbEntity
  8
0
  6
Continuous
 62
     1
370
    15
100
AcDbLine
 10
49.39500485924547
 20
-5.000000000000021
 30
0.0
 11
49.99999999999996
 21
-5.000000000000021
 31
0.0
  0
LINE
  5
99
330
1F
100
AcDbEntity
  8
0
  6
Continuous
 62
     1
370
    15
100
AcDbLine
 10
17.98059809829416
 20
-5.000000000000021
 30
0.0
 11
19.18873482094264
 21
-5.000000000000021
 31
0.0
  0
LINE
  5
9A
330
1F
100
AcDbEntity
  8
0
  6
Continuous
 62
     1
370
    15
100
AcDbLine
 10
34.89554345123239
 20
4.999999999999984
 30
0.0
 11
33.68723035090407
 21
4.999999999999984
 31
0.0
  0
LINE
  5
9B
330
1F
100
AcDbEntity
  8
0
  6
Continuous
 62
     1
370
    15
100
AcDbLine
 10
28.45192837320282
 20
-5.000000000000021
 30
0.0
 11
29.65958600874422
 21
-5.000000000000021
 31
0.0
  0
LINE
  5
9C
330
1F
100
AcDbEntity
  8
0
  6
Continuous
 62
     1
370
    15
100
AcDbLine
 10
13.953239340515
 20
4.999999999999984
 30
0.0
 11
12.74436570824671
 21
4.999999999999984
 31
0.0
  0
LINE
  5
9D
330
1F
100
AcDbEntity
  8
0
  6
Continuous
 62
     1
370
    15
100
AcDbLine
 10
45.36844779190797
 20
4.999999999999984
 30
0.0
 11
44.15871530208094
 21
4.999999999999984
 31
0.0
  0
LINE
  5
9E
330
1F
100
AcDbEntity
  8
0
  6
Continuous
 62
     1
370
    15
100
AcDbLine
 10
33.68723035090407
 20
-5.000000000000021
 30
0.0
 11
34.89554345123235
 21
-5.000000000000021
 31
0.0
  0
LINE
  5
9F
330
1F
100
AcDbEntity
  8
0
  6
Continuous
 62
     1
370
    15
100
AcDbLine
 10
19.18873482094259
 20
4.999999999999984
 30
0.0
 11
17.98059809829413
 21
4.999999999999984
 31
0.0
  0
LINE
  5
A0
330
1F
100
AcDbEntity
  8
0
  6
Continuous
 62
     1
370
    15
100
AcDbLine
 10
49.99999999999996
 20
4.999999999999984
 30
0.0
 11
49.39500485924547
 21
4.999999999999984
 31
0.0
  0
LINE
  5
A1
330
1F
100
AcDbEntity
  8
0
  6
Continuous
 62
     1
370
    15
100
AcDbLine
 10
23.21645570897622
 20
-5.000000000000021
 30
0.0
 11
24.42402437695716
 21
-5.000000000000021
 31
0.0
  0
LINE
  5
A2
330
1F
100
AcDbEntity
  8
0
  6
Continuous
 62
     1
370
    15
100
AcDbLine
 10
40.13190355302191
 20
4.999999999999984
 30
0.0
 11
38.92280536715256
 21
4.999999999999984
 31
0.0
  0
LINE
  5
A3
330
1F
100
AcDbEntity
  8
0
  6
Continuous
 62
     1
370
    15
100
AcDbLine
 10
44.15871530208091
 20
-5.000000000000021
 30
0.0
 11
45.36844779190798
 21
-5.000000000000021
 31
0.0
  0
LINE
  5
A4
330
1F
100
AcDbEntity
  8
0
  6
Continuous
 62
     1
370
    15
100
AcDbLine
 10
12.74436570824667
 20
-5.000000000000021
 30
0.0
 11
13.95323934051501
 21
-5.000000000000021
 31
0.0
  0
LINE
  5
A5
330
1F
100
AcDbEntity
  8
0
  6
Continuous
 62
     1
370
    15
100
AcDbLine
 10
29.65958600874422
 20
4.999999999999984
 30
0.0
 11
28.45192837320277
 21
4.999999999999984
 31
0.0
  0
LINE
  5
A6
330
1F
100
AcDbEntity
  8
0
  6
Continuous
 62
     1
370
    15
100
AcDbLine
 10
38.92280536715253
 20
-5.000000000000021
 30
0.0
 11
40.13190355302185
 21
-5.000000000000021
 31
0.0
  0
LINE
  5
A7
330
1F
100
AcDbEntity
  8
0
  6
Continuous
 62
     1
370
    15
100
AcDbLine
 10
24.42402437695714
 20
4.999999999999984
 30
0.0
 11
23.21645570897619
 21
4.999999999999984
 31
0.0
  0
LINE
  5
A8
330
1F
100
AcDbEntity
  8
0
  6
Continuous
 62
   131
370
    15
100
AcDbLine
 10
-39.00000000000003
 20
-5.000000000000019
 30
0.0
 11
9.000251194703583
 21
-5.000000000000019
 31
0.0
  0
LINE
  5
A9
330
1F
100
AcDbEntity
  8
0
  6
Continuous
 62
   131
370
    15
100
AcDbLine
 10
9.000251194703583
 20
4.999999999999981
 30
0.0
 11
-39.00000000000003
 21
4.999999999999981
 31
0.0
  0
LINE
  5
AA
330
1F
100
AcDbEntity
  8
0
  6
Continuous
 62
   131
370
    15
100
AcDbLine
 10
-39.00000000000003
 20
4.999999999999982
 30
0.0
 11
-40.00000000000003
 21
3.999999999999985
 31
0.0
  0
LINE
  5
AB
330
1F
100
AcDbEntity
  8
0
  6
Continuous
 62
   131
370
    15
100
AcDbLine
 10
-40.00000000000003
 20
-4.000000000000022
 30
0.0
 11
-39.00000000000003
 21
-5.00000000000002
 31
0.0
  0
LINE
  5
AC
330
1F
100
AcDbEntity
  8
0
  6
Continuous
 62
     1
370
    15
100
AcDbLine
 10
49.99999999999996
 20
2.987484281725616
 30
0.0
 11
49.99999999999996
 21
4.963512754521671
 31
0.0
  0
SPLINE
  5
AD
330
1F
100
AcDbEntity
  8
0
  6
Continuous
 62
     1
370
    15
100
AcDbSpline
210
0.0
220
0.0
230
1.0
 70
     8
 71
     3
 72
    26
 73
    22
 74
     0
 42
0.000000001
 43
0.00000001
 40
0.0
 40
0.0
 40
0.0
 40
0.0
 40
0.0096915247981418
 40
0.0674870320597678
 40
0.125312174732649
 40
0.1832100804222778
 40
0.2410668197882058
 40
0.2988697340894866
 40
0.3566706429734308
 40
0.414521393840785
 40
0.4724221086205672
 40
0.5302516910166207
 40
0.5880476374904471
 40
0.6458618641411572
 40
0.703745770053651
 40
0.7616211444994786
 40
0.8194314254963861
 40
0.8772283307870374
 40
0.9350637631944357
 40
0.9929664045410734
 40
1.0
 40
1.0
 40
1.0
 40
1.0
 10
13.953239340515
 20
4.985273046817388
 30
0.0
 10
14.01048099689996
 20
4.989948098307999
 30
0.0
 10
14.40908385662197
 20
5.022502867180743
 30
0.0
 10
15.14894367143159
 20
4.879412997503549
 30
0.0
 10
16.17371595564718
 20
4.549225916570758
 30
0.0
 10
17.19991110954273
 20
4.009456572291588
 30
0.0
 10
18.22530009519261
 20
3.306713691072955
 30
0.0
 10
19.24956965376924
 20
2.46407647031528
 30
0.0
 10
20.27379901985945
 20
1.518648886101696
 30
0.0
 10
21.29906480407685
 20
0.5093913268778029
 30
0.0
 10
22.32532432578591
 20
-0.5205315171487203
 30
0.0
 10
23.35015595118678
 20
-1.529420725289087
 30
0.0
 10
24.37429111673978
 20
-2.473934087548446
 30
0.0
 10
25.39880020501549
 20
-3.315081150554045
 30
0.0
 10
26.4247273026246
 20
-4.016937957923343
 30
0.0
 10
27.45048698464291
 20
-4.551072787754581
 30
0.0
 10
28.47490769072521
 20
-4.893359076488589
 30
0.0
 10
29.49907483404436
 20
-5.035696791603121
 30
0.0
 10
30.52396928589521
 20
-4.948291788164791
 30
0.0
 10
31.25000751530584
 20
-4.789689092722635
 30
0.0
 10
31.63360499707179
 20
-4.609244324867482
 30
0.0
 10
31.67515451762502
 20
-4.589699374894889
 30
0.0
  0
SPLINE
  5
AE
330
1F
100
AcDbEntity
  8
0
  6
Continuous
 62
     1
370
    15
100
AcDbSpline
210
0.0
220
0.0
230
1.0
 70
     8
 71
     3
 72
    12
 73
     8
 74
     0
 42
0.000000001
 43
0.00000001
 40
0.0
 40
0.0
 40
0.0
 40
0.0
 40
0.1148956856352248
 40
0.3361804407714265
 40
0.5573271347741394
 40
0.7785343922901768
 40
1.0
 40
1.0
 40
1.0
 40
1.0
 10
45.36844779190798
 20
4.973764540969867
 30
0.0
 10
45.54594395120893
 20
4.978443487954514
 30
0.0
 10
46.06529101580175
 20
4.992133910279327
 30
0.0
 10
46.92554505937501
 20
4.786908998155233
 30
0.0
 10
47.94969040646723
 20
4.37905743230278
 30
0.0
 10
48.9741553062075
 20
3.786182358916562
 30
0.0
 10
49.65791875070508
 20
3.264776193192333
 30
0.0
 10
49.99999999999998
 20
3.003920960295126
 30
0.0
  0
SPLINE
  5
AF
330
1F
100
AcDbEntity
  8
0
  6
Continuous
 62
     1
370
    15
100
AcDbSpline
210
0.0
220
0.0
230
1.0
 70
     8
 71
     3
 72
    10
 73
     6
 74
     0
 42
0.000000001
 43
0.00000001
 40
0.0
 40
0.0
 40
0.0
 40
0.0
 40
0.3918440576444487
 40
0.7832310105073811
 40
1.0
 40
1.0
 40
1.0
 40
1.0
 10
49.99999999999995
 20
4.963512754521671
 30
0.0
 10
49.65791793179275
 20
4.982847568935952
 30
0.0
 10
48.97415285042592
 20
5.021494642781366
 30
0.0
 10
48.101915124539
 20
4.870734482581072
 30
0.0
 10
47.57145116045847
 20
4.653563612877075
 30
0.0
 10
47.38237442956177
 20
4.576155983198031
 30
0.0
  0
SPLINE
  5
B0
330
1F
100
AcDbEntity
  8
0
  6
Continuous
 62
     1
370
    15
100
AcDbSpline
210
0.0
220
0.0
230
1.0
 70
     8
 71
     3
 72
    26
 73
    22
 74
     0
 42
0.000000001
 43
0.00000001
 40
0.0
 40
0.0
 40
0.0
 40
0.0
 40
0.0049466744465165
 40
0.0627442805315593
 40
0.1205868483721378
 40
0.1784882175987456
 40
0.236322379362692
 40
0.2941180148563314
 40
0.3519270257623635
 40
0.4098011286872126
 40
0.4676837628912933
 40
0.5254967193644428
 40
0.5832913960623236
 40
0.6411197079434513
 40
0.6990191506455286
 40
0.7568686305328858
 40
0.8146682695318584
 40
0.8724699139041107
 40
0.9303253821584746
 40
0.9882220158321146
 40
1.0
 40
1.0
 40
1.0
 40
1.0
 10
33.68723035090409
 20
-4.991805015325846
 30
0.0
 10
33.65801656927278
 20
-4.994491392252761
 30
0.0
 10
33.28746505433483
 20
-5.028565756623884
 30
0.0
 10
32.57545461759288
 20
-4.897026392254875
 30
0.0
 10
31.55030856765936
 20
-4.58547111754441
 30
0.0
 10
30.52401664455845
 20
-4.06001973089776
 30
0.0
 10
29.49906216010157
 20
-3.370081410683484
 30
0.0
 10
28.47491108646876
 20
-2.537576385727365
 30
0.0
 10
27.45048607360158
 20
-1.59905874166054
 30
0.0
 10
26.42472754662962
 20
-0.5937289230723048
 30
0.0
 10
25.39880014073952
 20
0.4363062985914629
 30
0.0
 10
24.37429113013927
 20
1.448540960113589
 30
0.0
 10
23.35015596180544
 20
2.39985101330406
 30
0.0
 10
22.32532426983763
 20
3.25092843758756
 30
0.0
 10
21.29906501745128
 20
3.965219732036453
 30
0.0
 10
20.27379822345672
 20
4.514217096505275
 30
0.0
 10
19.24957262356626
 20
4.872873826357609
 30
0.0
 10
18.22528900654622
 20
5.031871631452892
 30
0.0
 10
17.1999525483609
 20
4.963658783262676
 30
0.0
 10
16.44584029911957
 20
4.805980219532443
 30
0.0
 10
16.03432024518316
 20
4.616400791722487
 30
0.0
 10
15.9647557921559
 20
4.584353777063849
 30
0.0
  0
LINE
  5
B1
330
1F
100
AcDbEntity
  8
0
  6
Continuous
 62
     1
370
    15
100
AcDbLine
 10
9.999999999999984
 20
-4.836114565394276
 30
0.0
 11
10.72889380250254
 21
-4.579797056917422
 31
0.0
  0
SPLINE
  5
B2
330
1F
100
AcDbEntity
  8
0
  6
Continuous
 62
     1
370
    15
100
AcDbSpline
210
0.0
220
0.0
230
1.0
 70
     8
 71
     3
 72
    25
 73
    21
 74
     0
 42
0.000000001
 43
0.00000001
 40
0.0
 40
0.0
 40
0.0
 40
0.0
 40
0.0549993588008449
 40
0.1128807946775447
 40
0.1707536994516351
 40
0.2285615135544886
 40
0.2863559525218571
 40
0.3441889169619344
 40
0.4020890874732952
 40
0.459930457815976
 40
0.5177268673339499
 40
0.5755301893542296
 40
0.6333922015438711
 40
0.6912826894387489
 40
0.7491003505308147
 40
0.8068932755712674
 40
0.864713386131199
 40
0.9226065553167704
 40
0.9804646396832226
 40
0.9999999999999999
 40
0.9999999999999999
 40
0.9999999999999999
 40
0.9999999999999999
 10
24.42402437695714
 20
4.995154170154185
 30
0.0
 10
24.74881546745078
 20
4.978770754472721
 30
0.0
 10
25.415417355154
 20
4.945145399159894
 30
0.0
 10
26.42472932899635
 20
4.634780760227604
 30
0.0
 10
27.45048561745614
 20
4.142170772716435
 30
0.0
 10
28.47491113103501
 20
3.471357831853679
 30
0.0
 10
29.49906243764784
 20
2.656514790402523
 30
0.0
 10
30.52401548830114
 20
1.72982203028634
 30
0.0
 10
31.55031291847557
 20
0.7315100079485316
 30
0.0
 10
32.57543839592196
 20
-0.2981617584987404
 30
0.0
 10
33.59962705371613
 20
-1.315137297715463
 30
0.0
 10
34.62395704234521
 20
-2.277129519821819
 30
0.0
 10
35.6494988288968
 20
-3.143665145174786
 30
0.0
 10
36.67560508809114
 20
-3.878232042660783
 30
0.0
 10
37.70023926756875
 20
-4.451046605756502
 30
0.0
 10
38.72436388009232
 20
-4.83632949746199
 30
0.0
 10
39.74905423111795
 20
-5.022647342322829
 30
0.0
 10
40.7751946244006
 20
-4.985393612515218
 30
0.0
 10
41.57460997049598
 20
-4.831984499649991
 30
0.0
 10
42.03165334523307
 20
-4.629516608864859
 30
0.0
 10
42.14701850364449
 20
-4.578410430360278
 30
0.0
  0
SPLINE
  5
B3
330
1F
100
AcDbEntity
  8
0
  6
Continuous
 62
   131
370
    15
100
AcDbSpline
210
0.0
220
0.0
230
1.0
 70
    24
 71
     3
 72
    10
 73
     6
 74
     0
 42
0.000000001
 43
0.00000001
 40
0.0
 40
0.0
 40
0.0
 40
0.0
 40
0.0658939068825669
 40
0.7250765245642812
 40
1.0
 40
1.0
 40
1.0
 40
1.0
 10
9.999999999999964
 20
-4.328322797479949
 30
0.0
 10
9.999999999999964
 20
-4.338868814978598
 30
0.0
 10
9.999999999999977
 20
-4.454913986340842
 30
0.0
 10
9.999999999999984
 20
-4.628169353717858
 30
0.0
 10
9.999999999999977
 20
-4.788829518128878
 30
0.0
 10
9.999999999999977
 20
-4.836114565394274
 30
0.0
  0
SPLINE
  5
B4
330
1F
100
AcDbEntity
  8
0
  6
Continuous
 62
     1
370
    15
100
AcDbSpline
210
0.0
220
0.0
230
1.0
 70
     8
 71
     3
 72
    25
 73
    21
 74
     0
 42
0.000000001
 43
0.00000001
 40
0.0
 40
0.0
 40
0.0
 40
0.0
 40
0.0174780761373256
 40
0.0752812654233479
 40
0.1330889141444948
 40
0.1909528258683069
 40
0.2488518259449165
 40
0.3066777600375584
 40
0.3644765058726467
 40
0.4222999902507175
 40
0.4801963087665788
 40
0.5380641487091828
 40
0.595873292571263
 40
0.6536755232348238
 40
0.7115227192514598
 40
0.7694287213590195
 40
0.8272675106264253
 40
0.8850677705409092
 40
0.9428814069379972
 40
1.0
 40
1.0
 40
1.0
 40
1.0
 10
44.15871530208091
 20
-4.977872740079235
 30
0.0
 10
44.05546078385167
 20
-4.984205845736935
 30
0.0
 10
43.61072471954456
 20
-5.011483688230896
 30
0.0
 10
42.82499953731828
 20
-4.847205799768568
 30
0.0
 10
41.80066520630722
 20
-4.487271956461083
 30
0.0
 10
40.77521158429765
 20
-3.924051667393389
 30
0.0
 10
39.74904969188365
 20
-3.200962590191209
 30
0.0
 10
38.72436509506632
 20
-2.342200977175102
 30
0.0
 10
37.70023894195442
 20
-1.385907107443006
 30
0.0
 10
36.67560517542619
 20
-0.371183978159323
 30
0.0
 10
35.64949880569225
 20
0.6584283299689425
 30
0.0
 10
34.62395704781917
 20
1.660862155293594
 30
0.0
 10
33.59962705499136
 20
2.593817922212174
 30
0.0
 10
32.57543838534774
 20
3.418046332247263
 30
0.0
 10
31.55031295955113
 20
4.099303992020347
 30
0.0
 10
30.52401533449217
 20
4.608246558079773
 30
0.0
 10
29.49906301085882
 20
4.925579403648758
 30
0.0
 10
28.47490899305251
 20
5.032686917476607
 30
0.0
 10
27.45498197589175
 20
4.943690684949511
 30
0.0
 10
26.77577700563128
 20
4.713266157486212
 30
0.0
 10
26.43822823898348
 20
4.598750630574197
 30
0.0
  0
SPLINE
  5
B5
330
1F
100
AcDbEntity
  8
0
  6
Continuous
 62
     1
370
    15
100
AcDbSpline
210
0.0
220
0.0
230
1.0
 70
     8
 71
     3
 72
    10
 73
     6
 74
     0
 42
0.000000001
 43
0.00000001
 40
0.0
 40
0.0
 40
0.0
 40
0.0
 40
0.2484977422314064
 40
0.6244480966660445
 40
1.0
 40
1.0
 40
1.0
 40
1.0
 10
12.74436570824667
 20
-4.976181854543592
 30
0.0
 10
12.51697719483716
 20
-4.976258075739797
 30
0.0
 10
11.94557431959469
 20
-4.976449611407155
 30
0.0
 10
11.03050600244213
 20
-4.746579004670994
 30
0.0
 10
10.34338056144135
 20
-4.426161890096798
 30
0.0
 10
9.999999999999998
 20
-4.266038276368191
 30
0.0
  0
SPLINE
  5
B6
330
1F
100
AcDbEntity
  8
0
  6
Continuous
 62
     1
370
    15
100
AcDbSpline
210
0.0
220
0.0
230
1.0
 70
     8
 71
     3
 72
    13
 73
     9
 74
     0
 42
0.000000001
 43
0.00000001
 40
0.0
 40
0.0
 40
0.0
 40
0.0
 40
0.172763376049474
 40
0.3457100496850739
 40
0.5186990431602412
 40
0.6914831356068307
 40
0.8631941849912208
 40
1.0
 40
1.0
 40
1.0
 40
1.0
 10
9.999999999999984
 20
-3.517601248523993
 30
0.0
 10
10.34338402324166
 20
-3.747387983895255
 30
0.0
 10
11.03051639151597
 20
-4.207205252570422
 30
0.0
 10
12.06224473631493
 20
-4.677988167539831
 30
0.0
 10
13.09424260950181
 20
-4.962860775735356
 30
0.0
 10
14.12286333883412
 20
-5.028616558328261
 30
0.0
 10
15.07936685028441
 20
-4.913633475301459
 30
0.0
 10
15.69275896514688
 20
-4.685510487842087
 30
0.0
 10
15.9647557921559
 20
-4.584353777063885
 30
0.0
  0
SPLINE
  5
B7
330
1F
100
AcDbEntity
  8
0
  6
Continuous
 62
     1
370
    15
100
AcDbSpline
210
0.0
220
0.0
230
1.0
 70
     8
 71
     3
 72
    25
 73
    21
 74
     0
 42
0.000000001
 43
0.00000001
 40
0.0
 40
0.0
 40
0.0
 40
0.0
 40
0.0487651851286247
 40
0.1066659429025389
 40
0.1645078999113821
 40
0.2223048956394955
 40
0.2801088039400258
 40
0.3379714030051933
 40
0.3958624780644168
 40
0.4536807255821698
 40
0.5114742367974201
 40
0.5692949338078829
 40
0.6271886901849956
 40
0.6850473613871352
 40
0.7428497746821411
 40
0.8006477289458971
 40
0.8584930847629746
 40
0.9163930871140619
 40
0.9742236558178845
 40
1.0
 40
1.0
 40
1.0
 40
1.0
 10
29.65958600874422
 20
4.986138938236998
 30
0.0
 10
29.94760714496724
 20
4.977316776180741
 30
0.0
 10
30.57760672335611
 20
4.958019725801713
 30
0.0
 10
31.55032064091096
 20
4.676446425076729
 30
0.0
 10
32.57543632976161
 20
4.204800252921198
 30
0.0
 10
33.59962760584195
 20
3.551357563468613
 30
0.0
 10
34.62395689935661
 20
2.750662688687463
 30
0.0
 10
35.64949884809288
 20
1.83441130857199
 30
0.0
 10
36.67560515445079
 20
0.8418354720838529
 30
0.0
 10
37.70023898343753
 20
-0.1866510492905558
 30
0.0
 10
38.72436495011567
 20
-1.207001702172813
 30
0.0
 10
39.74905023079047
 20
-2.177101996569452
 30
0.0
 10
40.77520957149417
 20
-3.055432867493295
 30
0.0
 10
41.80067270952684
 20
-3.806168905630099
 30
0.0
 10
42.82497156571542
 20
-4.397694148660968
 30
0.0
 10
43.8491788573687
 20
-4.804233270591811
 30
0.0
 10
44.87437464062356
 20
-5.01251422410696
 30
0.0
 10
45.90065292796443
 20
-4.999835529297882
 30
0.0
 10
46.73644842147064
 20
-4.852289387029945
 30
0.0
 10
47.2301609048687
 20
-4.641227273340044
 30
0.0
 10
47.3823744295618
 20
-4.576155983198069
 30
0.0
  0
SPLINE
  5
B8
330
1F
100
AcDbEntity
  8
0
  6
Continuous
 62
   131
370
    15
100
AcDbSpline
210
0.0
220
0.0
230
1.0
 70
    24
 71
     3
 72
    22
 73
    18
 74
     0
 42
0.000000001
 43
0.00000001
 40
0.0
 40
0.0
 40
0.0
 40
0.0
 40
0.0617498910480913
 40
0.1325720670600146
 40
0.2013982782838293
 40
0.2722204542957529
 40
0.3410466655195667
 40
0.4118688415314899
 40
0.4806950527553051
 40
0.551517228767229
 40
0.6203434399909393
 40
0.6911656160027503
 40
0.7599918272266513
 40
0.8308140032387017
 40
0.8996402144625173
 40
0.9704623904744406
 40
1.0
 40
1.0
 40
1.0
 40
1.0
 10
9.99999999999995
 20
0.1324165144262033
 30
0.0
 10
9.999999999999943
 20
0.1146260140713908
 30
0.0
 10
9.999999999999943
 20
0.0764312356509304
 30
0.0
 10
9.999999999999991
 20
-0.0487256025561455
 30
0.0
 10
9.999999999999929
 20
-0.225496342141475
 30
0.0
 10
10.00000000000001
 20
-0.4477452534079942
 30
0.0
 10
9.999999999999977
 20
-0.7114509736112482
 30
0.0
 10
10.00000000000003
 20
-1.004865956624984
 30
0.0
 10
9.999999999999922
 20
-1.32484155064546
 30
0.0
 10
9.999999999999922
 20
-1.656596130418188
 30
0.0
 10
10.00000000000002
 20
-1.99669765621089
 30
0.0
 10
9.999999999999943
 20
-2.329415000742773
 30
0.0
 10
10.00000000000002
 20
-2.651265013907254
 30
0.0
 10
9.9999999999999
 20
-2.947543715272256
 30
0.0
 10
10.00000000000005
 20
-3.214455024896724
 30
0.0
 10
9.999999999999977
 20
-3.399446506164972
 30
0.0
 10
9.999999999999984
 20
-3.490733822570605
 30
0.0
 10
9.999999999999984
 20
-3.517601248523988
 30
0.0
  0
SPLINE
  5
B9
330
1F
100
AcDbEntity
  8
0
  6
Continuous
 62
     1
370
    15
100
AcDbSpline
210
0.0
220
0.0
230
1.0
 70
     8
 71
     3
 72
    25
 73
    21
 74
     0
 42
0.000000001
 43
0.00000001
 40
0.0
 40
0.0
 40
0.0
 40
0.0
 40
0.0237553576087013
 40
0.08157251303486
 40
0.1393738389168066
 40
0.1972112499711064
 40
0.2551181028878645
 40
0.3129703028049872
 40
0.3707750955603716
 40
0.4285843478745861
 40
0.4864498647522102
 40
0.5443504709559881
 40
0.6021780091489365
 40
0.6599783583301251
 40
0.7178034467405469
 40
0.7757013713091895
 40
0.8335708165145749
 40
0.891381564011198
 40
0.9491853981175286
 40
1.0
 40
1.0
 40
1.0
 40
1.0
 10
49.39500485924547
 20
-4.974583793246556
 30
0.0
 10
49.2546258742064
 20
-4.980800049336752
 30
0.0
 10
48.77258444273043
 20
-5.002145786971941
 30
0.0
 10
47.94970801376718
 20
-4.818154781357605
 30
0.0
 10
46.9255426588981
 20
-4.435003184671737
 30
0.0
 10
45.90065762767285
 20
-3.853163462867593
 30
0.0
 10
44.87437338199818
 20
-3.11390407241348
 30
0.0
 10
43.84917919414791
 20
-2.242826304232904
 30
0.0
 10
42.82497147559414
 20
-1.278179939295182
 30
0.0
 10
41.80067273335821
 20
-0.259879721846727
 30
0.0
 10
40.77520956638341
 20
0.7692589687028688
 30
0.0
 10
39.74905022737271
 20
1.765736352176767
 30
0.0
 10
38.72436496885901
 20
2.688916513787104
 30
0.0
 10
37.70023891189702
 20
3.499167552020025
 30
0.0
 10
36.67560542215022
 20
4.163167528121704
 30
0.0
 10
35.64949784772872
 20
4.652111471848525
 30
0.0
 10
34.62396062899365
 20
4.947776272222106
 30
0.0
 10
33.59961370287274
 20
5.031269355503058
 30
0.0
 10
32.61701804349279
 20
4.926867635869331
 30
0.0
 10
31.975345875286
 20
4.697161863081626
 30
0.0
 10
31.675154517625
 20
4.589699374894851
 30
0.0
  0
SPLINE
  5
BA
330
1F
100
AcDbEntity
  8
0
  6
Continuous
 62
     1
370
    15
100
AcDbSpline
210
0.0
220
0.0
230
1.0
 70
     8
 71
     3
 72
    15
 73
    11
 74
     0
 42
0.000000001
 43
0.00000001
 40
0.0
 40
0.0
 40
0.0
 40
0.0
 40
0.0977972746070021
 40
0.2263735386167496
 40
0.3547882147980586
 40
0.4831370784008982
 40
0.6122880095359298
 40
0.7415920980493795
 40
0.870864553750985
 40
0.9999999999999999
 40
0.9999999999999999
 40
0.9999999999999999
 40
0.9999999999999999
 10
17.98059809829416
 20
-4.98092395453919
 30
0.0
 10
17.72044336439127
 20
-4.976808922802686
 30
0.0
 10
17.11825738387026
 20
-4.967283766815918
 30
0.0
 10
16.17369743866209
 20
-4.706381329595281
 30
0.0
 10
15.14897132277484
 20
-4.25095396433701
 30
0.0
 10
14.12284680451698
 20
-3.609595629403553
 30
0.0
 10
13.09424705590124
 20
-2.816318001787684
 30
0.0
 10
12.06224355029726
 20
-1.902173291705804
 30
0.0
 10
11.03051668762359
 20
-0.9070364766668371
 30
0.0
 10
10.34338412190933
 20
-0.2185897155160984
 30
0.0
 10
9.999999999999998
 20
0.1254511557142179
 30
0.0
  0
LINE
  5
BB
330
1F
100
AcDbEntity
  8
0
  6
Continuous
 62
     1
370
    15
100
AcDbLine
 10
49.99999999999996
 20
-1.959591794226515
 30
0.0
 11
49.99999999999996
 21
1.959591794226571
 31
0.0
  0
SPLINE
  5
BC
330
1F
100
AcDbEntity
  8
0
  6
Continuous
 62
     1
370
    15
100
AcDbSpline
210
0.0
220
0.0
230
1.0
 70
     8
 71
     3
 72
    24
 73
    20
 74
     0
 42
0.000000001
 43
0.00000001
 40
0.0
 40
0.0
 40
0.0
 40
0.0
 40
0.0626911954094464
 40
0.1254489045965966
 40
0.1882219705184476
 40
0.2509206833527641
 40
0.3132300176403461
 40
0.3755713018637301
 40
0.4379910318928368
 40
0.5003663805098512
 40
0.562683700326617
 40
0.6249988581030247
 40
0.6873677505199434
 40
0.7497905090290429
 40
0.8121365797178184
 40
0.8744463875200577
 40
0.9367759031803339
 40
0.999180540050218
 40
1.0
 40
1.0
 40
1.0
 40
1.0
 10
9.999999999999984
 20
4.836114565394246
 30
0.0
 10
10.34338411676009
 20
4.728995594774662
 30
0.0
 10
11.03051667217048
 20
4.514644003008444
 30
0.0
 10
12.06224361219249
 20
3.94704780459423
 30
0.0
 10
13.09424682385497
 20
3.227127253820049
 30
0.0
 10
14.12284766740095
 20
2.367815346710622
 30
0.0
 10
15.14896812380954
 20
1.411887899126122
 30
0.0
 10
16.17370939306833
 20
0.3980918378023774
 30
0.0
 10
17.199912866881
 20
-0.6315814162206683
 30
0.0
 10
18.22529962753845
 20
-1.635371668857066
 30
0.0
 10
19.24956976934968
 20
-2.57061241033239
 30
0.0
 10
20.27379902496002
 20
-3.398211608568627
 30
0.0
 10
21.29906466780158
 20
-4.083419611981057
 30
0.0
 10
22.32532486600754
 20
-4.597740160701671
 30
0.0
 10
23.35015392997258
 20
-4.918230959989165
 30
0.0
 10
24.37429865867835
 20
-5.038673645044213
 30
0.0
 10
25.39877203263533
 20
-4.925508117989497
 30
0.0
 10
26.08720194296353
 20
-4.767815326388051
 30
0.0
 10
26.43373673342979
 20
-4.600913873125545
 30
0.0
 10
26.43822823898351
 20
-4.598750630574227
 30
0.0
  0
SPLINE
  5
BD
330
1F
100
AcDbEntity
  8
0
  6
Continuous
 62
     1
370
    15
100
AcDbSpline
210
0.0
220
0.0
230
1.0
 70
     8
 71
     3
 72
    17
 73
    13
 74
     0
 42
0.000000001
 43
0.00000001
 40
0.0
 40
0.0
 40
0.0
 40
0.0
 40
0.0651708024264257
 40
0.1690827066602829
 40
0.2728935738993906
 40
0.3766964328932588
 40
0.4805844232177806
 40
0.5845705565741202
 40
0.688431989823194
 40
0.7922286231849403
 40
0.8960536824239803
 40
1.0
 40
1.0
 40
1.0
 40
1.0
 10
40.13190355302191
 20
4.975424330824006
 30
0.0
 10
40.34638341329106
 20
4.977123524797456
 30
0.0
 10
40.90284173432172
 20
4.981532006901022
 30
0.0
 10
41.80068244887001
 20
4.752300104735694
 30
0.0
 10
42.82496889712868
 20
4.32404224391148
 30
0.0
 10
43.84917979817485
 20
3.706003171919128
 30
0.0
 10
44.87437354676045
 20
2.934912771939374
 30
0.0
 10
45.90065636298982
 20
2.040990717305586
 30
0.0
 10
46.92554754452433
 20
1.060655720136328
 30
0.0
 10
47.94968974375852
 20
0.0377117369558235
 30
0.0
 10
48.97415547212938
 20
-0.9929078091389223
 30
0.0
 10
49.65791880603388
 20
-1.637238452348202
 30
0.0
 10
49.99999999999998
 20
-1.959591794226515
 30
0.0
  0
SPLINE
  5
BE
330
1F
100
AcDbEntity
  8
0
  6
Continuous
 62
     1
370
    15
100
AcDbSpline
210
0.0
220
0.0
230
1.0
 70
     8
 71
     3
 72
    15
 73
    11
 74
     0
 42
0.000000001
 43
0.00000001
 40
0.0
 40
0.0
 40
0.0
 40
0.0
 40
0.1306133604890791
 40
0.2610743542637861
 40
0.3914996296076282
 40
0.5220063290099702
 40
0.6526697198703941
 40
0.783209789467559
 40
0.9136428876063943
 40
1.0
 40
1.0
 40
1.0
 40
1.0
 10
49.99999999999995
 20
1.959591794226571
 30
0.0
 10
49.6579188101263
 20
2.266044228176358
 30
0.0
 10
48.97415548440195
 20
2.878591604696051
 30
0.0
 10
47.94968969474062
 20
3.655323499327433
 30
0.0
 10
46.92554772834085
 20
4.284835953056954
 30
0.0
 10
45.90065567590759
 20
4.732887494905155
 30
0.0
 10
44.87437611340162
 20
4.984965081373814
 30
0.0
 10
43.84917023309608
 20
5.020741668025377
 30
0.0
 10
42.94035850831226
 20
4.890985739155893
 30
0.0
 10
42.37301605258594
 20
4.667453278611673
 30
0.0
 10
42.14701850364453
 20
4.578410430360239
 30
0.0
  0
SPLINE
  5
BF
330
1F
100
AcDbEntity
  8
0
  6
Continuous
 62
     1
370
    15
100
AcDbSpline
210
0.0
220
0.0
230
1.0
 70
     8
 71
     3
 72
    25
 73
    21
 74
     0
 42
0.000000001
 43
0.00000001
 40
0.0
 40
0.0
 40
0.0
 40
0.0
 40
0.0565065845350678
 40
0.1143794847327287
 40
0.1722609160323261
 40
0.2300726710490198
 40
0.2878661466703313
 40
0.3456932567758906
 40
0.4035914962241738
 40
0.4614397738960536
 40
0.5192382117153316
 40
0.5770386548662136
 40
0.6348929207806512
 40
0.6927883512588738
 40
0.750611021831063
 40
0.808404058258951
 40
0.8665582503434176
 40
0.9247814062636491
 40
0.9829903185342221
 40
1.0
 40
1.0
 40
1.0
 40
1.0
 10
28.45192837320282
 20
-4.997696950255659
 30
0.0
 10
28.11824145406387
 20
-4.979253202412845
 30
0.0
 10
27.4427991461063
 20
-4.94191974132757
 30
0.0
 10
26.42472663752127
 20
-4.624335486785695
 30
0.0
 10
25.39880038304596
 20
-4.126726976247773
 30
0.0
 10
24.37429106891985
 20
-3.45175222902302
 30
0.0
 10
23.35015596459935
 20
-2.633534555972735
 30
0.0
 10
22.32532431996975
 20
-1.704423711853402
 30
0.0
 10
21.29906481391536
 20
-0.704739378901398
 30
0.0
 10
20.27379898636832
 20
0.3250999337445254
 30
0.0
 10
19.24956977779457
 20
1.341200433842832
 30
0.0
 10
18.22529963233772
 20
2.301159300681954
 30
0.0
 10
17.19991283919203
 20
3.164764146591677
 30
0.0
 10
16.17370949904264
 20
3.895388931923498
 30
0.0
 10
15.14896772825878
 20
4.463625827435371
 30
0.0
 10
14.1228491469174
 20
4.844457044919332
 30
0.0
 10
13.09424126084642
 20
5.025676391307693
 30
0.0
 10
12.06226439460971
 20
4.97988917296485
 30
0.0
 10
11.27357654426505
 20
4.824642233661018
 30
0.0
 10
10.8293497626404
 20
4.624953907739041
 30
0.0
 10
10.72889380250257
 20
4.579797056917384
 30
0.0
  0
SPLINE
  5
C0
330
1F
100
AcDbEntity
  8
0
  6
Continuous
 62
     1
370
    15
100
AcDbSpline
210
0.0
220
0.0
230
1.0
 70
     8
 71
     3
 72
    26
 73
    22
 74
     0
 42
0.000000001
 43
0.00000001
 40
0.0
 40
0.0
 40
0.0
 40
0.0
 40
0.0034343629774012
 40
0.0612336893784589
 40
0.1190828563983444
 40
0.1769819859627378
 40
0.2348099850908766
 40
0.2926043492176783
 40
0.3504169930208859
 40
0.4082993141781868
 40
0.4661731041023973
 40
0.5239818023598272
 40
0.5817771252772029
 40
0.639610974256524
 40
0.6975120303350271
 40
0.7553542853455174
 40
0.8131515788436378
 40
0.8709557849497885
 40
0.9288186821229512
 40
0.9867100554368782
 40
1.0
 40
1.0
 40
1.0
 40
1.0
 10
19.18873482094261
 20
4.994148991548169
 30
0.0
 10
19.20901683726469
 20
4.996080307448909
 30
0.0
 10
19.57063926786048
 20
5.030515106197864
 30
0.0
 10
20.27378561693184
 20
4.902257344451163
 30
0.0
 10
21.29906839998923
 20
4.596797004380393
 30
0.0
 10
22.32532336435433
 20
4.075888434149836
 30
0.0
 10
23.35015620424534
 20
3.390106825461225
 30
0.0
 10
24.37429106479029
 20
2.560873516615584
 30
0.0
 10
25.39880015970655
 20
1.62460753948553
 30
0.0
 10
26.42472753619795
 20
0.6206192593239984
 30
0.0
 10
27.45048609633615
 20
-0.4094343979198514
 30
0.0
 10
28.47491100606035
 20
-1.422643512544488
 30
0.0
 10
29.49906245904903
 20
-2.376080654734978
 30
0.0
 10
30.52401552779459
 20
-3.230247576371343
 30
0.0
 10
31.55031273890657
 20
-3.948496657052957
 30
0.0
 10
32.57543907364045
 20
-4.502185345824969
 30
0.0
 10
33.59962452412599
 20
-4.866046400389382
 30
0.0
 10
34.62396648909385
 20
-5.030364121178312
 30
0.0
 10
35.64946352585999
 20
-4.968224221656055
 30
0.0
 10
36.41245531912495
 20
-4.811113701100573
 30
0.0
 10
36.83285698519413
 20
-4.61882417821945
 30
0.0
 10
36.91134829447213
 20
-4.582922663954522
 30
0.0
  0
SPLINE
  5
C1
330
1F
100
AcDbEntity
  8
0
  6
Continuous
 62
     1
370
    15
100
AcDbSpline
210
0.0
220
0.0
230
1.0
 70
     8
 71
     3
 72
    26
 73
    22
 74
     0
 42
0.000000001
 43
0.00000001
 40
0.0
 40
0.0
 40
0.0
 40
0.0
 40
0.0112071870240319
 40
0.0690030647520265
 40
0.1268236797954199
 40
0.1847171253624059
 40
0.2425820937693072
 40
0.3003883690083195
 40
0.3581877313918613
 40
0.4160320568971937
 40
0.473935185575356
 40
0.5317711047486205
 40
0.5895684964808785
 40
0.6473792640319685
 40
0.7052551255798297
 40
0.7631395186661628
 40
0.8209542319042642
 40
0.8787506648116287
 40
0.936580733924314
 40
0.9944819360194043
 40
0.9999999999999999
 40
0.9999999999999999
 40
0.9999999999999999
 40
0.9999999999999999
 10
38.92280536715253
 20
-4.983618301613332
 30
0.0
 10
38.85660985770902
 20
-4.988738348391125
 30
0.0
 10
38.44904165931739
 20
-5.020262665651458
 30
0.0
 10
37.70026574889268
 20
-4.87354525254245
 30
0.0
 10
36.67559798106986
 20
-4.537390535295989
 30
0.0
 10
35.64950073326215
 20
-3.993075162318837
 30
0.0
 10
34.62395653271491
 20
-3.286307568546211
 30
0.0
 10
33.5996271903334
 20
-2.440481152495807
 30
0.0
 10
32.57543835875369
 20
-1.49289291393723
 30
0.0
 10
31.55031293044181
 20
-0.4824763402735138
 30
0.0
 10
30.52401547765742
 20
0.5473983744979759
 30
0.0
 10
29.49906246821432
 20
1.555124891790152
 30
0.0
 10
28.4749110194642
 20
2.497428973699806
 30
0.0
 10
27.45048603350645
 20
3.335332519743503
 30
0.0
 10
26.42472777441683
 20
4.033209438638095
 30
0.0
 10
25.39879927008432
 20
4.562556785306223
 30
0.0
 10
24.37429438023369
 20
4.89960077284926
 30
0.0
 10
23.35014383159977
 20
5.036631201211963
 30
0.0
 10
22.32536959427226
 20
4.943047373243568
 30
0.0
 10
21.60836603032629
 20
4.784434131059834
 30
0.0
 10
21.23370645232233
 20
4.607108540352614
 30
0.0
 10
21.20110759632326
 20
4.591679570333447
 30
0.0
  0
LINE
  5
C2
330
1F
100
AcDbEntity
  8
0
  6
Continuous
 62
     1
370
    15
100
AcDbLine
 10
49.99999999999996
 20
-4.963512754521708
 30
0.0
 11
49.99999999999996
 21
-3.001656077998251
 31
0.0
  0
SPLINE
  5
C3
330
1F
100
AcDbEntity
  8
0
  6
Continuous
 62
     1
370
    15
100
AcDbSpline
210
0.0
220
0.0
230
1.0
 70
     8
 71
     3
 72
    18
 73
    14
 74
     0
 42
0.000000001
 43
0.00000001
 40
0.0
 40
0.0
 40
0.0
 40
0.0
 40
0.0920009803317049
 40
0.1840995713839318
 40
0.2762206988487754
 40
0.36823271119946
 40
0.4596733002779331
 40
0.551160776728646
 40
0.6427633744652471
 40
0.7343008413107507
 40
0.8257531493636121
 40
0.9172022845653076
 40
1.0
 40
1.0
 40
1.0
 40
1.0
 10
9.999999999999984
 20
1.318513316870301
 30
0.0
 10
10.34338411685541
 20
0.9816296630181911
 30
0.0
 10
11.03051667245652
 20
0.3075049302510416
 30
0.0
 10
12.06224361104679
 20
-0.7312054369275954
 30
0.0
 10
13.09424682815031
 20
-1.734739755273758
 30
0.0
 10
14.12284765142834
 20
-2.664496617976667
 30
0.0
 10
15.14896818302466
 20
-3.479685699250374
 30
0.0
 10
16.17370917178367
 20
-4.147922249490072
 30
0.0
 10
17.19991369363353
 20
-4.641704279896529
 30
0.0
 10
18.22529654583987
 20
-4.942630568835439
 30
0.0
 10
19.24958125856368
 20
-5.031845633722725
 30
0.0
 10
20.24117460413531
 20
-4.931006195430975
 30
0.0
 10
20.8918995086426
 20
-4.700981508801492
 30
0.0
 10
21.20110759632329
 20
-4.591679570333485
 30
0.0
  0
SPLINE
  5
C4
330
1F
100
AcDbEntity
  8
0
  6
Continuous
 62
     1
370
    15
100
AcDbSpline
210
0.0
220
0.0
230
1.0
 70
     8
 71
     3
 72
    22
 73
    18
 74
     0
 42
0.000000001
 43
0.00000001
 40
0.0
 40
0.0
 40
0.0
 40
0.0
 40
0.0499002353873575
 40
0.1178265376216799
 40
0.1856673879001031
 40
0.2534792139194633
 40
0.3213229383020892
 40
0.3892523866519249
 40
0.4571406679272722
 40
0.5249629391725913
 40
0.5927799784282808
 40
0.6606526361404249
 40
0.72858941318325
 40
0.7964447204847637
 40
0.8642576923771637
 40
0.9320892356158157
 40
1.0
 40
1.0
 40
1.0
 40
1.0
 10
34.89554345123239
 20
4.979555839154232
 30
0.0
 10
35.14680953562996
 20
4.976757256068123
 30
0.0
 10
35.74010959757363
 20
4.970149123807365
 30
0.0
 10
36.67561786230152
 20
4.715627497000446
 30
0.0
 10
37.70023558195845
 20
4.265436558143437
 30
0.0
 10
38.72436586150387
 20
3.629599034560692
 30
0.0
 10
39.74904998734859
 20
2.843416748000129
 30
0.0
 10
40.77520963237668
 20
1.938213173840992
 30
0.0
 10
41.80067270941436
 20
0.9515793393394119
 30
0.0
 10
42.82497150543421
 20
-0.0749896346627042
 30
0.0
 10
43.84917909868621
 20
-1.098324279903009
 30
0.0
 10
44.87437373445741
 20
-2.07588353696151
 30
0.0
 10
45.90065631274388
 20
-2.965625762383761
 30
0.0
 10
46.92554755796669
 20
-3.732885660218253
 30
0.0
 10
47.94968974017389
 20
-4.339577054217544
 30
0.0
 10
48.97415547302684
 20
-4.779532981368047
 30
0.0
 10
49.65791880633316
 20
-4.902162307396298
 30
0.0
 10
49.99999999999998
 20
-4.963512754521708
 30
0.0
  0
SPLINE
  5
C5
330
1F
100
AcDbEntity
  8
0
  6
Continuous
 62
   131
370
    15
100
AcDbSpline
210
0.0
220
0.0
230
1.0
 70
    24
 71
     3
 72
    14
 73
    10
 74
     0
 42
0.000000001
 43
0.00000001
 40
0.0
 40
0.0
 40
0.0
 40
0.0
 40
0.133312275418952
 40
0.2801648054036284
 40
0.4270173353883057
 40
0.5738698653729817
 40
0.7207223953576597
 40
0.8675749253421104
 40
1.0
 40
1.0
 40
1.0
 40
1.0
 10
9.999999999999998
 20
4.391489432082448
 30
0.0
 10
9.999999999999977
 20
4.223720084962491
 30
0.0
 10
9.99999999999995
 20
3.87114140201043
 30
0.0
 10
9.99999999999997
 20
3.2165611181816
 30
0.0
 10
9.999999999999984
 20
2.538952458973783
 30
0.0
 10
10.00000000000001
 20
1.920799684123444
 30
0.0
 10
9.999999999999915
 20
1.442122485635317
 30
0.0
 10
9.999999999999984
 20
1.140457902203819
 30
0.0
 10
9.999999999999957
 20
1.122506103202818
 30
0.0
 10
9.999999999999943
 20
1.113993897843583
 30
0.0
  0
SPLINE
  5
C6
330
1F
100
AcDbEntity
  8
0
  6
Continuous
 62
     1
370
    15
100
AcDbSpline
210
0.0
220
0.0
230
1.0
 70
     8
 71
     3
 72
    20
 73
    16
 74
     0
 42
0.000000001
 43
0.00000001
 40
0.0
 40
0.0
 40
0.0
 40
0.0
 40
0.0783664263004164
 40
0.1566414344270123
 40
0.2348950119298996
 40
0.313197442876689
 40
0.3915938867908785
 40
0.4699163394483369
 40
0.5481746105329911
 40
0.6264389191336921
 40
0.7047794007858975
 40
0.7831673876685074
 40
0.8614564523696416
 40
0.9397087075788394
 40
1.0
 40
1.0
 40
1.0
 40
1.0
 10
49.99999999999995
 20
-3.003920960295135
 30
0.0
 10
49.65791880632368
 20
-2.718540368128409
 30
0.0
 10
48.97415547299847
 20
-2.148112093866415
 30
0.0
 10
47.94968974028718
 20
-1.168296210716799
 30
0.0
 10
46.92554755754189
 20
-0.1487869750544929
 30
0.0
 10
45.90065631433173
 20
0.8796706778185978
 30
0.0
 10
44.87437372852578
 20
1.86989065111947
 30
0.0
 10
43.84917912079162
 20
2.782642820876484
 30
0.0
 10
42.82497142300595
 20
3.578610036991773
 30
0.0
 10
41.80067301720281
 20
4.224890449750864
 30
0.0
 10
40.77520848215552
 20
4.693723461280766
 30
0.0
 10
39.74905428049971
 20
4.967552560028055
 30
0.0
 10
38.72434986529239
 20
5.027297257315386
 30
0.0
 10
37.77876707298553
 20
4.909292085331441
 30
0.0
 10
37.17436960006128
 20
4.681885371981227
 30
0.0
 10
36.91134829447216
 20
4.582922663954482
 30
0.0
  0
SPLINE
  5
C7
330
1F
100
AcDbEntity
  8
0
  6
Continuous
 62
     1
370
    15
100
AcDbSpline
210
0.0
220
0.0
230
1.0
 70
     8
 71
     3
 72
    20
 73
    16
 74
     0
 42
0.000000001
 43
0.00000001
 40
0.0
 40
0.0
 40
0.0
 40
0.0
 40
0.0674156018139119
 40
0.1450566095037923
 40
0.2226306189100822
 40
0.3001377935314807
 40
0.3776476572841548
 40
0.4552296968687525
 40
0.5328669377555634
 40
0.6104066082761992
 40
0.6879065396813197
 40
0.7658907775070991
 40
0.8439674952036653
 40
0.9220251122967725
 40
1.0
 40
1.0
 40
1.0
 40
1.0
 10
23.21645570897622
 20
-4.988097324142822
 30
0.0
 10
22.91954271470079
 20
-4.9775875899099
 30
0.0
 10
22.28068181146217
 20
-4.954974034982043
 30
0.0
 10
21.29905870923047
 20
-4.666595205990703
 30
0.0
 10
20.27380061943537
 20
-4.189833573949189
 30
0.0
 10
19.24956934226432
 20
-3.532166599379926
 30
0.0
 10
18.22529974209358
 20
-2.728022030563177
 30
0.0
 10
17.19991283614833
 20
-1.809176290085668
 30
0.0
 10
16.17370940129405
 20
-0.8152184869216647
 30
0.0
 10
15.14896812160835
 20
0.2136821917703848
 30
0.0
 10
14.12284766799466
 20
1.235039631722624
 30
0.0
 10
13.09424682369529
 20
2.207614585343065
 30
0.0
 10
12.06224361223509
 20
3.08451734605618
 30
0.0
 10
11.03051667215986
 20
3.844305577852739
 30
0.0
 10
10.34338411675658
 20
4.209159296564767
 30
0.0
 10
9.999999999999998
 20
4.391489432082424
 30
0.0
  0
LINE
  5
C8
330
1F
100
AcDbEntity
  8
0
  6
Continuous
 62
   131
370
    15
100
AcDbLine
 10
49.99999999999996
 20
-5.00000000000002
 30
0.0
 11
49.99999999999996
 21
-4.963512754521708
 31
0.0
  0
LINE
  5
C9
330
1F
100
AcDbEntity
  8
0
  6
Continuous
 62
   131
370
    15
100
AcDbLine
 10
9.999999999999998
 20
0.1254511557142202
 30
0.0
 11
9.999999999999984
 21
1.318513316870307
 31
0.0
  0
LINE
  5
CA
330
1F
100
AcDbEntity
  8
0
  6
Continuous
 62
     1
370
    15
100
AcDbLine
 10
49.99999999999996
 20
1.959591794226571
 30
0.0
 11
49.99999999999996
 21
3.003920960295126
 31
0.0
  0
LINE
  5
CB
330
1F
100
AcDbEntity
  8
0
  6
Continuous
 62
   131
370
    15
100
AcDbLine
 10
49.99999999999996
 20
4.963512754521671
 30
0.0
 11
49.99999999999996
 21
4.999999999999982
 31
0.0
  0
LINE
  5
CC
330
1F
100
AcDbEntity
  8
0
  6
Continuous
 62
     1
370
    15
100
AcDbLine
 10
49.99999999999996
 20
-3.003920960295135
 30
0.0
 11
49.99999999999996
 21
-1.959591794226515
 31
0.0
  0
LINE
  5
CD
330
1F
100
AcDbEntity
  8
0
  6
Continuous
 62
   131
370
    15
100
AcDbLine
 10
9.999999999999998
 20
4.391489432082448
 30
0.0
 11
9.999999999999984
 21
4.836114565394246
 31
0.0
  0
LINE
  5
CE
330
1F
100
AcDbEntity
  8
0
  6
Continuous
 62
   131
370
    15
100
AcDbLine
 10
9.999999999999998
 20
-4.266038276368214
 30
0.0
 11
9.999999999999977
 21
-3.517601248523988
 31
0.0
  0
LINE
  5
CF
330
1F
100
AcDbEntity
  8
0
  6
Continuous
 62
   131
370
    15
100
AcDbLine
 10
9.000251194703583
 20
4.991983951842228
 30
0.0
 11
9.000251194703583
 21
4.999999999999981
 31
0.0
  0
SPLINE
  5
D0
330
1F
100
AcDbEntity
  8
0
  6
Continuous
 62
   131
370
    15
100
AcDbSpline
210
0.0
220
0.0
230
1.0
 70
     8
 71
     3
 72
     8
 73
     4
 74
     0
 42
0.000000001
 43
0.00000001
 40
0.0
 40
0.0
 40
0.0
 40
0.0
 40
1.0
 40
1.0
 40
1.0
 40
1.0
 10
9.99999999999997
 20
4.836114565394241
 30
0.0
 10
9.664976811607255
 20
4.920953503840876
 30
0.0
 10
9.334785721652787
 20
4.973082905959338
 30
0.0
 10
9.000251194703576
 20
4.991984395040377
 30
0.0
  0
SPLINE
  5
D1
330
1F
100
AcDbEntity
  8
0
  6
Continuous
 62
   131
370
    15
100
AcDbSpline
210
0.0
220
0.0
230
1.0
 70
     8
 71
     3
 72
     8
 73
     4
 74
     0
 42
0.000000001
 43
0.00000001
 40
0.0
 40
0.0
 40
0.0
 40
0.0
 40
1.0
 40
1.0
 40
1.0
 40
1.0
 10
9.99999999999997
 20
4.391489432082436
 30
0.0
 10
9.664976811607263
 20
4.551229754788832
 30
0.0
 10
9.334785721652809
 20
4.680869384575503
 30
0.0
 10
9.000251194703576
 20
4.779044721463634
 30
0.0
  0
LINE
  5
D2
330
1F
100
AcDbEntity
  8
0
  6
Continuous
 62
   131
370
    15
100
AcDbLine
 10
9.000251194703583
 20
2.25089573275914
 30
0.0
 11
9.000251194703583
 21
4.779048613185866
 31
0.0
  0
SPLINE
  5
D3
330
1F
100
AcDbEntity
  8
0
  6
Continuous
 62
   131
370
    15
100
AcDbSpline
210
0.0
220
0.0
230
1.0
 70
     8
 71
     3
 72
     8
 73
     4
 74
     0
 42
0.000000001
 43
0.00000001
 40
0.0
 40
0.0
 40
0.0
 40
0.0
 40
1.0
 40
1.0
 40
1.0
 40
1.0
 10
9.99999999999997
 20
1.318513316870306
 30
0.0
 10
9.664976811607255
 20
1.640792554337988
 30
0.0
 10
9.334785721652787
 20
1.952712716569906
 30
0.0
 10
9.000251194703576
 20
2.250902724562058
 30
0.0
  0
SPLINE
  5
D4
330
1F
100
AcDbEntity
  8
0
  6
Continuous
 62
   131
370
    15
100
AcDbSpline
210
0.0
220
0.0
230
1.0
 70
     8
 71
     3
 72
     8
 73
     4
 74
     0
 42
0.000000001
 43
0.00000001
 40
0.0
 40
0.0
 40
0.0
 40
0.0
 40
1.0
 40
1.0
 40
1.0
 40
1.0
 10
9.99999999999997
 20
0.1254511557142462
 30
0.0
 10
9.664976811607263
 20
0.4594511971791585
 30
0.0
 10
9.334785721652809
 20
0.7910042597146875
 30
0.0
 10
9.000251194703576
 20
1.116514637782759
 30
0.0
  0
LINE
  5
D5
330
1F
100
AcDbEntity
  8
0
  6
Continuous
 62
   131
370
    15
100
AcDbLine
 10
9.000251194703583
 20
-2.741088219083144
 30
0.0
 11
9.000251194703583
 21
1.116527541237778
 31
0.0
  0
SPLINE
  5
D6
330
1F
100
AcDbEntity
  8
0
  6
Continuous
 62
   131
370
    15
100
AcDbSpline
210
0.0
220
0.0
230
1.0
 70
     8
 71
     3
 72
     8
 73
     4
 74
     0
 42
0.000000001
 43
0.00000001
 40
0.0
 40
0.0
 40
0.0
 40
0.0
 40
1.0
 40
1.0
 40
1.0
 40
1.0
 10
9.99999999999997
 20
-3.517601248523984
 30
0.0
 10
9.664976811607255
 20
-3.280160949502941
 30
0.0
 10
9.334785721652787
 20
-3.020370189389486
 30
0.0
 10
9.000251194703576
 20
-2.741081670478375
 30
0.0
  0
SPLINE
  5
D7
330
1F
100
AcDbEntity
  8
0
  6
Continuous
 62
   131
370
    15
100
AcDbSpline
210
0.0
220
0.0
230
1.0
 70
     8
 71
     3
 72
     8
 73
     4
 74
     0
 42
0.000000001
 43
0.00000001
 40
0.0
 40
0.0
 40
0.0
 40
0.0
 40
1.0
 40
1.0
 40
1.0
 40
1.0
 10
9.99999999999997
 20
-4.266038276368176
 30
0.0
 10
9.664976811607263
 20
-4.091778557609662
 30
0.0
 10
9.334785721652809
 20
-3.889865124860804
 30
0.0
 10
9.000251194703576
 20
-3.662530083680866
 30
0.0
  0
LINE
  5
D8
330
1F
100
AcDbEntity
  8
0
  6
Continuous
 62
   131
370
    15
100
AcDbLine
 10
9.000251194703583
 20
-5.000000000000019
 30
0.0
 11
9.000251194703583
 21
-3.662521071948079
 31
0.0
  0
SPLINE
  5
D9
330
1F
100
AcDbEntity
  8
0
  6
Continuous
 62
   131
370
    15
100
AcDbSpline
210
0.0
220
0.0
230
1.0
 70
     8
 71
     3
 72
     8
 73
     4
 74
     0
 42
0.000000001
 43
0.00000001
 40
0.0
 40
0.0
 40
0.0
 40
0.0
 40
1.0
 40
1.0
 40
1.0
 40
1.0
 10
9.99999999999997
 20
-4.836114565394271
 30
0.0
 10
9.664976811607255
 20
-4.920953503840909
 30
0.0
 10
9.334785721652787
 20
-4.973082905959372
 30
0.0
 10
9.000251194703576
 20
-4.991984395040413
 30
0.0
  0
LINE
  5
DA
330
1F
100
AcDbEntity
  8
0
  6
Continuous
 62
   131
370
    15
100
AcDbLine
 10
-39.00000000000003
 20
-0.000000000000019
 30
0.0
 11
-39.00000000000003
 21
4.999999999999987
 31
0.0
  0
LINE
  5
DB
330
1F
100
AcDbEntity
  8
0
  6
Continuous
 62
   131
370
    15
100
AcDbLine
 10
-39.00000000000003
 20
-5.00000000000003
 30
0.0
 11
-39.00000000000003
 21
-0.000000000000019
 31
0.0
  0
LINE
  5
DC
330
1F
100
AcDbEntity
  8
0
  6
Continuous
 62
   131
370
    15
100
AcDbLine
 10
-40.00000000000003
 20
-0.000000000000019
 30
0.0
 11
-40.00000000000003
 21
3.999999999999985
 31
0.0
  0
LINE
  5
DD
330
1F
100
AcDbEntity
  8
0
  6
Continuous
 62
   131
370
    15
100
AcDbLine
 10
-40.00000000000003
 20
-4.000000000000022
 30
0.0
 11
-40.00000000000003
 21
-0.000000000000019
 31
0.0
  0
SPLINE
  5
DE
330
1F
100
AcDbEntity
  8
0
  6
Continuous
 62
   131
370
    15
100
AcDbSpline
210
0.0
220
0.0
230
1.0
 70
    24
 71
     3
 72
    15
 73
    11
 74
     0
 42
0.000000001
 43
0.00000001
 40
0.0
 40
0.0
 40
0.0
 40
0.0
 40
0.0934999130654523
 40
0.2330194090213432
 40
0.3725389049772194
 40
0.5120584009331298
 40
0.6515778968890281
 40
0.791097392844919
 40
0.9306168888007749
 40
1.0
 40
1.0
 40
1.0
 40
1.0
 10
9.99999999999997
 20
-3.517601248523984
 30
0.0
 10
9.999999999999984
 20
-3.42696559651901
 30
0.0
 10
9.99999999999997
 20
-3.201084466002033
 30
0.0
 10
10.00000000000001
 20
-2.689428891130571
 30
0.0
 10
9.999999999999998
 20
-2.030343090139721
 30
0.0
 10
9.999999999999957
 20
-1.347988054367445
 30
0.0
 10
9.999999999999936
 20
-0.7192086316424966
 30
0.0
 10
10.00000000000001
 20
-0.2285875000983235
 30
0.0
 10
9.999999999999964
 20
0.0642907341844326
 30
0.0
 10
9.999999999999957
 20
0.0965955475265351
 30
0.0
 10
9.999999999999977
 20
0.1073249897623679
 30
0.0
  0
SPLINE
  5
DF
330
1F
100
AcDbEntity
  8
0
  6
Continuous
 62
   131
370
    15
100
AcDbSpline
210
0.0
220
0.0
230
1.0
 70
    24
 71
     3
 72
    15
 73
    11
 74
     0
 42
0.000000001
 43
0.00000001
 40
0.0
 40
0.0
 40
0.0
 40
0.0
 40
0.0483119661636942
 40
0.1958227746383181
 40
0.3433335831129784
 40
0.4908443915876257
 40
0.6383552000622651
 40
0.7858660085368677
 40
0.933376817011552
 40
0.9999999999999999
 40
0.9999999999999999
 40
0.9999999999999999
 40
0.9999999999999999
 10
9.999999999999991
 20
1.128482615762834
 30
0.0
 10
9.999999999999991
 20
1.120371556109462
 30
0.0
 10
10.00000000000001
 20
1.087495017795984
 30
0.0
 10
10.00000000000001
 20
1.2621584660068
 30
0.0
 10
9.999999999999943
 20
1.63644014512408
 30
0.0
 10
9.99999999999995
 20
2.191610698865902
 30
0.0
 10
9.999999999999991
 20
2.845917384316206
 30
0.0
 10
9.99999999999995
 20
3.528304679225461
 30
0.0
 10
9.999999999999991
 20
4.052831016211272
 30
0.0
 10
9.999999999999977
 20
4.311126386478027
 30
0.0
 10
9.99999999999997
 20
4.39148943206817
 30
0.0
  0
SPLINE
  5
E0
330
1F
100
AcDbEntity
  8
0
  6
Continuous
 62
   131
370
    15
100
AcDbSpline
210
0.0
220
0.0
230
1.0
 70
    24
 71
     3
 72
    10
 73
     6
 74
     0
 42
0.000000001
 43
0.00000001
 40
0.0
 40
0.0
 40
0.0
 40
0.0
 40
0.4311980077260688
 40
0.8679241730406082
 40
1.0
 40
1.0
 40
1.0
 40
1.0
 10
9.99999999999997
 20
-4.836114565394272
 30
0.0
 10
9.999999999999957
 20
-4.761862906626695
 30
0.0
 10
9.999999999999929
 20
-4.612407648536349
 30
0.0
 10
9.999999999999991
 20
-4.441147902815992
 30
0.0
 10
9.999999999999977
 20
-4.349583948396864
 30
0.0
 10
9.999999999999977
 20
-4.328322797479948
 30
0.0
  0
LINE
  5
E1
330
1F
100
AcDbEntity
  8
중심선
 62
     1
100
AcDbLine
 10
-43.20259277488958
 20
-0.0000000000000241
 30
0.0
 11
52.99999999999997
 21
0.0000000000000296
 31
0.0
  0
CIRCLE
  5
E2
330
1F
100
AcDbEntity
  8
외형선
100
AcDbCircle
 10
0.0
 20
0.0
 30
0.0
 40
3.000000000000001
  0
INSERT
  5
E3
330
1F
100
AcDbEntity
  8
0
  6
Continuous
 62
     7
100
AcDbBlockReference
 66
     1
  2
블럭10
 10
-18.94078629968147
 20
-52.04717430164395
 30
0.0
  0
ATTRIB
  5
E4
330
E3
100
AcDbEntity
  8
FORMAT
 62
     2
100
AcDbText
 10
-35.06004733911702
 20
-49.97180738881176
 30
0.0
 40
4.233333333333333
  1
SEME7510040E [ 6 FLUTE ]
 41
0.75
  7
SLDTEXTSTYLE0
 11
-35.06004733911702
 21
-52.08847405547843
 31
0.0
100
AcDbAttribute
  2
AUTOATTR0
 70
     0
 74
     1
  0
SEQEND
  5
E5
330
E3
100
AcDbEntity
  8
0
  6
Continuous
 62
     7
  0
HATCH
  5
E6
330
1F
100
AcDbEntity
  8
중심선
100
AcDbHatch
 10
0.0
 20
0.0
 30
0.0
210
0.0
220
0.0
230
1.0
  2
SOLID
 70
     1
 71
     0
 91
        1
 92
        0
 93
        4
 72
     1
 10
-13.22587699530061
 20
-35.80000000000001
 11
-16.67215223913789
 21
-35.80000000000001
 72
     1
 10
-16.6721522391379
 20
-35.80000000000001
 11
-18.80038209834192
 21
-38.33632558057261
 72
     1
 10
-18.80038209834192
 20
-38.33632558057261
 11
-15.35407376939149
 21
-38.33628615127012
 72
     1
 10
-15.35407376939149
 20
-38.33628615127012
 11
-13.22587699530061
 21
-35.80000000000001
 97
        0
 75
     0
 76
     1
 98
        1
 10
3.998657388384428
 20
-0.0010749287239121
  0
HATCH
  5
E7
330
1F
100
AcDbEntity
  8
중심선
100
AcDbHatch
 10
0.0
 20
0.0
 30
0.0
210
0.0
220
0.0
230
1.0
  2
SOLID
 70
     1
 71
     0
 91
        1
 92
        0
 93
        4
 72
     1
 10
-8.213113004264661
 20
-35.80000000000001
 11
-11.65938824810194
 21
-35.80000000000001
 72
     1
 10
-11.65938824810194
 20
-35.80000000000001
 11
-16.19052625645934
 21
-41.20000000000003
 72
     1
 10
-16.19052625645934
 20
-41.20000000000003
 11
-12.74425101262205
 21
-41.20000000000003
 72
     1
 10
-12.74425101262205
 20
-41.20000000000003
 11
-8.213113004264661
 21
-35.80000000000001
 97
        0
 75
     0
 76
     1
 98
        1
 10
3.998657388384428
 20
-0.0010749287239121
  0
HATCH
  5
E8
330
1F
100
AcDbEntity
  8
중심선
100
AcDbHatch
 10
0.0
 20
0.0
 30
0.0
210
0.0
220
0.0
230
1.0
  2
SOLID
 70
     1
 71
     0
 91
        1
 92
        0
 93
        4
 72
     1
 10
-3.200349013228767
 20
-35.80000000000004
 11
-6.646624257065882
 21
-35.80000000000001
 72
     1
 10
-6.646624257065882
 20
-35.80000000000001
 11
-13.69506115895513
 21
-44.20000000000003
 72
     1
 10
-13.69506115895513
 20
-44.20000000000003
 11
-10.24878591511785
 21
-44.20000000000003
 72
     1
 10
-10.24878591511785
 20
-44.20000000000003
 11
-3.200349013228767
 21
-35.80000000000004
 97
        0
 75
     0
 76
     1
 98
        1
 10
3.998657388384428
 20
-0.0010749287239121
  0
HATCH
  5
E9
330
1F
100
AcDbEntity
  8
중심선
100
AcDbHatch
 10
0.0
 20
0.0
 30
0.0
210
0.0
220
0.0
230
1.0
  2
SOLID
 70
     1
 71
     0
 91
        1
 92
        0
 93
        6
 72
     3
 10
1.599541417783432
 20
-40.00000000005129
 11
3.960054785062284
 21
1.540882976769353E-10
 40
0.3939339440162627
 50
17.09539180608437
 51
320.0019657685081
 73
     0
 72
     1
 10
3.282541073484028
 20
-38.58789400463831
 11
5.587842947185066
 21
-36.6535672945904
 72
     3
 10
1.599541417730586
 20
-40.00000000000016
 11
6.60005478528683
 21
-1.278976924368180E-13
 40
0.636358354079598
 50
39.9987384933741
 51
368.4976242363725
 73
     1
 72
     1
 10
8.024873909631195
 20
-39.03999999993004
 11
0.2796087245665078
 21
-39.03999999993001
 72
     1
 10
0.2796087245665082
 20
-39.03999999993001
 11
0.2795836801205742
 21
-40.95999999992993
 72
     1
 10
0.2795836801205742
 20
-40.95999999992993
 11
4.720963449592611
 21
-40.9599999999299
 97
        0
 75
     0
 76
     1
 98
        1
 10
3.998657388384428
 20
-0.0010749287239121
  0
DIMENSION
  5
EA
330
1F
100
AcDbEntity
  8
치수문자_일반주서
100
AcDbDimension
  2
_D
 10
-57.62890613132345
 20
-5.000000000000092
 30
0.0
 11
-57.62890613132347
 21
-0.0000000000000166
 31
0.0
 70
   160
  1
%%c<>
 71
     2
 42
10.00000000000001
 52
-270.0
  3
SLDDIMSTYLE0
100
AcDbAlignedDimension
 13
-39.00000000000003
 23
4.999999999999986
 33
0.0
 14
-39.00000000000003
 24
-5.000000000000023
 34
0.0
 50
90.0000000000002
100
AcDbRotatedDimension
  0
DIMENSION
  5
F8
330
1F
100
AcDbEntity
  8
치수문자_일반주서
100
AcDbDimension
  2
_D_1
 10
59.99999999999997
 20
-4.999999999999984
 30
0.0
 11
59.99999999999995
 21
0.6594307500959716
 31
0.0
 70
   160
  1
%%c<>
 71
     2
 42
10.00000000000001
 52
-270.0
  3
SLDDIMSTYLE0
100
AcDbAlignedDimension
 13
49.99999999999996
 23
4.999999999999984
 33
0.0
 14
49.99999999999996
 24
-5.000000000000021
 34
0.0
 50
90.0000000000002
100
AcDbRotatedDimension
  0
DIMENSION
  5
105
330
1F
100
AcDbEntity
  8
치수문자_일반주서
100
AcDbDimension
  2
_D_2
 10
49.99999999999996
 20
48.33095518403605
 30
0.0
 11
26.36999510565234
 21
48.33095518403605
 31
0.0
 70
   160
  1
<>
 71
     2
 42
39.99999999999999
  3
SLDDIMSTYLE1
100
AcDbAlignedDimension
 13
9.99999999999997
 23
4.836114565394242
 33
0.0
 14
49.99999999999996
 24
4.963512754521671
 34
0.0
100
AcDbRotatedDimension
  0
DIMENSION
  5
110
330
1F
100
AcDbEntity
  8
치수문자_일반주서
100
AcDbDimension
  2
_D_3
 10
-40.00000000000002
 20
75.9081954153913
 30
0.0
 11
7.788346878584425
 21
75.9081954153913
 31
0.0
 70
   160
  1
<>
 71
     2
 42
90.0
  3
SLDDIMSTYLE1
100
AcDbAlignedDimension
 13
49.99999999999996
 23
4.963512754521671
 33
0.0
 14
-40.00000000000003
 24
3.999999999999985
 34
0.0
100
AcDbRotatedDimension
  0
INSERT
  5
120
330
1F
100
AcDbEntity
  8
외형선
100
AcDbBlockReference
  2
SW_DOWELSYMBOL_0
 10
0.0
 20
0.0
 30
0.0
  0
ENDSEC
  0
SECTION
  2
OBJECTS
  0
DICTIONARY
  5
C
330
0
100
AcDbDictionary
281
     1
  3
ACAD_GROUP
350
D
  3
ACAD_IMAGE_VARS
350
144
  3
ACAD_LAYOUT
350
1A
  3
ACAD_MLINESTYLE
350
17
  3
ACAD_PLOTSETTINGS
350
19
  3
ACAD_PLOTSTYLENAME
350
E
  3
ACAD_SCALELIST
350
47
  3
APPDATA
350
142
  3
DWGPROPS
350
14D
  0
DICTIONARY
  5
D
102
{ACAD_REACTORS
330
C
102
}
330
C
100
AcDbDictionary
281
     1
  0
RASTERVARIABLES
  5
144
102
{ACAD_REACTORS
330
C
102
}
330
C
100
AcDbRasterVariables
 90
        0
 70
     1
 71
     1
 72
     1
  0
DICTIONARY
  5
1A
102
{ACAD_REACTORS
330
C
102
}
330
C
100
AcDbDictionary
281
     1
  3
Layout1
350
1E
  3
Layout2
350
26
  3
Model
350
22
  0
DICTIONARY
  5
17
102
{ACAD_REACTORS
330
C
102
}
330
C
100
AcDbDictionary
281
     1
  3
Standard
350
18
  0
DICTIONARY
  5
19
102
{ACAD_REACTORS
330
C
102
}
330
C
100
AcDbDictionary
281
     1
  0
ACDBDICTIONARYWDFLT
  5
E
102
{ACAD_REACTORS
330
C
102
}
330
C
100
AcDbDictionary
281
     1
  3
Normal
350
F
100
AcDbDictionaryWithDefault
340
F
  0
DICTIONARY
  5
47
102
{ACAD_REACTORS
330
C
102
}
330
C
100
AcDbDictionary
281
     1
  3
A0
350
48
  3
A1
350
49
  3
A2
350
4A
  3
A3
350
4B
  3
A4
350
4C
  3
A5
350
4D
  3
A6
350
4E
  3
A7
350
4F
  3
A8
350
50
  3
A9
350
51
  3
B0
350
52
  3
B1
350
53
  3
B2
350
54
  3
B3
350
55
  3
B4
350
56
  3
B5
350
57
  3
B6
350
58
  3
B7
350
59
  3
B8
350
5A
  3
B9
350
5B
  3
C0
350
5C
  3
C1
350
5D
  3
C2
350
5E
  3
C3
350
5F
  3
C4
350
60
  3
C5
350
61
  3
C6
350
62
  3
C7
350
63
  3
C8
350
64
  3
C9
350
65
  3
D0
350
66
  3
D1
350
67
  3
D2
350
68
  0
DICTIONARY
  5
142
102
{ACAD_REACTORS
330
C
102
}
330
C
100
AcDbDictionary
281
     1
  0
XRECORD
  5
14D
102
{ACAD_REACTORS
330
C
102
}
330
C
100
AcDbXrecord
280
     1
  1
DWGPROPS COOKIE
  2

  3

  4

  6

  7

  8
12016016
  9

300
=
301
=
302
=
303
=
304
=
305
=
306
=
307
=
308
=
309
=
 40
0.0
 41
2458268.395962373
 42
2458270.006431262
  1

 90
        0
  0
LAYOUT
  5
1E
102
{ACAD_REACTORS
330
1A
102
}
330
1A
100
AcDbPlotSettings
  1

  2
none_device
  4

  6

 40
0.0
 41
0.0
 42
0.0
 43
0.0
 44
0.0
 45
0.0
 46
0.0
 47
0.0
 48
0.0
 49
0.0
140
0.0
141
0.0
142
1.0
143
1.0
 70
   688
 72
     1
 73
     0
 74
     5
  7

 75
    16
147
1.0
148
0.0
149
0.0
100
AcDbLayout
  1
Layout1
 70
     1
 71
     1
 10
0.0
 20
0.0
 11
420.0
 21
297.0
 12
0.0
 22
0.0
 32
0.0
 14
1.000000000000000E+20
 24
1.000000000000000E+20
 34
1.000000000000000E+20
 15
-1.000000000000000E+20
 25
-1.000000000000000E+20
 35
-1.000000000000000E+20
146
0.0
 13
0.0
 23
0.0
 33
0.0
 16
1.0
 26
0.0
 36
0.0
 17
0.0
 27
1.0
 37
0.0
 76
     0
330
1B
  0
LAYOUT
  5
26
102
{ACAD_REACTORS
330
1A
102
}
330
1A
100
AcDbPlotSettings
  1

  2
none_device
  4

  6

 40
0.0
 41
0.0
 42
0.0
 43
0.0
 44
0.0
 45
0.0
 46
0.0
 47
0.0
 48
0.0
 49
0.0
140
0.0
141
0.0
142
1.0
143
1.0
 70
   688
 72
     1
 73
     0
 74
     5
  7

 75
    16
147
1.0
148
0.0
149
0.0
100
AcDbLayout
  1
Layout2
 70
     1
 71
     2
 10
0.0
 20
0.0
 11
0.0
 21
0.0
 12
0.0
 22
0.0
 32
0.0
 14
0.0
 24
0.0
 34
0.0
 15
0.0
 25
0.0
 35
0.0
146
0.0
 13
0.0
 23
0.0
 33
0.0
 16
1.0
 26
0.0
 36
0.0
 17
0.0
 27
1.0
 37
0.0
 76
     0
330
23
  0
LAYOUT
  5
22
102
{ACAD_REACTORS
330
1A
102
}
330
1A
100
AcDbPlotSettings
  1

  2
none_device
  4
ANSI_A_(11.00_x_8.50_Inches)
  6

 40
6.35
 41
19.05
 42
6.35000508
 43
19.05000254
 44
279.4
 45
215.9
 46
140.8406555914746
 47
64.69051214189213
 48
0.0
 49
0.0
140
0.0
141
0.0
142
0.064170166093943
143
1.0
 70
  1696
 72
     0
 73
     0
 74
     0
  7

 75
     0
147
0.0235690232323232
148
0.0
149
0.0
100
AcDbLayout
  1
Model
 70
     1
 71
     0
 10
0.0
 20
0.0
 11
420.0
 21
297.0
 12
0.0
 22
0.0
 32
0.0
 14
-62.00390613132348
 24
-49.97180738881176
 34
0.0
 15
60.55033333333329
 25
80.2831954153913
 35
0.0
146
0.0
 13
0.0
 23
0.0
 33
0.0
 16
1.0
 26
0.0
 36
0.0
 17
0.0
 27
1.0
 37
0.0
 76
     0
330
1F
331
29
  0
MLINESTYLE
  5
18
102
{ACAD_REACTORS
330
17
102
}
330
17
100
AcDbMlineStyle
  2
Standard
 70
     0
  3

 62
   256
 51
90.0
 52
90.0
 71
     2
 49
0.5
 62
   256
  6
BYLAYER
 49
-0.5
 62
   256
  6
BYLAYER
  0
ACDBPLACEHOLDER
  5
F
102
{ACAD_REACTORS
330
E
102
}
330
E
  0
SCALE
  5
48
102
{ACAD_REACTORS
330
47
102
}
330
47
100
AcDbScale
 70
     0
300
1:1
140
1.0
141
1.0
290
     1
  0
SCALE
  5
49
102
{ACAD_REACTORS
330
47
102
}
330
47
100
AcDbScale
 70
     0
300
1:2
140
1.0
141
2.0
290
     0
  0
SCALE
  5
4A
102
{ACAD_REACTORS
330
47
102
}
330
47
100
AcDbScale
 70
     0
300
1:4
140
1.0
141
4.0
290
     0
  0
SCALE
  5
4B
102
{ACAD_REACTORS
330
47
102
}
330
47
100
AcDbScale
 70
     0
300
1:5
140
1.0
141
5.0
290
     0
  0
SCALE
  5
4C
102
{ACAD_REACTORS
330
47
102
}
330
47
100
AcDbScale
 70
     0
300
1:8
140
1.0
141
8.0
290
     0
  0
SCALE
  5
4D
102
{ACAD_REACTORS
330
47
102
}
330
47
100
AcDbScale
 70
     0
300
1:10
140
1.0
141
10.0
290
     0
  0
SCALE
  5
4E
102
{ACAD_REACTORS
330
47
102
}
330
47
100
AcDbScale
 70
     0
300
1:16
140
1.0
141
16.0
290
     0
  0
SCALE
  5
4F
102
{ACAD_REACTORS
330
47
102
}
330
47
100
AcDbScale
 70
     0
300
1:20
140
1.0
141
20.0
290
     0
  0
SCALE
  5
50
102
{ACAD_REACTORS
330
47
102
}
330
47
100
AcDbScale
 70
     0
300
1:30
140
1.0
141
30.0
290
     0
  0
SCALE
  5
51
102
{ACAD_REACTORS
330
47
102
}
330
47
100
AcDbScale
 70
     0
300
1:40
140
1.0
141
40.0
290
     0
  0
SCALE
  5
52
102
{ACAD_REACTORS
330
47
102
}
330
47
100
AcDbScale
 70
     0
300
1:50
140
1.0
141
50.0
290
     0
  0
SCALE
  5
53
102
{ACAD_REACTORS
330
47
102
}
330
47
100
AcDbScale
 70
     0
300
1:100
140
1.0
141
100.0
290
     0
  0
SCALE
  5
54
102
{ACAD_REACTORS
330
47
102
}
330
47
100
AcDbScale
 70
     0
300
2:1
140
2.0
141
1.0
290
     0
  0
SCALE
  5
55
102
{ACAD_REACTORS
330
47
102
}
330
47
100
AcDbScale
 70
     0
300
4:1
140
4.0
141
1.0
290
     0
  0
SCALE
  5
56
102
{ACAD_REACTORS
330
47
102
}
330
47
100
AcDbScale
 70
     0
300
8:1
140
8.0
141
1.0
290
     0
  0
SCALE
  5
57
102
{ACAD_REACTORS
330
47
102
}
330
47
100
AcDbScale
 70
     0
300
10:1
140
10.0
141
1.0
290
     0
  0
SCALE
  5
58
102
{ACAD_REACTORS
330
47
102
}
330
47
100
AcDbScale
 70
     0
300
100:1
140
100.0
141
1.0
290
     0
  0
SCALE
  5
59
102
{ACAD_REACTORS
330
47
102
}
330
47
100
AcDbScale
 70
     0
300
1/128" = 1'-0"
140
0.0078125
141
12.0
290
     0
  0
SCALE
  5
5A
102
{ACAD_REACTORS
330
47
102
}
330
47
100
AcDbScale
 70
     0
300
1/64" = 1'-0"
140
0.015625
141
12.0
290
     0
  0
SCALE
  5
5B
102
{ACAD_REACTORS
330
47
102
}
330
47
100
AcDbScale
 70
     0
300
1/32" = 1'-0"
140
0.03125
141
12.0
290
     0
  0
SCALE
  5
5C
102
{ACAD_REACTORS
330
47
102
}
330
47
100
AcDbScale
 70
     0
300
1/16" = 1'-0"
140
0.0625
141
12.0
290
     0
  0
SCALE
  5
5D
102
{ACAD_REACTORS
330
47
102
}
330
47
100
AcDbScale
 70
     0
300
3/32" = 1'-0"
140
0.09375
141
12.0
290
     0
  0
SCALE
  5
5E
102
{ACAD_REACTORS
330
47
102
}
330
47
100
AcDbScale
 70
     0
300
1/8" = 1'-0"
140
0.125
141
12.0
290
     0
  0
SCALE
  5
5F
102
{ACAD_REACTORS
330
47
102
}
330
47
100
AcDbScale
 70
     0
300
3/16" = 1'-0"
140
0.1875
141
12.0
290
     0
  0
SCALE
  5
60
102
{ACAD_REACTORS
330
47
102
}
330
47
100
AcDbScale
 70
     0
300
1/4" = 1'-0"
140
0.25
141
12.0
290
     0
  0
SCALE
  5
61
102
{ACAD_REACTORS
330
47
102
}
330
47
100
AcDbScale
 70
     0
300
3/8" = 1'-0"
140
0.375
141
12.0
290
     0
  0
SCALE
  5
62
102
{ACAD_REACTORS
330
47
102
}
330
47
100
AcDbScale
 70
     0
300
1/2" = 1'-0"
140
0.5
141
12.0
290
     0
  0
SCALE
  5
63
102
{ACAD_REACTORS
330
47
102
}
330
47
100
AcDbScale
 70
     0
300
3/4" = 1'-0"
140
0.75
141
12.0
290
     0
  0
SCALE
  5
64
102
{ACAD_REACTORS
330
47
102
}
330
47
100
AcDbScale
 70
     0
300
1" = 1'-0"
140
1.0
141
12.0
290
     0
  0
SCALE
  5
65
102
{ACAD_REACTORS
330
47
102
}
330
47
100
AcDbScale
 70
     0
300
1-1/2" = 1'-0"
140
1.5
141
12.0
290
     0
  0
SCALE
  5
66
102
{ACAD_REACTORS
330
47
102
}
330
47
100
AcDbScale
 70
     0
300
3" = 1'-0"
140
3.0
141
12.0
290
     0
  0
SCALE
  5
67
102
{ACAD_REACTORS
330
47
102
}
330
47
100
AcDbScale
 70
     0
300
6" = 1'-0"
140
6.0
141
12.0
290
     0
  0
SCALE
  5
68
102
{ACAD_REACTORS
330
47
102
}
330
47
100
AcDbScale
 70
     0
300
1'-0" = 1'-0"
140
12.0
141
12.0
290
     0
  0
ENDSEC
  0
EOF
