  0
SECTION
  2
HEADER
  9
$ACADVER
  1
AC1015
  9
$ACADMAINTVER
 70
     6
  9
$DWGCODEPAGE
  3
ANSI_949
  9
$INSBASE
 10
0.0
 20
0.0
 30
0.0
  9
$EXTMIN
 10
-62.00390613132345
 20
-49.97180738881176
 30
0.0
  9
$EXTMAX
 10
70.55033333333331
 20
80.2831954153913
 30
0.0
  9
$LIMMIN
 10
0.0
 20
0.0
  9
$LIMMAX
 10
420.0
 20
297.0
  9
$ORTHOMODE
 70
     1
  9
$REGENMODE
 70
     1
  9
$FILLMODE
 70
     1
  9
$QTEXTMODE
 70
     0
  9
$MIRRTEXT
 70
     1
  9
$LTSCALE
 40
1.0
  9
$ATTMODE
 70
     1
  9
$TEXTSIZE
 40
3.5
  9
$TRACEWID
 40
1.0
  9
$TEXTSTYLE
  7
Standard
  9
$CLAYER
  8
0
  9
$CELTYPE
  6
ByLayer
  9
$CECOLOR
 62
   256
  9
$CELTSCALE
 40
1.0
  9
$DISPSILH
 70
     0
  9
$DIMSCALE
 40
1.0
  9
$DIMASZ
 40
3.302
  9
$DIMEXO
 40
1.0
  9
$DIMDLI
 40
3.75
  9
$DIMRND
 40
0.0
  9
$DIMDLE
 40
0.0
  9
$DIMEXE
 40
1.0
  9
$DIMTP
 40
0.0
  9
$DIMTM
 40
0.0
  9
$DIMTXT
 40
3.5
  9
$DIMCEN
 40
2.5
  9
$DIMTSZ
 40
0.0
  9
$DIMTOL
 70
     0
  9
$DIMLIM
 70
     0
  9
$DIMTIH
 70
     1
  9
$DIMTOH
 70
     1
  9
$DIMSE1
 70
     0
  9
$DIMSE2
 70
     0
  9
$DIMTAD
 70
     1
  9
$DIMZIN
 70
     0
  9
$DIMBLK
  1

  9
$DIMASO
 70
     1
  9
$DIMSHO
 70
     1
  9
$DIMPOST
  1

  9
$DIMAPOST
  1

  9
$DIMALT
 70
     0
  9
$DIMALTD
 70
     3
  9
$DIMALTF
 40
0.0393700787401575
  9
$DIMLFAC
 40
1.0
  9
$DIMTOFL
 70
     1
  9
$DIMTVP
 40
0.0
  9
$DIMTIX
 70
     0
  9
$DIMSOXD
 70
     0
  9
$DIMSAH
 70
     0
  9
$DIMBLK1
  1

  9
$DIMBLK2
  1

  9
$DIMSTYLE
  2
ISO-25
  9
$DIMCLRD
 70
     0
  9
$DIMCLRE
 70
     0
  9
$DIMCLRT
 70
     0
  9
$DIMTFAC
 40
1.0
  9
$DIMGAP
 40
1.524
  9
$DIMJUST
 70
     0
  9
$DIMSD1
 70
     0
  9
$DIMSD2
 70
     0
  9
$DIMTOLJ
 70
     0
  9
$DIMTZIN
 70
     0
  9
$DIMALTZ
 70
     0
  9
$DIMALTTZ
 70
     0
  9
$DIMUPT
 70
     0
  9
$DIMDEC
 70
     2
  9
$DIMTDEC
 70
     2
  9
$DIMALTU
 70
     2
  9
$DIMALTTD
 70
     3
  9
$DIMTXSTY
  7
Standard
  9
$DIMAUNIT
 70
     0
  9
$DIMADEC
 70
     2
  9
$DIMALTRND
 40
0.0
  9
$DIMAZIN
 70
     0
  9
$DIMDSEP
 70
    44
  9
$DIMATFIT
 70
     3
  9
$DIMFRAC
 70
     0
  9
$DIMLDRBLK
  1

  9
$DIMLUNIT
 70
     2
  9
$DIMLWD
 70
    -2
  9
$DIMLWE
 70
    -2
  9
$DIMTMOVE
 70
     0
  9
$LUNITS
 70
     2
  9
$LUPREC
 70
     2
  9
$SKETCHINC
 40
1.0
  9
$FILLETRAD
 40
10.0
  9
$AUNITS
 70
     0
  9
$AUPREC
 70
     2
  9
$MENU
  1
.
  9
$ELEVATION
 40
0.0
  9
$PELEVATION
 40
0.0
  9
$THICKNESS
 40
0.0
  9
$LIMCHECK
 70
     0
  9
$CHAMFERA
 40
0.0
  9
$CHAMFERB
 40
0.0
  9
$CHAMFERC
 40
0.0
  9
$CHAMFERD
 40
0.0
  9
$SKPOLY
 70
     0
  9
$TDCREATE
 40
2458268.771337697
  9
$TDUCREATE
 40
2458268.396337697
  9
$TDUPDATE
 40
2458270.380896632
  9
$TDUUPDATE
 40
2458270.005896632
  9
$TDINDWG
 40
0.0005189352
  9
$TDUSRTIMER
 40
2458270.005377893
  9
$USRTIMER
 70
     1
  9
$ANGBASE
 50
0.0
  9
$ANGDIR
 70
     0
  9
$PDMODE
 70
     0
  9
$PDSIZE
 40
-1.0
  9
$PLINEWID
 40
0.0
  9
$SPLFRAME
 70
     0
  9
$SPLINETYPE
 70
     6
  9
$SPLINESEGS
 70
     8
  9
$HANDSEED
  5
15F
  9
$SURFTAB1
 70
     6
  9
$SURFTAB2
 70
     6
  9
$SURFTYPE
 70
     6
  9
$SURFU
 70
     6
  9
$SURFV
 70
     6
  9
$UCSBASE
  2

  9
$UCSNAME
  2

  9
$UCSORG
 10
0.0
 20
0.0
 30
0.0
  9
$UCSXDIR
 10
1.0
 20
0.0
 30
0.0
  9
$UCSYDIR
 10
0.0
 20
1.0
 30
0.0
  9
$UCSORTHOREF
  2

  9
$UCSORTHOVIEW
 70
     0
  9
$UCSORGTOP
 10
0.0
 20
0.0
 30
0.0
  9
$UCSORGBOTTOM
 10
0.0
 20
0.0
 30
0.0
  9
$UCSORGLEFT
 10
0.0
 20
0.0
 30
0.0
  9
$UCSORGRIGHT
 10
0.0
 20
0.0
 30
0.0
  9
$UCSORGFRONT
 10
0.0
 20
0.0
 30
0.0
  9
$UCSORGBACK
 10
0.0
 20
0.0
 30
0.0
  9
$PUCSBASE
  2

  9
$PUCSNAME
  2

  9
$PUCSORG
 10
0.0
 20
0.0
 30
0.0
  9
$PUCSXDIR
 10
1.0
 20
0.0
 30
0.0
  9
$PUCSYDIR
 10
0.0
 20
1.0
 30
0.0
  9
$PUCSORTHOREF
  2

  9
$PUCSORTHOVIEW
 70
     0
  9
$PUCSORGTOP
 10
0.0
 20
0.0
 30
0.0
  9
$PUCSORGBOTTOM
 10
0.0
 20
0.0
 30
0.0
  9
$PUCSORGLEFT
 10
0.0
 20
0.0
 30
0.0
  9
$PUCSORGRIGHT
 10
0.0
 20
0.0
 30
0.0
  9
$PUCSORGFRONT
 10
0.0
 20
0.0
 30
0.0
  9
$PUCSORGBACK
 10
0.0
 20
0.0
 30
0.0
  9
$USERI1
 70
     0
  9
$USERI2
 70
     0
  9
$USERI3
 70
     0
  9
$USERI4
 70
     0
  9
$USERI5
 70
     0
  9
$USERR1
 40
0.0
  9
$USERR2
 40
0.0
  9
$USERR3
 40
0.0
  9
$USERR4
 40
0.0
  9
$USERR5
 40
0.0
  9
$WORLDVIEW
 70
     1
  9
$SHADEDGE
 70
     3
  9
$SHADEDIF
 70
    70
  9
$TILEMODE
 70
     1
  9
$MAXACTVP
 70
    64
  9
$PINSBASE
 10
0.0
 20
0.0
 30
0.0
  9
$PLIMCHECK
 70
     0
  9
$PEXTMIN
 10
1.000000000000000E+20
 20
1.000000000000000E+20
 30
1.000000000000000E+20
  9
$PEXTMAX
 10
-1.000000000000000E+20
 20
-1.000000000000000E+20
 30
-1.000000000000000E+20
  9
$PLIMMIN
 10
0.0
 20
0.0
  9
$PLIMMAX
 10
0.0
 20
0.0
  9
$UNITMODE
 70
     0
  9
$VISRETAIN
 70
     1
  9
$PLINEGEN
 70
     0
  9
$PSLTSCALE
 70
     1
  9
$TREEDEPTH
 70
  3020
  9
$CMLSTYLE
  2
Standard
  9
$CMLJUST
 70
     0
  9
$CMLSCALE
 40
20.0
  9
$PROXYGRAPHICS
 70
     1
  9
$MEASUREMENT
 70
     1
  9
$CELWEIGHT
370
    -1
  9
$ENDCAPS
280
     0
  9
$JOINSTYLE
280
     0
  9
$LWDISPLAY
290
     1
  9
$INSUNITS
 70
     4
  9
$HYPERLINKBASE
  1

  9
$STYLESHEET
  1

  9
$XEDIT
290
     1
  9
$CEPSNTYPE
380
     0
  9
$PSTYLEMODE
290
     1
  9
$FINGERPRINTGUID
  2
{37F78214-D28D-450C-94DB-7EF16ACA84ED}
  9
$VERSIONGUID
  2
{FAEB1C32-E019-11D5-929B-00C0DF256EC4}
  9
$EXTNAMES
290
     1
  9
$PSVPSCALE
 40
0.0
  9
$OLESTARTUP
290
     0
  0
ENDSEC
  0
SECTION
  2
CLASSES
  0
CLASS
  1
ACDBDICTIONARYWDFLT
  2
AcDbDictionaryWithDefault
  3
ObjectDBX Classes
 90
        0
280
     0
281
     0
  0
CLASS
  1
VISUALSTYLE
  2
AcDbVisualStyle
  3
ObjectDBX Classes
 90
     4095
280
     0
281
     0
  0
CLASS
  1
MATERIAL
  2
AcDbMaterial
  3
ObjectDBX Classes
 90
     1153
280
     0
281
     0
  0
CLASS
  1
SCALE
  2
AcDbScale
  3
ObjectDBX Classes
 90
     1153
280
     0
281
     0
  0
CLASS
  1
SUN
  2
AcDbSun
  3
SCENEOE
 90
     1153
280
     0
281
     0
  0
CLASS
  1
ACDBPLACEHOLDER
  2
AcDbPlaceHolder
  3
ObjectDBX Classes
 90
        0
280
     0
281
     0
  0
CLASS
  1
LAYOUT
  2
AcDbLayout
  3
ObjectDBX Classes
 90
        0
280
     0
281
     0
  0
CLASS
  1
TABLESTYLE
  2
AcDbTableStyle
  3
ObjectDBX Classes
 90
     4095
280
     0
281
     0
  0
CLASS
  1
MLEADERSTYLE
  2
AcDbMLeaderStyle
  3
ACDB_MLEADERSTYLE_CLASS
 90
     4095
280
     0
281
     0
  0
CLASS
  1
RASTERVARIABLES
  2
AcDbRasterVariables
  3
ISM
 90
        0
280
     0
281
     0
  0
ENDSEC
  0
SECTION
  2
TABLES
  0
TABLE
  2
VPORT
  5
8
330
0
100
AcDbSymbolTable
 70
     1
  0
VPORT
  5
29
330
8
100
AcDbSymbolTableRecord
100
AcDbViewportTableRecord
  2
*Active
 70
     0
 10
0.0
 20
0.0
 11
1.0
 21
1.0
 12
8.177561412450796
 22
-0.5064395243536848
 13
0.0
 23
0.0
 14
10.0
 24
10.0
 15
10.0
 25
10.0
 16
0.0
 26
0.0
 36
1.0
 17
0.0
 27
0.0
 37
0.0
 40
22.67569022538801
 41
1.627413127413127
 42
50.0
 43
0.0
 44
0.0
 50
0.0
 51
0.0
 71
    16
 72
  2000
 73
     1
 74
     3
 75
     0
 76
     0
 77
     0
 78
     0
281
     0
 65
     1
110
0.0
120
0.0
130
0.0
111
1.0
121
0.0
131
0.0
112
0.0
122
1.0
132
0.0
 79
     0
146
0.0
  0
ENDTAB
  0
TABLE
  2
LTYPE
  5
5
330
0
100
AcDbSymbolTable
 70
     6
  0
LTYPE
  5
14
330
5
100
AcDbSymbolTableRecord
100
AcDbLinetypeTableRecord
  2
ByBlock
 70
     0
  3

 72
    65
 73
     0
 40
0.0
  0
LTYPE
  5
15
330
5
100
AcDbSymbolTableRecord
100
AcDbLinetypeTableRecord
  2
ByLayer
 70
     0
  3

 72
    65
 73
     0
 40
0.0
  0
LTYPE
  5
16
330
5
100
AcDbSymbolTableRecord
100
AcDbLinetypeTableRecord
  2
Continuous
 70
     0
  3
Solid line
 72
    65
 73
     0
 40
0.0
  0
LTYPE
  5
6A
330
5
100
AcDbSymbolTableRecord
100
AcDbLinetypeTableRecord
  2
HIDDEN
 70
     0
  3
Hidden __ __ __ __ __ __ __ __ __ __ __ __ __ __
 72
    65
 73
     2
 40
1.905
 49
1.27
 74
     0
 49
-0.635
 74
     0
  0
LTYPE
  5
6B
330
5
100
AcDbSymbolTableRecord
100
AcDbLinetypeTableRecord
  2
PHANTOM
 70
     0
  3
Phantom ______  __  __  ______  __  __  ______
 72
    65
 73
     6
 40
12.7
 49
6.35
 74
     0
 49
-1.27
 74
     0
 49
1.27
 74
     0
 49
-1.27
 74
     0
 49
1.27
 74
     0
 49
-1.27
 74
     0
  0
LTYPE
  5
6C
330
5
100
AcDbSymbolTableRecord
100
AcDbLinetypeTableRecord
  2
CENTER
 70
     0
  3
Center ____ _ ____ _ ____ _ ____ _ ____ _ ____
 72
    65
 73
     4
 40
10.16
 49
6.35
 74
     0
 49
-1.27
 74
     0
 49
1.27
 74
     0
 49
-1.27
 74
     0
  0
LTYPE
  5
6D
330
5
100
AcDbSymbolTableRecord
100
AcDbLinetypeTableRecord
  2
CENTERX2
 70
     0
  3
Center (2x) ________  __  ________  __  _____
 72
    65
 73
     4
 40
20.32
 49
12.7
 74
     0
 49
-2.54
 74
     0
 49
2.54
 74
     0
 49
-2.54
 74
     0
  0
LTYPE
  5
6E
330
5
100
AcDbSymbolTableRecord
100
AcDbLinetypeTableRecord
  2
DOT2
 70
     0
  3
Dot (.5x) ........................................
 72
    65
 73
     2
 40
0.635
 49
0.0
 74
     0
 49
-0.635
 74
     0
  0
ENDTAB
  0
TABLE
  2
LAYER
  5
2
330
0
100
AcDbSymbolTable
 70
    17
  0
LAYER
  5
10
330
2
100
AcDbSymbolTableRecord
100
AcDbLayerTableRecord
  2
0
 70
     0
 62
     7
  6
Continuous
370
    -3
390
F
  0
LAYER
  5
6F
330
2
100
AcDbSymbolTableRecord
100
AcDbLayerTableRecord
  2
FORMAT
 70
     0
 62
     2
  6
Continuous
370
    -3
390
F
  0
LAYER
  5
70
330
2
100
AcDbSymbolTableRecord
100
AcDbLayerTableRecord
  2
외형선
 70
     0
 62
   100
  6
Continuous
370
    30
390
F
  0
LAYER
  5
71
330
2
100
AcDbSymbolTableRecord
100
AcDbLayerTableRecord
  2
숨은선
 70
     0
 62
     2
  6
HIDDEN
370
    15
390
F
  0
LAYER
  5
72
330
2
100
AcDbSymbolTableRecord
100
AcDbLayerTableRecord
  2
중심선
 70
     0
 62
     1
  6
CENTERX2
370
    -3
390
F
  0
LAYER
  5
73
330
2
100
AcDbSymbolTableRecord
100
AcDbLayerTableRecord
  2
파단선
 70
     0
 62
     4
  6
Continuous
370
    -3
390
F
  0
LAYER
  5
74
330
2
100
AcDbSymbolTableRecord
100
AcDbLayerTableRecord
  2
해칭선
 70
     0
 62
     4
  6
Continuous
370
    -3
390
F
  0
LAYER
  5
75
330
2
100
AcDbSymbolTableRecord
100
AcDbLayerTableRecord
  2
가는실선
 70
     0
 62
     4
  6
Continuous
370
    -3
390
F
  0
LAYER
  5
76
330
2
100
AcDbSymbolTableRecord
100
AcDbLayerTableRecord
  2
치수_보조선
 70
     0
 62
     4
  6
Continuous
370
    -3
390
F
  0
LAYER
  5
77
330
2
100
AcDbSymbolTableRecord
100
AcDbLayerTableRecord
  2
치수문자_일반주서
 70
     0
 62
     7
  6
Continuous
370
    15
390
F
  0
LAYER
  5
78
330
2
100
AcDbSymbolTableRecord
100
AcDbLayerTableRecord
  2
개별주서
 70
     0
 62
   100
  6
Continuous
370
    30
390
F
  0
LAYER
  5
79
330
2
100
AcDbSymbolTableRecord
100
AcDbLayerTableRecord
  2
중간선
 70
     0
 62
     2
  6
Continuous
370
    15
390
F
  0
LAYER
  5
7A
330
2
100
AcDbSymbolTableRecord
100
AcDbLayerTableRecord
  2
윤곽선
 70
     0
 62
     3
  6
Continuous
370
    40
390
F
  0
LAYER
  5
7B
330
2
100
AcDbSymbolTableRecord
100
AcDbLayerTableRecord
  2
중심마크
 70
     0
 62
   100
  6
Continuous
370
    30
390
F
  0
LAYER
  5
7C
330
2
100
AcDbSymbolTableRecord
100
AcDbLayerTableRecord
  2
가상선
 70
     0
 62
     4
  6
PHANTOM
370
    -3
390
F
  0
LAYER
  5
7D
330
2
100
AcDbSymbolTableRecord
100
AcDbLayerTableRecord
  2
특수지정선
 70
     0
 62
     5
  6
CENTERX2
370
    60
390
F
  0
LAYER
  5
156
330
2
100
AcDbSymbolTableRecord
100
AcDbLayerTableRecord
  2
Defpoints
 70
     0
 62
     7
  6
Continuous
290
     0
370
    -3
390
F
  0
ENDTAB
  0
TABLE
  2
STYLE
  5
3
330
0
100
AcDbSymbolTable
 70
     2
  0
STYLE
  5
11
330
3
100
AcDbSymbolTableRecord
100
AcDbTextStyleTableRecord
  2
Standard
 70
     0
 40
0.0
 41
1.0
 50
0.0
 71
     0
 42
3.5
  3
txt
  4

  0
STYLE
  5
93
330
3
100
AcDbSymbolTableRecord
100
AcDbTextStyleTableRecord
  2
SLDTEXTSTYLE0
 70
     0
 40
0.0
 41
0.75
 50
0.0
 71
     0
 42
3.5
  3
TXT
  4

  0
ENDTAB
  0
TABLE
  2
VIEW
  5
6
330
0
100
AcDbSymbolTable
 70
     0
  0
ENDTAB
  0
TABLE
  2
UCS
  5
7
330
0
100
AcDbSymbolTable
 70
     0
  0
ENDTAB
  0
TABLE
  2
APPID
  5
9
330
0
100
AcDbSymbolTable
 70
     1
  0
APPID
  5
12
330
9
100
AcDbSymbolTableRecord
100
AcDbRegAppTableRecord
  2
ACAD
 70
     0
  0
ENDTAB
  0
TABLE
  2
DIMSTYLE
  5
A
330
0
100
AcDbSymbolTable
 70
     3
100
AcDbDimStyleTable
  0
DIMSTYLE
105
27
330
A
100
AcDbSymbolTableRecord
100
AcDbDimStyleTableRecord
  2
ISO-25
 70
     0
 41
2.5
 42
0.625
 43
3.75
 44
1.25
 73
     0
 74
     0
 77
     1
 78
     8
140
2.5
141
2.5
143
0.03937007874016
147
0.625
171
     3
172
     1
178
     0
271
     2
272
     2
274
     3
278
    44
283
     0
284
     8
340
11
  0
DIMSTYLE
105
FC
102
{ACAD_REACTORS
330
FB
330
109
102
}
330
A
100
AcDbSymbolTableRecord
100
AcDbDimStyleTableRecord
  2
SLDDIMSTYLE0
 70
     0
 41
3.302
 44
0.0
 45
0.000000001
 73
     0
 74
     0
 77
     1
 78
    12
 79
     3
140
3.5
147
0.875
172
     1
173
     1
178
     0
271
     2
272
     2
276
     2
284
    12
289
     0
340
93
  0
DIMSTYLE
105
117
102
{ACAD_REACTORS
330
116
330
121
102
}
330
A
100
AcDbSymbolTableRecord
100
AcDbDimStyleTableRecord
  2
SLDDIMSTYLE1
 70
     0
 41
3.302
 44
0.0
 45
0.000000001
 73
     0
 74
     0
 77
     1
 78
    12
 79
     3
140
3.5
147
0.875
173
     1
178
     0
271
     2
272
     2
276
     2
284
    12
340
93
  0
ENDTAB
  0
TABLE
  2
BLOCK_RECORD
  5
1
330
0
100
AcDbSymbolTable
 70
     7
  0
BLOCK_RECORD
  5
1F
330
1
100
AcDbSymbolTableRecord
100
AcDbBlockTableRecord
  2
*Model_Space
340
22
  0
BLOCK_RECORD
  5
1B
330
1
100
AcDbSymbolTableRecord
100
AcDbBlockTableRecord
  2
*Paper_Space
340
1E
  0
BLOCK_RECORD
  5
23
330
1
100
AcDbSymbolTableRecord
100
AcDbBlockTableRecord
  2
*Paper_Space0
340
26
  0
BLOCK_RECORD
  5
7E
330
1
100
AcDbSymbolTableRecord
100
AcDbBlockTableRecord
  2
블럭10
340
0
102
{BLKREFS
331
F4
102
}
  0
BLOCK_RECORD
  5
FD
330
1
100
AcDbSymbolTableRecord
100
AcDbBlockTableRecord
  2
_D
340
0
  0
BLOCK_RECORD
  5
10A
330
1
100
AcDbSymbolTableRecord
100
AcDbBlockTableRecord
  2
_D_1
340
0
  0
BLOCK_RECORD
  5
118
330
1
100
AcDbSymbolTableRecord
100
AcDbBlockTableRecord
  2
_D_2
340
0
  0
BLOCK_RECORD
  5
122
330
1
100
AcDbSymbolTableRecord
100
AcDbBlockTableRecord
  2
_D_3
340
0
  0
BLOCK_RECORD
  5
12B
330
1
100
AcDbSymbolTableRecord
100
AcDbBlockTableRecord
  2
SW_DOWELSYMBOL_0
340
0
102
{BLKREFS
331
131
102
}
  0
ENDTAB
  0
ENDSEC
  0
SECTION
  2
BLOCKS
  0
BLOCK
  5
20
330
1F
100
AcDbEntity
  8
0
100
AcDbBlockBegin
  2
*Model_Space
 70
     0
 10
0.0
 20
0.0
 30
0.0
  3
*Model_Space
  1
*Model_Space
  0
ENDBLK
  5
21
330
1F
100
AcDbEntity
  8
0
100
AcDbBlockEnd
  0
BLOCK
  5
1C
330
1B
100
AcDbEntity
 67
     1
  8
0
100
AcDbBlockBegin
  2
*Paper_Space
 70
     0
 10
0.0
 20
0.0
 30
0.0
  3
*Paper_Space
  1
*Paper_Space
  0
ENDBLK
  5
1D
330
1B
100
AcDbEntity
 67
     1
  8
0
100
AcDbBlockEnd
  0
BLOCK
  5
24
330
23
100
AcDbEntity
  8
0
100
AcDbBlockBegin
  2
*Paper_Space0
 70
     0
 10
0.0
 20
0.0
 30
0.0
  3
*Paper_Space0
  1
*Paper_Space0
  0
ENDBLK
  5
25
330
23
100
AcDbEntity
  8
0
100
AcDbBlockEnd
  0
BLOCK
  5
7F
330
7E
100
AcDbEntity
  8
0
100
AcDbBlockBegin
  2
블럭10
 70
     2
 10
0.0
 20
0.0
 30
0.0
  3
블럭10
  1
블럭10
  0
ELLIPSE
  5
81
330
7E
100
AcDbEntity
  8
중심선
100
AcDbEllipse
 10
20.54032771741204
 20
12.0471743016438
 30
0.0
 11
6.600054785286829
 21
-1.261213355974178E-13
 31
0.0
210
0.0
220
0.0
230
1.0
 40
0.636358354079598
 41
0.9219305317359503
 42
6.513795318482858
  0
ELLIPSE
  5
82
330
7E
100
AcDbEntity
  8
중심선
100
AcDbEllipse
 10
20.54032771746488
 20
12.04717430159265
 30
0.0
 11
3.960054785062283
 21
1.540847449632565E-10
 31
0.0
210
0.0
220
0.0
230
1.0
 40
0.3939339440162632
 41
1.131841032648279
 42
5.62031148352944
  0
LINE
  5
83
330
7E
100
AcDbEntity
  8
중심선
100
AcDbLine
 10
2.268634060543552
 20
16.24717430164393
 30
0.0
 11
5.714909304380834
 21
16.24717430164393
 31
0.0
  0
LINE
  5
84
330
7E
100
AcDbEntity
  8
중심선
100
AcDbLine
 10
5.245725140726316
 20
7.84717430164391
 30
0.0
 11
8.692000384563599
 21
7.84717430164391
 31
0.0
  0
LINE
  5
85
330
7E
100
AcDbEntity
  8
중심선
100
AcDbLine
 10
15.74043728645272
 20
16.24717430164393
 30
0.0
 11
8.692000384563599
 21
7.84717430164391
 31
0.0
  0
LINE
  5
86
330
7E
100
AcDbEntity
  8
중심선
100
AcDbLine
 10
0.1404042013395286
 20
13.71084872107135
 30
0.0
 11
3.58671253028996
 21
13.71088815037384
 31
0.0
  0
LINE
  5
87
330
7E
100
AcDbEntity
  8
중심선
100
AcDbLine
 10
2.750260043222114
 20
10.84717430164391
 30
0.0
 11
6.196535287059397
 21
10.84717430164391
 31
0.0
  0
LINE
  5
88
330
7E
100
AcDbEntity
  8
중심선
100
AcDbLine
 10
12.29416204261559
 20
16.24717430164393
 30
0.0
 11
5.245725140726316
 21
7.84717430164391
 31
0.0
  0
LINE
  5
89
330
7E
100
AcDbEntity
  8
중심선
100
AcDbLine
 10
10.72767329541681
 20
16.24717430164393
 30
0.0
 11
6.196535287059397
 21
10.84717430164391
 31
0.0
  0
LINE
  5
8A
330
7E
100
AcDbEntity
  8
중심선
100
AcDbLine
 10
7.28139805157953
 20
16.24717430164393
 30
0.0
 11
2.750260043222114
 21
10.84717430164391
 31
0.0
  0
LINE
  5
8B
330
7E
100
AcDbEntity
  8
중심선
100
AcDbLine
 10
5.714909304380834
 20
16.24717430164393
 30
0.0
 11
3.58671253028996
 21
13.71088815037384
 31
0.0
  0
LINE
  5
8C
330
7E
100
AcDbEntity
  8
중심선
100
AcDbLine
 10
2.268634060543552
 20
16.24717430164393
 30
0.0
 11
0.1404042013395286
 21
13.71084872107135
 31
0.0
  0
LINE
  5
8D
330
7E
100
AcDbEntity
  8
중심선
100
AcDbLine
 10
7.28139805157953
 20
16.24717430164393
 30
0.0
 11
10.72767329541681
 21
16.24717430164393
 31
0.0
  0
LINE
  5
8E
330
7E
100
AcDbEntity
  8
중심선
100
AcDbLine
 10
12.29416204261559
 20
16.24717430164393
 30
0.0
 11
15.74043728645272
 21
16.24717430164393
 31
0.0
  0
LINE
  5
8F
330
7E
100
AcDbEntity
  8
중심선
100
AcDbLine
 10
19.22036997980202
 20
11.08717430171403
 30
0.0
 11
23.66174974927406
 21
11.08717430171406
 31
0.0
  0
LINE
  5
90
330
7E
100
AcDbEntity
  8
중심선
100
AcDbLine
 10
19.22039502424796
 20
13.00717430171391
 30
0.0
 11
19.22036997980202
 21
11.08717430171403
 31
0.0
  0
LINE
  5
91
330
7E
100
AcDbEntity
  8
중심선
100
AcDbLine
 10
19.22039502424796
 20
13.00717430171391
 30
0.0
 11
26.96566020931264
 21
13.00717430171391
 31
0.0
  0
LINE
  5
92
330
7E
100
AcDbEntity
  8
중심선
100
AcDbLine
 10
22.22332737316547
 20
13.45928029700563
 30
0.0
 11
24.52862924686651
 21
15.39360700705356
 31
0.0
  0
ATTDEF
  5
94
330
7E
100
AcDbEntity
  8
FORMAT
 62
     2
100
AcDbText
 10
-16.11926103943555
 20
2.075366912832191
 30
0.0
 40
4.233333333333333
  1
SEME7510050E [ 6 FLUTE ]
 41
0.75
  7
SLDTEXTSTYLE0
 11
-16.11926103943555
 21
-0.0412997538344756
 31
0.0
100
AcDbAttributeDefinition
  3

  2
AUTOATTR0
 70
     0
 74
     1
  0
ENDBLK
  5
80
330
7E
100
AcDbEntity
  8
0
100
AcDbBlockEnd
  0
BLOCK
  5
FE
330
FD
100
AcDbEntity
  8
0
100
AcDbBlockBegin
  2
_D
 70
     0
 10
0.0
 20
0.0
 30
0.0
  3
_D
  1
_D
  0
LINE
  5
100
330
FD
100
AcDbEntity
  8
치수문자_일반주서
 62
     0
370
    -2
100
AcDbLine
 10
-39.0625
 20
4.999999999999988
 30
0.0
 11
-57.62890613132345
 21
4.999999999999918
 31
0.0
  0
LINE
  5
101
330
FD
100
AcDbEntity
  8
치수문자_일반주서
 62
     0
370
    -2
100
AcDbLine
 10
-39.0625
 20
-5.000000000000021
 30
0.0
 11
-57.62890613132342
 21
-5.000000000000091
 31
0.0
  0
LINE
  5
102
330
FD
100
AcDbEntity
  8
치수문자_일반주서
 62
     0
370
    -2
100
AcDbLine
 10
-57.62890613132344
 20
1.697999999999919
 30
0.0
 11
-57.62890613132343
 21
-1.698000000000091
 31
0.0
  0
SOLID
  5
103
330
FD
100
AcDbEntity
  8
치수문자_일반주서
 62
     0
100
AcDbTrace
 10
-57.07857279799011
 20
1.697999999999921
 30
0.0
 11
-58.17923946465677
 21
1.697999999999917
 31
0.0
 12
-57.62890613132345
 22
4.999999999999918
 32
0.0
 13
-57.62890613132345
 23
4.999999999999918
 33
0.0
  0
SOLID
  5
104
330
FD
100
AcDbEntity
  8
치수문자_일반주서
 62
     0
100
AcDbTrace
 10
-58.17923946465677
 20
-1.698000000000093
 30
0.0
 11
-57.0785727979901
 21
-1.698000000000089
 31
0.0
 12
-57.62890613132342
 22
-5.000000000000091
 32
0.0
 13
-57.62890613132342
 23
-5.000000000000091
 33
0.0
  0
MTEXT
  5
105
330
FD
100
AcDbEntity
  8
치수문자_일반주서
 62
     0
100
AcDbMText
 10
-62.00390613132344
 20
-0.0000000000000298
 30
0.0
 40
3.5
 41
0.0
 71
     2
 72
     1
  1
\A1;%%c10
  7
SLDTEXTSTYLE0
 11
-3.552713678800498E-15
 21
1.0
 31
0.0
 73
     1
 44
1.0
  0
POINT
  5
106
330
FD
100
AcDbEntity
  8
Defpoints
 62
     0
100
AcDbPoint
 10
-39.0
 20
4.999999999999988
 30
0.0
  0
POINT
  5
107
330
FD
100
AcDbEntity
  8
Defpoints
 62
     0
100
AcDbPoint
 10
-39.0
 20
-5.000000000000021
 30
0.0
  0
POINT
  5
108
330
FD
100
AcDbEntity
  8
Defpoints
 62
     0
100
AcDbPoint
 10
-57.62890613132344
 20
-5.000000000000091
 30
0.0
  0
ENDBLK
  5
FF
330
FD
100
AcDbEntity
  8
0
100
AcDbBlockEnd
  0
BLOCK
  5
10B
330
10A
100
AcDbEntity
  8
0
100
AcDbBlockBegin
  2
_D_1
 70
     0
 10
0.0
 20
0.0
 30
0.0
  3
_D_1
  1
_D_1
  0
LINE
  5
10D
330
10A
100
AcDbEntity
  8
치수문자_일반주서
 62
     0
370
    -2
100
AcDbLine
 10
60.06250000000001
 20
4.999999999999986
 30
0.0
 11
69.99999999999997
 21
5.000000000000023
 31
0.0
  0
LINE
  5
10E
330
10A
100
AcDbEntity
  8
치수문자_일반주서
 62
     0
370
    -2
100
AcDbLine
 10
60.06250000000001
 20
-5.00000000000002
 30
0.0
 11
70.0
 21
-4.999999999999982
 31
0.0
  0
LINE
  5
10F
330
10A
100
AcDbEntity
  8
치수문자_일반주서
 62
     0
370
    -2
100
AcDbLine
 10
69.99999999999999
 20
1.698000000000023
 30
0.0
 11
69.99999999999999
 21
-1.697999999999983
 31
0.0
  0
SOLID
  5
110
330
10A
100
AcDbEntity
  8
치수문자_일반주서
 62
     0
100
AcDbTrace
 10
70.55033333333331
 20
1.698000000000025
 30
0.0
 11
69.44966666666666
 21
1.698000000000022
 31
0.0
 12
69.99999999999997
 22
5.000000000000023
 32
0.0
 13
69.99999999999997
 23
5.000000000000023
 33
0.0
  0
SOLID
  5
111
330
10A
100
AcDbEntity
  8
치수문자_일반주서
 62
     0
100
AcDbTrace
 10
69.44966666666666
 20
-1.697999999999984
 30
0.0
 11
70.55033333333331
 21
-1.697999999999981
 31
0.0
 12
70.0
 22
-4.999999999999982
 32
0.0
 13
70.0
 23
-4.999999999999982
 33
0.0
  0
MTEXT
  5
112
330
10A
100
AcDbEntity
  8
치수문자_일반주서
 62
     0
100
AcDbMText
 10
65.62499999999999
 20
0.6594307500959614
 30
0.0
 40
3.5
 41
0.0
 71
     2
 72
     1
  1
\A1;%%c10
  7
SLDTEXTSTYLE0
 11
-2.842170943040399E-15
 21
1.0
 31
0.0
 73
     1
 44
1.0
  0
POINT
  5
113
330
10A
100
AcDbEntity
  8
Defpoints
 62
     0
100
AcDbPoint
 10
60.00000000000001
 20
4.999999999999986
 30
0.0
  0
POINT
  5
114
330
10A
100
AcDbEntity
  8
Defpoints
 62
     0
100
AcDbPoint
 10
60.00000000000001
 20
-5.00000000000002
 30
0.0
  0
POINT
  5
115
330
10A
100
AcDbEntity
  8
Defpoints
 62
     0
100
AcDbPoint
 10
70.0
 20
-4.999999999999982
 30
0.0
  0
ENDBLK
  5
10C
330
10A
100
AcDbEntity
  8
0
100
AcDbBlockEnd
  0
BLOCK
  5
119
330
118
100
AcDbEntity
  8
0
100
AcDbBlockBegin
  2
_D_2
 70
     0
 10
0.0
 20
0.0
 30
0.0
  3
_D_2
  1
_D_2
  0
LINE
  5
11B
330
118
100
AcDbEntity
  8
치수문자_일반주서
 62
     0
370
    -2
100
AcDbLine
 10
9.999999999999995
 20
4.757734506804524
 30
0.0
 11
9.999999999999996
 21
48.19007512544633
 31
0.0
  0
LINE
  5
11C
330
118
100
AcDbEntity
  8
치수문자_일반주서
 62
     0
370
    -2
100
AcDbLine
 10
60.00000000000001
 20
5.026012754521672
 30
0.0
 11
60.00000000000001
 21
48.19007512544633
 31
0.0
  0
LINE
  5
11D
330
118
100
AcDbEntity
  8
치수문자_일반주서
 62
     0
370
    -2
100
AcDbLine
 10
13.302
 20
48.19007512544633
 30
0.0
 11
56.69800000000001
 21
48.19007512544633
 31
0.0
  0
SOLID
  5
11E
330
118
100
AcDbEntity
  8
치수문자_일반주서
 62
     0
100
AcDbTrace
 10
13.302
 20
48.74040845877966
 30
0.0
 11
13.302
 21
47.63974179211299
 31
0.0
 12
9.999999999999996
 22
48.19007512544633
 32
0.0
 13
9.999999999999996
 23
48.19007512544633
 33
0.0
  0
SOLID
  5
11F
330
118
100
AcDbEntity
  8
치수문자_일반주서
 62
     0
100
AcDbTrace
 10
56.69800000000001
 20
47.63974179211299
 30
0.0
 11
56.69800000000001
 21
48.74040845877966
 31
0.0
 12
60.00000000000001
 22
48.19007512544633
 32
0.0
 13
60.00000000000001
 23
48.19007512544633
 33
0.0
  0
MTEXT
  5
120
330
118
100
AcDbEntity
  8
치수문자_일반주서
 62
     0
100
AcDbMText
 10
30.46249388206546
 20
52.56507512544633
 30
0.0
 40
3.5
 41
0.0
 71
     2
 72
     1
  1
\A1;50
  7
SLDTEXTSTYLE0
 73
     1
 44
1.0
  0
POINT
  5
158
330
118
100
AcDbEntity
  8
Defpoints
 62
     0
100
AcDbPoint
 10
9.999999999999995
 20
4.695234506804524
 30
0.0
  0
POINT
  5
159
330
118
100
AcDbEntity
  8
Defpoints
 62
     0
100
AcDbPoint
 10
60.00000000000001
 20
4.963512754521672
 30
0.0
  0
POINT
  5
15A
330
118
100
AcDbEntity
  8
Defpoints
 62
     0
100
AcDbPoint
 10
60.00000000000001
 20
48.19007512544633
 30
0.0
  0
ENDBLK
  5
11A
330
118
100
AcDbEntity
  8
0
100
AcDbBlockEnd
  0
BLOCK
  5
123
330
122
100
AcDbEntity
  8
0
100
AcDbBlockBegin
  2
_D_3
 70
     0
 10
0.0
 20
0.0
 30
0.0
  3
_D_3
  1
_D_3
  0
LINE
  5
125
330
122
100
AcDbEntity
  8
치수문자_일반주서
 62
     0
370
    -2
100
AcDbLine
 10
60.00000000000001
 20
5.026012754521672
 30
0.0
 11
60.0
 21
75.9081954153913
 31
0.0
  0
LINE
  5
126
330
122
100
AcDbEntity
  8
치수문자_일반주서
 62
     0
370
    -2
100
AcDbLine
 10
-40.0
 20
4.062499999999988
 30
0.0
 11
-40.00000000000001
 21
75.9081954153913
 31
0.0
  0
LINE
  5
127
330
122
100
AcDbEntity
  8
치수문자_일반주서
 62
     0
370
    -2
100
AcDbLine
 10
56.698
 20
75.9081954153913
 30
0.0
 11
-36.69800000000001
 21
75.9081954153913
 31
0.0
  0
SOLID
  5
128
330
122
100
AcDbEntity
  8
치수문자_일반주서
 62
     0
100
AcDbTrace
 10
56.698
 20
75.35786208205798
 30
0.0
 11
56.698
 21
76.45852874872463
 31
0.0
 12
60.0
 22
75.9081954153913
 32
0.0
 13
60.0
 23
75.9081954153913
 33
0.0
  0
SOLID
  5
129
330
122
100
AcDbEntity
  8
치수문자_일반주서
 62
     0
100
AcDbTrace
 10
-36.69800000000001
 20
76.45852874872463
 30
0.0
 11
-36.69800000000001
 21
75.35786208205798
 31
0.0
 12
-40.00000000000001
 22
75.9081954153913
 32
0.0
 13
-40.00000000000001
 23
75.9081954153913
 33
0.0
  0
MTEXT
  5
12A
330
122
100
AcDbEntity
  8
치수문자_일반주서
 62
     0
100
AcDbMText
 10
13.09816319842718
 20
80.2831954153913
 30
0.0
 40
3.5
 41
0.0
 71
     2
 72
     1
  1
\A1;100
  7
SLDTEXTSTYLE0
 73
     1
 44
1.0
  0
POINT
  5
15B
330
122
100
AcDbEntity
  8
Defpoints
 62
     0
100
AcDbPoint
 10
60.00000000000001
 20
4.963512754521672
 30
0.0
  0
POINT
  5
15C
330
122
100
AcDbEntity
  8
Defpoints
 62
     0
100
AcDbPoint
 10
-40.0
 20
3.999999999999987
 30
0.0
  0
POINT
  5
15D
330
122
100
AcDbEntity
  8
Defpoints
 62
     0
100
AcDbPoint
 10
-40.0
 20
75.9081954153913
 30
0.0
  0
ENDBLK
  5
124
330
122
100
AcDbEntity
  8
0
100
AcDbBlockEnd
  0
BLOCK
  5
12C
330
12B
100
AcDbEntity
  8
0
100
AcDbBlockBegin
  2
SW_DOWELSYMBOL_0
 70
     0
 10
0.0
 20
0.0
 30
0.0
  3
SW_DOWELSYMBOL_0
  1
SW_DOWELSYMBOL_0
  0
CIRCLE
  5
12E
330
12B
100
AcDbEntity
  8
외형선
 62
     0
100
AcDbCircle
 10
0.0
 20
0.0
 30
0.0
 40
3.000000000000001
  0
HATCH
  5
12F
330
12B
100
AcDbEntity
  8
0
  6
Continuous
 62
     0
370
    30
100
AcDbHatch
 10
0.0
 20
0.0
 30
0.0
210
0.0
220
0.0
230
1.0
  2
SOLID
 70
     1
 71
     0
 91
        1
 92
        0
 93
        3
 72
     2
 10
-0.0000000000000208
 20
0.0
 40
3.000000000000001
 50
0.0
 51
90.0
 73
     1
 72
     1
 10
-0.0000000000000208
 20
3.000000000000001
 11
-0.0000000000000208
 21
0.0
 72
     1
 10
-0.0000000000000208
 20
0.0
 11
2.99999999999998
 21
0.0
 97
        0
 75
     0
 76
     1
 98
        1
 10
0.0
 20
0.0
  0
HATCH
  5
130
330
12B
100
AcDbEntity
  8
0
  6
Continuous
 62
     0
370
    30
100
AcDbHatch
 10
0.0
 20
0.0
 30
0.0
210
0.0
220
0.0
230
1.0
  2
SOLID
 70
     1
 71
     0
 91
        1
 92
        0
 93
        3
 72
     2
 10
-0.0000000000000208
 20
0.0
 40
3.000000000000001
 50
180.0
 51
270.0000000000008
 73
     1
 72
     1
 10
-0.0000000000000208
 20
-3.000000000000001
 11
-0.0000000000000208
 21
0.0
 72
     1
 10
-0.0000000000000208
 20
0.0
 11
-3.000000000000022
 21
0.0
 97
        0
 75
     0
 76
     1
 98
        1
 10
0.0
 20
0.0
  0
ENDBLK
  5
12D
330
12B
100
AcDbEntity
  8
0
100
AcDbBlockEnd
  0
ENDSEC
  0
SECTION
  2
ENTITIES
  0
LINE
  5
95
330
1F
100
AcDbEntity
  8
0
  6
Continuous
 62
   131
370
    15
100
AcDbLine
 10
32.75404775631591
 20
-0.943540997338455
 30
0.0
 11
32.81225239106473
 21
-0.9997028517722363
 31
0.0
  0
LINE
  5
96
330
1F
100
AcDbEntity
  8
0
  6
Continuous
 62
   131
370
    15
100
AcDbLine
 10
11.81714075530205
 20
-0.9507816917688142
 30
0.0
 11
11.86836134210141
 21
-0.9997615939570021
 31
0.0
  0
LINE
  5
97
330
1F
100
AcDbEntity
  8
0
  6
Continuous
 62
   131
370
    15
100
AcDbLine
 10
13.9347513547668
 20
0.9507917382868001
 30
0.0
 11
13.88362607185815
 21
0.999989781604503
 31
0.0
  0
LINE
  5
98
330
1F
100
AcDbEntity
  8
0
  6
Continuous
 62
     1
370
    15
100
AcDbLine
 10
43.12459755363041
 20
-0.8444118204576577
 30
0.0
 11
43.28448806375453
 21
-0.9999576634988058
 31
0.0
  0
LINE
  5
99
330
1F
100
AcDbEntity
  8
0
  6
Continuous
 62
   131
370
    15
100
AcDbLine
 10
17.05141981846937
 20
-0.9485699326065699
 30
0.0
 11
17.10450385847396
 21
-0.9999131723572404
 31
0.0
  0
LINE
  5
9A
330
1F
100
AcDbEntity
  8
0
  6
Continuous
 62
   131
370
    15
100
AcDbLine
 10
19.17209450042191
 20
0.9492051852620439
 30
0.0
 11
19.11998061717262
 21
0.9996305331875516
 31
0.0
  0
LINE
  5
9B
330
1F
100
AcDbEntity
  8
0
  6
Continuous
 62
     1
370
    15
100
AcDbLine
 10
48.40295398425442
 20
-0.8860864400289792
 30
0.0
 11
48.52012094493522
 21
-0.9996100841449956
 31
0.0
  0
LINE
  5
9C
330
1F
100
AcDbEntity
  8
0
  6
Continuous
 62
     1
370
    15
100
AcDbLine
 10
58.95918259725723
 20
-0.9678470239257515
 30
0.0
 11
58.99218735987013
 21
-0.9996991189933505
 31
0.0
  0
LINE
  5
9D
330
1F
100
AcDbEntity
  8
0
  6
Continuous
 62
   131
370
    15
100
AcDbLine
 10
27.52151146789408
 20
-0.9469508700693012
 30
0.0
 11
27.57656831518795
 21
-1.000000287751678
 31
0.0
  0
LINE
  5
9E
330
1F
100
AcDbEntity
  8
0
  6
Continuous
 62
   131
370
    15
100
AcDbLine
 10
22.29033212364869
 20
-0.9513022981541966
 30
0.0
 11
22.33999767012785
 21
-0.9994293793869644
 31
0.0
  0
LINE
  5
9F
330
1F
100
AcDbEntity
  8
0
  6
Continuous
 62
   131
370
    15
100
AcDbLine
 10
24.40509909701368
 20
0.9520720184730256
 30
0.0
 11
24.35567237490941
 21
0.9999204464946206
 31
0.0
  0
LINE
  5
A0
330
1F
100
AcDbEntity
  8
0
  6
Continuous
 62
     1
370
    15
100
AcDbLine
 10
53.67768839406173
 20
-0.9238901212393879
 30
0.0
 11
53.75651657453214
 21
-1.000009572189549
 31
0.0
  0
LINE
  5
A1
330
1F
100
AcDbEntity
  8
0
  6
Continuous
 62
     1
370
    15
100
AcDbLine
 10
59.39504454284847
 20
-5.00000000000002
 30
0.0
 11
60.00000000000001
 21
-5.00000000000002
 31
0.0
  0
LINE
  5
A2
330
1F
100
AcDbEntity
  8
0
  6
Continuous
 62
     1
370
    15
100
AcDbLine
 10
27.98053692072052
 20
-5.00000000000002
 30
0.0
 11
29.1883393468766
 21
-5.00000000000002
 31
0.0
  0
LINE
  5
A3
330
1F
100
AcDbEntity
  8
0
  6
Continuous
 62
     1
370
    15
100
AcDbLine
 10
13.47949163065548
 20
4.999999999999986
 30
0.0
 11
12.27111384818894
 21
4.999999999999986
 31
0.0
  0
LINE
  5
A4
330
1F
100
AcDbEntity
  8
0
  6
Continuous
 62
     1
370
    15
100
AcDbLine
 10
44.89735903887114
 20
4.999999999999986
 30
0.0
 11
43.68831282669425
 21
4.999999999999986
 31
0.0
  0
LINE
  5
A5
330
1F
100
AcDbEntity
  8
0
  6
Continuous
 62
     1
370
    15
100
AcDbLine
 10
43.68831282669425
 20
-5.00000000000002
 30
0.0
 11
44.8973590388711
 21
-5.00000000000002
 31
0.0
  0
LINE
  5
A6
330
1F
100
AcDbEntity
  8
0
  6
Continuous
 62
     1
370
    15
100
AcDbLine
 10
12.27111384818896
 20
-5.00000000000002
 30
0.0
 11
13.47949163065544
 21
-5.00000000000002
 31
0.0
  0
LINE
  5
A7
330
1F
100
AcDbEntity
  8
0
  6
Continuous
 62
     1
370
    15
100
AcDbLine
 10
29.18833934687656
 20
4.999999999999986
 30
0.0
 11
27.98053692072054
 21
4.999999999999986
 31
0.0
  0
LINE
  5
A8
330
1F
100
AcDbEntity
  8
0
  6
Continuous
 62
     1
370
    15
100
AcDbLine
 10
60.00000000000001
 20
4.999999999999986
 30
0.0
 11
59.39504454284846
 21
4.999999999999986
 31
0.0
  0
LINE
  5
A9
330
1F
100
AcDbEntity
  8
0
  6
Continuous
 62
     1
370
    15
100
AcDbLine
 10
48.92391648237837
 20
-5.00000000000002
 30
0.0
 11
50.13339907346363
 21
-5.00000000000002
 31
0.0
  0
LINE
  5
AA
330
1F
100
AcDbEntity
  8
0
  6
Continuous
 62
     1
370
    15
100
AcDbLine
 10
17.50777317913799
 20
-5.00000000000002
 30
0.0
 11
18.71561135853506
 21
-5.00000000000002
 31
0.0
  0
LINE
  5
AB
330
1F
100
AcDbEntity
  8
0
  6
Continuous
 62
     1
370
    15
100
AcDbLine
 10
34.42481658637307
 20
4.999999999999986
 30
0.0
 11
33.21665665519504
 21
4.999999999999986
 31
0.0
  0
LINE
  5
AC
330
1F
100
AcDbEntity
  8
0
  6
Continuous
 62
     1
370
    15
100
AcDbLine
 10
38.45258507560751
 20
-5.00000000000002
 30
0.0
 11
39.66116072384466
 21
-5.00000000000002
 31
0.0
  0
LINE
  5
AD
330
1F
100
AcDbEntity
  8
0
  6
Continuous
 62
     1
370
    15
100
AcDbLine
 10
23.95189137508669
 20
4.999999999999986
 30
0.0
 11
22.74423813001562
 21
4.999999999999986
 31
0.0
  0
LINE
  5
AE
330
1F
100
AcDbEntity
  8
0
  6
Continuous
 62
     1
370
    15
100
AcDbLine
 10
55.36926855794568
 20
4.999999999999986
 30
0.0
 11
54.15947570308816
 21
4.999999999999986
 31
0.0
  0
LINE
  5
AF
330
1F
100
AcDbEntity
  8
0
  6
Continuous
 62
     1
370
    15
100
AcDbLine
 10
33.2166566551951
 20
-5.00000000000002
 30
0.0
 11
34.42481658637308
 21
-5.00000000000002
 31
0.0
  0
LINE
  5
B0
330
1F
100
AcDbEntity
  8
0
  6
Continuous
 62
     1
370
    15
100
AcDbLine
 10
18.71561135853508
 20
4.999999999999986
 30
0.0
 11
17.50777317913801
 21
4.999999999999986
 31
0.0
  0
LINE
  5
B1
330
1F
100
AcDbEntity
  8
0
  6
Continuous
 62
     1
370
    15
100
AcDbLine
 10
50.13339907346365
 20
4.999999999999986
 30
0.0
 11
48.9239164823784
 21
4.999999999999986
 31
0.0
  0
LINE
  5
B2
330
1F
100
AcDbEntity
  8
0
  6
Continuous
 62
     1
370
    15
100
AcDbLine
 10
54.15947570308813
 20
-5.00000000000002
 30
0.0
 11
55.36926855794567
 21
-5.00000000000002
 31
0.0
  0
LINE
  5
B3
330
1F
100
AcDbEntity
  8
0
  6
Continuous
 62
     1
370
    15
100
AcDbLine
 10
22.74423813001556
 20
-5.00000000000002
 30
0.0
 11
23.95189137508669
 21
-5.00000000000002
 31
0.0
  0
LINE
  5
B4
330
1F
100
AcDbEntity
  8
0
  6
Continuous
 62
     1
370
    15
100
AcDbLine
 10
39.66116072384465
 20
4.999999999999986
 30
0.0
 11
38.45258507560748
 21
4.999999999999986
 31
0.0
  0
LINE
  5
B5
330
1F
100
AcDbEntity
  8
0
  6
Continuous
 62
   131
370
    15
100
AcDbLine
 10
-39.0
 20
-5.000000000000017
 30
0.0
 11
8.999888059499547
 21
-5.000000000000017
 31
0.0
  0
LINE
  5
B6
330
1F
100
AcDbEntity
  8
0
  6
Continuous
 62
   131
370
    15
100
AcDbLine
 10
8.999888059499547
 20
4.999999999999983
 30
0.0
 11
-39.0
 21
4.999999999999983
 31
0.0
  0
LINE
  5
B7
330
1F
100
AcDbEntity
  8
0
  6
Continuous
 62
   131
370
    15
100
AcDbLine
 10
-39.0
 20
4.999999999999984
 30
0.0
 11
-40.0
 21
3.999999999999987
 31
0.0
  0
LINE
  5
B8
330
1F
100
AcDbEntity
  8
0
  6
Continuous
 62
   131
370
    15
100
AcDbLine
 10
-40.0
 20
-4.00000000000002
 30
0.0
 11
-39.0
 21
-5.000000000000018
 31
0.0
  0
LINE
  5
B9
330
1F
100
AcDbEntity
  8
0
  6
Continuous
 62
     1
370
    15
100
AcDbLine
 10
60.00000000000001
 20
2.980602236458053
 30
0.0
 11
60.00000000000001
 21
4.963512754521672
 31
0.0
  0
LINE
  5
BA
330
1F
100
AcDbEntity
  8
0
  6
Continuous
 62
     1
370
    15
100
AcDbLine
 10
10.0
 20
-4.695234506804563
 30
0.0
 11
10.25955283454833
 21
-4.580555475485498
 31
0.0
  0
SPLINE
  5
BB
330
1F
100
AcDbEntity
  8
0
  6
Continuous
 62
     1
370
    15
100
AcDbSpline
210
0.0
220
0.0
230
1.0
 70
     8
 71
     3
 72
    24
 73
    20
 74
     0
 42
0.000000001
 43
0.00000001
 40
0.0
 40
0.0
 40
0.0
 40
0.0
 40
0.0555778559835559
 40
0.1155655203372896
 40
0.1755715913639495
 40
0.235518749033695
 40
0.2954389642379473
 40
0.3553661985810771
 40
0.4153343398329751
 40
0.4753497301983985
 40
0.5353121161314974
 40
0.5952370631402818
 40
0.6551584830487591
 40
0.7151103247848423
 40
0.7751210321519978
 40
0.8351018757450014
 40
0.8950348218455959
 40
0.9549536981846326
 40
1.0
 40
1.0
 40
1.0
 40
1.0
 10
23.95189137508669
 20
4.992413266681716
 30
0.0
 10
24.28010041812774
 20
4.97676785897873
 30
0.0
 10
24.96256015262468
 20
4.944235663375154
 30
0.0
 10
25.99997512985246
 20
4.617922829842323
 30
0.0
 10
27.0634962611569
 20
4.095117737785346
 30
0.0
 10
28.12580635761867
 20
3.382695505012062
 30
0.0
 10
29.18748264177608
 20
2.51967572727475
 30
0.0
 10
30.24933199108492
 20
1.542901217375595
 30
0.0
 10
31.31208951615439
 20
0.4965931703538924
 30
0.0
 10
32.37579954574775
 20
-0.571560107464558
 30
0.0
 10
33.43843676748038
 20
-1.61453630903889
 30
0.0
 10
34.50023095787077
 20
-2.58462180587855
 30
0.0
 10
35.56193841101216
 20
-3.438401273957389
 30
0.0
 10
36.62435011196221
 20
-4.137825035080097
 30
0.0
 10
37.68796773247006
 20
-4.650333898545211
 30
0.0
 10
38.75098270789202
 20
-4.95566505549719
 30
0.0
 10
39.81297983020602
 20
-5.031113456493945
 30
0.0
 10
40.78663874188879
 20
-4.916314723980856
 30
0.0
 10
41.40659459224056
 20
-4.681441650370926
 30
0.0
 10
41.67265157264285
 20
-4.58064476183926
 30
0.0
  0
SPLINE
  5
BC
330
1F
100
AcDbEntity
  8
0
  6
Continuous
 62
     1
370
    15
100
AcDbSpline
210
0.0
220
0.0
230
1.0
 70
     8
 71
     3
 72
    12
 73
     8
 74
     0
 42
0.000000001
 43
0.00000001
 40
0.0
 40
0.0
 40
0.0
 40
0.0
 40
0.082433321848692
 40
0.3117624880484791
 40
0.5410468065501728
 40
0.7704162759996772
 40
1.0
 40
1.0
 40
1.0
 40
1.0
 10
55.36926855794569
 20
4.974038122815809
 30
0.0
 10
55.49654575920358
 20
4.980950882231321
 30
0.0
 10
55.97790761683729
 20
5.007094910232717
 30
0.0
 10
56.81279969413219
 20
4.820179284247232
 30
0.0
 10
57.8744738427626
 20
4.418767114272975
 30
0.0
 10
58.93664710720905
 20
3.81329237228411
 30
0.0
 10
59.64543873993346
 20
3.273795382645595
 30
0.0
 10
60.00000000000001
 20
3.003920960295129
 30
0.0
  0
LINE
  5
BD
330
1F
100
AcDbEntity
  8
0
  6
Continuous
 62
   131
370
    15
100
AcDbLine
 10
9.999999999999995
 20
-4.561502182680131
 30
0.0
 11
10.0
 21
-4.695234506804563
 31
0.0
  0
SPLINE
  5
BE
330
1F
100
AcDbEntity
  8
0
  6
Continuous
 62
     1
370
    15
100
AcDbSpline
210
0.0
220
0.0
230
1.0
 70
     8
 71
     3
 72
    10
 73
     6
 74
     0
 42
0.000000001
 43
0.00000001
 40
0.0
 40
0.0
 40
0.0
 40
0.0
 40
0.4060836438233384
 40
0.8117883179741598
 40
1.0
 40
1.0
 40
1.0
 40
1.0
 10
60.00000000000002
 20
4.963512754521672
 30
0.0
 10
59.64543956074694
 20
4.982421518334405
 30
0.0
 10
58.93664956888342
 20
5.020221399723341
 30
0.0
 10
58.06410493458509
 20
4.863765648942474
 30
0.0
 10
57.54594544760575
 20
4.64388911456421
 30
0.0
 10
57.3817410649721
 20
4.574210393069232
 30
0.0
  0
SPLINE
  5
BF
330
1F
100
AcDbEntity
  8
0
  6
Continuous
 62
     1
370
    15
100
AcDbSpline
210
0.0
220
0.0
230
1.0
 70
     8
 71
     3
 72
    25
 73
    21
 74
     0
 42
0.000000001
 43
0.00000001
 40
0.0
 40
0.0
 40
0.0
 40
0.0
 40
0.0388268659920587
 40
0.0988143658524074
 40
0.1587481977886094
 40
0.218662125435851
 40
0.2785901216826317
 40
0.3385660114659745
 40
0.3985717625570239
 40
0.4585186528787044
 40
0.5184351238853152
 40
0.5783551217009293
 40
0.6383125553487824
 40
0.6983229890513311
 40
0.7582861775426536
 40
0.818208462503702
 40
0.8781237289055838
 40
0.9380659355477842
 40
0.998067050681253
 40
1.0
 40
1.0
 40
1.0
 40
1.0
 10
43.68831282669426
 20
-4.974233134355036
 30
0.0
 10
43.45886046312256
 20
-4.975271920808542
 30
0.0
 10
42.87490424568511
 20
-4.977915632116074
 30
0.0
 10
41.93671967171608
 20
-4.726694254926153
 30
0.0
 10
40.8746119045589
 20
-4.26304518588306
 30
0.0
 10
39.81296940819343
 20
-3.598695170757322
 30
0.0
 10
38.75098550317019
 20
-2.774795816872527
 30
0.0
 10
37.68796698283649
 20
-1.825344999086361
 30
0.0
 10
36.62435031245611
 20
-0.794306955543394
 30
0.0
 10
35.56193835807341
 20
0.2729906582596696
 30
0.0
 10
34.50023096932792
 20
1.327689457638219
 30
0.0
 10
33.43843677458291
 20
2.322710010975856
 30
0.0
 10
32.37579950582908
 20
3.213478512052849
 30
0.0
 10
31.31208966881636
 20
3.959158642586771
 30
0.0
 10
30.24933142106432
 20
4.52752865530928
 30
0.0
 10
29.18748476770913
 20
4.890389616374769
 30
0.0
 10
28.12579842279247
 20
5.039567431036806
 30
0.0
 10
27.06352590164826
 20
4.938578912295114
 30
0.0
 10
26.34303484398238
 20
4.779016239462497
 30
0.0
 10
25.97707104093817
 20
4.602286120950084
 30
0.0
 10
25.96564938647328
 20
4.596770410569988
 30
0.0
  0
SPLINE
  5
C0
330
1F
100
AcDbEntity
  8
0
  6
Continuous
 62
     1
370
    15
100
AcDbSpline
210
0.0
220
0.0
230
1.0
 70
     8
 71
     3
 72
    10
 73
     6
 74
     0
 42
0.000000001
 43
0.00000001
 40
0.0
 40
0.0
 40
0.0
 40
0.0
 40
0.0537052322570831
 40
0.5267745333155375
 40
1.0
 40
1.0
 40
1.0
 40
1.0
 10
12.27111384818897
 20
-4.988402284114673
 30
0.0
 10
12.23045701733429
 20
-4.992147887649201
 30
0.0
 10
11.83166937226752
 20
-5.028887111575102
 30
0.0
 10
11.07478020907963
 20
-4.891171880663246
 30
0.0
 10
10.35829948294475
 20
-4.625365988054964
 30
0.0
 10
9.999999999999995
 20
-4.492441108974149
 30
0.0
  0
SPLINE
  5
C1
330
1F
100
AcDbEntity
  8
0
  6
Continuous
 62
     1
370
    15
100
AcDbSpline
210
0.0
220
0.0
230
1.0
 70
     8
 71
     3
 72
    18
 73
    14
 74
     0
 42
0.000000001
 43
0.00000001
 40
0.0
 40
0.0
 40
0.0
 40
0.0
 40
0.1001754356354324
 40
0.2003178131184234
 40
0.3004749640007986
 40
0.4006945797293749
 40
0.5009895116096335
 40
0.6000186333172559
 40
0.6989820710724939
 40
0.7979358013098893
 40
0.8969359025800645
 40
0.996033611834633
 40
1.0
 40
1.0
 40
1.0
 40
1.0
 10
10.0
 20
0.8589669604913033
 30
0.0
 10
10.35829592854431
 20
0.5021054048885641
 30
0.0
 10
11.0747695470513
 20
-0.2114999410820462
 30
0.0
 10
12.1491769482665
 20
-1.283050727111365
 30
0.0
 10
13.22386261142129
 20
-2.292700079866408
 30
0.0
 10
14.29938665603667
 20
-3.197712378860448
 30
0.0
 10
15.37159550272349
 20
-3.951730705645904
 30
0.0
 10
16.43855583622238
 20
-4.523861966811646
 30
0.0
 10
17.50038191665758
 20
-4.888401346920685
 30
0.0
 10
18.56207852939461
 20
-5.039266566231873
 30
0.0
 10
19.62438140272646
 20
-4.940285313455211
 30
0.0
 10
20.347687211523
 20
-4.780636814713721
 30
0.0
 10
20.71642262812853
 20
-4.60286108015849
 30
0.0
 10
20.73061329033962
 20
-4.596019439012046
 30
0.0
  0
SPLINE
  5
C2
330
1F
100
AcDbEntity
  8
0
  6
Continuous
 62
     1
370
    15
100
AcDbSpline
210
0.0
220
0.0
230
1.0
 70
     8
 71
     3
 72
    25
 73
    21
 74
     0
 42
0.000000001
 43
0.00000001
 40
0.0
 40
0.0
 40
0.0
 40
0.0
 40
0.0042578190230415
 40
0.0641799787496369
 40
0.1241325606794405
 40
0.1841440089670993
 40
0.2441255931118939
 40
0.3040592791729143
 40
0.3639788952986651
 40
0.4239184176031709
 40
0.483911612927281
 40
0.5439144388665138
 40
0.6038593833365202
 40
0.6637797293481592
 40
0.7237094453338988
 40
0.7836824011695257
 40
0.8436976675133062
 40
0.9036571182098797
 40
0.9635814668534104
 40
0.9999999999999999
 40
0.9999999999999999
 40
0.9999999999999999
 40
0.9999999999999999
 10
34.42481658637307
 20
4.992575332897485
 30
0.0
 10
34.44996035020989
 20
4.995018951489564
 30
0.0
 10
34.82896336090647
 20
5.03185268924665
 30
0.0
 10
35.56193041257038
 20
4.892506229208802
 30
0.0
 10
36.62435243181935
 20
4.561701515321544
 30
0.0
 10
37.6879664615344
 20
4.001427614786529
 30
0.0
 10
38.75098546927242
 20
3.267516357317333
 30
0.0
 10
39.81297006385488
 20
2.384859243030546
 30
0.0
 10
40.87460931596785
 20
1.39553850592333
 30
0.0
 10
41.93672937784706
 20
0.3430999853540962
 30
0.0
 10
42.9999819274515
 20
-0.7246000692049366
 30
0.0
 10
44.06342677286916
 20
-1.759592061103876
 30
0.0
 10
45.12567017982362
 20
-2.71573911078604
 30
0.0
 10
46.18733044227808
 20
-3.54942372142774
 30
0.0
 10
47.24922124477853
 20
-4.223716543326657
 30
0.0
 10
48.31206336456418
 20
-4.707395360634028
 30
0.0
 10
49.37575504035281
 20
-4.981575320235814
 30
0.0
 10
50.43831870179517
 20
-5.022766516926137
 30
0.0
 10
51.3612716959187
 20
-4.891247689711262
 30
0.0
 10
51.93019709461267
 20
-4.661956447126004
 30
0.0
 10
52.14525635073298
 20
-4.575282158759737
 30
0.0
  0
SPLINE
  5
C3
330
1F
100
AcDbEntity
  8
0
  6
Continuous
 62
   131
370
    15
100
AcDbSpline
210
0.0
220
0.0
230
1.0
 70
    24
 71
     3
 72
    22
 73
    18
 74
     0
 42
0.000000001
 43
0.00000001
 40
0.0
 40
0.0
 40
0.0
 40
0.0
 40
0.0215192594682521
 40
0.0917549701516697
 40
0.1640275212030127
 40
0.2342632318864218
 40
0.306535782937754
 40
0.3767714936211619
 40
0.4490440446724938
 40
0.5192797553559044
 40
0.5915523064072392
 40
0.6617880170906496
 40
0.7340605681419842
 40
0.8042962788253931
 40
0.876568829876726
 40
0.9468045405600695
 40
1.0
 40
1.0
 40
1.0
 40
1.0
 10
10.00000000000001
 20
4.147136034407061
 30
0.0
 10
10.00000000000001
 20
4.122975860327609
 30
0.0
 10
10.0
 20
4.019960417124752
 30
0.0
 10
9.99999999999989
 20
3.813824752194286
 30
0.0
 10
10.00000000000005
 20
3.517008615006966
 30
0.0
 10
10.00000000000001
 20
3.194357069122291
 30
0.0
 10
9.999999999999925
 20
2.861343802887404
 30
0.0
 10
9.999999999999995
 20
2.521257524189818
 30
0.0
 10
9.999999999999995
 20
2.189884525450731
 30
0.0
 10
10.00000000000001
 20
1.870626460857907
 30
0.0
 10
9.999999999999995
 20
1.578281470149635
 30
0.0
 10
9.99999999999998
 20
1.315814266547234
 30
0.0
 10
9.999999999999988
 20
1.095555636509681
 30
0.0
 10
9.99999999999998
 20
0.9191117114404248
 30
0.0
 10
9.999999999999973
 20
0.79712564142258
 30
0.0
 10
10.00000000000001
 20
0.7283131502575314
 30
0.0
 10
10.00000000000001
 20
0.7269737429318194
 30
0.0
 10
9.999999999999995
 20
0.7263964949968182
 30
0.0
  0
SPLINE
  5
C4
330
1F
100
AcDbEntity
  8
0
  6
Continuous
 62
     1
370
    15
100
AcDbSpline
210
0.0
220
0.0
230
1.0
 70
     8
 71
     3
 72
    25
 73
    21
 74
     0
 42
0.000000001
 43
0.00000001
 40
0.0
 40
0.0
 40
0.0
 40
0.0
 40
0.0301949156359733
 40
0.0901444735185689
 40
0.1500612719335838
 40
0.2099792459579093
 40
0.269932318301201
 40
0.3299412003541547
 40
0.3899077763998527
 40
0.4498311171954213
 40
0.5097450890136478
 40
0.5696836566735111
 40
0.6296800996453
 40
0.689666913026449
 40
0.7496000590976111
 40
0.8095133011075916
 40
0.8694406115561143
 40
0.9294158149931196
 40
0.9894208793961076
 40
1.0
 40
1.0
 40
1.0
 40
1.0
 10
54.15947570308813
 20
-4.971779117861952
 30
0.0
 10
53.98100230645158
 20
-4.977145377717249
 30
0.0
 10
53.4481844449668
 20
-4.99316591161281
 30
0.0
 10
52.56181402996523
 20
-4.775623516013778
 30
0.0
 10
51.50007588972393
 20
-4.343699099587221
 30
0.0
 10
50.43831571427861
 20
-3.704739709039854
 30
0.0
 10
49.37575584188705
 20
-2.902011583049512
 30
0.0
 10
48.31206314993452
 20
-1.96834679973542
 30
0.0
 10
47.24922130199465
 20
-0.9459256418141492
 30
0.0
 10
46.18733042781472
 20
0.1189541977896575
 30
0.0
 10
45.12567018049047
 20
1.17836841461008
 30
0.0
 10
44.06342678468039
 20
2.185036441645718
 30
0.0
 10
42.99998187948997
 20
3.093127511595706
 30
0.0
 10
41.93672955776324
 20
3.86210118067596
 30
0.0
 10
40.87460864499756
 20
4.457750754298805
 30
0.0
 10
39.81297256742144
 20
4.85144420193887
 30
0.0
 10
38.75097612009213
 20
5.03189749378497
 30
0.0
 10
37.68800139130895
 20
4.967511128811497
 30
0.0
 10
36.91609508087937
 20
4.808615003606218
 30
0.0
 10
36.49915480440094
 20
4.614094074011951
 30
0.0
 10
36.43666401458655
 20
4.584939379175446
 30
0.0
  0
SPLINE
  5
C5
330
1F
100
AcDbEntity
  8
0
  6
Continuous
 62
     1
370
    15
100
AcDbSpline
210
0.0
220
0.0
230
1.0
 70
     8
 71
     3
 72
    19
 73
    15
 74
     0
 42
0.000000001
 43
0.00000001
 40
0.0
 40
0.0
 40
0.0
 40
0.0
 40
0.0779277328582906
 40
0.1613371680408633
 40
0.2447776910278505
 40
0.3281360278439682
 40
0.4114553201326638
 40
0.4947827861760487
 40
0.578165558274236
 40
0.6626141457540441
 40
0.7469993168427669
 40
0.8313318923722717
 40
0.9156520286619599
 40
1.0
 40
1.0
 40
1.0
 40
1.0
 10
22.74423813001557
 20
-4.993168825524707
 30
0.0
 10
22.41328316832639
 20
-4.976901318397535
 30
0.0
 10
21.72809274497475
 20
-4.943221992248586
 30
0.0
 10
20.68796794217702
 20
-4.61464789503803
 30
0.0
 10
19.62441290543774
 20
-4.090243761185285
 30
0.0
 10
18.56207009624364
 20
-3.376518077278855
 30
0.0
 10
17.50038417599458
 20
-2.512446517655945
 30
0.0
 10
16.43855523061765
 20
-1.534974530566254
 30
0.0
 10
15.3715956673556
 20
-0.4840935490829399
 30
0.0
 10
14.29938661172426
 20
0.5925974150766273
 30
0.0
 10
13.22386262327872
 20
1.64770438464238
 30
0.0
 10
12.14917694510595
 20
2.622984895448379
 30
0.0
 10
11.0747695478417
 20
3.491111970302759
 30
0.0
 10
10.35829592880781
 20
3.928437289322087
 30
0.0
 10
9.999999999999995
 20
4.147136034407059
 30
0.0
  0
SPLINE
  5
C6
330
1F
100
AcDbEntity
  8
0
  6
Continuous
 62
     1
370
    15
100
AcDbSpline
210
0.0
220
0.0
230
1.0
 70
     8
 71
     3
 72
    22
 73
    18
 74
     0
 42
0.000000001
 43
0.00000001
 40
0.0
 40
0.0
 40
0.0
 40
0.0
 40
0.067327862653395
 40
0.1346335069382545
 40
0.2019490804178149
 40
0.2693066364908026
 40
0.3367148125135203
 40
0.4032722381211496
 40
0.4697855175756164
 40
0.5362922726119576
 40
0.6028301935973788
 40
0.6694337168626945
 40
0.7360124253589932
 40
0.802535390548338
 40
0.8690401323625948
 40
0.9355643623557797
 40
1.0
 40
1.0
 40
1.0
 40
1.0
 10
10.0
 20
4.695234506804528
 30
0.0
 10
10.35829592880291
 20
4.551072205256584
 30
0.0
 10
11.07476954782702
 20
4.262795176092472
 30
0.0
 10
12.14917694516461
 20
3.575994239220091
 30
0.0
 10
13.2238626230585
 20
2.739961709197861
 30
0.0
 10
14.2993866125473
 20
1.773310234071942
 30
0.0
 10
15.37159566429778
 20
0.730656617202498
 30
0.0
 10
16.43855524186598
 20
-0.3415698913950747
 30
0.0
 10
17.50038413403027
 20
-1.393884000598138
 30
0.0
 10
18.56207025287853
 20
-2.383468895501037
 30
0.0
 10
19.62441232031539
 20
-3.266053085049852
 30
0.0
 10
20.6879701279031
 20
-4.001459169360382
 30
0.0
 10
21.75108104264459
 20
-4.55674844807175
 30
0.0
 10
22.81311641040994
 20
-4.90816550599628
 30
0.0
 10
23.87475728714022
 20
-5.034458853855547
 30
0.0
 10
24.92538505602986
 20
-4.951279938696103
 30
0.0
 10
25.62260108884714
 20
-4.713677129907458
 30
0.0
 10
25.96564938647327
 20
-4.596770410570021
 30
0.0
  0
SPLINE
  5
C7
330
1F
100
AcDbEntity
  8
0
  6
Continuous
 62
     1
370
    15
100
AcDbSpline
210
0.0
220
0.0
230
1.0
 70
     8
 71
     3
 72
    25
 73
    21
 74
     0
 42
0.000000001
 43
0.00000001
 40
0.0
 40
0.0
 40
0.0
 40
0.0
 40
0.0085722332749776
 40
0.0684913659319407
 40
0.1284304046070434
 40
0.188423115868683
 40
0.2484254576677395
 40
0.3083699184645934
 40
0.3682897810015556
 40
0.4282190134370155
 40
0.4881914853734767
 40
0.5482062674767041
 40
0.6081652343830798
 40
0.6680890995196378
 40
0.7280117889312986
 40
0.7879672410314381
 40
0.8479804620970106
 40
0.907957168236055
 40
0.9678883046307973
 40
0.9999999999999999
 40
0.9999999999999999
 40
0.9999999999999999
 40
0.9999999999999999
 10
39.66116072384465
 20
4.986201273846098
 30
0.0
 10
39.71178662658954
 20
4.990629362928075
 30
0.0
 10
40.11628299519121
 20
5.026009392841436
 30
0.0
 10
40.87459475962871
 20
4.87633915610445
 30
0.0
 10
41.93673328254979
 20
4.527893554808921
 30
0.0
 10
42.99998088087601
 20
3.954204025069117
 30
0.0
 10
44.06342705188592
 20
3.208529016430195
 30
0.0
 10
45.12567010935251
 20
2.316698173389717
 30
0.0
 10
46.18733044539399
 20
1.321301456958374
 30
0.0
 10
47.24922130281269
 20
0.2662701598789756
 30
0.0
 10
48.31206312904495
 20
-0.8008833194115759
 30
0.0
 10
49.37575592465736
 20
-1.83153901242876
 30
0.0
 10
50.43831540450174
 20
-2.780324175058114
 30
0.0
 10
51.50007704544002
 20
-3.60370974041024
 30
0.0
 10
52.5618097156867
 20
-4.265214904004256
 30
0.0
 10
53.62429419360918
 20
-4.73422909252147
 30
0.0
 10
54.68795554934739
 20
-4.992829249694007
 30
0.0
 10
55.75088556489771
 20
-5.016734370229631
 30
0.0
 10
56.64860431518049
 20
-4.878213585768948
 30
0.0
 10
57.19212040016922
 20
-4.652838681063693
 30
0.0
 10
57.38174106497212
 20
-4.574210393069267
 30
0.0
  0
SPLINE
  5
C8
330
1F
100
AcDbEntity
  8
0
  6
Continuous
 62
     1
370
    15
100
AcDbSpline
210
0.0
220
0.0
230
1.0
 70
     8
 71
     3
 72
    25
 73
    21
 74
     0
 42
0.000000001
 43
0.00000001
 40
0.0
 40
0.0
 40
0.0
 40
0.0
 40
0.0258688455689767
 40
0.0858055691673874
 40
0.1457200419020015
 40
0.2056462338252743
 40
0.2656179917332299
 40
0.3256262615551378
 40
0.3855767671777005
 40
0.4454945128147894
 40
0.505413434079774
 40
0.5653674542185927
 40
0.6253772849493667
 40
0.6853448090040711
 40
0.745269097125142
 40
0.8051840161207569
 40
0.8651235313468433
 40
0.9251209227998036
 40
0.9851086845098903
 40
1.0
 40
1.0
 40
1.0
 40
1.0
 10
59.39504454284847
 20
-4.972320969727236
 30
0.0
 10
59.24216444909875
 20
-4.978801900020523
 30
0.0
 10
58.73506940214044
 20
-5.000298797169135
 30
0.0
 10
57.87448212772896
 20
-4.798291402402472
 30
0.0
 10
56.81281693001477
 20
-4.382551795689667
 30
0.0
 10
55.75088554126496
 20
-3.756415600689955
 30
0.0
 10
54.68795555567538
 20
-2.964714669462204
 30
0.0
 10
53.62429419195557
 20
-2.039064253935119
 30
0.0
 10
52.56180971597787
 20
-1.021464979833089
 30
0.0
 10
51.50007704592694
 20
0.041869859537689
 30
0.0
 10
50.43831540226198
 20
1.103317792715392
 30
0.0
 10
49.37575593313811
 20
2.115398013895505
 30
0.0
 10
48.31206309734116
 20
3.031850935186
 30
0.0
 10
47.24922142100817
 20
3.812236503811401
 30
0.0
 10
46.18733000465406
 20
4.421280750793626
 30
0.0
 10
45.12567175425788
 20
4.830253865380299
 30
0.0
 10
44.06342090765997
 20
5.026376748955286
 30
0.0
 10
43.00000383422976
 20
4.979959842388988
 30
0.0
 10
42.20285885406913
 20
4.823064850378018
 30
0.0
 10
41.76060355398387
 20
4.62085795364318
 30
0.0
 10
41.67265157264283
 20
4.580644761839226
 30
0.0
  0
SPLINE
  5
C9
330
1F
100
AcDbEntity
  8
0
  6
Continuous
 62
     1
370
    15
100
AcDbSpline
210
0.0
220
0.0
230
1.0
 70
     8
 71
     3
 72
    24
 73
    20
 74
     0
 42
0.000000001
 43
0.00000001
 40
0.0
 40
0.0
 40
0.0
 40
0.0
 40
0.0517413379427287
 40
0.1117472901897952
 40
0.1717348358003689
 40
0.2316710309043765
 40
0.2915896677849419
 40
0.3515247233413027
 40
0.4115100018272883
 40
0.4715176376233459
 40
0.5314661678717336
 40
0.5913866186007525
 40
0.651312947621001
 40
0.7112790509076982
 40
0.7720116530004504
 40
0.8326986481439229
 40
0.8933478183187943
 40
0.9539880426080722
 40
1.0
 40
1.0
 40
1.0
 40
1.0
 10
27.98053692072054
 20
-4.986697124586223
 30
0.0
 10
27.67496601578482
 20
-4.975850568978265
 30
0.0
 10
27.01501554010894
 20
-4.952424943641248
 30
0.0
 10
25.99996756705118
 20
-4.644422242611953
 30
0.0
 10
24.93681768236056
 20
-4.13485337406385
 30
0.0
 10
23.87475277759143
 20
-3.433273363747964
 30
0.0
 10
22.81311761892085
 20
-2.578985704333707
 30
0.0
 10
21.75108071850149
 20
-1.608112346930132
 30
0.0
 10
20.68797021477893
 20
-0.5650128305330473
 30
0.0
 10
19.62441229723699
 20
0.5032530388843952
 30
0.0
 10
18.56207025839168
 20
1.549302024808788
 30
0.0
 10
17.50038413503353
 20
2.52536624617988
 30
0.0
 10
16.43855523233656
 20
3.38787826480603
 30
0.0
 10
15.37159570163872
 20
4.101064729235477
 30
0.0
 10
14.29938647082512
 20
4.629405709298339
 30
0.0
 10
13.22386315128041
 20
4.948624479719908
 30
0.0
 10
12.14917497528461
 20
5.032808557916497
 30
0.0
 10
11.16127385230248
 20
4.920931553272971
 30
0.0
 10
10.53132555930351
 20
4.683142564263973
 30
0.0
 10
10.25955283454832
 20
4.580555475485464
 30
0.0
  0
LINE
  5
CA
330
1F
100
AcDbEntity
  8
0
  6
Continuous
 62
     1
370
    15
100
AcDbLine
 10
60.00000000000001
 20
-1.959591794226513
 30
0.0
 11
60.00000000000001
 21
1.959591794226573
 31
0.0
  0
SPLINE
  5
CB
330
1F
100
AcDbEntity
  8
0
  6
Continuous
 62
     1
370
    15
100
AcDbSpline
210
0.0
220
0.0
230
1.0
 70
     8
 71
     3
 72
    24
 73
    20
 74
     0
 42
0.000000001
 43
0.00000001
 40
0.0
 40
0.0
 40
0.0
 40
0.0
 40
0.0512753194688635
 40
0.1112823739928846
 40
0.1712670714234008
 40
0.2312015464107827
 40
0.291119602881412
 40
0.351055217405402
 40
0.4110421819385471
 40
0.4710475529298845
 40
0.5309940112515953
 40
0.5909135274221257
 40
0.6508400626496477
 40
0.710807504308715
 40
0.7708221945300959
 40
0.8307838809375061
 40
0.8907081288573669
 40
0.9506288497180683
 40
1.0
 40
1.0
 40
1.0
 40
1.0
 10
18.71561135853509
 20
4.986065981219332
 30
0.0
 10
19.01843614014364
 20
4.975761933207915
 30
0.0
 10
19.6756540951042
 20
4.953399148610476
 30
0.0
 10
20.68797561765534
 20
4.647574570948966
 30
0.0
 10
21.75107929651859
 20
4.139623095479084
 30
0.0
 10
22.81311790965961
 20
3.439366419191494
 30
0.0
 10
23.87475303560085
 20
2.586148170537421
 30
0.0
 10
24.93681635858378
 20
1.616000450595654
 30
0.0
 10
25.99997260942235
 20
0.5733108614430763
 30
0.0
 10
27.06349693473823
 20
-0.4949652577480331
 30
0.0
 10
28.12580618149258
 20
-1.541366315327994
 30
0.0
 10
29.18748267332204
 20
-2.518145600564509
 30
0.0
 10
30.24933204103105
 20
-3.381708447127089
 30
0.0
 10
31.31208928454136
 20
-4.09337220471058
 30
0.0
 10
32.37580042262295
 20
-4.620183513293155
 30
0.0
 10
33.4384334958832
 20
-4.940985860342056
 30
0.0
 10
34.50024316004608
 20
-5.033445851148789
 30
0.0
 10
35.49942073715305
 20
-4.928328134822493
 30
0.0
 10
36.14502215446418
 20
-4.691791610451277
 30
0.0
 10
36.43666401458657
 20
-4.584939379175482
 30
0.0
  0
SPLINE
  5
CC
330
1F
100
AcDbEntity
  8
0
  6
Continuous
 62
     1
370
    15
100
AcDbSpline
210
0.0
220
0.0
230
1.0
 70
     8
 71
     3
 72
    17
 73
    13
 74
     0
 42
0.000000001
 43
0.00000001
 40
0.0
 40
0.0
 40
0.0
 40
0.0
 40
0.0309192448135945
 40
0.1385415974514352
 40
0.2461618385051981
 40
0.3538409208504028
 40
0.4616237553810712
 40
0.569341009657689
 40
0.6769764213649112
 40
0.7845907838504911
 40
0.8922451118471167
 40
0.9999999999999999
 40
0.9999999999999999
 40
0.9999999999999999
 40
0.9999999999999999
 10
50.13339907346365
 20
4.976926169009716
 30
0.0
 10
50.23509640777123
 20
4.983631578016203
 30
0.0
 10
50.69077736752527
 20
5.013676880898744
 30
0.0
 10
51.50005367190224
 20
4.839903126234479
 30
0.0
 10
52.56181600038799
 20
4.457257752960942
 30
0.0
 10
53.62429243935939
 20
3.857042180580688
 30
0.0
 10
54.68795627342501
 20
3.08815041764313
 30
0.0
 10
55.75088442367007
 20
2.178924178283617
 30
0.0
 10
56.81282068000886
 20
1.171626039980207
 30
0.0
 10
57.87446824484446
 20
0.1133610956308062
 30
0.0
 10
58.93664850843055
 20
-0.956554766834963
 30
0.0
 10
59.64543920715263
 20
-1.625142078862575
 30
0.0
 10
60.00000000000001
 20
-1.959591794226513
 30
0.0
  0
SPLINE
  5
CD
330
1F
100
AcDbEntity
  8
0
  6
Continuous
 62
     1
370
    15
100
AcDbSpline
210
0.0
220
0.0
230
1.0
 70
     8
 71
     3
 72
    15
 73
    11
 74
     0
 42
0.000000001
 43
0.00000001
 40
0.0
 40
0.0
 40
0.0
 40
0.0
 40
0.1353616542530923
 40
0.2705969848717218
 40
0.4057821108288113
 40
0.5409936788110515
 40
0.6763080574014394
 40
0.8117048178849045
 40
0.9469712449078901
 40
1.0
 40
1.0
 40
1.0
 40
1.0
 10
60.00000000000002
 20
1.959591794226573
 30
0.0
 10
59.64543920442964
 20
2.276950332637047
 30
0.0
 10
58.93664850026415
 20
2.911371240766637
 30
0.0
 10
57.8744682774694
 20
3.708681709517999
 30
0.0
 10
56.81282055770206
 20
4.345545565540255
 30
0.0
 10
55.75088488053507
 20
4.7844026251609
 30
0.0
 10
54.68795456646635
 20
5.011929899461338
 30
0.0
 10
53.6242988113872
 20
5.000906425854382
 30
0.0
 10
52.77689217375232
 20
4.851206775278254
 30
0.0
 10
52.28405261667302
 20
4.635914100549562
 30
0.0
 10
52.14525635073304
 20
4.575282158759705
 30
0.0
  0
SPLINE
  5
CE
330
1F
100
AcDbEntity
  8
0
  6
Continuous
 62
     1
370
    15
100
AcDbSpline
210
0.0
220
0.0
230
1.0
 70
     8
 71
     3
 72
    24
 73
    20
 74
     0
 42
0.000000001
 43
0.00000001
 40
0.0
 40
0.0
 40
0.0
 40
0.0
 40
0.0431317328979739
 40
0.1031393837859163
 40
0.1630881720409435
 40
0.2230065400178178
 40
0.2829284349153551
 40
0.342887766830359
 40
0.4029001004780534
 40
0.4628651874187266
 40
0.5227893695341098
 40
0.5827065328681169
 40
0.6426506372953774
 40
0.7026536520789637
 40
0.7626382611271149
 40
0.8225715221824544
 40
0.8824872258738773
 40
0.9424193474373542
 40
1.0
 40
1.0
 40
1.0
 40
1.0
 10
38.45258507560751
 20
-4.977223040069828
 30
0.0
 10
38.19776508179935
 20
-4.975025353946971
 30
0.0
 10
37.58842306440647
 20
-4.969770105033084
 30
0.0
 10
36.62433952884581
 20
-4.700462916356561
 30
0.0
 10
35.56194124397781
 20
-4.221262224878516
 30
0.0
 10
34.50023019885084
 20
-3.544380454069788
 30
0.0
 10
33.43843697122211
 20
-2.710189849427453
 30
0.0
 10
32.3757994902561
 20
-1.753254280063395
 30
0.0
 10
31.31208953411457
 20
-0.7181185926918824
 30
0.0
 10
30.24933197472965
 20
0.3498754470285847
 30
0.0
 10
29.18748268922004
 20
1.40189916627134
 30
0.0
 10
28.12580618417199
 20
2.390810044604758
 30
0.0
 10
27.06349690809128
 20
3.272389891090672
 30
0.0
 10
25.9999727134289
 20
4.006528532600873
 30
0.0
 10
24.93681596951775
 20
4.560288442256335
 30
0.0
 10
23.87475448638272
 20
4.910058285439645
 30
0.0
 10
22.81311249616365
 20
5.034528259176401
 30
0.0
 10
21.76528303701964
 20
4.95007549934691
 30
0.0
 10
21.07087140469227
 20
4.712453158903054
 30
0.0
 10
20.73061329033965
 20
4.596019439012011
 30
0.0
  0
SPLINE
  5
CF
330
1F
100
AcDbEntity
  8
0
  6
Continuous
 62
     1
370
    15
100
AcDbSpline
210
0.0
220
0.0
230
1.0
 70
     8
 71
     3
 72
    13
 73
     9
 74
     0
 42
0.000000001
 43
0.00000001
 40
0.0
 40
0.0
 40
0.0
 40
0.0
 40
0.1956164572342565
 40
0.3911683605324873
 40
0.5867491124204998
 40
0.7824518418356168
 40
0.9783016440203391
 40
1.0
 40
1.0
 40
1.0
 40
1.0
 10
10.0
 20
-3.836267546313263
 30
0.0
 10
10.35829615669986
 20
-4.049044353075126
 30
0.0
 10
11.07477023144263
 20
-4.474527749703165
 30
0.0
 10
12.14917421158691
 20
-4.85811473728846
 30
0.0
 10
13.22387287847624
 20
-5.036151679775337
 30
0.0
 10
14.29934828705422
 20
-4.957980552093761
 30
0.0
 10
15.05698700592241
 20
-4.797508137581541
 30
0.0
 10
15.45549783856193
 20
-4.608528650454039
 30
0.0
 10
15.49524549710948
 20
-4.589679747208222
 30
0.0
  0
SPLINE
  5
D0
330
1F
100
AcDbEntity
  8
0
  6
Continuous
 62
     1
370
    15
100
AcDbSpline
210
0.0
220
0.0
230
1.0
 70
     8
 71
     3
 72
    24
 73
    20
 74
     0
 42
0.000000001
 43
0.00000001
 40
0.0
 40
0.0
 40
0.0
 40
0.0
 40
0.0598775589912148
 40
0.1198462593896191
 40
0.1798622093421024
 40
0.2398251543680447
 40
0.2997506601205897
 40
0.3596726387399407
 40
0.4196250394705526
 40
0.4796363063811034
 40
0.5396177092390507
 40
0.5995512141579898
 40
0.6594706491841839
 40
0.719409990328969
 40
0.7794030043311385
 40
0.8394056489193233
 40
0.8993504122132213
 40
0.9592705771230977
 40
1.0
 40
1.0
 40
1.0
 40
1.0
 10
29.18833934687656
 20
4.999905851611572
 30
0.0
 10
29.54192233334204
 20
4.978179752807108
 30
0.0
 10
30.24962650541617
 20
4.934694485259271
 30
0.0
 10
31.31209011241085
 20
4.587167067781158
 30
0.0
 10
32.37579938697967
 20
4.049622238436124
 30
0.0
 10
33.43843680663096
 20
3.325252333267105
 30
0.0
 10
34.50023095986176
 20
2.452612599470178
 30
0.0
 10
35.56193836390304
 20
1.469394364718538
 30
0.0
 10
36.62435029859428
 20
0.4198514502583027
 30
0.0
 10
37.68796703249041
 20
-0.648116253317149
 30
0.0
 10
38.75098531859879
 20
-1.687285073752961
 30
0.0
 10
39.81297009620039
 20
-2.650493665194392
 30
0.0
 10
40.87460933716242
 20
-3.494314754188278
 30
0.0
 10
41.93672926062488
 20
-4.181256797822443
 30
0.0
 10
42.99998237560607
 20
-4.679421935572717
 30
0.0
 10
44.06342509803285
 20
-4.969188441164651
 30
0.0
 10
45.12567642328723
 20
-5.02755702000286
 30
0.0
 10
46.0739364234379
 20
-4.903951526385165
 30
0.0
 10
46.66833746013448
 20
-4.67149400168415
 30
0.0
 10
46.90887109484119
 20
-4.577426444800333
 30
0.0
  0
SPLINE
  5
D1
330
1F
100
AcDbEntity
  8
0
  6
Continuous
 62
   131
370
    15
100
AcDbSpline
210
0.0
220
0.0
230
1.0
 70
    24
 71
     3
 72
    22
 73
    18
 74
     0
 42
0.000000001
 43
0.00000001
 40
0.0
 40
0.0
 40
0.0
 40
0.0
 40
0.0493054130868795
 40
0.1165531084176829
 40
0.185750991468762
 40
0.2529986867995647
 40
0.3221965698506432
 40
0.3894442651814488
 40
0.4586421482325299
 40
0.5258898435633349
 40
0.595087726614416
 40
0.6623354219452195
 40
0.7315333049962992
 40
0.7987810003270402
 40
0.8679788833781856
 40
0.9331065480653609
 40
1.0
 40
1.0
 40
1.0
 40
1.0
 10
9.999999999999995
 20
-0.2786023706420664
 30
0.0
 10
9.999999999999995
 20
-0.2787400703240613
 30
0.0
 10
10.00000000000001
 20
-0.2790655787208037
 30
0.0
 10
10.00000000000006
 20
-0.3458015243828202
 30
0.0
 10
9.999999999999918
 20
-0.4659218617863742
 30
0.0
 10
10.00000000000001
 20
-0.6407191515314775
 30
0.0
 10
9.999999999999995
 20
-0.8595119908416544
 30
0.0
 10
9.999999999999973
 20
-1.120740141764147
 30
0.0
 10
9.999999999999995
 20
-1.412121777297259
 30
0.0
 10
9.999999999999966
 20
-1.730705046765773
 30
0.0
 10
9.999999999999995
 20
-2.061719756307476
 30
0.0
 10
10.0
 20
-2.401778235145047
 30
0.0
 10
9.99999999999998
 20
-2.735057693128268
 30
0.0
 10
10.00000000000001
 20
-3.058407839330375
 30
0.0
 10
9.999999999999995
 20
-3.35270164352698
 30
0.0
 10
9.999999999999947
 20
-3.619592422466548
 30
0.0
 10
9.999999999999988
 20
-3.763401355125465
 30
0.0
 10
10.00000000000001
 20
-3.836267546313259
 30
0.0
  0
SPLINE
  5
D2
330
1F
100
AcDbEntity
  8
0
  6
Continuous
 62
     1
370
    15
100
AcDbSpline
210
0.0
220
0.0
230
1.0
 70
     8
 71
     3
 72
    25
 73
    21
 74
     0
 42
0.000000001
 43
0.00000001
 40
0.0
 40
0.0
 40
0.0
 40
0.0
 40
0.0345151452330297
 40
0.0944815357603104
 40
0.1544046911712185
 40
0.2143184776337693
 40
0.2742568598618648
 40
0.3342531172228373
 40
0.3942397450229608
 40
0.4541727056791278
 40
0.5140857623356904
 40
0.5740128873872717
 40
0.6339879052791693
 40
0.6939927840446686
 40
0.7539388028964796
 40
0.8138544028754376
 40
0.8737735296121285
 40
0.9337300916368398
 40
0.9937396529457657
 40
0.9999999999999999
 40
0.9999999999999999
 40
0.9999999999999999
 40
0.9999999999999999
 10
48.92391648237837
 20
-4.972416861872498
 30
0.0
 10
48.71990886547193
 20
-4.975973717308009
 30
0.0
 10
48.16145973185281
 20
-4.985710230417127
 30
0.0
 10
47.24921708950853
 20
-4.751749730076209
 30
0.0
 10
46.18733155514116
 20
-4.303860594714846
 30
0.0
 10
45.12566988147805
 20
-3.652158397014004
 30
0.0
 10
44.06342685308887
 20
-2.83871161991758
 30
0.0
 10
42.99998190528686
 20
-1.897084277693631
 30
0.0
 10
41.93672938625733
 20
-0.8702139127275775
 30
0.0
 10
40.87460930448076
 20
0.1960042669817467
 30
0.0
 10
39.81297010139139
 20
1.253170601373489
 30
0.0
 10
38.75098533052628
 20
2.25411471326872
 30
0.0
 10
37.68796697952511
 20
3.153704912175161
 30
0.0
 10
36.62435049853708
 20
3.911056546529192
 30
0.0
 10
35.56193761809303
 20
4.493173514813952
 30
0.0
 10
34.50023374200812
 20
4.871492008272291
 30
0.0
 10
33.43842641985475
 20
5.036291891208591
 30
0.0
 10
32.37583819240064
 20
4.953728772116617
 30
0.0
 10
31.629477819644
 20
4.793918313526679
 30
0.0
 10
31.23796024320057
 20
4.607887206853599
 30
0.0
 10
31.20097458912458
 20
4.59031332876289
 30
0.0
  0
SPLINE
  5
D3
330
1F
100
AcDbEntity
  8
0
  6
Continuous
 62
     1
370
    15
100
AcDbSpline
210
0.0
220
0.0
230
1.0
 70
     8
 71
     3
 72
    15
 73
    11
 74
     0
 42
0.000000001
 43
0.00000001
 40
0.0
 40
0.0
 40
0.0
 40
0.0
 40
0.0009807045910296
 40
0.142424080535982
 40
0.2839613351919151
 40
0.4273077475346069
 40
0.5705465143569048
 40
0.7136960033719111
 40
0.8568243775233869
 40
1.0
 40
1.0
 40
1.0
 40
1.0
 10
17.50777317913799
 20
-4.999225957805382
 30
0.0
 10
17.50531956821706
 20
-4.999483782202772
 30
0.0
 10
17.1489907790984
 20
-5.036926660592459
 30
0.0
 10
16.43855775540873
 20
-4.905701722421333
 30
0.0
 10
15.3715949809975
 20
-4.589787825169882
 30
0.0
 10
14.29938679646447
 20
-4.035686975083753
 30
0.0
 10
13.22386257384457
 20
-3.300755545170922
 30
0.0
 10
12.14917695828258
 20
-2.41160073780151
 30
0.0
 10
11.07476954454645
 20
-1.413080100248633
 30
0.0
 10
10.35829592770927
 20
-0.701269239492136
 30
0.0
 10
9.999999999999995
 20
-0.3453050745670748
 30
0.0
  0
LINE
  5
D4
330
1F
100
AcDbEntity
  8
0
  6
Continuous
 62
     1
370
    15
100
AcDbLine
 10
60.00000000000001
 20
-4.963512754521706
 30
0.0
 11
60.00000000000001
 21
-2.992381306602181
 31
0.0
  0
SPLINE
  5
D5
330
1F
100
AcDbEntity
  8
0
  6
Continuous
 62
     1
370
    15
100
AcDbSpline
210
0.0
220
0.0
230
1.0
 70
     8
 71
     3
 72
    24
 73
    20
 74
     0
 42
0.000000001
 43
0.00000001
 40
0.0
 40
0.0
 40
0.0
 40
0.0
 40
0.0462523245197014
 40
0.106983400249235
 40
0.1669479964367563
 40
0.2268728193574565
 40
0.2867917641346634
 40
0.3467387877255314
 40
0.4067449153785973
 40
0.4667286862834866
 40
0.5266622355209792
 40
0.5865793664953202
 40
0.6465140552518196
 40
0.7065000932243201
 40
0.7665045373707062
 40
0.8264500697574327
 40
0.8863686604091283
 40
0.9462942700093989
 40
0.9999999999999999
 40
0.9999999999999999
 40
0.9999999999999999
 40
0.9999999999999999
 10
13.47949163065547
 20
4.979074792735059
 30
0.0
 10
13.75271066821725
 20
4.974491333740542
 30
0.0
 10
14.38467677921201
 20
4.963889617324593
 30
0.0
 10
15.37160428476537
 20
4.677806416437913
 30
0.0
 10
16.43855294650584
 20
4.183253783883599
 30
0.0
 10
17.50038474738985
 20
3.49522383308183
 30
0.0
 10
18.56207009379199
 20
2.652009913282934
 30
0.0
 10
19.6244123430641
 20
1.688690424898401
 30
0.0
 10
20.68797019627917
 20
0.6499532350648165
 30
0.0
 10
21.75108074664695
 20
-0.4183329979476217
 30
0.0
 10
22.81311752491782
 20
-1.467803139067725
 30
0.0
 10
23.87475312543295
 20
-2.451087310938179
 30
0.0
 10
24.93681638407563
 20
-3.324257987420045
 30
0.0
 10
25.99997241731272
 20
-4.047907818618502
 30
0.0
 10
27.06349767757358
 20
-4.588987095202818
 30
0.0
 10
28.1258034058466
 20
-4.925151320617986
 30
0.0
 10
29.18749302969192
 20
-5.034559478234836
 30
0.0
 10
30.21232280624146
 20
-4.939984925430775
 30
0.0
 10
30.88367331308908
 20
-4.702538123920359
 30
0.0
 10
31.20097458912462
 20
-4.590313328762926
 30
0.0
  0
SPLINE
  5
D6
330
1F
100
AcDbEntity
  8
0
  6
Continuous
 62
     1
370
    15
100
AcDbSpline
210
0.0
220
0.0
230
1.0
 70
     8
 71
     3
 72
    22
 73
    18
 74
     0
 42
0.000000001
 43
0.00000001
 40
0.0
 40
0.0
 40
0.0
 40
0.0
 40
0.0151266178407569
 40
0.0854328907068035
 40
0.1557501576341282
 40
0.2261181591263747
 40
0.2965358047600415
 40
0.3668879602825202
 40
0.4371989295521873
 40
0.507508519298739
 40
0.5778565507642547
 40
0.6482723647725694
 40
0.7186453344171043
 40
0.7889648353328792
 40
0.8592705845405769
 40
0.9296024436943046
 40
1.0
 40
1.0
 40
1.0
 40
1.0
 10
44.89735903887114
 20
4.98098230841975
 30
0.0
 10
44.97350435018494
 20
4.986845783959587
 30
0.0
 10
45.40356175811246
 20
5.019961822867318
 30
0.0
 10
46.18730960968198
 20
4.858786902106471
 30
0.0
 10
47.24922689043512
 20
4.493087623741021
 30
0.0
 10
48.31206163025888
 20
3.906056250270983
 30
0.0
 10
49.37575632561651
 20
3.148754344860291
 30
0.0
 10
50.43831529848539
 20
2.248017900877968
 30
0.0
 10
51.5000770689601
 20
1.246751493564994
 30
0.0
 10
52.56180972759257
 20
0.1893239390939721
 30
0.0
 10
53.62429412237851
 20
-0.8768748567076124
 30
0.0
 10
54.68795582257264
 20
-1.903203112587902
 30
0.0
 10
55.75088454434001
 20
-2.844018173083974
 30
0.0
 10
56.81282064770444
 20
-3.657912603058389
 30
0.0
 10
57.87446825346158
 20
-4.302909438437159
 30
0.0
 10
58.93664850627358
 20
-4.7704720610561
 30
0.0
 10
59.64543920643343
 20
-4.899145833640304
 30
0.0
 10
60.00000000000001
 20
-4.963512754521706
 30
0.0
  0
SPLINE
  5
D7
330
1F
100
AcDbEntity
  8
0
  6
Continuous
 62
     1
370
    15
100
AcDbSpline
210
0.0
220
0.0
230
1.0
 70
     8
 71
     3
 72
    20
 73
    16
 74
     0
 42
0.000000001
 43
0.00000001
 40
0.0
 40
0.0
 40
0.0
 40
0.0
 40
0.0812175203358001
 40
0.1623592459983783
 40
0.2434708486682814
 40
0.324598316656374
 40
0.4057874714102205
 40
0.4870260556211257
 40
0.5681864392475645
 40
0.6493024727394875
 40
0.7304200977844764
 40
0.8115852393272103
 40
0.8928259366806329
 40
0.9740093596870902
 40
1.0
 40
1.0
 40
1.0
 40
1.0
 10
60.00000000000002
 20
-3.003920960295133
 30
0.0
 10
59.64543920644095
 20
-2.707634064329581
 30
0.0
 10
58.93664850629613
 20
-2.11533677638883
 30
0.0
 10
57.87446825337155
 20
-1.095165260606049
 30
0.0
 10
56.81282064804165
 20
-0.0356624980082693
 30
0.0
 10
55.75088454308042
 20
1.02816782392313
 30
0.0
 10
54.68795582727875
 20
2.045144740381483
 30
0.0
 10
53.62429410481069
 20
2.969945119863424
 30
0.0
 10
52.56180979306958
 20
3.761442557603171
 30
0.0
 10
51.50007682473579
 20
4.383780677860771
 30
0.0
 10
50.43831621020695
 20
4.807928412749275
 30
0.0
 10
49.37575291946418
 20
5.019717799374726
 30
0.0
 10
48.31207435132697
 20
4.991087428097543
 30
0.0
 10
47.48979597607166
 20
4.837266437857151
 30
0.0
 10
47.02225406514071
 20
4.628141143322052
 30
0.0
 10
46.90887109484122
 20
4.577426444800299
 30
0.0
  0
SPLINE
  5
D8
330
1F
100
AcDbEntity
  8
0
  6
Continuous
 62
     1
370
    15
100
AcDbSpline
210
0.0
220
0.0
230
1.0
 70
     8
 71
     3
 72
    24
 73
    20
 74
     0
 42
0.000000001
 43
0.00000001
 40
0.0
 40
0.0
 40
0.0
 40
0.0
 40
0.0474367291999831
 40
0.1074505281412478
 40
0.1674170792218902
 40
0.2273427244784884
 40
0.287261350782336
 40
0.3472069188372454
 40
0.4072113986868677
 40
0.4671974723516503
 40
0.5271321967698811
 40
0.5870493633955051
 40
0.6469829482940507
 40
0.7069667548898749
 40
0.7669729182471783
 40
0.8269199775071153
 40
0.8868389579366853
 40
0.9467638165132463
 40
1.0
 40
1.0
 40
1.0
 40
1.0
 10
33.2166566551951
 20
-4.981379396077822
 30
0.0
 10
32.93646493274025
 20
-4.975221547053109
 30
0.0
 10
32.30179325393085
 20
-4.961273196458995
 30
0.0
 10
31.31208103340897
 20
-4.673034865632162
 30
0.0
 10
30.24933424954122
 20
-4.178526705216083
 30
0.0
 10
29.18748208168331
 20
-3.489233526758011
 30
0.0
 10
28.12580634056688
 20
-2.644911569752782
 30
0.0
 10
27.06349689027108
 20
-1.680842739939667
 30
0.0
 10
25.99997262801844
 20
-0.6416703234415303
 30
0.0
 10
24.93681632869572
 20
0.4266298047880903
 30
0.0
 10
23.87475313646695
 20
1.475779529262804
 30
0.0
 10
22.81311753612009
 20
2.458369807812343
 30
0.0
 10
21.75108069076377
 20
3.330509356047985
 30
0.0
 10
20.68797040883353
 20
4.052875004155949
 30
0.0
 10
19.6244115488144
 20
4.592412205202225
 30
0.0
 10
18.56207305436316
 20
4.926920121236298
 30
0.0
 10
17.50037370326794
 20
5.034497640053784
 30
0.0
 10
16.47832606123156
 20
4.938741163574425
 30
0.0
 10
15.80976671055435
 20
4.701356474679987
 30
0.0
 10
15.49524549710952
 20
4.589679747208184
 30
0.0
  0
LINE
  5
D9
330
1F
100
AcDbEntity
  8
0
  6
Continuous
 62
   131
370
    15
100
AcDbLine
 10
60.00000000000001
 20
-5.000000000000018
 30
0.0
 11
60.00000000000001
 21
-4.963512754521706
 31
0.0
  0
LINE
  5
DA
330
1F
100
AcDbEntity
  8
0
  6
Continuous
 62
   131
370
    15
100
AcDbLine
 10
60.00000000000001
 20
4.963512754521672
 30
0.0
 11
60.00000000000001
 21
4.999999999999984
 31
0.0
  0
LINE
  5
DB
330
1F
100
AcDbEntity
  8
0
  6
Continuous
 62
   131
370
    15
100
AcDbLine
 10
10.0
 20
-4.492441108974143
 30
0.0
 11
10.00000000000001
 21
-3.836267546313259
 31
0.0
  0
LINE
  5
DC
330
1F
100
AcDbEntity
  8
0
  6
Continuous
 62
   131
370
    15
100
AcDbLine
 10
10.0
 20
-0.3453050745670671
 30
0.0
 11
9.999999999999995
 21
0.8589669604912954
 31
0.0
  0
LINE
  5
DD
330
1F
100
AcDbEntity
  8
0
  6
Continuous
 62
     1
370
    15
100
AcDbLine
 10
60.00000000000001
 20
1.959591794226573
 30
0.0
 11
60.00000000000001
 21
3.003920960295128
 31
0.0
  0
LINE
  5
DE
330
1F
100
AcDbEntity
  8
0
  6
Continuous
 62
     1
370
    15
100
AcDbLine
 10
60.00000000000001
 20
-3.003920960295133
 30
0.0
 11
60.00000000000001
 21
-1.959591794226513
 31
0.0
  0
LINE
  5
DF
330
1F
100
AcDbEntity
  8
0
  6
Continuous
 62
   131
370
    15
100
AcDbLine
 10
10.0
 20
4.14713603440706
 30
0.0
 11
10.0
 21
4.695234506804528
 31
0.0
  0
SPLINE
  5
E0
330
1F
100
AcDbEntity
  8
0
  6
Continuous
 62
   131
370
    15
100
AcDbSpline
210
0.0
220
0.0
230
1.0
 70
    24
 71
     3
 72
    15
 73
    11
 74
     0
 42
0.000000001
 43
0.00000001
 40
0.0
 40
0.0
 40
0.0
 40
0.0
 40
0.0697088162113699
 40
0.221431840718318
 40
0.3731548652252639
 40
0.5248778897322104
 40
0.6766009142391578
 40
0.8283239387461063
 40
0.9800469632530321
 40
1.0
 40
1.0
 40
1.0
 40
1.0
 10
9.999999999999995
 20
-3.836267546313255
 30
0.0
 10
10.0
 20
-3.768353940992442
 30
0.0
 10
10.00000000000002
 20
-3.552624633663422
 30
0.0
 10
9.999999999999966
 20
-3.075801859361851
 30
0.0
 10
10.00000000000006
 20
-2.412140635063054
 30
0.0
 10
9.99999999999996
 20
-1.731904936862393
 30
0.0
 10
10.0
 20
-1.107478197139251
 30
0.0
 10
10.00000000000001
 20
-0.6358494780090296
 30
0.0
 10
9.999999999999988
 20
-0.3745911319381927
 30
0.0
 10
10.0
 20
-0.3483544328586742
 30
0.0
 10
10.0
 20
-0.3453050745670802
 30
0.0
  0
SPLINE
  5
E1
330
1F
100
AcDbEntity
  8
0
  6
Continuous
 62
   131
370
    15
100
AcDbSpline
210
0.0
220
0.0
230
1.0
 70
     8
 71
     3
 72
     8
 73
     4
 74
     0
 42
0.000000001
 43
0.00000001
 40
0.0
 40
0.0
 40
0.0
 40
0.0
 40
1.0
 40
1.0
 40
1.0
 40
1.0
 10
9.99999999999998
 20
-3.83626754631325
 30
0.0
 10
9.667255267592697
 20
-3.622804638516303
 30
0.0
 10
9.330561239915706
 20
-3.382762725025731
 30
0.0
 10
8.999888059499547
 20
-3.123396129845624
 30
0.0
  0
SPLINE
  5
E2
330
1F
100
AcDbEntity
  8
0
  6
Continuous
 62
   131
370
    15
100
AcDbSpline
210
0.0
220
0.0
230
1.0
 70
     8
 71
     3
 72
     8
 73
     4
 74
     0
 42
0.000000001
 43
0.00000001
 40
0.0
 40
0.0
 40
0.0
 40
0.0
 40
1.0
 40
1.0
 40
1.0
 40
1.0
 10
9.999999999999995
 20
-0.3453050745670534
 30
0.0
 10
9.667255267592704
 20
-0.0132628773184753
 30
0.0
 10
9.330561239915692
 20
0.3223830199520717
 30
0.0
 10
8.99988805949952
 20
0.6516955628481906
 30
0.0
  0
LINE
  5
E3
330
1F
100
AcDbEntity
  8
0
  6
Continuous
 62
   131
370
    15
100
AcDbLine
 10
8.999888059499547
 20
4.943010382761966
 30
0.0
 11
8.999888059499547
 21
4.999999999999983
 31
0.0
  0
SPLINE
  5
E4
330
1F
100
AcDbEntity
  8
0
  6
Continuous
 62
   131
370
    15
100
AcDbSpline
210
0.0
220
0.0
230
1.0
 70
     8
 71
     3
 72
     8
 73
     4
 74
     0
 42
0.000000001
 43
0.00000001
 40
0.0
 40
0.0
 40
0.0
 40
0.0
 40
1.0
 40
1.0
 40
1.0
 40
1.0
 10
9.99999999999998
 20
4.695234506804527
 30
0.0
 10
9.667255267592697
 20
4.809660179725703
 30
0.0
 10
9.330561239915706
 20
4.89301031432768
 30
0.0
 10
8.999888059499547
 20
4.94301400136663
 30
0.0
  0
SPLINE
  5
E5
330
1F
100
AcDbEntity
  8
0
  6
Continuous
 62
   131
370
    15
100
AcDbSpline
210
0.0
220
0.0
230
1.0
 70
     8
 71
     3
 72
     8
 73
     4
 74
     0
 42
0.000000001
 43
0.00000001
 40
0.0
 40
0.0
 40
0.0
 40
0.0
 40
1.0
 40
1.0
 40
1.0
 40
1.0
 10
9.999999999999995
 20
4.14713603440707
 30
0.0
 10
9.667255267592704
 20
4.333063637790359
 30
0.0
 10
9.330561239915692
 20
4.491871892641265
 30
0.0
 10
8.99988805949952
 20
4.619036534556542
 30
0.0
  0
LINE
  5
E6
330
1F
100
AcDbEntity
  8
0
  6
Continuous
 62
   131
370
    15
100
AcDbLine
 10
8.999888059499547
 20
1.819595483729372
 30
0.0
 11
8.999888059499547
 21
4.619046587077067
 31
0.0
  0
SPLINE
  5
E7
330
1F
100
AcDbEntity
  8
0
  6
Continuous
 62
   131
370
    15
100
AcDbSpline
210
0.0
220
0.0
230
1.0
 70
     8
 71
     3
 72
     8
 73
     4
 74
     0
 42
0.000000001
 43
0.00000001
 40
0.0
 40
0.0
 40
0.0
 40
0.0
 40
1.0
 40
1.0
 40
1.0
 40
1.0
 10
9.99999999999998
 20
0.8589669604913083
 30
0.0
 10
9.667255267592697
 20
1.186855541209431
 30
0.0
 10
9.330561239915706
 20
1.510247589301981
 30
0.0
 10
8.999888059499547
 20
1.819617871521037
 30
0.0
  0
SPLINE
  5
E8
330
1F
100
AcDbEntity
  8
0
  6
Continuous
 62
   131
370
    15
100
AcDbSpline
210
0.0
220
0.0
230
1.0
 70
     8
 71
     3
 72
     8
 73
     4
 74
     0
 42
0.000000001
 43
0.00000001
 40
0.0
 40
0.0
 40
0.0
 40
0.0
 40
1.0
 40
1.0
 40
1.0
 40
1.0
 10
9.999999999999995
 20
-4.492441108974139
 30
0.0
 10
9.667255267592704
 20
-4.346326515108851
 30
0.0
 10
9.330561239915692
 20
-4.169488872689211
 30
0.0
 10
8.99988805949952
 20
-3.96734097170837
 30
0.0
  0
LINE
  5
E9
330
1F
100
AcDbEntity
  8
0
  6
Continuous
 62
   131
370
    15
100
AcDbLine
 10
8.999888059499547
 20
-5.000000000000017
 30
0.0
 11
8.999888059499547
 21
-3.967324991513533
 31
0.0
  0
SPLINE
  5
EA
330
1F
100
AcDbEntity
  8
0
  6
Continuous
 62
   131
370
    15
100
AcDbSpline
210
0.0
220
0.0
230
1.0
 70
     8
 71
     3
 72
     8
 73
     4
 74
     0
 42
0.000000001
 43
0.00000001
 40
0.0
 40
0.0
 40
0.0
 40
0.0
 40
1.0
 40
1.0
 40
1.0
 40
1.0
 10
9.99999999999998
 20
-4.695234506804561
 30
0.0
 10
9.667255267592697
 20
-4.809660179725737
 30
0.0
 10
9.330561239915706
 20
-4.893010314327714
 30
0.0
 10
8.999888059499547
 20
-4.943014001366664
 30
0.0
  0
LINE
  5
EB
330
1F
100
AcDbEntity
  8
0
  6
Continuous
 62
   131
370
    15
100
AcDbLine
 10
-39.0
 20
-0.0000000000000167
 30
0.0
 11
-39.0
 21
4.999999999999983
 31
0.0
  0
LINE
  5
EC
330
1F
100
AcDbEntity
  8
0
  6
Continuous
 62
   131
370
    15
100
AcDbLine
 10
-39.0
 20
-5.000000000000017
 30
0.0
 11
-39.0
 21
-0.0000000000000167
 31
0.0
  0
LINE
  5
ED
330
1F
100
AcDbEntity
  8
0
  6
Continuous
 62
   131
370
    15
100
AcDbLine
 10
8.999888059499547
 20
-3.123414899032624
 30
0.0
 11
8.999888059499547
 21
0.6517215955635522
 31
0.0
  0
LINE
  5
EE
330
1F
100
AcDbEntity
  8
0
  6
Continuous
 62
   131
370
    15
100
AcDbLine
 10
-40.0
 20
-0.0000000000000167
 30
0.0
 11
-40.0
 21
3.999999999999987
 31
0.0
  0
LINE
  5
EF
330
1F
100
AcDbEntity
  8
0
  6
Continuous
 62
   131
370
    15
100
AcDbLine
 10
-40.0
 20
-4.00000000000002
 30
0.0
 11
-40.0
 21
-0.0000000000000167
 31
0.0
  0
SPLINE
  5
F0
330
1F
100
AcDbEntity
  8
0
  6
Continuous
 62
   131
370
    15
100
AcDbSpline
210
0.0
220
0.0
230
1.0
 70
    24
 71
     3
 72
    15
 73
    11
 74
     0
 42
0.000000001
 43
0.00000001
 40
0.0
 40
0.0
 40
0.0
 40
0.0
 40
0.0469100239994534
 40
0.1899654095355195
 40
0.333020795071586
 40
0.4760761806076534
 40
0.6191315661437219
 40
0.762186951679769
 40
0.9052423372158546
 40
1.0
 40
1.0
 40
1.0
 40
1.0
 10
10.00000000000001
 20
0.7457691046937651
 30
0.0
 10
9.999999999999995
 20
0.7393428026515683
 30
0.0
 10
10.0
 20
0.7133190449306367
 30
0.0
 10
10.00000000000006
 20
0.8998420531591266
 30
0.0
 10
9.999999999999966
 20
1.287087486892093
 30
0.0
 10
9.99999999999998
 20
1.85143963381758
 30
0.0
 10
9.999999999999995
 20
2.510304648791248
 30
0.0
 10
10.00000000000001
 20
3.191376455880193
 30
0.0
 10
9.999999999999995
 20
3.757183306235261
 30
0.0
 10
9.999999999999988
 20
4.036028808532839
 30
0.0
 10
9.999999999999988
 20
4.147136034407215
 30
0.0
  0
LINE
  5
F1
330
1F
100
AcDbEntity
  8
0
  6
Continuous
 62
   131
370
    15
100
AcDbLine
 10
9.999999999999995
 20
-4.695234506804558
 30
0.0
 11
10.0
 21
-4.56150218268013
 31
0.0
  0
LINE
  5
F2
330
1F
100
AcDbEntity
  8
중심선
 62
     1
100
AcDbLine
 10
-43.20259277488954
 20
-0.0000000000000217
 30
0.0
 11
63.0
 21
0.0000000000000316
 31
0.0
  0
CIRCLE
  5
F3
330
1F
100
AcDbEntity
  8
외형선
100
AcDbCircle
 10
0.0
 20
0.0
 30
0.0
 40
3.000000000000001
  0
INSERT
  5
F4
330
1F
100
AcDbEntity
  8
0
  6
Continuous
 62
     7
100
AcDbBlockReference
 66
     1
  2
블럭10
 10
-18.94078629968143
 20
-52.04717430164395
 30
0.0
  0
ATTRIB
  5
F5
330
F4
100
AcDbEntity
  8
FORMAT
 62
     2
100
AcDbText
 10
-35.06004733911699
 20
-49.97180738881176
 30
0.0
 40
4.233333333333333
  1
SEME7510050E [ 6 FLUTE ]
 41
0.75
  7
SLDTEXTSTYLE0
 11
-35.06004733911699
 21
-52.08847405547843
 31
0.0
100
AcDbAttribute
  2
AUTOATTR0
 70
     0
 74
     1
  0
SEQEND
  5
F6
330
F4
100
AcDbEntity
  8
0
  6
Continuous
 62
     7
  0
HATCH
  5
F7
330
1F
100
AcDbEntity
  8
중심선
100
AcDbHatch
 10
0.0
 20
0.0
 30
0.0
210
0.0
220
0.0
230
1.0
  2
SOLID
 70
     1
 71
     0
 91
        1
 92
        0
 93
        4
 72
     1
 10
-13.22587699530058
 20
-35.80000000000001
 11
-16.67215223913787
 21
-35.80000000000001
 72
     1
 10
-16.67215223913787
 20
-35.80000000000001
 11
-18.80038209834189
 21
-38.33632558057261
 72
     1
 10
-18.80038209834189
 20
-38.33632558057261
 11
-15.35407376939146
 21
-38.33628615127012
 72
     1
 10
-15.35407376939146
 20
-38.33628615127012
 11
-13.22587699530058
 21
-35.80000000000001
 97
        0
 75
     0
 76
     1
 98
        1
 10
3.998657388384458
 20
-0.0010749287239099
  0
HATCH
  5
F8
330
1F
100
AcDbEntity
  8
중심선
100
AcDbHatch
 10
0.0
 20
0.0
 30
0.0
210
0.0
220
0.0
230
1.0
  2
SOLID
 70
     1
 71
     0
 91
        1
 92
        0
 93
        4
 72
     1
 10
-8.213113004264631
 20
-35.80000000000001
 11
-11.65938824810191
 21
-35.80000000000001
 72
     1
 10
-11.65938824810191
 20
-35.80000000000001
 11
-16.1905262564593
 21
-41.20000000000003
 72
     1
 10
-16.1905262564593
 20
-41.20000000000003
 11
-12.74425101262202
 21
-41.20000000000003
 72
     1
 10
-12.74425101262202
 20
-41.20000000000003
 11
-8.213113004264631
 21
-35.80000000000001
 97
        0
 75
     0
 76
     1
 98
        1
 10
3.998657388384458
 20
-0.0010749287239099
  0
HATCH
  5
F9
330
1F
100
AcDbEntity
  8
중심선
100
AcDbHatch
 10
0.0
 20
0.0
 30
0.0
210
0.0
220
0.0
230
1.0
  2
SOLID
 70
     1
 71
     0
 91
        1
 92
        0
 93
        4
 72
     1
 10
-3.200349013228736
 20
-35.80000000000004
 11
-6.646624257065852
 21
-35.80000000000001
 72
     1
 10
-6.646624257065852
 20
-35.80000000000001
 11
-13.6950611589551
 21
-44.20000000000003
 72
     1
 10
-13.6950611589551
 20
-44.20000000000003
 11
-10.24878591511782
 21
-44.20000000000003
 72
     1
 10
-10.24878591511782
 20
-44.20000000000003
 11
-3.200349013228736
 21
-35.80000000000004
 97
        0
 75
     0
 76
     1
 98
        1
 10
3.998657388384458
 20
-0.0010749287239099
  0
HATCH
  5
FA
330
1F
100
AcDbEntity
  8
중심선
100
AcDbHatch
 10
0.0
 20
0.0
 30
0.0
210
0.0
220
0.0
230
1.0
  2
SOLID
 70
     1
 71
     0
 91
        1
 92
        0
 93
        6
 72
     3
 10
1.599541417783463
 20
-40.00000000005129
 11
3.960054785062284
 21
1.540882976769353E-10
 40
0.3939339440162627
 50
17.09539180608438
 51
320.0019657685081
 73
     0
 72
     1
 10
3.282541073484058
 20
-38.58789400463831
 11
5.587842947185096
 21
-36.6535672945904
 72
     3
 10
1.599541417730616
 20
-40.00000000000016
 11
6.600054785286829
 21
-1.278976924368180E-13
 40
0.636358354079598
 50
39.99873849337411
 51
368.4976242363725
 73
     1
 72
     1
 10
8.024873909631225
 20
-39.03999999993004
 11
0.279608724566538
 21
-39.03999999993001
 72
     1
 10
0.2796087245665388
 20
-39.03999999993001
 11
0.2795836801206049
 21
-40.95999999992993
 72
     1
 10
0.2795836801206049
 20
-40.95999999992993
 11
4.720963449592642
 21
-40.9599999999299
 97
        0
 75
     0
 76
     1
 98
        1
 10
3.998657388384458
 20
-0.0010749287239099
  0
DIMENSION
  5
FB
330
1F
100
AcDbEntity
  8
치수문자_일반주서
100
AcDbDimension
  2
_D
 10
-57.62890613132342
 20
-5.000000000000091
 30
0.0
 11
-57.62890613132344
 21
-0.0000000000000144
 31
0.0
 70
   160
  1
%%c<>
 71
     2
 42
10.00000000000001
 52
-270.0
  3
SLDDIMSTYLE0
100
AcDbAlignedDimension
 13
-39.0
 23
4.999999999999988
 33
0.0
 14
-39.0
 24
-5.000000000000021
 34
0.0
 50
90.0000000000002
100
AcDbRotatedDimension
  0
DIMENSION
  5
109
330
1F
100
AcDbEntity
  8
치수문자_일반주서
100
AcDbDimension
  2
_D_1
 10
70.0
 20
-4.999999999999982
 30
0.0
 11
69.99999999999999
 21
0.6594307500959738
 31
0.0
 70
   160
  1
%%c<>
 71
     2
 42
10.00000000000001
 52
-270.0
  3
SLDDIMSTYLE0
100
AcDbAlignedDimension
 13
60.00000000000001
 23
4.999999999999986
 33
0.0
 14
60.00000000000001
 24
-5.00000000000002
 34
0.0
 50
90.0000000000002
100
AcDbRotatedDimension
  0
DIMENSION
  5
116
330
1F
100
AcDbEntity
  8
치수문자_일반주서
100
AcDbDimension
  2
_D_2
 10
60.00000000000001
 20
48.19007512544633
 30
0.0
 11
30.46249388206546
 21
48.19007512544633
 31
0.0
 70
   160
  1
<>
 71
     2
 42
50.00000000000001
  3
SLDDIMSTYLE1
100
AcDbAlignedDimension
 13
9.999999999999995
 23
4.695234506804524
 33
0.0
 14
60.00000000000001
 24
4.963512754521672
 34
0.0
100
AcDbRotatedDimension
  0
DIMENSION
  5
121
330
1F
100
AcDbEntity
  8
치수문자_일반주서
100
AcDbDimension
  2
_D_3
 10
-40.00000000000001
 20
75.9081954153913
 30
0.0
 11
13.09816319842718
 21
75.9081954153913
 31
0.0
 70
   160
  1
<>
 71
     2
 42
100.0
  3
SLDDIMSTYLE1
100
AcDbAlignedDimension
 13
60.00000000000001
 23
4.963512754521672
 33
0.0
 14
-40.0
 24
3.999999999999987
 34
0.0
100
AcDbRotatedDimension
  0
INSERT
  5
131
330
1F
100
AcDbEntity
  8
외형선
100
AcDbBlockReference
  2
SW_DOWELSYMBOL_0
 10
0.0
 20
0.0
 30
0.0
  0
ENDSEC
  0
SECTION
  2
OBJECTS
  0
DICTIONARY
  5
C
330
0
100
AcDbDictionary
281
     1
  3
ACAD_GROUP
350
D
  3
ACAD_IMAGE_VARS
350
155
  3
ACAD_LAYOUT
350
1A
  3
ACAD_MLINESTYLE
350
17
  3
ACAD_PLOTSETTINGS
350
19
  3
ACAD_PLOTSTYLENAME
350
E
  3
ACAD_SCALELIST
350
47
  3
APPDATA
350
153
  3
DWGPROPS
350
15E
  0
DICTIONARY
  5
D
102
{ACAD_REACTORS
330
C
102
}
330
C
100
AcDbDictionary
281
     1
  0
RASTERVARIABLES
  5
155
102
{ACAD_REACTORS
330
C
102
}
330
C
100
AcDbRasterVariables
 90
        0
 70
     1
 71
     1
 72
     1
  0
DICTIONARY
  5
1A
102
{ACAD_REACTORS
330
C
102
}
330
C
100
AcDbDictionary
281
     1
  3
Layout1
350
1E
  3
Layout2
350
26
  3
Model
350
22
  0
DICTIONARY
  5
17
102
{ACAD_REACTORS
330
C
102
}
330
C
100
AcDbDictionary
281
     1
  3
Standard
350
18
  0
DICTIONARY
  5
19
102
{ACAD_REACTORS
330
C
102
}
330
C
100
AcDbDictionary
281
     1
  0
ACDBDICTIONARYWDFLT
  5
E
102
{ACAD_REACTORS
330
C
102
}
330
C
100
AcDbDictionary
281
     1
  3
Normal
350
F
100
AcDbDictionaryWithDefault
340
F
  0
DICTIONARY
  5
47
102
{ACAD_REACTORS
330
C
102
}
330
C
100
AcDbDictionary
281
     1
  3
A0
350
48
  3
A1
350
49
  3
A2
350
4A
  3
A3
350
4B
  3
A4
350
4C
  3
A5
350
4D
  3
A6
350
4E
  3
A7
350
4F
  3
A8
350
50
  3
A9
350
51
  3
B0
350
52
  3
B1
350
53
  3
B2
350
54
  3
B3
350
55
  3
B4
350
56
  3
B5
350
57
  3
B6
350
58
  3
B7
350
59
  3
B8
350
5A
  3
B9
350
5B
  3
C0
350
5C
  3
C1
350
5D
  3
C2
350
5E
  3
C3
350
5F
  3
C4
350
60
  3
C5
350
61
  3
C6
350
62
  3
C7
350
63
  3
C8
350
64
  3
C9
350
65
  3
D0
350
66
  3
D1
350
67
  3
D2
350
68
  0
DICTIONARY
  5
153
102
{ACAD_REACTORS
330
C
102
}
330
C
100
AcDbDictionary
281
     1
  0
XRECORD
  5
15E
102
{ACAD_REACTORS
330
C
102
}
330
C
100
AcDbXrecord
280
     1
  1
DWGPROPS COOKIE
  2

  3

  4

  6

  7

  8
12016016
  9

300
=
301
=
302
=
303
=
304
=
305
=
306
=
307
=
308
=
309
=
 40
0.0
 41
2458268.396337697
 42
2458270.005896632
  1

 90
        0
  0
LAYOUT
  5
1E
102
{ACAD_REACTORS
330
1A
102
}
330
1A
100
AcDbPlotSettings
  1

  2
none_device
  4

  6

 40
0.0
 41
0.0
 42
0.0
 43
0.0
 44
0.0
 45
0.0
 46
0.0
 47
0.0
 48
0.0
 49
0.0
140
0.0
141
0.0
142
1.0
143
1.0
 70
   688
 72
     1
 73
     0
 74
     5
  7

 75
    16
147
1.0
148
0.0
149
0.0
100
AcDbLayout
  1
Layout1
 70
     1
 71
     1
 10
0.0
 20
0.0
 11
420.0
 21
297.0
 12
0.0
 22
0.0
 32
0.0
 14
1.000000000000000E+20
 24
1.000000000000000E+20
 34
1.000000000000000E+20
 15
-1.000000000000000E+20
 25
-1.000000000000000E+20
 35
-1.000000000000000E+20
146
0.0
 13
0.0
 23
0.0
 33
0.0
 16
1.0
 26
0.0
 36
0.0
 17
0.0
 27
1.0
 37
0.0
 76
     0
330
1B
  0
LAYOUT
  5
26
102
{ACAD_REACTORS
330
1A
102
}
330
1A
100
AcDbPlotSettings
  1

  2
none_device
  4

  6

 40
0.0
 41
0.0
 42
0.0
 43
0.0
 44
0.0
 45
0.0
 46
0.0
 47
0.0
 48
0.0
 49
0.0
140
0.0
141
0.0
142
1.0
143
1.0
 70
   688
 72
     1
 73
     0
 74
     5
  7

 75
    16
147
1.0
148
0.0
149
0.0
100
AcDbLayout
  1
Layout2
 70
     1
 71
     2
 10
0.0
 20
0.0
 11
0.0
 21
0.0
 12
0.0
 22
0.0
 32
0.0
 14
0.0
 24
0.0
 34
0.0
 15
0.0
 25
0.0
 35
0.0
146
0.0
 13
0.0
 23
0.0
 33
0.0
 16
1.0
 26
0.0
 36
0.0
 17
0.0
 27
1.0
 37
0.0
 76
     0
330
23
  0
LAYOUT
  5
22
102
{ACAD_REACTORS
330
1A
102
}
330
1A
100
AcDbPlotSettings
  1

  2
none_device
  4
ANSI_A_(11.00_x_8.50_Inches)
  6

 40
6.35
 41
19.05
 42
6.35000508
 43
19.05000254
 44
279.4
 45
215.9
 46
132.6910444975439
 47
64.69051214189213
 48
0.0
 49
0.0
140
0.0
141
0.0
142
0.064170166093943
143
1.0
 70
  1696
 72
     0
 73
     0
 74
     0
  7

 75
     0
147
0.0235690232323232
148
0.0
149
0.0
100
AcDbLayout
  1
Model
 70
     1
 71
     0
 10
0.0
 20
0.0
 11
420.0
 21
297.0
 12
0.0
 22
0.0
 32
0.0
 14
-62.00390613132345
 24
-49.97180738881176
 34
0.0
 15
70.55033333333331
 25
80.2831954153913
 35
0.0
146
0.0
 13
0.0
 23
0.0
 33
0.0
 16
1.0
 26
0.0
 36
0.0
 17
0.0
 27
1.0
 37
0.0
 76
     0
330
1F
331
29
  0
MLINESTYLE
  5
18
102
{ACAD_REACTORS
330
17
102
}
330
17
100
AcDbMlineStyle
  2
Standard
 70
     0
  3

 62
   256
 51
90.0
 52
90.0
 71
     2
 49
0.5
 62
   256
  6
BYLAYER
 49
-0.5
 62
   256
  6
BYLAYER
  0
ACDBPLACEHOLDER
  5
F
102
{ACAD_REACTORS
330
E
102
}
330
E
  0
SCALE
  5
48
102
{ACAD_REACTORS
330
47
102
}
330
47
100
AcDbScale
 70
     0
300
1:1
140
1.0
141
1.0
290
     1
  0
SCALE
  5
49
102
{ACAD_REACTORS
330
47
102
}
330
47
100
AcDbScale
 70
     0
300
1:2
140
1.0
141
2.0
290
     0
  0
SCALE
  5
4A
102
{ACAD_REACTORS
330
47
102
}
330
47
100
AcDbScale
 70
     0
300
1:4
140
1.0
141
4.0
290
     0
  0
SCALE
  5
4B
102
{ACAD_REACTORS
330
47
102
}
330
47
100
AcDbScale
 70
     0
300
1:5
140
1.0
141
5.0
290
     0
  0
SCALE
  5
4C
102
{ACAD_REACTORS
330
47
102
}
330
47
100
AcDbScale
 70
     0
300
1:8
140
1.0
141
8.0
290
     0
  0
SCALE
  5
4D
102
{ACAD_REACTORS
330
47
102
}
330
47
100
AcDbScale
 70
     0
300
1:10
140
1.0
141
10.0
290
     0
  0
SCALE
  5
4E
102
{ACAD_REACTORS
330
47
102
}
330
47
100
AcDbScale
 70
     0
300
1:16
140
1.0
141
16.0
290
     0
  0
SCALE
  5
4F
102
{ACAD_REACTORS
330
47
102
}
330
47
100
AcDbScale
 70
     0
300
1:20
140
1.0
141
20.0
290
     0
  0
SCALE
  5
50
102
{ACAD_REACTORS
330
47
102
}
330
47
100
AcDbScale
 70
     0
300
1:30
140
1.0
141
30.0
290
     0
  0
SCALE
  5
51
102
{ACAD_REACTORS
330
47
102
}
330
47
100
AcDbScale
 70
     0
300
1:40
140
1.0
141
40.0
290
     0
  0
SCALE
  5
52
102
{ACAD_REACTORS
330
47
102
}
330
47
100
AcDbScale
 70
     0
300
1:50
140
1.0
141
50.0
290
     0
  0
SCALE
  5
53
102
{ACAD_REACTORS
330
47
102
}
330
47
100
AcDbScale
 70
     0
300
1:100
140
1.0
141
100.0
290
     0
  0
SCALE
  5
54
102
{ACAD_REACTORS
330
47
102
}
330
47
100
AcDbScale
 70
     0
300
2:1
140
2.0
141
1.0
290
     0
  0
SCALE
  5
55
102
{ACAD_REACTORS
330
47
102
}
330
47
100
AcDbScale
 70
     0
300
4:1
140
4.0
141
1.0
290
     0
  0
SCALE
  5
56
102
{ACAD_REACTORS
330
47
102
}
330
47
100
AcDbScale
 70
     0
300
8:1
140
8.0
141
1.0
290
     0
  0
SCALE
  5
57
102
{ACAD_REACTORS
330
47
102
}
330
47
100
AcDbScale
 70
     0
300
10:1
140
10.0
141
1.0
290
     0
  0
SCALE
  5
58
102
{ACAD_REACTORS
330
47
102
}
330
47
100
AcDbScale
 70
     0
300
100:1
140
100.0
141
1.0
290
     0
  0
SCALE
  5
59
102
{ACAD_REACTORS
330
47
102
}
330
47
100
AcDbScale
 70
     0
300
1/128" = 1'-0"
140
0.0078125
141
12.0
290
     0
  0
SCALE
  5
5A
102
{ACAD_REACTORS
330
47
102
}
330
47
100
AcDbScale
 70
     0
300
1/64" = 1'-0"
140
0.015625
141
12.0
290
     0
  0
SCALE
  5
5B
102
{ACAD_REACTORS
330
47
102
}
330
47
100
AcDbScale
 70
     0
300
1/32" = 1'-0"
140
0.03125
141
12.0
290
     0
  0
SCALE
  5
5C
102
{ACAD_REACTORS
330
47
102
}
330
47
100
AcDbScale
 70
     0
300
1/16" = 1'-0"
140
0.0625
141
12.0
290
     0
  0
SCALE
  5
5D
102
{ACAD_REACTORS
330
47
102
}
330
47
100
AcDbScale
 70
     0
300
3/32" = 1'-0"
140
0.09375
141
12.0
290
     0
  0
SCALE
  5
5E
102
{ACAD_REACTORS
330
47
102
}
330
47
100
AcDbScale
 70
     0
300
1/8" = 1'-0"
140
0.125
141
12.0
290
     0
  0
SCALE
  5
5F
102
{ACAD_REACTORS
330
47
102
}
330
47
100
AcDbScale
 70
     0
300
3/16" = 1'-0"
140
0.1875
141
12.0
290
     0
  0
SCALE
  5
60
102
{ACAD_REACTORS
330
47
102
}
330
47
100
AcDbScale
 70
     0
300
1/4" = 1'-0"
140
0.25
141
12.0
290
     0
  0
SCALE
  5
61
102
{ACAD_REACTORS
330
47
102
}
330
47
100
AcDbScale
 70
     0
300
3/8" = 1'-0"
140
0.375
141
12.0
290
     0
  0
SCALE
  5
62
102
{ACAD_REACTORS
330
47
102
}
330
47
100
AcDbScale
 70
     0
300
1/2" = 1'-0"
140
0.5
141
12.0
290
     0
  0
SCALE
  5
63
102
{ACAD_REACTORS
330
47
102
}
330
47
100
AcDbScale
 70
     0
300
3/4" = 1'-0"
140
0.75
141
12.0
290
     0
  0
SCALE
  5
64
102
{ACAD_REACTORS
330
47
102
}
330
47
100
AcDbScale
 70
     0
300
1" = 1'-0"
140
1.0
141
12.0
290
     0
  0
SCALE
  5
65
102
{ACAD_REACTORS
330
47
102
}
330
47
100
AcDbScale
 70
     0
300
1-1/2" = 1'-0"
140
1.5
141
12.0
290
     0
  0
SCALE
  5
66
102
{ACAD_REACTORS
330
47
102
}
330
47
100
AcDbScale
 70
     0
300
3" = 1'-0"
140
3.0
141
12.0
290
     0
  0
SCALE
  5
67
102
{ACAD_REACTORS
330
47
102
}
330
47
100
AcDbScale
 70
     0
300
6" = 1'-0"
140
6.0
141
12.0
290
     0
  0
SCALE
  5
68
102
{ACAD_REACTORS
330
47
102
}
330
47
100
AcDbScale
 70
     0
300
1'-0" = 1'-0"
140
12.0
141
12.0
290
     0
  0
ENDSEC
  0
EOF
