  0
SECTION
  2
HEADER
  9
$ACADVER
  1
AC1015
  9
$ACADMAINTVER
 70
     6
  9
$DWGCODEPAGE
  3
ANSI_949
  9
$INSBASE
 10
0.0
 20
0.0
 30
0.0
  9
$EXTMIN
 10
-62.00390613132344
 20
-49.97180738881174
 30
0.0
  9
$EXTMAX
 10
45.55033333333333
 20
80.28319541539133
 30
0.0
  9
$LIMMIN
 10
0.0
 20
0.0
  9
$LIMMAX
 10
420.0
 20
297.0
  9
$ORTHOMODE
 70
     1
  9
$REGENMODE
 70
     1
  9
$FILLMODE
 70
     1
  9
$QTEXTMODE
 70
     0
  9
$MIRRTEXT
 70
     1
  9
$LTSCALE
 40
1.0
  9
$ATTMODE
 70
     1
  9
$TEXTSIZE
 40
3.5
  9
$TRACEWID
 40
1.0
  9
$TEXTSTYLE
  7
Standard
  9
$CLAYER
  8
0
  9
$CELTYPE
  6
ByLayer
  9
$CECOLOR
 62
   256
  9
$CELTSCALE
 40
1.0
  9
$DISPSILH
 70
     0
  9
$DIMSCALE
 40
1.0
  9
$DIMASZ
 40
3.302
  9
$DIMEXO
 40
1.0
  9
$DIMDLI
 40
3.75
  9
$DIMRND
 40
0.0
  9
$DIMDLE
 40
0.0
  9
$DIMEXE
 40
1.0
  9
$DIMTP
 40
0.0
  9
$DIMTM
 40
0.0
  9
$DIMTXT
 40
3.5
  9
$DIMCEN
 40
2.5
  9
$DIMTSZ
 40
0.0
  9
$DIMTOL
 70
     0
  9
$DIMLIM
 70
     0
  9
$DIMTIH
 70
     1
  9
$DIMTOH
 70
     1
  9
$DIMSE1
 70
     0
  9
$DIMSE2
 70
     0
  9
$DIMTAD
 70
     1
  9
$DIMZIN
 70
     0
  9
$DIMBLK
  1

  9
$DIMASO
 70
     1
  9
$DIMSHO
 70
     1
  9
$DIMPOST
  1

  9
$DIMAPOST
  1

  9
$DIMALT
 70
     0
  9
$DIMALTD
 70
     3
  9
$DIMALTF
 40
0.0393700787401575
  9
$DIMLFAC
 40
1.0
  9
$DIMTOFL
 70
     1
  9
$DIMTVP
 40
0.0
  9
$DIMTIX
 70
     0
  9
$DIMSOXD
 70
     0
  9
$DIMSAH
 70
     0
  9
$DIMBLK1
  1

  9
$DIMBLK2
  1

  9
$DIMSTYLE
  2
ISO-25
  9
$DIMCLRD
 70
     0
  9
$DIMCLRE
 70
     0
  9
$DIMCLRT
 70
     0
  9
$DIMTFAC
 40
1.0
  9
$DIMGAP
 40
1.524
  9
$DIMJUST
 70
     0
  9
$DIMSD1
 70
     0
  9
$DIMSD2
 70
     0
  9
$DIMTOLJ
 70
     0
  9
$DIMTZIN
 70
     0
  9
$DIMALTZ
 70
     0
  9
$DIMALTTZ
 70
     0
  9
$DIMUPT
 70
     0
  9
$DIMDEC
 70
     2
  9
$DIMTDEC
 70
     2
  9
$DIMALTU
 70
     2
  9
$DIMALTTD
 70
     3
  9
$DIMTXSTY
  7
Standard
  9
$DIMAUNIT
 70
     0
  9
$DIMADEC
 70
     2
  9
$DIMALTRND
 40
0.0
  9
$DIMAZIN
 70
     0
  9
$DIMDSEP
 70
    44
  9
$DIMATFIT
 70
     3
  9
$DIMFRAC
 70
     0
  9
$DIMLDRBLK
  1

  9
$DIMLUNIT
 70
     2
  9
$DIMLWD
 70
    -2
  9
$DIMLWE
 70
    -2
  9
$DIMTMOVE
 70
     0
  9
$LUNITS
 70
     2
  9
$LUPREC
 70
     2
  9
$SKETCHINC
 40
1.0
  9
$FILLETRAD
 40
10.0
  9
$AUNITS
 70
     0
  9
$AUPREC
 70
     2
  9
$MENU
  1
.
  9
$ELEVATION
 40
0.0
  9
$PELEVATION
 40
0.0
  9
$THICKNESS
 40
0.0
  9
$LIMCHECK
 70
     0
  9
$CHAMFERA
 40
0.0
  9
$CHAMFERB
 40
0.0
  9
$CHAMFERC
 40
0.0
  9
$CHAMFERD
 40
0.0
  9
$SKPOLY
 70
     0
  9
$TDCREATE
 40
2458268.771525359
  9
$TDUCREATE
 40
2458268.396525359
  9
$TDUPDATE
 40
2458268.795159086
  9
$TDUUPDATE
 40
2458268.420159086
  9
$TDINDWG
 40
0.0004225926
  9
$TDUSRTIMER
 40
0.0013796875
  9
$USRTIMER
 70
     1
  9
$ANGBASE
 50
0.0
  9
$ANGDIR
 70
     0
  9
$PDMODE
 70
     0
  9
$PDSIZE
 40
-1.0
  9
$PLINEWID
 40
0.0
  9
$SPLFRAME
 70
     0
  9
$SPLINETYPE
 70
     6
  9
$SPLINESEGS
 70
     8
  9
$HANDSEED
  5
14C
  9
$SURFTAB1
 70
     6
  9
$SURFTAB2
 70
     6
  9
$SURFTYPE
 70
     6
  9
$SURFU
 70
     6
  9
$SURFV
 70
     6
  9
$UCSBASE
  2

  9
$UCSNAME
  2

  9
$UCSORG
 10
0.0
 20
0.0
 30
0.0
  9
$UCSXDIR
 10
1.0
 20
0.0
 30
0.0
  9
$UCSYDIR
 10
0.0
 20
1.0
 30
0.0
  9
$UCSORTHOREF
  2

  9
$UCSORTHOVIEW
 70
     0
  9
$UCSORGTOP
 10
0.0
 20
0.0
 30
0.0
  9
$UCSORGBOTTOM
 10
0.0
 20
0.0
 30
0.0
  9
$UCSORGLEFT
 10
0.0
 20
0.0
 30
0.0
  9
$UCSORGRIGHT
 10
0.0
 20
0.0
 30
0.0
  9
$UCSORGFRONT
 10
0.0
 20
0.0
 30
0.0
  9
$UCSORGBACK
 10
0.0
 20
0.0
 30
0.0
  9
$PUCSBASE
  2

  9
$PUCSNAME
  2

  9
$PUCSORG
 10
0.0
 20
0.0
 30
0.0
  9
$PUCSXDIR
 10
1.0
 20
0.0
 30
0.0
  9
$PUCSYDIR
 10
0.0
 20
1.0
 30
0.0
  9
$PUCSORTHOREF
  2

  9
$PUCSORTHOVIEW
 70
     0
  9
$PUCSORGTOP
 10
0.0
 20
0.0
 30
0.0
  9
$PUCSORGBOTTOM
 10
0.0
 20
0.0
 30
0.0
  9
$PUCSORGLEFT
 10
0.0
 20
0.0
 30
0.0
  9
$PUCSORGRIGHT
 10
0.0
 20
0.0
 30
0.0
  9
$PUCSORGFRONT
 10
0.0
 20
0.0
 30
0.0
  9
$PUCSORGBACK
 10
0.0
 20
0.0
 30
0.0
  9
$USERI1
 70
     0
  9
$USERI2
 70
     0
  9
$USERI3
 70
     0
  9
$USERI4
 70
     0
  9
$USERI5
 70
     0
  9
$USERR1
 40
0.0
  9
$USERR2
 40
0.0
  9
$USERR3
 40
0.0
  9
$USERR4
 40
0.0
  9
$USERR5
 40
0.0
  9
$WORLDVIEW
 70
     1
  9
$SHADEDGE
 70
     3
  9
$SHADEDIF
 70
    70
  9
$TILEMODE
 70
     1
  9
$MAXACTVP
 70
    64
  9
$PINSBASE
 10
0.0
 20
0.0
 30
0.0
  9
$PLIMCHECK
 70
     0
  9
$PEXTMIN
 10
1.000000000000000E+20
 20
1.000000000000000E+20
 30
1.000000000000000E+20
  9
$PEXTMAX
 10
-1.000000000000000E+20
 20
-1.000000000000000E+20
 30
-1.000000000000000E+20
  9
$PLIMMIN
 10
0.0
 20
0.0
  9
$PLIMMAX
 10
0.0
 20
0.0
  9
$UNITMODE
 70
     0
  9
$VISRETAIN
 70
     1
  9
$PLINEGEN
 70
     0
  9
$PSLTSCALE
 70
     1
  9
$TREEDEPTH
 70
  3020
  9
$CMLSTYLE
  2
Standard
  9
$CMLJUST
 70
     0
  9
$CMLSCALE
 40
20.0
  9
$PROXYGRAPHICS
 70
     1
  9
$MEASUREMENT
 70
     1
  9
$CELWEIGHT
370
    -1
  9
$ENDCAPS
280
     0
  9
$JOINSTYLE
280
     0
  9
$LWDISPLAY
290
     1
  9
$INSUNITS
 70
     4
  9
$HYPERLINKBASE
  1

  9
$STYLESHEET
  1

  9
$XEDIT
290
     1
  9
$CEPSNTYPE
380
     0
  9
$PSTYLEMODE
290
     1
  9
$FINGERPRINTGUID
  2
{D4E480EF-D5DC-44C6-ACAC-6B9FB9A0E093}
  9
$VERSIONGUID
  2
{FAEB1C32-E019-11D5-929B-00C0DF256EC4}
  9
$EXTNAMES
290
     1
  9
$PSVPSCALE
 40
0.0
  9
$OLESTARTUP
290
     0
  0
ENDSEC
  0
SECTION
  2
CLASSES
  0
CLASS
  1
ACDBDICTIONARYWDFLT
  2
AcDbDictionaryWithDefault
  3
ObjectDBX Classes
 90
        0
280
     0
281
     0
  0
CLASS
  1
VISUALSTYLE
  2
AcDbVisualStyle
  3
ObjectDBX Classes
 90
     4095
280
     0
281
     0
  0
CLASS
  1
MATERIAL
  2
AcDbMaterial
  3
ObjectDBX Classes
 90
     1153
280
     0
281
     0
  0
CLASS
  1
SCALE
  2
AcDbScale
  3
ObjectDBX Classes
 90
     1153
280
     0
281
     0
  0
CLASS
  1
SUN
  2
AcDbSun
  3
SCENEOE
 90
     1153
280
     0
281
     0
  0
CLASS
  1
ACDBPLACEHOLDER
  2
AcDbPlaceHolder
  3
ObjectDBX Classes
 90
        0
280
     0
281
     0
  0
CLASS
  1
LAYOUT
  2
AcDbLayout
  3
ObjectDBX Classes
 90
        0
280
     0
281
     0
  0
CLASS
  1
TABLESTYLE
  2
AcDbTableStyle
  3
ObjectDBX Classes
 90
     4095
280
     0
281
     0
  0
CLASS
  1
MLEADERSTYLE
  2
AcDbMLeaderStyle
  3
ACDB_MLEADERSTYLE_CLASS
 90
     4095
280
     0
281
     0
  0
CLASS
  1
DICTIONARYVAR
  2
AcDbDictionaryVar
  3
ObjectDBX Classes
 90
        0
280
     0
281
     0
  0
ENDSEC
  0
SECTION
  2
TABLES
  0
TABLE
  2
VPORT
  5
8
330
0
100
AcDbSymbolTable
 70
     1
  0
VPORT
  5
29
330
8
100
AcDbSymbolTableRecord
100
AcDbViewportTableRecord
  2
*Active
 70
     0
 10
0.0
 20
0.0
 11
1.0
 21
1.0
 12
17.41679777851215
 22
-26.44237429446392
 13
0.0
 23
0.0
 14
10.0
 24
10.0
 15
10.0
 25
10.0
 16
0.0
 26
0.0
 36
1.0
 17
0.0
 27
0.0
 37
0.0
 40
211.1838220189137
 41
2.727272727272727
 42
50.0
 43
0.0
 44
0.0
 50
0.0
 51
0.0
 71
    16
 72
  2000
 73
     1
 74
     3
 75
     0
 76
     0
 77
     0
 78
     0
281
     0
 65
     1
110
0.0
120
0.0
130
0.0
111
1.0
121
0.0
131
0.0
112
0.0
122
1.0
132
0.0
 79
     0
146
0.0
  0
ENDTAB
  0
TABLE
  2
LTYPE
  5
5
330
0
100
AcDbSymbolTable
 70
     6
  0
LTYPE
  5
14
330
5
100
AcDbSymbolTableRecord
100
AcDbLinetypeTableRecord
  2
ByBlock
 70
     0
  3

 72
    65
 73
     0
 40
0.0
  0
LTYPE
  5
15
330
5
100
AcDbSymbolTableRecord
100
AcDbLinetypeTableRecord
  2
ByLayer
 70
     0
  3

 72
    65
 73
     0
 40
0.0
  0
LTYPE
  5
16
330
5
100
AcDbSymbolTableRecord
100
AcDbLinetypeTableRecord
  2
Continuous
 70
     0
  3
Solid line
 72
    65
 73
     0
 40
0.0
  0
LTYPE
  5
6A
330
5
100
AcDbSymbolTableRecord
100
AcDbLinetypeTableRecord
  2
HIDDEN
 70
     0
  3
Hidden __ __ __ __ __ __ __ __ __ __ __ __ __ __
 72
    65
 73
     2
 40
1.905
 49
1.27
 74
     0
 49
-0.635
 74
     0
  0
LTYPE
  5
6B
330
5
100
AcDbSymbolTableRecord
100
AcDbLinetypeTableRecord
  2
PHANTOM
 70
     0
  3
Phantom ______  __  __  ______  __  __  ______
 72
    65
 73
     6
 40
12.7
 49
6.35
 74
     0
 49
-1.27
 74
     0
 49
1.27
 74
     0
 49
-1.27
 74
     0
 49
1.27
 74
     0
 49
-1.27
 74
     0
  0
LTYPE
  5
6C
330
5
100
AcDbSymbolTableRecord
100
AcDbLinetypeTableRecord
  2
CENTER
 70
     0
  3
Center ____ _ ____ _ ____ _ ____ _ ____ _ ____
 72
    65
 73
     4
 40
10.16
 49
6.35
 74
     0
 49
-1.27
 74
     0
 49
1.27
 74
     0
 49
-1.27
 74
     0
  0
LTYPE
  5
6D
330
5
100
AcDbSymbolTableRecord
100
AcDbLinetypeTableRecord
  2
CENTERX2
 70
     0
  3
Center (2x) ________  __  ________  __  _____
 72
    65
 73
     4
 40
20.32
 49
12.7
 74
     0
 49
-2.54
 74
     0
 49
2.54
 74
     0
 49
-2.54
 74
     0
  0
LTYPE
  5
6E
330
5
100
AcDbSymbolTableRecord
100
AcDbLinetypeTableRecord
  2
DOT2
 70
     0
  3
Dot (.5x) ........................................
 72
    65
 73
     2
 40
0.635
 49
0.0
 74
     0
 49
-0.635
 74
     0
  0
ENDTAB
  0
TABLE
  2
LAYER
  5
2
330
0
100
AcDbSymbolTable
 70
    17
  0
LAYER
  5
10
330
2
100
AcDbSymbolTableRecord
100
AcDbLayerTableRecord
  2
0
 70
     0
 62
     7
  6
Continuous
370
    -3
390
F
  0
LAYER
  5
6F
330
2
100
AcDbSymbolTableRecord
100
AcDbLayerTableRecord
  2
FORMAT
 70
     0
 62
     2
  6
Continuous
370
    -3
390
F
  0
LAYER
  5
70
330
2
100
AcDbSymbolTableRecord
100
AcDbLayerTableRecord
  2
외형선
 70
     0
 62
   100
  6
Continuous
370
    30
390
F
  0
LAYER
  5
71
330
2
100
AcDbSymbolTableRecord
100
AcDbLayerTableRecord
  2
숨은선
 70
     0
 62
     2
  6
HIDDEN
370
    15
390
F
  0
LAYER
  5
72
330
2
100
AcDbSymbolTableRecord
100
AcDbLayerTableRecord
  2
중심선
 70
     0
 62
     1
  6
CENTERX2
370
    -3
390
F
  0
LAYER
  5
73
330
2
100
AcDbSymbolTableRecord
100
AcDbLayerTableRecord
  2
파단선
 70
     0
 62
     4
  6
Continuous
370
    -3
390
F
  0
LAYER
  5
74
330
2
100
AcDbSymbolTableRecord
100
AcDbLayerTableRecord
  2
해칭선
 70
     0
 62
     4
  6
Continuous
370
    -3
390
F
  0
LAYER
  5
75
330
2
100
AcDbSymbolTableRecord
100
AcDbLayerTableRecord
  2
가는실선
 70
     0
 62
     4
  6
Continuous
370
    -3
390
F
  0
LAYER
  5
76
330
2
100
AcDbSymbolTableRecord
100
AcDbLayerTableRecord
  2
치수_보조선
 70
     0
 62
     4
  6
Continuous
370
    -3
390
F
  0
LAYER
  5
77
330
2
100
AcDbSymbolTableRecord
100
AcDbLayerTableRecord
  2
치수문자_일반주서
 70
     0
 62
     7
  6
Continuous
370
    15
390
F
  0
LAYER
  5
78
330
2
100
AcDbSymbolTableRecord
100
AcDbLayerTableRecord
  2
개별주서
 70
     0
 62
   100
  6
Continuous
370
    30
390
F
  0
LAYER
  5
79
330
2
100
AcDbSymbolTableRecord
100
AcDbLayerTableRecord
  2
중간선
 70
     0
 62
     2
  6
Continuous
370
    15
390
F
  0
LAYER
  5
7A
330
2
100
AcDbSymbolTableRecord
100
AcDbLayerTableRecord
  2
윤곽선
 70
     0
 62
     3
  6
Continuous
370
    40
390
F
  0
LAYER
  5
7B
330
2
100
AcDbSymbolTableRecord
100
AcDbLayerTableRecord
  2
중심마크
 70
     0
 62
   100
  6
Continuous
370
    30
390
F
  0
LAYER
  5
7C
330
2
100
AcDbSymbolTableRecord
100
AcDbLayerTableRecord
  2
가상선
 70
     0
 62
     4
  6
PHANTOM
370
    -3
390
F
  0
LAYER
  5
7D
330
2
100
AcDbSymbolTableRecord
100
AcDbLayerTableRecord
  2
특수지정선
 70
     0
 62
     5
  6
CENTERX2
370
    60
390
F
  0
LAYER
  5
139
330
2
100
AcDbSymbolTableRecord
100
AcDbLayerTableRecord
  2
Defpoints
 70
     0
 62
     7
  6
Continuous
290
     0
370
    -3
390
F
  0
ENDTAB
  0
TABLE
  2
STYLE
  5
3
330
0
100
AcDbSymbolTable
 70
     2
  0
STYLE
  5
11
330
3
100
AcDbSymbolTableRecord
100
AcDbTextStyleTableRecord
  2
Standard
 70
     0
 40
0.0
 41
1.0
 50
0.0
 71
     0
 42
3.5
  3
txt
  4

  0
STYLE
  5
93
330
3
100
AcDbSymbolTableRecord
100
AcDbTextStyleTableRecord
  2
SLDTEXTSTYLE0
 70
     0
 40
0.0
 41
0.75
 50
0.0
 71
     0
 42
3.5
  3
TXT
  4

  0
ENDTAB
  0
TABLE
  2
VIEW
  5
6
330
0
100
AcDbSymbolTable
 70
     0
  0
ENDTAB
  0
TABLE
  2
UCS
  5
7
330
0
100
AcDbSymbolTable
 70
     0
  0
ENDTAB
  0
TABLE
  2
APPID
  5
9
330
0
100
AcDbSymbolTable
 70
     2
  0
APPID
  5
12
330
9
100
AcDbSymbolTableRecord
100
AcDbRegAppTableRecord
  2
ACAD
 70
     0
  0
APPID
  5
138
330
9
100
AcDbSymbolTableRecord
100
AcDbRegAppTableRecord
  2
PE_URL
 70
     0
  0
ENDTAB
  0
TABLE
  2
DIMSTYLE
  5
A
330
0
100
AcDbSymbolTable
 70
     3
100
AcDbDimStyleTable
  0
DIMSTYLE
105
27
330
A
100
AcDbSymbolTableRecord
100
AcDbDimStyleTableRecord
  2
ISO-25
 70
     0
 41
2.5
 42
0.625
 43
3.75
 44
1.25
 73
     0
 74
     0
 77
     1
 78
     8
140
2.5
141
2.5
143
0.03937007874016
147
0.625
171
     3
172
     1
178
     0
271
     2
272
     2
274
     3
278
    44
283
     0
284
     8
340
11
  0
DIMSTYLE
105
E0
102
{ACAD_REACTORS
330
DF
330
ED
102
}
330
A
100
AcDbSymbolTableRecord
100
AcDbDimStyleTableRecord
  2
SLDDIMSTYLE0
 70
     0
 41
3.302
 44
0.0
 45
0.000000001
 73
     0
 74
     0
 77
     1
 78
    12
 79
     3
140
3.5
147
0.875
172
     1
173
     1
178
     0
271
     2
272
     2
276
     2
284
    12
289
     0
340
93
  0
DIMSTYLE
105
FB
102
{ACAD_REACTORS
330
FA
330
105
102
}
330
A
100
AcDbSymbolTableRecord
100
AcDbDimStyleTableRecord
  2
SLDDIMSTYLE1
 70
     0
 41
3.302
 44
0.0
 45
0.000000001
 73
     0
 74
     0
 77
     1
 78
    12
 79
     3
140
3.5
147
0.875
173
     1
178
     0
271
     2
272
     2
276
     2
284
    12
340
93
  0
ENDTAB
  0
TABLE
  2
BLOCK_RECORD
  5
1
330
0
100
AcDbSymbolTable
 70
     7
  0
BLOCK_RECORD
  5
1F
330
1
100
AcDbSymbolTableRecord
100
AcDbBlockTableRecord
  2
*Model_Space
340
22
  0
BLOCK_RECORD
  5
1B
330
1
100
AcDbSymbolTableRecord
100
AcDbBlockTableRecord
  2
*Paper_Space
340
1E
  0
BLOCK_RECORD
  5
23
330
1
100
AcDbSymbolTableRecord
100
AcDbBlockTableRecord
  2
*Paper_Space0
340
26
  0
BLOCK_RECORD
  5
7E
330
1
100
AcDbSymbolTableRecord
100
AcDbBlockTableRecord
  2
블럭10
340
0
102
{BLKREFS
331
D8
102
}
  0
BLOCK_RECORD
  5
E1
330
1
100
AcDbSymbolTableRecord
100
AcDbBlockTableRecord
  2
_D
340
0
  0
BLOCK_RECORD
  5
EE
330
1
100
AcDbSymbolTableRecord
100
AcDbBlockTableRecord
  2
_D_1
340
0
  0
BLOCK_RECORD
  5
FC
330
1
100
AcDbSymbolTableRecord
100
AcDbBlockTableRecord
  2
_D_2
340
0
  0
BLOCK_RECORD
  5
106
330
1
100
AcDbSymbolTableRecord
100
AcDbBlockTableRecord
  2
_D_3
340
0
  0
BLOCK_RECORD
  5
10F
330
1
100
AcDbSymbolTableRecord
100
AcDbBlockTableRecord
  2
SW_DOWELSYMBOL_0
340
0
102
{BLKREFS
331
115
102
}
  0
ENDTAB
  0
ENDSEC
  0
SECTION
  2
BLOCKS
  0
BLOCK
  5
20
330
1F
100
AcDbEntity
  8
0
100
AcDbBlockBegin
  2
*Model_Space
 70
     0
 10
0.0
 20
0.0
 30
0.0
  3
*Model_Space
  1

  0
ENDBLK
  5
21
330
1F
100
AcDbEntity
  8
0
100
AcDbBlockEnd
  0
BLOCK
  5
1C
330
1B
100
AcDbEntity
 67
     1
  8
0
100
AcDbBlockBegin
  2
*Paper_Space
 70
     0
 10
0.0
 20
0.0
 30
0.0
  3
*Paper_Space
  1

  0
ENDBLK
  5
1D
330
1B
100
AcDbEntity
 67
     1
  8
0
100
AcDbBlockEnd
  0
BLOCK
  5
24
330
23
100
AcDbEntity
  8
0
100
AcDbBlockBegin
  2
*Paper_Space0
 70
     0
 10
0.0
 20
0.0
 30
0.0
  3
*Paper_Space0
  1

  0
ENDBLK
  5
25
330
23
100
AcDbEntity
  8
0
100
AcDbBlockEnd
  0
BLOCK
  5
7F
330
7E
100
AcDbEntity
  8
0
100
AcDbBlockBegin
  2
블럭10
 70
     2
 10
0.0
 20
0.0
 30
0.0
  3
블럭10
  1

  0
ELLIPSE
  5
81
330
7E
100
AcDbEntity
  8
중심선
100
AcDbEllipse
 10
20.54032771741204
 20
12.0471743016438
 30
0.0
 11
6.600054785286829
 21
-1.261213355974178E-13
 31
0.0
210
0.0
220
0.0
230
1.0
 40
0.636358354079598
 41
0.9219305317359503
 42
6.513795318482858
  0
ELLIPSE
  5
82
330
7E
100
AcDbEntity
  8
중심선
100
AcDbEllipse
 10
20.54032771746488
 20
12.04717430159265
 30
0.0
 11
3.960054785062283
 21
1.540847449632565E-10
 31
0.0
210
0.0
220
0.0
230
1.0
 40
0.3939339440162632
 41
1.131841032648279
 42
5.62031148352944
  0
LINE
  5
83
330
7E
100
AcDbEntity
  8
중심선
100
AcDbLine
 10
2.268634060543552
 20
16.24717430164393
 30
0.0
 11
5.714909304380834
 21
16.24717430164393
 31
0.0
  0
LINE
  5
84
330
7E
100
AcDbEntity
  8
중심선
100
AcDbLine
 10
5.245725140726316
 20
7.84717430164391
 30
0.0
 11
8.692000384563599
 21
7.84717430164391
 31
0.0
  0
LINE
  5
85
330
7E
100
AcDbEntity
  8
중심선
100
AcDbLine
 10
15.74043728645272
 20
16.24717430164393
 30
0.0
 11
8.692000384563599
 21
7.84717430164391
 31
0.0
  0
LINE
  5
86
330
7E
100
AcDbEntity
  8
중심선
100
AcDbLine
 10
0.1404042013395286
 20
13.71084872107135
 30
0.0
 11
3.58671253028996
 21
13.71088815037384
 31
0.0
  0
LINE
  5
87
330
7E
100
AcDbEntity
  8
중심선
100
AcDbLine
 10
2.750260043222114
 20
10.84717430164391
 30
0.0
 11
6.196535287059397
 21
10.84717430164391
 31
0.0
  0
LINE
  5
88
330
7E
100
AcDbEntity
  8
중심선
100
AcDbLine
 10
12.29416204261559
 20
16.24717430164393
 30
0.0
 11
5.245725140726316
 21
7.84717430164391
 31
0.0
  0
LINE
  5
89
330
7E
100
AcDbEntity
  8
중심선
100
AcDbLine
 10
10.72767329541681
 20
16.24717430164393
 30
0.0
 11
6.196535287059397
 21
10.84717430164391
 31
0.0
  0
LINE
  5
8A
330
7E
100
AcDbEntity
  8
중심선
100
AcDbLine
 10
7.28139805157953
 20
16.24717430164393
 30
0.0
 11
2.750260043222114
 21
10.84717430164391
 31
0.0
  0
LINE
  5
8B
330
7E
100
AcDbEntity
  8
중심선
100
AcDbLine
 10
5.714909304380834
 20
16.24717430164393
 30
0.0
 11
3.58671253028996
 21
13.71088815037384
 31
0.0
  0
LINE
  5
8C
330
7E
100
AcDbEntity
  8
중심선
100
AcDbLine
 10
2.268634060543552
 20
16.24717430164393
 30
0.0
 11
0.1404042013395286
 21
13.71084872107135
 31
0.0
  0
LINE
  5
8D
330
7E
100
AcDbEntity
  8
중심선
100
AcDbLine
 10
7.28139805157953
 20
16.24717430164393
 30
0.0
 11
10.72767329541681
 21
16.24717430164393
 31
0.0
  0
LINE
  5
8E
330
7E
100
AcDbEntity
  8
중심선
100
AcDbLine
 10
12.29416204261559
 20
16.24717430164393
 30
0.0
 11
15.74043728645272
 21
16.24717430164393
 31
0.0
  0
LINE
  5
8F
330
7E
100
AcDbEntity
  8
중심선
100
AcDbLine
 10
19.22036997980202
 20
11.08717430171403
 30
0.0
 11
23.66174974927406
 21
11.08717430171406
 31
0.0
  0
LINE
  5
90
330
7E
100
AcDbEntity
  8
중심선
100
AcDbLine
 10
19.22039502424796
 20
13.00717430171391
 30
0.0
 11
19.22036997980202
 21
11.08717430171403
 31
0.0
  0
LINE
  5
91
330
7E
100
AcDbEntity
  8
중심선
100
AcDbLine
 10
19.22039502424796
 20
13.00717430171391
 30
0.0
 11
26.96566020931264
 21
13.00717430171391
 31
0.0
  0
LINE
  5
92
330
7E
100
AcDbEntity
  8
중심선
100
AcDbLine
 10
22.22332737316547
 20
13.45928029700563
 30
0.0
 11
24.52862924686651
 21
15.39360700705356
 31
0.0
  0
ATTDEF
  5
94
330
7E
100
AcDbEntity
  8
FORMAT
 62
     2
100
AcDbText
 10
-12.95993919485777
 20
2.075366912832191
 30
0.0
 40
4.233333333333333
  1
SEME75100E [ 6 FLUTE ]
 41
0.75
  7
SLDTEXTSTYLE0
 11
-12.95993919485777
 21
-0.0412997538344756
 31
0.0
100
AcDbAttributeDefinition
  3

  2
AUTOATTR0
 70
     0
 74
     1
  0
ENDBLK
  5
80
330
7E
100
AcDbEntity
  8
0
100
AcDbBlockEnd
  0
BLOCK
  5
E2
330
E1
100
AcDbEntity
  8
0
100
AcDbBlockBegin
  2
_D
 70
     0
 10
0.0
 20
0.0
 30
0.0
  3
_D
  1

  0
LINE
  5
E4
330
E1
100
AcDbEntity
  8
치수문자_일반주서
 62
     0
370
    -2
100
AcDbLine
 10
-39.06249999999999
 20
5.00000000000001
 30
0.0
 11
-57.62890613132345
 21
4.99999999999994
 31
0.0
  0
LINE
  5
E5
330
E1
100
AcDbEntity
  8
치수문자_일반주서
 62
     0
370
    -2
100
AcDbLine
 10
-39.06249999999999
 20
-4.999999999999999
 30
0.0
 11
-57.62890613132341
 21
-5.000000000000068
 31
0.0
  0
LINE
  5
E6
330
E1
100
AcDbEntity
  8
치수문자_일반주서
 62
     0
370
    -2
100
AcDbLine
 10
-57.62890613132343
 20
1.697999999999941
 30
0.0
 11
-57.62890613132343
 21
-1.698000000000069
 31
0.0
  0
SOLID
  5
E7
330
E1
100
AcDbEntity
  8
치수문자_일반주서
 62
     0
100
AcDbTrace
 10
-57.0785727979901
 20
1.697999999999943
 30
0.0
 11
-58.17923946465677
 21
1.697999999999939
 31
0.0
 12
-57.62890613132345
 22
4.99999999999994
 32
0.0
 13
-57.62890613132345
 23
4.99999999999994
 33
0.0
  0
SOLID
  5
E8
330
E1
100
AcDbEntity
  8
치수문자_일반주서
 62
     0
100
AcDbTrace
 10
-58.17923946465676
 20
-1.698000000000071
 30
0.0
 11
-57.07857279799009
 21
-1.698000000000067
 31
0.0
 12
-57.62890613132341
 22
-5.000000000000068
 32
0.0
 13
-57.62890613132341
 23
-5.000000000000068
 33
0.0
  0
MTEXT
  5
E9
330
E1
100
AcDbEntity
  8
치수문자_일반주서
 62
     0
100
AcDbMText
 10
-62.00390613132343
 20
-0.000000000000008
 30
0.0
 40
3.5
 41
0.0
 71
     2
 72
     1
  1
\A1;%%c10
  7
SLDTEXTSTYLE0
 11
-3.552713678800498E-15
 21
1.0
 31
0.0
 73
     1
 44
1.0
  0
POINT
  5
EA
330
E1
100
AcDbEntity
  8
Defpoints
 62
     0
100
AcDbPoint
 10
-38.99999999999999
 20
5.00000000000001
 30
0.0
  0
POINT
  5
EB
330
E1
100
AcDbEntity
  8
Defpoints
 62
     0
100
AcDbPoint
 10
-38.99999999999999
 20
-4.999999999999999
 30
0.0
  0
POINT
  5
EC
330
E1
100
AcDbEntity
  8
Defpoints
 62
     0
100
AcDbPoint
 10
-57.62890613132343
 20
-5.000000000000068
 30
0.0
  0
ENDBLK
  5
E3
330
E1
100
AcDbEntity
  8
0
100
AcDbBlockEnd
  0
BLOCK
  5
EF
330
EE
100
AcDbEntity
  8
0
100
AcDbBlockBegin
  2
_D_1
 70
     0
 10
0.0
 20
0.0
 30
0.0
  3
_D_1
  1

  0
LINE
  5
F1
330
EE
100
AcDbEntity
  8
치수문자_일반주서
 62
     0
370
    -2
100
AcDbLine
 10
35.06250000000002
 20
5.000000000000008
 30
0.0
 11
44.99999999999999
 21
5.000000000000045
 31
0.0
  0
LINE
  5
F2
330
EE
100
AcDbEntity
  8
치수문자_일반주서
 62
     0
370
    -2
100
AcDbLine
 10
35.06250000000002
 20
-4.999999999999997
 30
0.0
 11
45.00000000000002
 21
-4.99999999999996
 31
0.0
  0
LINE
  5
F3
330
EE
100
AcDbEntity
  8
치수문자_일반주서
 62
     0
370
    -2
100
AcDbLine
 10
45.0
 20
1.698000000000046
 30
0.0
 11
45.00000000000001
 21
-1.69799999999996
 31
0.0
  0
SOLID
  5
F4
330
EE
100
AcDbEntity
  8
치수문자_일반주서
 62
     0
100
AcDbTrace
 10
45.55033333333333
 20
1.698000000000048
 30
0.0
 11
44.44966666666667
 21
1.698000000000044
 31
0.0
 12
44.99999999999999
 22
5.000000000000045
 32
0.0
 13
44.99999999999999
 23
5.000000000000045
 33
0.0
  0
SOLID
  5
F5
330
EE
100
AcDbEntity
  8
치수문자_일반주서
 62
     0
100
AcDbTrace
 10
44.44966666666667
 20
-1.697999999999962
 30
0.0
 11
45.55033333333334
 21
-1.697999999999958
 31
0.0
 12
45.00000000000002
 22
-4.99999999999996
 32
0.0
 13
45.00000000000002
 23
-4.99999999999996
 33
0.0
  0
MTEXT
  5
F6
330
EE
100
AcDbEntity
  8
치수문자_일반주서
 62
     0
100
AcDbMText
 10
40.625
 20
0.6594307500959803
 30
0.0
 40
3.5
 41
0.0
 71
     2
 72
     1
  1
\A1;%%c10
  7
SLDTEXTSTYLE0
 11
-3.552713678800499E-15
 21
1.0
 31
0.0
 73
     1
 44
1.0
  0
POINT
  5
F7
330
EE
100
AcDbEntity
  8
Defpoints
 62
     0
100
AcDbPoint
 10
35.00000000000002
 20
5.000000000000008
 30
0.0
  0
POINT
  5
F8
330
EE
100
AcDbEntity
  8
Defpoints
 62
     0
100
AcDbPoint
 10
35.00000000000002
 20
-4.999999999999997
 30
0.0
  0
POINT
  5
F9
330
EE
100
AcDbEntity
  8
Defpoints
 62
     0
100
AcDbPoint
 10
45.00000000000002
 20
-4.99999999999996
 30
0.0
  0
ENDBLK
  5
F0
330
EE
100
AcDbEntity
  8
0
100
AcDbBlockEnd
  0
BLOCK
  5
FD
330
FC
100
AcDbEntity
  8
0
100
AcDbBlockBegin
  2
_D_2
 70
     0
 10
0.0
 20
0.0
 30
0.0
  3
_D_2
  1

  0
LINE
  5
FF
330
FC
100
AcDbEntity
  8
치수문자_일반주서
 62
     0
370
    -2
100
AcDbLine
 10
10.00000000000001
 20
5.029475243490062
 30
0.0
 11
10.00000000000001
 21
48.46181586213186
 31
0.0
  0
LINE
  5
100
330
FC
100
AcDbEntity
  8
치수문자_일반주서
 62
     0
370
    -2
100
AcDbLine
 10
35.00000000000002
 20
5.026012754521695
 30
0.0
 11
35.00000000000002
 21
48.46181586213186
 31
0.0
  0
LINE
  5
101
330
FC
100
AcDbEntity
  8
치수문자_일반주서
 62
     0
370
    -2
100
AcDbLine
 10
13.30200000000001
 20
48.46181586213186
 30
0.0
 11
31.69800000000002
 21
48.46181586213186
 31
0.0
  0
SOLID
  5
102
330
FC
100
AcDbEntity
  8
치수문자_일반주서
 62
     0
100
AcDbTrace
 10
13.30200000000001
 20
49.0121491954652
 30
0.0
 11
13.30200000000001
 21
47.91148252879853
 31
0.0
 12
10.00000000000001
 22
48.46181586213186
 32
0.0
 13
10.00000000000001
 23
48.46181586213186
 33
0.0
  0
SOLID
  5
103
330
FC
100
AcDbEntity
  8
치수문자_일반주서
 62
     0
100
AcDbTrace
 10
31.69800000000002
 20
47.91148252879853
 30
0.0
 11
31.69800000000002
 21
49.0121491954652
 31
0.0
 12
35.00000000000002
 22
48.46181586213186
 32
0.0
 13
35.00000000000002
 23
48.46181586213186
 33
0.0
  0
MTEXT
  5
104
330
FC
100
AcDbEntity
  8
치수문자_일반주서
 62
     0
100
AcDbMText
 10
20.23124694103274
 20
52.83681586213186
 30
0.0
 40
3.5
 41
0.0
 71
     2
 72
     1
  1
\A1;25
  7
SLDTEXTSTYLE0
 73
     1
 44
1.0
  0
POINT
  5
144
330
FC
100
AcDbEntity
  8
Defpoints
 62
     0
100
AcDbPoint
 10
10.00000000000001
 20
4.966975243490062
 30
0.0
  0
POINT
  5
145
330
FC
100
AcDbEntity
  8
Defpoints
 62
     0
100
AcDbPoint
 10
35.00000000000002
 20
4.963512754521695
 30
0.0
  0
POINT
  5
146
330
FC
100
AcDbEntity
  8
Defpoints
 62
     0
100
AcDbPoint
 10
35.00000000000002
 20
48.46181586213186
 30
0.0
  0
ENDBLK
  5
FE
330
FC
100
AcDbEntity
  8
0
100
AcDbBlockEnd
  0
BLOCK
  5
107
330
106
100
AcDbEntity
  8
0
100
AcDbBlockBegin
  2
_D_3
 70
     0
 10
0.0
 20
0.0
 30
0.0
  3
_D_3
  1

  0
LINE
  5
109
330
106
100
AcDbEntity
  8
치수문자_일반주서
 62
     0
370
    -2
100
AcDbLine
 10
35.00000000000002
 20
5.026012754521695
 30
0.0
 11
35.00000000000002
 21
75.90819541539133
 31
0.0
  0
LINE
  5
10A
330
106
100
AcDbEntity
  8
치수문자_일반주서
 62
     0
370
    -2
100
AcDbLine
 10
-39.99999999999999
 20
4.062500000000009
 30
0.0
 11
-39.99999999999999
 21
75.90819541539133
 31
0.0
  0
LINE
  5
10B
330
106
100
AcDbEntity
  8
치수문자_일반주서
 62
     0
370
    -2
100
AcDbLine
 10
31.69800000000002
 20
75.90819541539133
 30
0.0
 11
-36.69799999999999
 21
75.90819541539133
 31
0.0
  0
SOLID
  5
10C
330
106
100
AcDbEntity
  8
치수문자_일반주서
 62
     0
100
AcDbTrace
 10
31.69800000000002
 20
75.357862082058
 30
0.0
 11
31.69800000000002
 21
76.45852874872466
 31
0.0
 12
35.00000000000002
 22
75.90819541539133
 32
0.0
 13
35.00000000000002
 23
75.90819541539133
 33
0.0
  0
SOLID
  5
10D
330
106
100
AcDbEntity
  8
치수문자_일반주서
 62
     0
100
AcDbTrace
 10
-36.69799999999999
 20
76.45852874872466
 30
0.0
 11
-36.69799999999999
 21
75.357862082058
 31
0.0
 12
-39.99999999999999
 22
75.90819541539133
 32
0.0
 13
-39.99999999999999
 23
75.90819541539133
 33
0.0
  0
MTEXT
  5
10E
330
106
100
AcDbEntity
  8
치수문자_일반주서
 62
     0
100
AcDbMText
 10
-0.1763776011796048
 20
80.28319541539133
 30
0.0
 40
3.5
 41
0.0
 71
     2
 72
     1
  1
\A1;75
  7
SLDTEXTSTYLE0
 73
     1
 44
1.0
  0
POINT
  5
147
330
106
100
AcDbEntity
  8
Defpoints
 62
     0
100
AcDbPoint
 10
35.00000000000002
 20
4.963512754521695
 30
0.0
  0
POINT
  5
148
330
106
100
AcDbEntity
  8
Defpoints
 62
     0
100
AcDbPoint
 10
-39.99999999999999
 20
4.000000000000009
 30
0.0
  0
POINT
  5
149
330
106
100
AcDbEntity
  8
Defpoints
 62
     0
100
AcDbPoint
 10
-39.99999999999999
 20
75.90819541539133
 30
0.0
  0
ENDBLK
  5
108
330
106
100
AcDbEntity
  8
0
100
AcDbBlockEnd
  0
BLOCK
  5
110
330
10F
100
AcDbEntity
  8
0
100
AcDbBlockBegin
  2
SW_DOWELSYMBOL_0
 70
     0
 10
0.0
 20
0.0
 30
0.0
  3
SW_DOWELSYMBOL_0
  1

  0
CIRCLE
  5
112
330
10F
100
AcDbEntity
  8
외형선
 62
     0
100
AcDbCircle
 10
0.0
 20
0.0
 30
0.0
 40
3.000000000000001
  0
HATCH
  5
113
330
10F
100
AcDbEntity
  8
0
  6
Continuous
 62
     0
370
    30
100
AcDbHatch
 10
0.0
 20
0.0
 30
0.0
210
0.0
220
0.0
230
1.0
  2
SOLID
 70
     1
 71
     0
 91
        1
 92
        0
 93
        3
 72
     2
 10
-0.0000000000000208
 20
0.0
 40
3.000000000000001
 50
0.0
 51
90.0
 73
     1
 72
     1
 10
-0.0000000000000208
 20
3.000000000000001
 11
-0.0000000000000208
 21
0.0
 72
     1
 10
-0.0000000000000208
 20
0.0
 11
2.99999999999998
 21
0.0
 97
        0
 75
     0
 76
     1
 98
        1
 10
0.0
 20
0.0
  0
HATCH
  5
114
330
10F
100
AcDbEntity
  8
0
  6
Continuous
 62
     0
370
    30
100
AcDbHatch
 10
0.0
 20
0.0
 30
0.0
210
0.0
220
0.0
230
1.0
  2
SOLID
 70
     1
 71
     0
 91
        1
 92
        0
 93
        3
 72
     2
 10
-0.0000000000000208
 20
0.0
 40
3.000000000000001
 50
180.0
 51
270.0000000000008
 73
     1
 72
     1
 10
-0.0000000000000208
 20
-3.000000000000001
 11
-0.0000000000000208
 21
0.0
 72
     1
 10
-0.0000000000000208
 20
0.0
 11
-3.000000000000022
 21
0.0
 97
        0
 75
     0
 76
     1
 98
        1
 10
0.0
 20
0.0
  0
ENDBLK
  5
111
330
10F
100
AcDbEntity
  8
0
100
AcDbBlockEnd
  0
ENDSEC
  0
SECTION
  2
ENTITIES
  0
LINE
  5
95
330
1F
100
AcDbEntity
  8
0
  6
Continuous
 62
     1
370
    15
100
AcDbLine
 10
23.4780038102718
 20
-0.9589138443796822
 30
0.0
 11
23.52012106827239
 21
-0.9996102049477797
 31
0.0
1001
PE_URL
1000

  0
LINE
  5
96
330
1F
100
AcDbEntity
  8
0
  6
Continuous
 62
     1
370
    15
100
AcDbLine
 10
25.63811083099686
 20
0.9004324738292546
 30
0.0
 11
25.53565185066198
 21
0.9998805875349357
 31
0.0
1001
PE_URL
1000

  0
LINE
  5
97
330
1F
100
AcDbEntity
  8
0
  6
Continuous
 62
     1
370
    15
100
AcDbLine
 10
15.10706750386827
 20
0.9578452248715004
 30
0.0
 11
15.06353901357418
 21
1.000015088316538
 31
0.0
1001
PE_URL
1000

  0
LINE
  5
98
330
1F
100
AcDbEntity
  8
0
  6
Continuous
 62
     1
370
    15
100
AcDbLine
 10
30.8171536016185
 20
0.9556755152166964
 30
0.0
 11
30.77170172169413
 21
0.9998197496612866
 31
0.0
1001
PE_URL
1000

  0
LINE
  5
99
330
1F
100
AcDbEntity
  8
0
  6
Continuous
 62
     1
370
    15
100
AcDbLine
 10
28.60872735440165
 20
-0.8573024391779855
 30
0.0
 11
28.75651664999231
 21
-1.000009646097445
 31
0.0
1001
PE_URL
1000

  0
LINE
  5
9A
330
1F
100
AcDbEntity
  8
0
  6
Continuous
 62
     1
370
    15
100
AcDbLine
 10
29.16025625044241
 20
-4.999999999999997
 30
0.0
 11
30.36821558528144
 21
-4.999999999999997
 31
0.0
1001
PE_URL
1000

  0
LINE
  5
9B
330
1F
100
AcDbEntity
  8
0
  6
Continuous
 62
     1
370
    15
100
AcDbLine
 10
14.65993236737929
 20
5.000000000000008
 30
0.0
 11
13.45236163715188
 21
5.000000000000008
 31
0.0
1001
PE_URL
1000

  0
LINE
  5
9C
330
1F
100
AcDbEntity
  8
0
  6
Continuous
 62
     1
370
    15
100
AcDbLine
 10
18.68728556984596
 20
-4.999999999999997
 30
0.0
 11
19.89716917825159
 21
-4.999999999999997
 31
0.0
1001
PE_URL
1000

  0
LINE
  5
9D
330
1F
100
AcDbEntity
  8
0
  6
Continuous
 62
     1
370
    15
100
AcDbLine
 10
35.00000000000002
 20
5.000000000000008
 30
0.0
 11
34.39498098804232
 21
5.000000000000008
 31
0.0
1001
PE_URL
1000

  0
LINE
  5
9E
330
1F
100
AcDbEntity
  8
0
  6
Continuous
 62
     1
370
    15
100
AcDbLine
 10
34.39498098804232
 20
-4.999999999999997
 30
0.0
 11
35.00000000000002
 21
-4.999999999999997
 31
0.0
1001
PE_URL
1000

  0
LINE
  5
9F
330
1F
100
AcDbEntity
  8
0
  6
Continuous
 62
     1
370
    15
100
AcDbLine
 10
19.89716917825163
 20
5.000000000000008
 30
0.0
 11
18.68728556984598
 21
5.000000000000008
 31
0.0
1001
PE_URL
1000

  0
LINE
  5
A0
330
1F
100
AcDbEntity
  8
0
  6
Continuous
 62
     1
370
    15
100
AcDbLine
 10
25.13202271828034
 20
5.000000000000008
 30
0.0
 11
23.92336447257812
 21
5.000000000000008
 31
0.0
1001
PE_URL
1000

  0
LINE
  5
A1
330
1F
100
AcDbEntity
  8
0
  6
Continuous
 62
     1
370
    15
100
AcDbLine
 10
23.92336447257808
 20
-4.999999999999997
 30
0.0
 11
25.1320227182803
 21
-4.999999999999997
 31
0.0
1001
PE_URL
1000

  0
LINE
  5
A2
330
1F
100
AcDbEntity
  8
0
  6
Continuous
 62
     1
370
    15
100
AcDbLine
 10
13.45236163715192
 20
-4.999999999999997
 30
0.0
 11
14.65993236737929
 21
-4.999999999999997
 31
0.0
1001
PE_URL
1000

  0
LINE
  5
A3
330
1F
100
AcDbEntity
  8
0
  6
Continuous
 62
     1
370
    15
100
AcDbLine
 10
30.36821558528145
 20
5.000000000000008
 30
0.0
 11
29.16025625044244
 21
5.000000000000008
 31
0.0
1001
PE_URL
1000

  0
LINE
  5
A4
330
1F
100
AcDbEntity
  8
0
  6
Continuous
 62
   131
370
    15
100
AcDbLine
 10
-38.99999999999999
 20
-4.999999999999995
 30
0.0
 11
9.424209504444683
 21
-4.999999999999995
 31
0.0
  0
LINE
  5
A5
330
1F
100
AcDbEntity
  8
0
  6
Continuous
 62
   131
370
    15
100
AcDbLine
 10
9.42420950444462
 20
5.000000000000005
 30
0.0
 11
-38.99999999999999
 21
5.000000000000005
 31
0.0
  0
LINE
  5
A6
330
1F
100
AcDbEntity
  8
0
  6
Continuous
 62
   131
370
    15
100
AcDbLine
 10
-38.99999999999999
 20
5.000000000000006
 30
0.0
 11
-39.99999999999999
 21
4.000000000000009
 31
0.0
  0
LINE
  5
A7
330
1F
100
AcDbEntity
  8
0
  6
Continuous
 62
   131
370
    15
100
AcDbLine
 10
-39.99999999999999
 20
-3.999999999999998
 30
0.0
 11
-38.99999999999999
 21
-4.999999999999996
 31
0.0
  0
LINE
  5
A8
330
1F
100
AcDbEntity
  8
0
  6
Continuous
 62
     1
370
    15
100
AcDbLine
 10
35.00000000000002
 20
2.993120062763694
 30
0.0
 11
35.00000000000002
 21
4.963512754521695
 31
0.0
1001
PE_URL
1000

  0
SPLINE
  5
A9
330
1F
100
AcDbEntity
  8
0
  6
Continuous
 62
     1
370
    15
100
AcDbSpline
210
0.0
220
0.0
230
1.0
 70
     8
 71
     3
 72
    15
 73
    11
 74
     0
 42
0.000000001
 43
0.00000001
 40
0.0
 40
0.0
 40
0.0
 40
0.0
 40
0.1373344464581031
 40
0.2745463699563176
 40
0.4119979501057959
 40
0.5494555358331317
 40
0.6866683377491596
 40
0.8239984823020898
 40
0.9632921953428173
 40
1.0
 40
1.0
 40
1.0
 40
1.0
 10
10.00000000000002
 20
-2.980345446396771
 30
0.0
 10
10.30559722318601
 20
-3.216024718937831
 30
0.0
 10
10.91651903092081
 20
-3.687173002699494
 30
0.0
 10
11.83232324816438
 20
-4.244348258352145
 30
0.0
 10
12.74984446437811
 20
-4.665904336791791
 30
0.0
 10
13.66737553935407
 20
-4.92841010876681
 30
0.0
 10
14.58328171396713
 20
-5.029566298656141
 30
0.0
 10
15.50377584823152
 20
-4.94934707275047
 30
0.0
 10
16.20201505471298
 20
-4.796304768283565
 30
0.0
 10
16.59344138829677
 20
-4.621145870674216
 30
0.0
 10
16.67507932857598
 20
-4.584613807306175
 30
0.0
  0
SPLINE
  5
AA
330
1F
100
AcDbEntity
  8
0
  6
Continuous
 62
     1
370
    15
100
AcDbSpline
210
0.0
220
0.0
230
1.0
 70
     8
 71
     3
 72
    12
 73
     8
 74
     0
 42
0.000000001
 43
0.00000001
 40
0.0
 40
0.0
 40
0.0
 40
0.0
 40
0.1979447051445926
 40
0.3987040190146895
 40
0.5991106020151789
 40
0.7993836818503937
 40
1.0
 40
1.0
 40
1.0
 40
1.0
 10
30.36821558528144
 20
4.998974174659046
 30
0.0
 10
30.67364174511578
 20
4.983105289017523
 30
0.0
 10
31.28883697021269
 20
4.951141875406949
 30
0.0
 10
32.21500788793264
 20
4.688346091439869
 30
0.0
 10
33.1432113359074
 20
4.273687757264527
 30
0.0
 10
34.07079740962705
 20
3.715774089860949
 30
0.0
 10
34.69008905901399
 20
3.241340738837786
 30
0.0
 10
35.00000000000002
 20
3.00392096029515
 30
0.0
1001
PE_URL
1000

  0
SPLINE
  5
AB
330
1F
100
AcDbEntity
  8
0
  6
Continuous
 62
     1
370
    15
100
AcDbSpline
210
0.0
220
0.0
230
1.0
 70
     8
 71
     3
 72
    10
 73
     6
 74
     0
 42
0.000000001
 43
0.00000001
 40
0.0
 40
0.0
 40
0.0
 40
0.0
 40
0.355032417437093
 40
0.7094574030877793
 40
1.0
 40
1.0
 40
1.0
 40
1.0
 10
35.00000000000004
 20
4.963512754521695
 30
0.0
 10
34.6900820456155
 20
4.983448462148872
 30
0.0
 10
34.07077638143094
 20
5.023285769017899
 30
0.0
 10
33.19918083433986
 20
4.888951540224379
 30
0.0
 10
32.63653328265809
 20
4.68165644070063
 30
0.0
 10
32.38307390697547
 20
4.588274915533924
 30
0.0
1001
PE_URL
1000

  0
SPLINE
  5
AC
330
1F
100
AcDbEntity
  8
0
  6
Continuous
 62
     1
370
    15
100
AcDbSpline
210
0.0
220
0.0
230
1.0
 70
     8
 71
     3
 72
    17
 73
    13
 74
     0
 42
0.000000001
 43
0.00000001
 40
0.0
 40
0.0
 40
0.0
 40
0.0
 40
0.0462682611967774
 40
0.1530560664686287
 40
0.2598633218291017
 40
0.3668883621631696
 40
0.4724047127508124
 40
0.5778309042051183
 40
0.6834451730442977
 40
0.7890548275530958
 40
0.8944803440831717
 40
1.0
 40
1.0
 40
1.0
 40
1.0
 10
18.68728556984597
 20
-4.978830477897067
 30
0.0
 10
18.55319692696646
 20
-4.983778089337931
 30
0.0
 10
18.10962978814596
 20
-5.000144858392278
 30
0.0
 10
17.35771258464402
 20
-4.845655175782505
 30
0.0
 10
16.42978730939175
 20
-4.525878915751304
 30
0.0
 10
15.5038292030379
 20
-4.043146091929882
 30
0.0
 10
14.58326751785161
 20
-3.427604350239525
 30
0.0
 10
13.66737934929715
 20
-2.698608896722407
 30
0.0
 10
12.74984344308161
 20
-1.880078856988816
 30
0.0
 10
11.83232351996695
 20
-0.9990540382715768
 30
0.0
 10
10.91651896294903
 20
-0.0814028332594434
 30
0.0
 10
10.30559720052213
 20
0.5263164518738046
 30
0.0
 10
10.00000000000019
 20
0.8303116991574185
 30
0.0
  0
SPLINE
  5
AD
330
1F
100
AcDbEntity
  8
0
  6
Continuous
 62
   131
370
    15
100
AcDbSpline
210
0.0
220
0.0
230
1.0
 70
    24
 71
     3
 72
    23
 73
    19
 74
     0
 42
0.000000001
 43
0.00000001
 40
0.0
 40
0.0
 40
0.0
 40
0.0
 40
0.0472367217605303
 40
0.1123975393868908
 40
0.177558357013251
 40
0.2427191746395476
 40
0.307879992265844
 40
0.3730408098921392
 40
0.4382016275184345
 40
0.5033624451447298
 40
0.5685232627710252
 40
0.6336840803973056
 40
0.6988448980235862
 40
0.7640057156498984
 40
0.8291665332762104
 40
0.894327350902508
 40
0.9594881685288057
 40
1.0
 40
1.0
 40
1.0
 40
1.0
 10
10.00000000000002
 20
0.7999424165108802
 30
0.0
 10
10.00000000000002
 20
0.7950667884424122
 30
0.0
 10
10.00000000000002
 20
0.7834654626637174
 30
0.0
 10
10.0
 20
0.6740980602479136
 30
0.0
 10
10.00000000000005
 20
0.5183660015362137
 30
0.0
 10
10.0
 20
0.3095020673990011
 30
0.0
 10
9.999999999999995
 20
0.0606882680561376
 30
0.0
 10
10.0
 20
-0.224042957357783
 30
0.0
 10
9.99999999999998
 20
-0.5349502308241969
 30
0.0
 10
10.00000000000002
 20
-0.864234089902999
 30
0.0
 10
10.00000000000004
 20
-1.201972286347045
 30
0.0
 10
10.00000000000002
 20
-1.538738351818153
 30
0.0
 10
9.999999999999995
 20
-1.865224846240047
 30
0.0
 10
10.00000000000002
 20
-2.171472290283528
 30
0.0
 10
10.00000000000002
 20
-2.450035446695038
 30
0.0
 10
10.00000000000003
 20
-2.690721243239889
 30
0.0
 10
10.00000000000004
 20
-2.866516790670896
 30
0.0
 10
10.00000000000003
 20
-2.948800324100478
 30
0.0
 10
10.00000000000002
 20
-2.980345446396771
 30
0.0
  0
SPLINE
  5
AE
330
1F
100
AcDbEntity
  8
0
  6
Continuous
 62
     1
370
    15
100
AcDbSpline
210
0.0
220
0.0
230
1.0
 70
     8
 71
     3
 72
    26
 73
    22
 74
     0
 42
0.000000001
 43
0.00000001
 40
0.0
 40
0.0
 40
0.0
 40
0.0
 40
0.0534655163710188
 40
0.1068833334685726
 40
0.1603944510230923
 40
0.2139079066022616
 40
0.2673260656756503
 40
0.3207899072768829
 40
0.3750181834816513
 40
0.4291361107095406
 40
0.4832441828159117
 40
0.5374619024053023
 40
0.5916250357642434
 40
0.6457215467948545
 40
0.6998802927614186
 40
0.7541010037842587
 40
0.8082110155313267
 40
0.8623264818479734
 40
0.9165530357236622
 40
0.9707015463210193
 40
1.0
 40
1.0
 40
1.0
 40
1.0
 10
10.0
 20
4.966975243490071
 30
0.0
 10
10.30559720102844
 20
4.91582017651239
 30
0.0
 10
10.91651896446789
 20
4.813555680562501
 30
0.0
 10
11.83232351389258
 20
4.453742127724458
 30
0.0
 10
12.74984346590538
 20
3.956977124154429
 30
0.0
 10
13.66737926415266
 20
3.324503265003282
 30
0.0
 10
14.58326783510573
 20
2.580552987210336
 30
0.0
 10
15.50382801066699
 20
1.746555845738481
 30
0.0
 10
16.42979182626837
 20
0.8507441856143163
 30
0.0
 10
17.35769577487733
 20
-0.0795727230054485
 30
0.0
 10
18.28543264860512
 20
-1.007194853676781
 30
0.0
 10
19.2150929117852
 20
-1.898833965486842
 30
0.0
 10
20.14377425707817
 20
-2.726009894198425
 30
0.0
 10
21.0713010721243
 20
-3.459793787201212
 30
0.0
 10
21.99990534454152
 20
-4.074160733973694
 30
0.0
 10
22.9296194562981
 20
-4.548161291098274
 30
0.0
 10
23.8573901342926
 20
-4.865892130661748
 30
0.0
 10
24.78525193771532
 20
-5.018074773596008
 30
0.0
 10
25.7150804912748
 20
-4.989985844150084
 30
0.0
 10
26.50176843357961
 20
-4.845184824768158
 30
0.0
 10
26.97842819224205
 20
-4.649164998120393
 30
0.0
 10
27.14578471600435
 20
-4.580341909575401
 30
0.0
  0
SPLINE
  5
AF
330
1F
100
AcDbEntity
  8
0
  6
Continuous
 62
     1
370
    15
100
AcDbSpline
210
0.0
220
0.0
230
1.0
 70
     8
 71
     3
 72
    27
 73
    23
 74
     0
 42
0.000000001
 43
0.00000001
 40
0.0
 40
0.0
 40
0.0
 40
0.0
 40
0.0372469132450719
 40
0.0896604393288546
 40
0.1419989944104618
 40
0.1943872316465447
 40
0.246850975110495
 40
0.2992072422776298
 40
0.3515582321937032
 40
0.4040163227457316
 40
0.4564144626170711
 40
0.5087523907013634
 40
0.5611547753386291
 40
0.6136099717034762
 40
0.6659590850331778
 40
0.718317733111636
 40
0.7707831429147612
 40
0.8225089685461364
 40
0.8741905967087396
 40
0.9259644234544152
 40
0.9777359881805328
 40
0.9999999999999999
 40
0.9999999999999999
 40
0.9999999999999999
 40
0.9999999999999999
 10
29.16025625044241
 20
-4.982255940218566
 30
0.0
 10
28.94010706668655
 20
-4.980921269653304
 30
0.0
 10
28.41016590341307
 20
-4.977708462501917
 30
0.0
 10
27.57102104761042
 20
-4.773583685281631
 30
0.0
 10
26.64350396541588
 20
-4.406171903111268
 30
0.0
 10
25.71507193572692
 20
-3.881072511068964
 30
0.0
 10
24.78525422632891
 20
-3.225030713360087
 30
0.0
 10
23.85738952170223
 20
-2.456565431112598
 30
0.0
 10
22.92961962080925
 20
-1.603577810064554
 30
0.0
 10
21.99990530049805
 20
-0.6967987939154789
 30
0.0
 10
21.07130108382735
 20
0.2348410484788689
 30
0.0
 10
20.14377425422709
 20
1.158822636582368
 30
0.0
 10
19.21509291147563
 20
2.042457013154738
 30
0.0
 10
18.28543265270063
 20
2.855161006845177
 30
0.0
 10
17.35769575884225
 20
3.570879652898937
 30
0.0
 10
16.42979188639045
 20
4.163519238361244
 30
0.0
 10
15.50382778706302
 20
4.610530116600817
 30
0.0
 10
14.5832686561854
 20
4.899359584152982
 30
0.0
 10
13.66737619901064
 20
5.024989910968825
 30
0.0
 10
12.74985492839426
 20
4.972958411320702
 30
0.0
 10
12.00617187945521
 20
4.823252529157529
 30
0.0
 10
11.56911322101969
 20
4.637060873270526
 30
0.0
 10
11.43768074502328
 20
4.58106923491539
 30
0.0
1001
PE_URL
1000

  0
SPLINE
  5
B0
330
1F
100
AcDbEntity
  8
0
  6
Continuous
 62
     1
370
    15
100
AcDbSpline
210
0.0
220
0.0
230
1.0
 70
     8
 71
     3
 72
    27
 73
    23
 74
     0
 42
0.000000001
 43
0.00000001
 40
0.0
 40
0.0
 40
0.0
 40
0.0
 40
0.0473892449701431
 40
0.0998535973534342
 40
0.1522111901637995
 40
0.2045592484175774
 40
0.2570133875684385
 40
0.3094147160561179
 40
0.36175158928992
 40
0.4141486730972256
 40
0.4666057063769363
 40
0.5189556411792631
 40
0.5713108531262919
 40
0.6237735392039935
 40
0.6761607205756246
 40
0.7284982207941052
 40
0.7809106905037514
 40
0.8333561345363032
 40
0.8857001666572871
 40
0.9380642858186766
 40
0.9905312462707102
 40
0.9999999999999999
 40
0.9999999999999999
 40
0.9999999999999999
 40
0.9999999999999999
 10
14.65993236737929
 20
4.993559406173499
 30
0.0
 10
14.93977665510283
 20
4.982534240749678
 30
0.0
 10
15.52943489603089
 20
4.959303179995727
 30
0.0
 10
16.42980229118866
 20
4.715164746701872
 30
0.0
 10
17.35769297402288
 20
4.31545241018579
 30
0.0
 10
18.28543340057382
 20
3.763058847700731
 30
0.0
 10
19.2150927110173
 20
3.083311895991396
 30
0.0
 10
20.14377430825864
 20
2.296695457552688
 30
0.0
 10
21.07130106778266
 20
1.430692162790902
 30
0.0
 10
21.99990531062499
 20
0.515835068603618
 30
0.0
 10
22.92961959636859
 20
-0.415801935562384
 30
0.0
 10
23.85738960914376
 20
-1.334576094405862
 30
0.0
 10
24.78525390060913
 20
-2.207354797927769
 30
0.0
 10
25.7150731531109
 20
-3.002925191115946
 30
0.0
 10
26.64349943155152
 20
-3.696284175487158
 30
0.0
 10
27.57103796130175
 20
-4.262534831380083
 30
0.0
 10
28.49992481773793
 20
-4.682057895243458
 30
0.0
 10
29.42941761799718
 20
-4.939537302651902
 30
0.0
 10
30.35710163684238
 20
-5.031187156132734
 30
0.0
 10
31.28504387153022
 20
-4.935514633262693
 30
0.0
 10
31.96136148750753
 20
-4.780997288758695
 30
0.0
 10
32.32715176146597
 20
-4.613831309182476
 30
0.0
 10
32.38307390697547
 20
-4.588274915533915
 30
0.0
1001
PE_URL
1000

  0
SPLINE
  5
B1
330
1F
100
AcDbEntity
  8
0
  6
Continuous
 62
     1
370
    15
100
AcDbSpline
210
0.0
220
0.0
230
1.0
 70
     8
 71
     3
 72
    27
 73
    23
 74
     0
 42
0.000000001
 43
0.00000001
 40
0.0
 40
0.0
 40
0.0
 40
0.0
 40
0.0183057560981423
 40
0.070652455480141
 40
0.1230340494673715
 40
0.1755078390547759
 40
0.2278787739656417
 40
0.2802296192215601
 40
0.3326818895888914
 40
0.3851011813413542
 40
0.4374454938445725
 40
0.489839493967475
 40
0.5423090086241903
 40
0.5946710351613268
 40
0.6470277838668861
 40
0.6994916449898398
 40
0.7518955488373229
 40
0.8042392342742545
 40
0.8566473833546028
 40
0.9091083499720045
 40
0.961463221884761
 40
1.0
 40
1.0
 40
1.0
 40
1.0
 10
34.39498098804232
 20
-4.980412500350219
 30
0.0
 10
34.28680150306447
 20
-4.985711468427362
 30
0.0
 10
33.86927456753195
 20
-5.006163238032168
 30
0.0
 10
33.14324316802532
 20
-4.864531191005832
 30
0.0
 10
32.21499628817158
 20
-4.559581046628876
 30
0.0
 10
31.28510867683995
 20
-4.086915845376835
 30
0.0
 10
30.35708429521279
 20
-3.476073522342062
 30
0.0
 10
29.42942227405017
 20
-2.744597819729146
 30
0.0
 10
28.49992356996149
 20
-1.920033486290601
 30
0.0
 10
27.57103829496392
 20
-1.028963299652529
 30
0.0
 10
26.64349934228123
 20
-0.101864854919232
 30
0.0
 10
25.71507317644214
 20
0.8284462388749334
 30
0.0
 10
24.78525389675219
 20
1.729145476911641
 30
0.0
 10
23.8573896013019
 20
2.571823417686097
 30
0.0
 10
22.92961963162057
 20
3.325946343131819
 30
0.0
 10
21.99990517722274
 20
3.964648471967783
 30
0.0
 10
21.07130156516596
 20
4.467832068830839
 30
0.0
 10
20.14377245323243
 20
4.817058404614636
 30
0.0
 10
19.2150996468282
 20
5.00183018008189
 30
0.0
 10
18.28540750986277
 20
5.009267482908691
 30
0.0
 10
17.43939480470075
 20
4.877320524709891
 30
0.0
 10
16.90265109419201
 20
4.671766019407094
 30
0.0
 10
16.67507932857598
 20
4.584613807306185
 30
0.0
1001
PE_URL
1000

  0
SPLINE
  5
B2
330
1F
100
AcDbEntity
  8
0
  6
Continuous
 62
     1
370
    15
100
AcDbSpline
210
0.0
220
0.0
230
1.0
 70
     8
 71
     3
 72
    20
 73
    16
 74
     0
 42
0.000000001
 43
0.00000001
 40
0.0
 40
0.0
 40
0.0
 40
0.0
 40
0.0769727837887941
 40
0.1538768962897656
 40
0.2309153308059126
 40
0.3079571313096752
 40
0.3848617361435331
 40
0.4618321088138838
 40
0.539903016248554
 40
0.6178150573986514
 40
0.6957129104104998
 40
0.7737686197861561
 40
0.8517457429178289
 40
0.9296269517776098
 40
1.0
 40
1.0
 40
1.0
 40
1.0
 10
10.00000000000002
 20
1.986629797093303
 30
0.0
 10
10.30559720103705
 20
1.699798672570191
 30
0.0
 10
10.91651896449373
 20
1.126392319981637
 30
0.0
 10
11.83232351378932
 20
0.2093553130013015
 30
0.0
 10
12.74984346629337
 20
-0.7087823372278996
 30
0.0
 10
13.66737926270522
 20
-1.604447300899406
 30
0.0
 10
14.58326784049891
 20
-2.44699953015047
 30
0.0
 10
15.50382799039719
 20
-3.210359840448452
 30
0.0
 10
16.42979190305329
 20
-3.866921408218522
 30
0.0
 10
17.35769548911868
 20
-4.394398525461783
 30
0.0
 10
18.28543371580391
 20
-4.770262367436467
 30
0.0
 10
19.21508892162398
 20
-4.982740454294641
 30
0.0
 10
20.14378912314761
 20
-5.02032274335807
 30
0.0
 10
21.0411099991357
 20
-4.903343776349721
 30
0.0
 10
21.62979568002468
 20
-4.692921031536531
 30
0.0
 10
21.90923187716586
 20
-4.593037964032987
 30
0.0
  0
SPLINE
  5
B3
330
1F
100
AcDbEntity
  8
0
  6
Continuous
 62
     1
370
    15
100
AcDbSpline
210
0.0
220
0.0
230
1.0
 70
     8
 71
     3
 72
    23
 73
    19
 74
     0
 42
0.000000001
 43
0.00000001
 40
0.0
 40
0.0
 40
0.0
 40
0.0
 40
0.0047415127292285
 40
0.0713744184960328
 40
0.1381436431098083
 40
0.2048365618492649
 40
0.2714528423754077
 40
0.3381511638988123
 40
0.4049167047598634
 40
0.4715472219872518
 40
0.5381898751459078
 40
0.6049684157815844
 40
0.6708056056901435
 40
0.7365865405827696
 40
0.802484826828399
 40
0.8683802339510874
 40
0.9341607477230583
 40
1.0
 40
1.0
 40
1.0
 40
1.0
 10
23.92336447257808
 20
-4.994319015385494
 30
0.0
 10
23.90136555447744
 20
-4.996189012690837
 30
0.0
 10
23.57021385740499
 20
-5.024338250683019
 30
0.0
 10
22.92966364378339
 20
-4.917785827842168
 30
0.0
 10
21.99989350897211
 20
-4.664607577948722
 30
0.0
 10
21.07130423773137
 20
-4.232085352986937
 30
0.0
 10
20.14377340813041
 20
-3.658703846480138
 30
0.0
 10
19.21509313964896
 20
-2.958405424424874
 30
0.0
 10
18.28543258766123
 20
-2.157509278643768
 30
0.0
 10
17.35769579119596
 20
-1.281097988538411
 30
0.0
 10
16.42979182188348
 20
-0.3606311125988015
 30
0.0
 10
15.50382801182452
 20
0.5668172361002718
 30
0.0
 10
14.5832678347978
 20
1.472311077812148
 30
0.0
 10
13.66737926423538
 20
2.324718880248235
 30
0.0
 10
12.74984346588334
 20
3.098984291027528
 30
0.0
 10
11.83232351389862
 20
3.766459275590932
 30
0.0
 10
10.91651896446659
 20
4.319591985026124
 30
0.0
 10
10.30559720102812
 20
4.563267856879436
 30
0.0
 10
10.00000000000019
 20
4.685160165932711
 30
0.0
  0
SPLINE
  5
B4
330
1F
100
AcDbEntity
  8
0
  6
Continuous
 62
   131
370
    15
100
AcDbSpline
210
0.0
220
0.0
230
1.0
 70
    24
 71
     3
 72
    17
 73
    13
 74
     0
 42
0.000000001
 43
0.00000001
 40
0.0
 40
0.0
 40
0.0
 40
0.0
 40
0.0913935029138805
 40
0.1845047921450077
 40
0.297038926604258
 40
0.412836558586286
 40
0.5253706930453543
 40
0.6411683250273394
 40
0.7537024594864058
 40
0.8695000914683889
 40
0.9820342259274574
 40
1.0
 40
1.0
 40
1.0
 40
1.0
 10
10.00000000000002
 20
4.685160165934295
 30
0.0
 10
10.00000000000004
 20
4.606963667390713
 30
0.0
 10
10.00000000000009
 20
4.449100928243419
 30
0.0
 10
9.999999999999988
 20
4.173015173504561
 30
0.0
 10
10.00000000000004
 20
3.862135693605286
 30
0.0
 10
10.00000000000002
 20
3.525225177743822
 30
0.0
 10
10.00000000000002
 20
3.188155951298368
 30
0.0
 10
9.999999999999995
 20
2.866787459970197
 30
0.0
 10
10.00000000000004
 20
2.562962433969889
 30
0.0
 10
10.00000000000002
 20
2.296363724050193
 30
0.0
 10
9.999999999999947
 20
2.119110057547121
 30
0.0
 10
9.999999999999995
 20
2.048480029470709
 30
0.0
 10
9.999999999999988
 20
2.038756473788286
 30
0.0
  0
LINE
  5
B5
330
1F
100
AcDbEntity
  8
0
  6
Continuous
 62
     1
370
    15
100
AcDbLine
 10
35.00000000000002
 20
-4.963512754521684
 30
0.0
 11
35.00000000000002
 21
-3.003920960295111
 31
0.0
1001
PE_URL
1000

  0
SPLINE
  5
B6
330
1F
100
AcDbEntity
  8
0
  6
Continuous
 62
     1
370
    15
100
AcDbSpline
210
0.0
220
0.0
230
1.0
 70
     8
 71
     3
 72
    24
 73
    20
 74
     0
 42
0.000000001
 43
0.00000001
 40
0.0
 40
0.0
 40
0.0
 40
0.0
 40
0.0163430394704812
 40
0.0777577336400885
 40
0.1392430818959835
 40
0.2007987778491308
 40
0.2622287991138959
 40
0.3236650128431309
 40
0.3852273420710301
 40
0.4467010703156233
 40
0.508116500220285
 40
0.569619903060422
 40
0.6311619996136447
 40
0.6925850943780849
 40
0.754031760276356
 40
0.8155991052680207
 40
0.8770582774296449
 40
0.938476507852251
 40
1.0
 40
1.0
 40
1.0
 40
1.0
 10
19.89716917825163
 20
4.983192242915764
 30
0.0
 10
19.97945922143327
 20
4.98817731799107
 30
0.0
 10
20.37098291997827
 20
5.011895558443318
 30
0.0
 10
21.07125938992325
 20
4.882093174941617
 30
0.0
 10
21.99991649869736
 20
4.592271824287392
 30
0.0
 10
22.92961660351073
 20
4.13166443445939
 30
0.0
 10
23.85739041196422
 20
3.531822819772029
 30
0.0
 10
24.78525367922399
 20
2.809385609632679
 30
0.0
 10
25.71507323392191
 20
1.991898661545834
 30
0.0
 10
26.64349932975611
 20
1.104839850450426
 30
0.0
 10
27.57103828769239
 20
0.17947777767119
 30
0.0
 10
28.49992361167187
 20
-0.7514113883474619
 30
0.0
 10
29.42942211452181
 20
-1.655948012838507
 30
0.0
 10
30.35708489041902
 20
-2.504797253548484
 30
0.0
 10
31.28510645228806
 20
-3.267050173702618
 30
0.0
 10
32.2150046022924
 20
-3.916788224455114
 30
0.0
 10
33.14321221072625
 20
-4.429545699309784
 30
0.0
 10
34.07079719054583
 20
-4.802092014985368
 30
0.0
 10
34.69008898594524
 20
-4.909675137404966
 30
0.0
 10
35.00000000000002
 20
-4.963512754521684
 30
0.0
1001
PE_URL
1000

  0
SPLINE
  5
B7
330
1F
100
AcDbEntity
  8
0
  6
Continuous
 62
     1
370
    15
100
AcDbSpline
210
0.0
220
0.0
230
1.0
 70
     8
 71
     3
 72
    22
 73
    18
 74
     0
 42
0.000000001
 43
0.00000001
 40
0.0
 40
0.0
 40
0.0
 40
0.0
 40
0.0709819609868156
 40
0.1418424775723675
 40
0.2127502301781836
 40
0.2837827858361954
 40
0.3546761094967973
 40
0.425542238256013
 40
0.496545663843382
 40
0.5675044470423402
 40
0.6383617325652767
 40
0.7092862790700956
 40
0.780313047853279
 40
0.8511943124543444
 40
0.9220684325768383
 40
0.9930875483020907
 40
1.0
 40
1.0
 40
1.0
 40
1.0
 10
35.00000000000002
 20
-3.003920960295111
 30
0.0
 10
34.69008898594794
 20
-2.746470849365135
 30
0.0
 10
34.07079719055392
 20
-2.232011103847939
 30
0.0
 10
33.143212210694
 20
-1.354827575420726
 30
0.0
 10
32.2150046024135
 20
-0.4385698066153632
 30
0.0
 10
31.28510645183527
 20
0.4933611594507572
 30
0.0
 10
30.35708489210466
 20
1.409293382515097
 30
0.0
 10
29.42942210822795
 20
2.276933861759559
 30
0.0
 10
28.49992363520562
 20
3.065131105509845
 30
0.0
 10
27.57103819998319
 20
3.748482736681385
 30
0.0
 10
26.64349965670662
 20
4.303223457861506
 30
0.0
 10
25.71507201163252
 20
4.709990112426297
 30
0.0
 10
24.78525824410482
 20
4.953376169774796
 30
0.0
 10
23.85737341601778
 20
5.031111445608667
 30
0.0
 10
22.92968008507655
 20
4.919423732412821
 30
0.0
 10
22.27944912721837
 20
4.765443771022275
 30
0.0
 10
21.9393943905078
 20
4.607084290758186
 30
0.0
 10
21.9092318771659
 20
4.593037964033001
 30
0.0
1001
PE_URL
1000

  0
LINE
  5
B8
330
1F
100
AcDbEntity
  8
0
  6
Continuous
 62
     1
370
    15
100
AcDbLine
 10
35.00000000000002
 20
-1.959591794226491
 30
0.0
 11
35.00000000000002
 21
1.959591794226595
 31
0.0
1001
PE_URL
1000

  0
SPLINE
  5
B9
330
1F
100
AcDbEntity
  8
0
  6
Continuous
 62
     1
370
    15
100
AcDbSpline
210
0.0
220
0.0
230
1.0
 70
     8
 71
     3
 72
     9
 73
     5
 74
     0
 42
0.000000001
 43
0.00000001
 40
0.0
 40
0.0
 40
0.0
 40
0.0
 40
0.6374714049612357
 40
1.0
 40
1.0
 40
1.0
 40
1.0
 10
10.00000000000002
 20
-4.966975243490064
 30
0.0
 10
10.30558657160933
 20
-4.921387383727494
 30
0.0
 10
10.78495955874416
 20
-4.849873807733693
 30
0.0
 10
11.2640109259271
 20
-4.652590188294745
 30
0.0
 10
11.43768074502333
 20
-4.581069234915381
 30
0.0
  0
SPLINE
  5
BA
330
1F
100
AcDbEntity
  8
0
  6
Continuous
 62
     1
370
    15
100
AcDbSpline
210
0.0
220
0.0
230
1.0
 70
     8
 71
     3
 72
    18
 73
    14
 74
     0
 42
0.000000001
 43
0.00000001
 40
0.0
 40
0.0
 40
0.0
 40
0.0
 40
0.0590701580287894
 40
0.1531577278914836
 40
0.2471560702209239
 40
0.3412890580314329
 40
0.4354812678468071
 40
0.5294913414970979
 40
0.6235374915456221
 40
0.7177683449292925
 40
0.8118336362266162
 40
0.9058362648411944
 40
1.0
 40
1.0
 40
1.0
 40
1.0
 10
25.13202271828034
 20
4.979824387606594
 30
0.0
 10
25.3264725250512
 20
4.981220678627339
 30
0.0
 10
25.83064403208266
 20
4.984840996692311
 30
0.0
 10
26.64351091023795
 20
4.796622392378973
 30
0.0
 10
27.57103518106027
 20
4.443261809580072
 30
0.0
 10
28.49992444523104
 20
3.930155857766905
 30
0.0
 10
29.42942189159564
 20
3.284300685412498
 30
0.0
 10
30.3570849501248
 20
2.524039036294904
 30
0.0
 10
31.28510643625176
 20
1.677169313859421
 30
0.0
 10
32.21500460658309
 20
0.7736941667928017
 30
0.0
 10
33.1432122095838
 20
-0.1564267430062747
 30
0.0
 10
34.07079719083192
 20
-1.086175480078572
 30
0.0
 10
34.69008898604068
 20
-1.668286889790643
 30
0.0
 10
35.00000000000002
 20
-1.959591794226491
 30
0.0
1001
PE_URL
1000

  0
SPLINE
  5
BB
330
1F
100
AcDbEntity
  8
0
  6
Continuous
 62
     1
370
    15
100
AcDbSpline
210
0.0
220
0.0
230
1.0
 70
     8
 71
     3
 72
    16
 73
    12
 74
     0
 42
0.000000001
 43
0.00000001
 40
0.0
 40
0.0
 40
0.0
 40
0.0
 40
0.1183059952071196
 40
0.2364095784133013
 40
0.3545918901345775
 40
0.4729822117373733
 40
0.5911404746623127
 40
0.7092534117068688
 40
0.8275951820728444
 40
0.9458625467431195
 40
1.0
 40
1.0
 40
1.0
 40
1.0
 10
35.00000000000002
 20
1.959591794226595
 30
0.0
 10
34.69008898690119
 20
2.23786043424203
 30
0.0
 10
34.07079719341208
 20
2.793921619108617
 30
0.0
 10
33.14321219928106
 20
3.514941015773996
 30
0.0
 10
32.21500464527813
 20
4.119578065107993
 30
0.0
 10
31.28510629162942
 20
4.580759803283573
 30
0.0
 10
30.35708548857892
 20
4.884867998995632
 30
0.0
 10
29.42941988114457
 20
5.023045986324045
 30
0.0
 10
28.49993196265308
 20
4.979596070053039
 30
0.0
 10
27.73851067009049
 20
4.830888475664807
 30
0.0
 10
27.28743012931184
 20
4.640215737711076
 30
0.0
 10
27.14578471600436
 20
4.580341909575409
 30
0.0
1001
PE_URL
1000

  0
SPLINE
  5
BC
330
1F
100
AcDbEntity
  8
0
  6
Continuous
 62
     1
370
    15
100
AcDbSpline
210
0.0
220
0.0
230
1.0
 70
     8
 71
     3
 72
    11
 73
     7
 74
     0
 42
0.000000001
 43
0.00000001
 40
0.0
 40
0.0
 40
0.0
 40
0.0
 40
0.2034186709379367
 40
0.4691757271782322
 40
0.7344694170019365
 40
1.0
 40
1.0
 40
1.0
 40
1.0
 10
13.45236163715192
 20
-4.984913182338904
 30
0.0
 10
13.21819846575582
 20
-4.981532824460507
 30
0.0
 10
12.67811197462124
 20
-4.973736185841218
 30
0.0
 10
11.83230485852973
 20
-4.762150760600399
 30
0.0
 10
10.91652362977288
 20
-4.40183572049196
 30
0.0
 10
10.30559875659282
 20
-4.037231789122652
 30
0.0
 10
10.00000000000019
 20
-3.854848466775247
 30
0.0
  0
SPLINE
  5
BD
330
1F
100
AcDbEntity
  8
0
  6
Continuous
 62
   131
370
    15
100
AcDbSpline
210
0.0
220
0.0
230
1.0
 70
    24
 71
     3
 72
    11
 73
     7
 74
     0
 42
0.000000001
 43
0.00000001
 40
0.0
 40
0.0
 40
0.0
 40
0.0
 40
0.1928185249147003
 40
0.496303912285642
 40
0.8085903964499017
 40
1.0
 40
1.0
 40
1.0
 40
1.0
 10
9.999999999999995
 20
-3.906975143462929
 30
0.0
 10
10.00000000000002
 20
-3.969821830969801
 30
0.0
 10
10.00000000000006
 20
-4.131585628808478
 30
0.0
 10
9.999999999999932
 20
-4.419636824104713
 30
0.0
 10
10.00000000000006
 20
-4.713474417926983
 30
0.0
 10
10.00000000000002
 20
-4.897169323138029
 30
0.0
 10
10.0
 20
-4.966975243490062
 30
0.0
  0
LINE
  5
BE
330
1F
100
AcDbEntity
  8
0
  6
Continuous
 62
     1
370
    15
100
AcDbLine
 10
35.00000000000002
 20
4.963512754521695
 30
0.0
 11
35.00000000000002
 21
5.000000000000006
 31
0.0
1001
PE_URL
1000

  0
LINE
  5
BF
330
1F
100
AcDbEntity
  8
0
  6
Continuous
 62
   131
370
    15
100
AcDbLine
 10
10.00000000000002
 20
0.8303116991575459
 30
0.0
 11
10.0
 21
1.986629797093298
 31
0.0
  0
LINE
  5
C0
330
1F
100
AcDbEntity
  8
0
  6
Continuous
 62
     1
370
    15
100
AcDbLine
 10
35.00000000000002
 20
-4.999999999999996
 30
0.0
 11
35.00000000000002
 21
-4.963512754521684
 31
0.0
1001
PE_URL
1000

  0
LINE
  5
C1
330
1F
100
AcDbEntity
  8
0
  6
Continuous
 62
     1
370
    15
100
AcDbLine
 10
35.00000000000002
 20
-3.003920960295111
 30
0.0
 11
35.00000000000002
 21
-1.959591794226491
 31
0.0
1001
PE_URL
1000

  0
LINE
  5
C2
330
1F
100
AcDbEntity
  8
0
  6
Continuous
 62
   131
370
    15
100
AcDbLine
 10
10.00000000000002
 20
4.685160165934295
 30
0.0
 11
9.999999999999995
 21
4.966975243490067
 31
0.0
  0
LINE
  5
C3
330
1F
100
AcDbEntity
  8
0
  6
Continuous
 62
     1
370
    15
100
AcDbLine
 10
35.00000000000002
 20
1.959591794226595
 30
0.0
 11
35.00000000000002
 21
3.00392096029515
 31
0.0
1001
PE_URL
1000

  0
LINE
  5
C4
330
1F
100
AcDbEntity
  8
0
  6
Continuous
 62
   131
370
    15
100
AcDbLine
 10
10.00000000000002
 20
-3.854848466776703
 30
0.0
 11
10.00000000000002
 21
-2.980345446396771
 31
0.0
  0
LINE
  5
C5
330
1F
100
AcDbEntity
  8
0
  6
Continuous
 62
   131
370
    15
100
AcDbLine
 10
8.999721498645204
 20
-4.982023821126969
 30
0.0
 11
8.999721498645204
 21
-3.146076980853287
 31
0.0
  0
SPLINE
  5
C6
330
1F
100
AcDbEntity
  8
0
  6
Continuous
 62
   131
370
    15
100
AcDbSpline
210
0.0
220
0.0
230
1.0
 70
     8
 71
     3
 72
     8
 73
     4
 74
     0
 42
0.000000001
 43
0.00000001
 40
0.0
 40
0.0
 40
0.0
 40
0.0
 40
1.0
 40
1.0
 40
1.0
 40
1.0
 10
10.00000000000001
 20
-4.966975243490054
 30
0.0
 10
9.668489287736191
 20
-5.005115682686855
 30
0.0
 10
9.3317377422273
 20
-5.010198728167706
 30
0.0
 10
8.999721498645204
 20
-4.982023848847425
 30
0.0
  0
LINE
  5
C7
330
1F
100
AcDbEntity
  8
0
  6
Continuous
 62
   131
370
    15
100
AcDbLine
 10
9.42420950444462
 20
4.975637674927311
 30
0.0
 11
10.00000000000001
 21
4.966975243490062
 31
0.0
  0
SPLINE
  5
C8
330
1F
100
AcDbEntity
  8
0
  6
Continuous
 62
   131
370
    15
100
AcDbSpline
210
0.0
220
0.0
230
1.0
 70
     8
 71
     3
 72
     8
 73
     4
 74
     0
 42
0.000000001
 43
0.00000001
 40
0.0
 40
0.0
 40
0.0
 40
0.0
 40
1.0
 40
1.0
 40
1.0
 40
1.0
 10
9.999999999999995
 20
4.685160165932777
 30
0.0
 10
9.668489287736177
 20
4.801246856088714
 30
0.0
 10
9.331737742227286
 20
4.886568080602636
 30
0.0
 10
8.999721498645197
 20
4.938547855594261
 30
0.0
  0
LINE
  5
C9
330
1F
100
AcDbEntity
  8
0
  6
Continuous
 62
   131
370
    15
100
AcDbLine
 10
8.999721498645204
 20
2.857861994783889
 30
0.0
 11
8.999721498645204
 21
4.938547326087127
 31
0.0
  0
SPLINE
  5
CA
330
1F
100
AcDbEntity
  8
0
  6
Continuous
 62
   131
370
    15
100
AcDbSpline
210
0.0
220
0.0
230
1.0
 70
     8
 71
     3
 72
     8
 73
     4
 74
     0
 42
0.000000001
 43
0.00000001
 40
0.0
 40
0.0
 40
0.0
 40
0.0
 40
1.0
 40
1.0
 40
1.0
 40
1.0
 10
10.00000000000001
 20
1.986629797093273
 30
0.0
 10
9.668489287736191
 20
2.291661021833019
 30
0.0
 10
9.3317377422273
 20
2.584976295876325
 30
0.0
 10
8.999721498645204
 20
2.857861726299846
 30
0.0
  0
SPLINE
  5
CB
330
1F
100
AcDbEntity
  8
0
  6
Continuous
 62
   131
370
    15
100
AcDbSpline
210
0.0
220
0.0
230
1.0
 70
     8
 71
     3
 72
     8
 73
     4
 74
     0
 42
0.000000001
 43
0.00000001
 40
0.0
 40
0.0
 40
0.0
 40
0.0
 40
1.0
 40
1.0
 40
1.0
 40
1.0
 10
9.999999999999995
 20
0.8303116991576043
 30
0.0
 10
9.668489287736177
 20
1.158091260870492
 30
0.0
 10
9.331737742227286
 20
1.482015039834098
 30
0.0
 10
8.999721498645197
 20
1.792473507803133
 30
0.0
  0
SPLINE
  5
CC
330
1F
100
AcDbEntity
  8
0
  6
Continuous
 62
   131
370
    15
100
AcDbSpline
210
0.0
220
0.0
230
1.0
 70
     8
 71
     3
 72
     8
 73
     4
 74
     0
 42
0.000000001
 43
0.00000001
 40
0.0
 40
0.0
 40
0.0
 40
0.0
 40
1.0
 40
1.0
 40
1.0
 40
1.0
 10
10.00000000000001
 20
-2.98034544639679
 30
0.0
 10
9.668489287736191
 20
-2.713454660853847
 30
0.0
 10
9.3317377422273
 20
-2.425222432291397
 30
0.0
 10
8.999721498645204
 20
-2.124162122547599
 30
0.0
  0
SPLINE
  5
CD
330
1F
100
AcDbEntity
  8
0
  6
Continuous
 62
   131
370
    15
100
AcDbSpline
210
0.0
220
0.0
230
1.0
 70
     8
 71
     3
 72
     8
 73
     4
 74
     0
 42
0.000000001
 43
0.00000001
 40
0.0
 40
0.0
 40
0.0
 40
0.0
 40
1.0
 40
1.0
 40
1.0
 40
1.0
 10
9.999999999999995
 20
-3.854848466775125
 30
0.0
 10
9.668489287736177
 20
-3.643155595218173
 30
0.0
 10
9.331737742227286
 20
-3.404553040768487
 30
0.0
 10
8.999721498645197
 20
-3.146074347791075
 30
0.0
  0
LINE
  5
CE
330
1F
100
AcDbEntity
  8
0
  6
Continuous
 62
   131
370
    15
100
AcDbLine
 10
-38.99999999999999
 20
0.0000000000000051
 30
0.0
 11
-38.99999999999999
 21
5.000000000000005
 31
0.0
  0
LINE
  5
CF
330
1F
100
AcDbEntity
  8
0
  6
Continuous
 62
   131
370
    15
100
AcDbLine
 10
-38.99999999999999
 20
-4.999999999999995
 30
0.0
 11
-38.99999999999999
 21
0.0000000000000051
 31
0.0
  0
LINE
  5
D0
330
1F
100
AcDbEntity
  8
0
  6
Continuous
 62
   131
370
    15
100
AcDbLine
 10
8.999721498645204
 20
-2.124161826343099
 30
0.0
 11
8.999721498645204
 21
1.792470345233787
 31
0.0
  0
LINE
  5
D1
330
1F
100
AcDbEntity
  8
0
  6
Continuous
 62
   131
370
    15
100
AcDbLine
 10
-39.99999999999999
 20
0.0000000000000051
 30
0.0
 11
-39.99999999999999
 21
4.000000000000009
 31
0.0
  0
LINE
  5
D2
330
1F
100
AcDbEntity
  8
0
  6
Continuous
 62
   131
370
    15
100
AcDbLine
 10
-39.99999999999999
 20
-3.999999999999998
 30
0.0
 11
-39.99999999999999
 21
0.0000000000000051
 31
0.0
  0
SPLINE
  5
D3
330
1F
100
AcDbEntity
  8
0
  6
Continuous
 62
   131
370
    15
100
AcDbSpline
210
0.0
220
0.0
230
1.0
 70
    24
 71
     3
 72
    23
 73
    19
 74
     0
 42
0.000000001
 43
0.00000001
 40
0.0
 40
0.0
 40
0.0
 40
0.0
 40
0.0532614313285328
 40
0.118285898936879
 40
0.1833103665452255
 40
0.2483348341535705
 40
0.3133593017619153
 40
0.378383769370261
 40
0.4434082369786066
 40
0.5084327045869532
 40
0.5734571721952998
 40
0.6384816398036435
 40
0.7035061074119872
 40
0.7685305750203266
 40
0.8335550426286664
 40
0.8985795102370172
 40
0.9636039778453678
 40
1.0
 40
1.0
 40
1.0
 40
1.0
 10
10.00000000000001
 20
-2.98034544639679
 30
0.0
 10
10.00000000000002
 20
-2.938003323017566
 30
0.0
 10
10.00000000000004
 20
-2.843967620223288
 30
0.0
 10
9.999999999999988
 20
-2.646146233278984
 30
0.0
 10
9.999999999999988
 20
-2.397774997719301
 30
0.0
 10
9.999999999999988
 20
-2.112925179234894
 30
0.0
 10
10.0
 20
-1.802049714267283
 30
0.0
 10
9.999999999999988
 20
-1.472757214263776
 30
0.0
 10
9.999999999999973
 20
-1.135021773019708
 30
0.0
 10
10.00000000000001
 20
-0.7982533276731989
 30
0.0
 10
10.00000000000005
 20
-0.4717735975526358
 30
0.0
 10
10.00000000000002
 20
-0.1655014761791116
 30
0.0
 10
9.999999999999988
 20
0.1129697352133688
 30
0.0
 10
10.00000000000002
 20
0.3539986345039731
 30
0.0
 10
10.00000000000004
 20
0.5538786640565245
 30
0.0
 10
10.00000000000004
 20
0.6994557867601479
 30
0.0
 10
10.00000000000002
 20
0.793379493471
 30
0.0
 10
10.00000000000002
 20
0.8025107541768534
 30
0.0
 10
10.00000000000002
 20
0.8057876222705357
 30
0.0
  0
SPLINE
  5
D4
330
1F
100
AcDbEntity
  8
0
  6
Continuous
 62
   131
370
    15
100
AcDbSpline
210
0.0
220
0.0
230
1.0
 70
    24
 71
     3
 72
    16
 73
    12
 74
     0
 42
0.000000001
 43
0.00000001
 40
0.0
 40
0.0
 40
0.0
 40
0.0
 40
0.0400613639347476
 40
0.1541182253349185
 40
0.2681750867350843
 40
0.3822319481352499
 40
0.4962888095354084
 40
0.6103456709355672
 40
0.7244025323357457
 40
0.8384593937359235
 40
1.0
 40
1.0
 40
1.0
 40
1.0
 10
10.00000000000001
 20
2.038756473788261
 30
0.0
 10
10.00000000000001
 20
2.061258961232623
 30
0.0
 10
10.00000000000004
 20
2.147827242736847
 30
0.0
 10
10.00000000000004
 20
2.343738671131891
 30
0.0
 10
10.00000000000003
 20
2.619356895981803
 30
0.0
 10
9.999999999999961
 20
2.926053888827361
 30
0.0
 10
10.00000000000004
 20
3.252158901704615
 30
0.0
 10
10.00000000000006
 20
3.589044127048246
 30
0.0
 10
10.00000000000004
 20
3.926319996534965
 30
0.0
 10
10.00000000000001
 20
4.303544755982053
 30
0.0
 10
10.00000000000002
 20
4.544137481427005
 30
0.0
 10
10.00000000000002
 20
4.685160165925875
 30
0.0
  0
SPLINE
  5
D5
330
1F
100
AcDbEntity
  8
0
  6
Continuous
 62
   131
370
    15
100
AcDbSpline
210
0.0
220
0.0
230
1.0
 70
    24
 71
     3
 72
    12
 73
     8
 74
     0
 42
0.000000001
 43
0.00000001
 40
0.0
 40
0.0
 40
0.0
 40
0.0
 40
0.2527639822576901
 40
0.4044651037981383
 40
0.7130214746466033
 40
0.870245791022243
 40
1.0
 40
1.0
 40
1.0
 40
1.0
 10
10.00000000000001
 20
-4.966975243490054
 30
0.0
 10
10.00000000000002
 20
-4.874922239554335
 30
0.0
 10
10.00000000000003
 20
-4.727621870810211
 30
0.0
 10
10.00000000000004
 20
-4.46886737014884
 30
0.0
 10
10.00000000000005
 20
-4.248528023979417
 30
0.0
 10
9.999999999999961
 20
-4.043856514414843
 30
0.0
 10
9.999999999999973
 20
-3.949594627243493
 30
0.0
 10
9.99999999999998
 20
-3.90697514346293
 30
0.0
  0
LINE
  5
D6
330
1F
100
AcDbEntity
  8
중심선
 62
     1
100
AcDbLine
 10
-40.20259277488955
 20
0.0000000000000016
 30
0.0
 11
38.00000000000001
 21
0.000000000000001
 31
0.0
  0
CIRCLE
  5
D7
330
1F
100
AcDbEntity
  8
외형선
100
AcDbCircle
 10
0.0
 20
0.0
 30
0.0
 40
3.000000000000001
  0
INSERT
  5
D8
330
1F
100
AcDbEntity
  8
0
  6
Continuous
 62
     7
100
AcDbBlockReference
 66
     1
  2
블럭10
 10
-18.94078629968143
 20
-52.04717430164393
 30
0.0
  0
ATTRIB
  5
D9
330
D8
100
AcDbEntity
  8
FORMAT
 62
     2
100
AcDbText
 10
-31.90072549453919
 20
-49.97180738881174
 30
0.0
 40
4.233333333333333
  1
SEME75100E [ 6 FLUTE ]
 41
0.75
  7
SLDTEXTSTYLE0
 11
-31.90072549453919
 21
-52.08847405547841
 31
0.0
100
AcDbAttribute
  2
AUTOATTR0
 70
     0
 74
     1
  0
SEQEND
  5
DA
330
D8
100
AcDbEntity
  8
0
  6
Continuous
 62
     7
  0
HATCH
  5
DB
330
1F
100
AcDbEntity
  8
중심선
100
AcDbHatch
 10
0.0
 20
0.0
 30
0.0
210
0.0
220
0.0
230
1.0
  2
SOLID
 70
     1
 71
     0
 91
        1
 92
        0
 93
        4
 72
     1
 10
-13.22587699530058
 20
-35.79999999999999
 11
-16.67215223913786
 21
-35.79999999999999
 72
     1
 10
-16.67215223913786
 20
-35.79999999999999
 11
-18.80038209834188
 21
-38.33632558057259
 72
     1
 10
-18.80038209834188
 20
-38.33632558057259
 11
-15.35407376939145
 21
-38.3362861512701
 72
     1
 10
-15.35407376939145
 20
-38.3362861512701
 11
-13.22587699530058
 21
-35.79999999999999
 97
        0
 75
     0
 76
     1
 98
        1
 10
3.998657388384466
 20
-0.001074928723888
  0
HATCH
  5
DC
330
1F
100
AcDbEntity
  8
중심선
100
AcDbHatch
 10
0.0
 20
0.0
 30
0.0
210
0.0
220
0.0
230
1.0
  2
SOLID
 70
     1
 71
     0
 91
        1
 92
        0
 93
        4
 72
     1
 10
-8.213113004264624
 20
-35.79999999999999
 11
-11.65938824810191
 21
-35.79999999999999
 72
     1
 10
-11.65938824810191
 20
-35.79999999999999
 11
-16.1905262564593
 21
-41.20000000000001
 72
     1
 10
-16.1905262564593
 20
-41.20000000000001
 11
-12.74425101262201
 21
-41.20000000000001
 72
     1
 10
-12.74425101262201
 20
-41.20000000000001
 11
-8.213113004264624
 21
-35.79999999999999
 97
        0
 75
     0
 76
     1
 98
        1
 10
3.998657388384466
 20
-0.001074928723888
  0
HATCH
  5
DD
330
1F
100
AcDbEntity
  8
중심선
100
AcDbHatch
 10
0.0
 20
0.0
 30
0.0
210
0.0
220
0.0
230
1.0
  2
SOLID
 70
     1
 71
     0
 91
        1
 92
        0
 93
        4
 72
     1
 10
-3.200349013228729
 20
-35.80000000000002
 11
-6.646624257065845
 21
-35.79999999999999
 72
     1
 10
-6.646624257065845
 20
-35.79999999999999
 11
-13.6950611589551
 21
-44.20000000000001
 72
     1
 10
-13.6950611589551
 20
-44.20000000000001
 11
-10.24878591511781
 21
-44.20000000000001
 72
     1
 10
-10.24878591511781
 20
-44.20000000000001
 11
-3.200349013228729
 21
-35.80000000000002
 97
        0
 75
     0
 76
     1
 98
        1
 10
3.998657388384466
 20
-0.001074928723888
  0
HATCH
  5
DE
330
1F
100
AcDbEntity
  8
중심선
100
AcDbHatch
 10
0.0
 20
0.0
 30
0.0
210
0.0
220
0.0
230
1.0
  2
SOLID
 70
     1
 71
     0
 91
        1
 92
        0
 93
        6
 72
     3
 10
1.59954141778347
 20
-40.00000000005127
 11
3.960054785062283
 21
1.540882976769353E-10
 40
0.3939339440162628
 50
17.09539180608437
 51
320.0019657685081
 73
     0
 72
     1
 10
3.282541073484066
 20
-38.58789400463829
 11
5.587842947185104
 21
-36.65356729459037
 72
     3
 10
1.599541417730624
 20
-40.00000000000014
 11
6.600054785286829
 21
-1.278976924368180E-13
 40
0.636358354079598
 50
39.9987384933741
 51
368.4976242363725
 73
     1
 72
     1
 10
8.024873909631234
 20
-39.03999999993002
 11
0.2796087245665468
 21
-39.03999999992999
 72
     1
 10
0.2796087245665464
 20
-39.03999999992999
 11
0.2795836801206124
 21
-40.95999999992991
 72
     1
 10
0.2795836801206124
 20
-40.95999999992991
 11
4.720963449592649
 21
-40.95999999992988
 97
        0
 75
     0
 76
     1
 98
        1
 10
3.998657388384466
 20
-0.001074928723888
  0
DIMENSION
  5
DF
330
1F
100
AcDbEntity
  8
치수문자_일반주서
100
AcDbDimension
  2
_D
 10
-57.62890613132341
 20
-5.000000000000068
 30
0.0
 11
-57.62890613132343
 21
0.0000000000000074
 31
0.0
 70
   160
  1
%%c<>
 71
     2
 42
10.00000000000001
 52
-270.0
  3
SLDDIMSTYLE0
100
AcDbAlignedDimension
 13
-38.99999999999999
 23
5.00000000000001
 33
0.0
 14
-38.99999999999999
 24
-4.999999999999999
 34
0.0
 50
90.0000000000002
100
AcDbRotatedDimension
  0
DIMENSION
  5
ED
330
1F
100
AcDbEntity
  8
치수문자_일반주서
100
AcDbDimension
  2
_D_1
 10
45.00000000000002
 20
-4.99999999999996
 30
0.0
 11
45.0
 21
0.6594307500959957
 31
0.0
 70
   160
  1
%%c<>
 71
     2
 42
10.00000000000001
 52
-270.0
  3
SLDDIMSTYLE0
100
AcDbAlignedDimension
 13
35.00000000000002
 23
5.000000000000008
 33
0.0
 14
35.00000000000002
 24
-4.999999999999997
 34
0.0
 50
90.0000000000002
100
AcDbRotatedDimension
  0
DIMENSION
  5
FA
330
1F
100
AcDbEntity
  8
치수문자_일반주서
100
AcDbDimension
  2
_D_2
 10
35.00000000000002
 20
48.46181586213186
 30
0.0
 11
20.23124694103274
 21
48.46181586213186
 31
0.0
 70
   160
  1
<>
 71
     2
 42
25.00000000000001
  3
SLDDIMSTYLE1
100
AcDbAlignedDimension
 13
10.00000000000001
 23
4.966975243490062
 33
0.0
 14
35.00000000000002
 24
4.963512754521695
 34
0.0
100
AcDbRotatedDimension
  0
DIMENSION
  5
105
330
1F
100
AcDbEntity
  8
치수문자_일반주서
100
AcDbDimension
  2
_D_3
 10
-39.99999999999999
 20
75.90819541539133
 30
0.0
 11
-0.1763776011796048
 21
75.90819541539133
 31
0.0
 70
   160
  1
<>
 71
     2
 42
75.00000000000001
  3
SLDDIMSTYLE1
100
AcDbAlignedDimension
 13
35.00000000000002
 23
4.963512754521695
 33
0.0
 14
-39.99999999999999
 24
4.000000000000009
 34
0.0
100
AcDbRotatedDimension
  0
INSERT
  5
115
330
1F
100
AcDbEntity
  8
외형선
100
AcDbBlockReference
  2
SW_DOWELSYMBOL_0
 10
0.0
 20
0.0
 30
0.0
  0
ENDSEC
  0
SECTION
  2
OBJECTS
  0
DICTIONARY
  5
C
330
0
100
AcDbDictionary
281
     1
  3
ACAD_DETAILVIEWSTYLE
350
142
  3
ACAD_GROUP
350
D
  3
ACAD_LAYOUT
350
1A
  3
ACAD_MLINESTYLE
350
17
  3
ACAD_PLOTSETTINGS
350
19
  3
ACAD_PLOTSTYLENAME
350
E
  3
ACAD_SCALELIST
350
47
  3
ACAD_SECTIONVIEWSTYLE
350
143
  3
AcDbVariableDictionary
350
13D
  3
APPDATA
350
137
  3
DWGPROPS
350
14B
  0
DICTIONARY
  5
142
102
{ACAD_REACTORS
330
C
102
}
330
C
100
AcDbDictionary
281
     1
  0
DICTIONARY
  5
D
102
{ACAD_REACTORS
330
C
102
}
330
C
100
AcDbDictionary
281
     1
  0
DICTIONARY
  5
1A
102
{ACAD_REACTORS
330
C
102
}
330
C
100
AcDbDictionary
281
     1
  3
Layout1
350
1E
  3
Layout2
350
26
  3
Model
350
22
  0
DICTIONARY
  5
17
102
{ACAD_REACTORS
330
C
102
}
330
C
100
AcDbDictionary
281
     1
  3
Standard
350
18
  0
DICTIONARY
  5
19
102
{ACAD_REACTORS
330
C
102
}
330
C
100
AcDbDictionary
281
     1
  0
ACDBDICTIONARYWDFLT
  5
E
102
{ACAD_REACTORS
330
C
102
}
330
C
100
AcDbDictionary
281
     1
  3
Normal
350
F
100
AcDbDictionaryWithDefault
340
F
  0
DICTIONARY
  5
47
102
{ACAD_REACTORS
330
C
102
}
330
C
100
AcDbDictionary
281
     1
  3
A0
350
48
  3
A1
350
49
  3
A2
350
4A
  3
A3
350
4B
  3
A4
350
4C
  3
A5
350
4D
  3
A6
350
4E
  3
A7
350
4F
  3
A8
350
50
  3
A9
350
51
  3
B0
350
52
  3
B1
350
53
  3
B2
350
54
  3
B3
350
55
  3
B4
350
56
  3
B5
350
57
  3
B6
350
58
  3
B7
350
59
  3
B8
350
5A
  3
B9
350
5B
  3
C0
350
5C
  3
C1
350
5D
  3
C2
350
5E
  3
C3
350
5F
  3
C4
350
60
  3
C5
350
61
  3
C6
350
62
  3
C7
350
63
  3
C8
350
64
  3
C9
350
65
  3
D0
350
66
  3
D1
350
67
  3
D2
350
68
  0
DICTIONARY
  5
143
102
{ACAD_REACTORS
330
C
102
}
330
C
100
AcDbDictionary
281
     1
  0
DICTIONARY
  5
13D
102
{ACAD_REACTORS
330
C
102
}
330
C
100
AcDbDictionary
281
     1
  0
DICTIONARY
  5
137
102
{ACAD_REACTORS
330
C
102
}
330
C
100
AcDbDictionary
281
     1
  0
XRECORD
  5
14B
102
{ACAD_REACTORS
330
C
102
}
330
C
100
AcDbXrecord
280
     1
  1
DWGPROPS COOKIE
  2

  3

  4

  6

  7

  8
12011908
  9

300
=
301
=
302
=
303
=
304
=
305
=
306
=
307
=
308
=
309
=
 40
0.0
 41
2458268.396525359
 42
2458268.420159086
  1

 90
        0
  0
LAYOUT
  5
1E
102
{ACAD_REACTORS
330
1A
102
}
330
1A
100
AcDbPlotSettings
  1

  2
none_device
  4

  6

 40
0.0
 41
0.0
 42
0.0
 43
0.0
 44
0.0
 45
0.0
 46
0.0
 47
0.0
 48
0.0
 49
0.0
140
0.0
141
0.0
142
1.0
143
1.0
 70
   688
 72
     1
 73
     0
 74
     5
  7

 75
    16
147
1.0
148
0.0
149
0.0
100
AcDbLayout
  1
Layout1
 70
     1
 71
     1
 10
0.0
 20
0.0
 11
420.0
 21
297.0
 12
0.0
 22
0.0
 32
0.0
 14
1.000000000000000E+20
 24
1.000000000000000E+20
 34
1.000000000000000E+20
 15
-1.000000000000000E+20
 25
-1.000000000000000E+20
 35
-1.000000000000000E+20
146
0.0
 13
0.0
 23
0.0
 33
0.0
 16
1.0
 26
0.0
 36
0.0
 17
0.0
 27
1.0
 37
0.0
 76
     0
330
1B
  0
LAYOUT
  5
26
102
{ACAD_REACTORS
330
1A
102
}
330
1A
100
AcDbPlotSettings
  1

  2
none_device
  4

  6

 40
0.0
 41
0.0
 42
0.0
 43
0.0
 44
0.0
 45
0.0
 46
0.0
 47
0.0
 48
0.0
 49
0.0
140
0.0
141
0.0
142
1.0
143
1.0
 70
   688
 72
     1
 73
     0
 74
     5
  7

 75
    16
147
1.0
148
0.0
149
0.0
100
AcDbLayout
  1
Layout2
 70
     1
 71
     2
 10
0.0
 20
0.0
 11
0.0
 21
0.0
 12
0.0
 22
0.0
 32
0.0
 14
0.0
 24
0.0
 34
0.0
 15
0.0
 25
0.0
 35
0.0
146
0.0
 13
0.0
 23
0.0
 33
0.0
 16
1.0
 26
0.0
 36
0.0
 17
0.0
 27
1.0
 37
0.0
 76
     0
330
23
  0
LAYOUT
  5
22
102
{ACAD_REACTORS
330
1A
102
}
330
1A
100
AcDbPlotSettings
  1

  2
none_device
  4
ANSI_A_(11.00_x_8.50_Inches)
  6

 40
6.35
 41
19.05
 42
6.35000508
 43
19.05000254
 44
279.4
 45
215.9
 46
153.06559843996
 47
64.69271841567465
 48
0.0
 49
0.0
140
0.0
141
0.0
142
0.0641718788355273
143
1.0
 70
  1696
 72
     0
 73
     0
 74
     0
  7

 75
     0
147
0.0235690232323232
148
0.0
149
0.0
100
AcDbLayout
  1
Model
 70
     1
 71
     0
 10
0.0
 20
0.0
 11
420.0
 21
297.0
 12
0.0
 22
0.0
 32
0.0
 14
-62.00390613132344
 24
-49.97180738881174
 34
0.0
 15
45.55033333333333
 25
80.28319541539133
 35
0.0
146
0.0
 13
0.0
 23
0.0
 33
0.0
 16
1.0
 26
0.0
 36
0.0
 17
0.0
 27
1.0
 37
0.0
 76
     0
330
1F
331
29
  0
MLINESTYLE
  5
18
102
{ACAD_REACTORS
330
17
102
}
330
17
100
AcDbMlineStyle
  2
Standard
 70
     0
  3

 62
   256
 51
90.0
 52
90.0
 71
     2
 49
0.5
 62
   256
  6
BYLAYER
 49
-0.5
 62
   256
  6
BYLAYER
  0
ACDBPLACEHOLDER
  5
F
102
{ACAD_REACTORS
330
E
102
}
330
E
  0
SCALE
  5
48
102
{ACAD_REACTORS
330
47
102
}
330
47
100
AcDbScale
 70
     0
300
1:1
140
1.0
141
1.0
290
     1
  0
SCALE
  5
49
102
{ACAD_REACTORS
330
47
102
}
330
47
100
AcDbScale
 70
     0
300
1:2
140
1.0
141
2.0
290
     0
  0
SCALE
  5
4A
102
{ACAD_REACTORS
330
47
102
}
330
47
100
AcDbScale
 70
     0
300
1:4
140
1.0
141
4.0
290
     0
  0
SCALE
  5
4B
102
{ACAD_REACTORS
330
47
102
}
330
47
100
AcDbScale
 70
     0
300
1:5
140
1.0
141
5.0
290
     0
  0
SCALE
  5
4C
102
{ACAD_REACTORS
330
47
102
}
330
47
100
AcDbScale
 70
     0
300
1:8
140
1.0
141
8.0
290
     0
  0
SCALE
  5
4D
102
{ACAD_REACTORS
330
47
102
}
330
47
100
AcDbScale
 70
     0
300
1:10
140
1.0
141
10.0
290
     0
  0
SCALE
  5
4E
102
{ACAD_REACTORS
330
47
102
}
330
47
100
AcDbScale
 70
     0
300
1:16
140
1.0
141
16.0
290
     0
  0
SCALE
  5
4F
102
{ACAD_REACTORS
330
47
102
}
330
47
100
AcDbScale
 70
     0
300
1:20
140
1.0
141
20.0
290
     0
  0
SCALE
  5
50
102
{ACAD_REACTORS
330
47
102
}
330
47
100
AcDbScale
 70
     0
300
1:30
140
1.0
141
30.0
290
     0
  0
SCALE
  5
51
102
{ACAD_REACTORS
330
47
102
}
330
47
100
AcDbScale
 70
     0
300
1:40
140
1.0
141
40.0
290
     0
  0
SCALE
  5
52
102
{ACAD_REACTORS
330
47
102
}
330
47
100
AcDbScale
 70
     0
300
1:50
140
1.0
141
50.0
290
     0
  0
SCALE
  5
53
102
{ACAD_REACTORS
330
47
102
}
330
47
100
AcDbScale
 70
     0
300
1:100
140
1.0
141
100.0
290
     0
  0
SCALE
  5
54
102
{ACAD_REACTORS
330
47
102
}
330
47
100
AcDbScale
 70
     0
300
2:1
140
2.0
141
1.0
290
     0
  0
SCALE
  5
55
102
{ACAD_REACTORS
330
47
102
}
330
47
100
AcDbScale
 70
     0
300
4:1
140
4.0
141
1.0
290
     0
  0
SCALE
  5
56
102
{ACAD_REACTORS
330
47
102
}
330
47
100
AcDbScale
 70
     0
300
8:1
140
8.0
141
1.0
290
     0
  0
SCALE
  5
57
102
{ACAD_REACTORS
330
47
102
}
330
47
100
AcDbScale
 70
     0
300
10:1
140
10.0
141
1.0
290
     0
  0
SCALE
  5
58
102
{ACAD_REACTORS
330
47
102
}
330
47
100
AcDbScale
 70
     0
300
100:1
140
100.0
141
1.0
290
     0
  0
SCALE
  5
59
102
{ACAD_REACTORS
330
47
102
}
330
47
100
AcDbScale
 70
     0
300
1/128" = 1'-0"
140
0.0078125
141
12.0
290
     0
  0
SCALE
  5
5A
102
{ACAD_REACTORS
330
47
102
}
330
47
100
AcDbScale
 70
     0
300
1/64" = 1'-0"
140
0.015625
141
12.0
290
     0
  0
SCALE
  5
5B
102
{ACAD_REACTORS
330
47
102
}
330
47
100
AcDbScale
 70
     0
300
1/32" = 1'-0"
140
0.03125
141
12.0
290
     0
  0
SCALE
  5
5C
102
{ACAD_REACTORS
330
47
102
}
330
47
100
AcDbScale
 70
     0
300
1/16" = 1'-0"
140
0.0625
141
12.0
290
     0
  0
SCALE
  5
5D
102
{ACAD_REACTORS
330
47
102
}
330
47
100
AcDbScale
 70
     0
300
3/32" = 1'-0"
140
0.09375
141
12.0
290
     0
  0
SCALE
  5
5E
102
{ACAD_REACTORS
330
47
102
}
330
47
100
AcDbScale
 70
     0
300
1/8" = 1'-0"
140
0.125
141
12.0
290
     0
  0
SCALE
  5
5F
102
{ACAD_REACTORS
330
47
102
}
330
47
100
AcDbScale
 70
     0
300
3/16" = 1'-0"
140
0.1875
141
12.0
290
     0
  0
SCALE
  5
60
102
{ACAD_REACTORS
330
47
102
}
330
47
100
AcDbScale
 70
     0
300
1/4" = 1'-0"
140
0.25
141
12.0
290
     0
  0
SCALE
  5
61
102
{ACAD_REACTORS
330
47
102
}
330
47
100
AcDbScale
 70
     0
300
3/8" = 1'-0"
140
0.375
141
12.0
290
     0
  0
SCALE
  5
62
102
{ACAD_REACTORS
330
47
102
}
330
47
100
AcDbScale
 70
     0
300
1/2" = 1'-0"
140
0.5
141
12.0
290
     0
  0
SCALE
  5
63
102
{ACAD_REACTORS
330
47
102
}
330
47
100
AcDbScale
 70
     0
300
3/4" = 1'-0"
140
0.75
141
12.0
290
     0
  0
SCALE
  5
64
102
{ACAD_REACTORS
330
47
102
}
330
47
100
AcDbScale
 70
     0
300
1" = 1'-0"
140
1.0
141
12.0
290
     0
  0
SCALE
  5
65
102
{ACAD_REACTORS
330
47
102
}
330
47
100
AcDbScale
 70
     0
300
1-1/2" = 1'-0"
140
1.5
141
12.0
290
     0
  0
SCALE
  5
66
102
{ACAD_REACTORS
330
47
102
}
330
47
100
AcDbScale
 70
     0
300
3" = 1'-0"
140
3.0
141
12.0
290
     0
  0
SCALE
  5
67
102
{ACAD_REACTORS
330
47
102
}
330
47
100
AcDbScale
 70
     0
300
6" = 1'-0"
140
6.0
141
12.0
290
     0
  0
SCALE
  5
68
102
{ACAD_REACTORS
330
47
102
}
330
47
100
AcDbScale
 70
     0
300
1'-0" = 1'-0"
140
12.0
141
12.0
290
     0
  0
ENDSEC
  0
EOF
