  0
SECTION
  2
HEADER
  9
$ACADVER
  1
AC1015
  9
$ACADMAINTVER
 70
     6
  9
$DWGCODEPAGE
  3
ANSI_949
  9
$INSBASE
 10
0.0
 20
0.0
 30
0.0
  9
$EXTMIN
 10
-61.80390613132349
 20
-49.97180738881177
 30
0.0
  9
$EXTMAX
 10
70.55033333333328
 20
81.27589796629564
 30
0.0
  9
$LIMMIN
 10
0.0
 20
0.0
  9
$LIMMAX
 10
420.0
 20
297.0
  9
$ORTHOMODE
 70
     1
  9
$REGENMODE
 70
     1
  9
$FILLMODE
 70
     1
  9
$QTEXTMODE
 70
     0
  9
$MIRRTEXT
 70
     1
  9
$LTSCALE
 40
1.0
  9
$ATTMODE
 70
     1
  9
$TEXTSIZE
 40
3.5
  9
$TRACEWID
 40
1.0
  9
$TEXTSTYLE
  7
Standard
  9
$CLAYER
  8
0
  9
$CELTYPE
  6
ByLayer
  9
$CECOLOR
 62
   256
  9
$CELTSCALE
 40
1.0
  9
$DISPSILH
 70
     0
  9
$DIMSCALE
 40
1.0
  9
$DIMASZ
 40
3.302
  9
$DIMEXO
 40
1.0
  9
$DIMDLI
 40
3.75
  9
$DIMRND
 40
0.0
  9
$DIMDLE
 40
0.0
  9
$DIMEXE
 40
1.0
  9
$DIMTP
 40
0.0
  9
$DIMTM
 40
0.0
  9
$DIMTXT
 40
3.5
  9
$DIMCEN
 40
2.5
  9
$DIMTSZ
 40
0.0
  9
$DIMTOL
 70
     0
  9
$DIMLIM
 70
     0
  9
$DIMTIH
 70
     1
  9
$DIMTOH
 70
     1
  9
$DIMSE1
 70
     0
  9
$DIMSE2
 70
     0
  9
$DIMTAD
 70
     1
  9
$DIMZIN
 70
     0
  9
$DIMBLK
  1

  9
$DIMASO
 70
     1
  9
$DIMSHO
 70
     1
  9
$DIMPOST
  1

  9
$DIMAPOST
  1

  9
$DIMALT
 70
     0
  9
$DIMALTD
 70
     3
  9
$DIMALTF
 40
0.0393700787401575
  9
$DIMLFAC
 40
1.0
  9
$DIMTOFL
 70
     1
  9
$DIMTVP
 40
0.0
  9
$DIMTIX
 70
     0
  9
$DIMSOXD
 70
     0
  9
$DIMSAH
 70
     0
  9
$DIMBLK1
  1

  9
$DIMBLK2
  1

  9
$DIMSTYLE
  2
ISO-25
  9
$DIMCLRD
 70
     0
  9
$DIMCLRE
 70
     0
  9
$DIMCLRT
 70
     0
  9
$DIMTFAC
 40
1.0
  9
$DIMGAP
 40
1.524
  9
$DIMJUST
 70
     0
  9
$DIMSD1
 70
     0
  9
$DIMSD2
 70
     0
  9
$DIMTOLJ
 70
     0
  9
$DIMTZIN
 70
     0
  9
$DIMALTZ
 70
     0
  9
$DIMALTTZ
 70
     0
  9
$DIMUPT
 70
     0
  9
$DIMDEC
 70
     2
  9
$DIMTDEC
 70
     2
  9
$DIMALTU
 70
     2
  9
$DIMALTTD
 70
     3
  9
$DIMTXSTY
  7
Standard
  9
$DIMAUNIT
 70
     0
  9
$DIMADEC
 70
     2
  9
$DIMALTRND
 40
0.0
  9
$DIMAZIN
 70
     0
  9
$DIMDSEP
 70
    44
  9
$DIMATFIT
 70
     3
  9
$DIMFRAC
 70
     0
  9
$DIMLDRBLK
  1

  9
$DIMLUNIT
 70
     2
  9
$DIMLWD
 70
    -2
  9
$DIMLWE
 70
    -2
  9
$DIMTMOVE
 70
     0
  9
$LUNITS
 70
     2
  9
$LUPREC
 70
     2
  9
$SKETCHINC
 40
1.0
  9
$FILLETRAD
 40
10.0
  9
$AUNITS
 70
     0
  9
$AUPREC
 70
     2
  9
$MENU
  1
.
  9
$ELEVATION
 40
0.0
  9
$PELEVATION
 40
0.0
  9
$THICKNESS
 40
0.0
  9
$LIMCHECK
 70
     0
  9
$CHAMFERA
 40
0.0
  9
$CHAMFERB
 40
0.0
  9
$CHAMFERC
 40
0.0
  9
$CHAMFERD
 40
0.0
  9
$SKPOLY
 70
     0
  9
$TDCREATE
 40
2458268.771901053
  9
$TDUCREATE
 40
2458268.396901053
  9
$TDUPDATE
 40
2458270.379475949
  9
$TDUUPDATE
 40
2458270.004475949
  9
$TDINDWG
 40
0.0007279051
  9
$TDUSRTIMER
 40
2458270.003748194
  9
$USRTIMER
 70
     1
  9
$ANGBASE
 50
0.0
  9
$ANGDIR
 70
     0
  9
$PDMODE
 70
     0
  9
$PDSIZE
 40
-1.0
  9
$PLINEWID
 40
0.0
  9
$SPLFRAME
 70
     0
  9
$SPLINETYPE
 70
     6
  9
$SPLINESEGS
 70
     8
  9
$HANDSEED
  5
14F
  9
$SURFTAB1
 70
     6
  9
$SURFTAB2
 70
     6
  9
$SURFTYPE
 70
     6
  9
$SURFU
 70
     6
  9
$SURFV
 70
     6
  9
$UCSBASE
  2

  9
$UCSNAME
  2

  9
$UCSORG
 10
0.0
 20
0.0
 30
0.0
  9
$UCSXDIR
 10
1.0
 20
0.0
 30
0.0
  9
$UCSYDIR
 10
0.0
 20
1.0
 30
0.0
  9
$UCSORTHOREF
  2

  9
$UCSORTHOVIEW
 70
     0
  9
$UCSORGTOP
 10
0.0
 20
0.0
 30
0.0
  9
$UCSORGBOTTOM
 10
0.0
 20
0.0
 30
0.0
  9
$UCSORGLEFT
 10
0.0
 20
0.0
 30
0.0
  9
$UCSORGRIGHT
 10
0.0
 20
0.0
 30
0.0
  9
$UCSORGFRONT
 10
0.0
 20
0.0
 30
0.0
  9
$UCSORGBACK
 10
0.0
 20
0.0
 30
0.0
  9
$PUCSBASE
  2

  9
$PUCSNAME
  2

  9
$PUCSORG
 10
0.0
 20
0.0
 30
0.0
  9
$PUCSXDIR
 10
1.0
 20
0.0
 30
0.0
  9
$PUCSYDIR
 10
0.0
 20
1.0
 30
0.0
  9
$PUCSORTHOREF
  2

  9
$PUCSORTHOVIEW
 70
     0
  9
$PUCSORGTOP
 10
0.0
 20
0.0
 30
0.0
  9
$PUCSORGBOTTOM
 10
0.0
 20
0.0
 30
0.0
  9
$PUCSORGLEFT
 10
0.0
 20
0.0
 30
0.0
  9
$PUCSORGRIGHT
 10
0.0
 20
0.0
 30
0.0
  9
$PUCSORGFRONT
 10
0.0
 20
0.0
 30
0.0
  9
$PUCSORGBACK
 10
0.0
 20
0.0
 30
0.0
  9
$USERI1
 70
     0
  9
$USERI2
 70
     0
  9
$USERI3
 70
     0
  9
$USERI4
 70
     0
  9
$USERI5
 70
     0
  9
$USERR1
 40
0.0
  9
$USERR2
 40
0.0
  9
$USERR3
 40
0.0
  9
$USERR4
 40
0.0
  9
$USERR5
 40
0.0
  9
$WORLDVIEW
 70
     1
  9
$SHADEDGE
 70
     3
  9
$SHADEDIF
 70
    70
  9
$TILEMODE
 70
     1
  9
$MAXACTVP
 70
    64
  9
$PINSBASE
 10
0.0
 20
0.0
 30
0.0
  9
$PLIMCHECK
 70
     0
  9
$PEXTMIN
 10
1.000000000000000E+20
 20
1.000000000000000E+20
 30
1.000000000000000E+20
  9
$PEXTMAX
 10
-1.000000000000000E+20
 20
-1.000000000000000E+20
 30
-1.000000000000000E+20
  9
$PLIMMIN
 10
0.0
 20
0.0
  9
$PLIMMAX
 10
0.0
 20
0.0
  9
$UNITMODE
 70
     0
  9
$VISRETAIN
 70
     1
  9
$PLINEGEN
 70
     0
  9
$PSLTSCALE
 70
     1
  9
$TREEDEPTH
 70
  3020
  9
$CMLSTYLE
  2
Standard
  9
$CMLJUST
 70
     0
  9
$CMLSCALE
 40
20.0
  9
$PROXYGRAPHICS
 70
     1
  9
$MEASUREMENT
 70
     1
  9
$CELWEIGHT
370
    -1
  9
$ENDCAPS
280
     0
  9
$JOINSTYLE
280
     0
  9
$LWDISPLAY
290
     1
  9
$INSUNITS
 70
     4
  9
$HYPERLINKBASE
  1

  9
$STYLESHEET
  1

  9
$XEDIT
290
     1
  9
$CEPSNTYPE
380
     0
  9
$PSTYLEMODE
290
     1
  9
$FINGERPRINTGUID
  2
{A38B69DF-32D8-446E-A0F4-BD62EE112C23}
  9
$VERSIONGUID
  2
{FAEB1C32-E019-11D5-929B-00C0DF256EC4}
  9
$EXTNAMES
290
     1
  9
$PSVPSCALE
 40
0.0
  9
$OLESTARTUP
290
     0
  0
ENDSEC
  0
SECTION
  2
CLASSES
  0
CLASS
  1
ACDBDICTIONARYWDFLT
  2
AcDbDictionaryWithDefault
  3
ObjectDBX Classes
 90
        0
280
     0
281
     0
  0
CLASS
  1
VISUALSTYLE
  2
AcDbVisualStyle
  3
ObjectDBX Classes
 90
     4095
280
     0
281
     0
  0
CLASS
  1
MATERIAL
  2
AcDbMaterial
  3
ObjectDBX Classes
 90
     1153
280
     0
281
     0
  0
CLASS
  1
SCALE
  2
AcDbScale
  3
ObjectDBX Classes
 90
     1153
280
     0
281
     0
  0
CLASS
  1
SUN
  2
AcDbSun
  3
SCENEOE
 90
     1153
280
     0
281
     0
  0
CLASS
  1
ACDBPLACEHOLDER
  2
AcDbPlaceHolder
  3
ObjectDBX Classes
 90
        0
280
     0
281
     0
  0
CLASS
  1
LAYOUT
  2
AcDbLayout
  3
ObjectDBX Classes
 90
        0
280
     0
281
     0
  0
CLASS
  1
TABLESTYLE
  2
AcDbTableStyle
  3
ObjectDBX Classes
 90
     4095
280
     0
281
     0
  0
CLASS
  1
MLEADERSTYLE
  2
AcDbMLeaderStyle
  3
ACDB_MLEADERSTYLE_CLASS
 90
     4095
280
     0
281
     0
  0
CLASS
  1
RASTERVARIABLES
  2
AcDbRasterVariables
  3
ISM
 90
        0
280
     0
281
     0
  0
ENDSEC
  0
SECTION
  2
TABLES
  0
TABLE
  2
VPORT
  5
8
330
0
100
AcDbSymbolTable
 70
     1
  0
VPORT
  5
29
330
8
100
AcDbSymbolTableRecord
100
AcDbViewportTableRecord
  2
*Active
 70
     0
 10
0.0
 20
0.0
 11
1.0
 21
1.0
 12
-0.0829606704315751
 22
-2.800328294242935
 13
0.0
 23
0.0
 14
10.0
 24
10.0
 15
10.0
 25
10.0
 16
0.0
 26
0.0
 36
1.0
 17
0.0
 27
0.0
 37
0.0
 40
22.84556903361479
 41
1.627413127413127
 42
50.0
 43
0.0
 44
0.0
 50
0.0
 51
0.0
 71
    16
 72
  2000
 73
     1
 74
     3
 75
     0
 76
     0
 77
     0
 78
     0
281
     0
 65
     1
110
0.0
120
0.0
130
0.0
111
1.0
121
0.0
131
0.0
112
0.0
122
1.0
132
0.0
 79
     0
146
0.0
  0
ENDTAB
  0
TABLE
  2
LTYPE
  5
5
330
0
100
AcDbSymbolTable
 70
     6
  0
LTYPE
  5
14
330
5
100
AcDbSymbolTableRecord
100
AcDbLinetypeTableRecord
  2
ByBlock
 70
     0
  3

 72
    65
 73
     0
 40
0.0
  0
LTYPE
  5
15
330
5
100
AcDbSymbolTableRecord
100
AcDbLinetypeTableRecord
  2
ByLayer
 70
     0
  3

 72
    65
 73
     0
 40
0.0
  0
LTYPE
  5
16
330
5
100
AcDbSymbolTableRecord
100
AcDbLinetypeTableRecord
  2
Continuous
 70
     0
  3
Solid line
 72
    65
 73
     0
 40
0.0
  0
LTYPE
  5
6A
330
5
100
AcDbSymbolTableRecord
100
AcDbLinetypeTableRecord
  2
HIDDEN
 70
     0
  3
Hidden __ __ __ __ __ __ __ __ __ __ __ __ __ __
 72
    65
 73
     2
 40
1.905
 49
1.27
 74
     0
 49
-0.635
 74
     0
  0
LTYPE
  5
6B
330
5
100
AcDbSymbolTableRecord
100
AcDbLinetypeTableRecord
  2
PHANTOM
 70
     0
  3
Phantom ______  __  __  ______  __  __  ______
 72
    65
 73
     6
 40
12.7
 49
6.35
 74
     0
 49
-1.27
 74
     0
 49
1.27
 74
     0
 49
-1.27
 74
     0
 49
1.27
 74
     0
 49
-1.27
 74
     0
  0
LTYPE
  5
6C
330
5
100
AcDbSymbolTableRecord
100
AcDbLinetypeTableRecord
  2
CENTER
 70
     0
  3
Center ____ _ ____ _ ____ _ ____ _ ____ _ ____
 72
    65
 73
     4
 40
10.16
 49
6.35
 74
     0
 49
-1.27
 74
     0
 49
1.27
 74
     0
 49
-1.27
 74
     0
  0
LTYPE
  5
6D
330
5
100
AcDbSymbolTableRecord
100
AcDbLinetypeTableRecord
  2
CENTERX2
 70
     0
  3
Center (2x) ________  __  ________  __  _____
 72
    65
 73
     4
 40
20.32
 49
12.7
 74
     0
 49
-2.54
 74
     0
 49
2.54
 74
     0
 49
-2.54
 74
     0
  0
LTYPE
  5
6E
330
5
100
AcDbSymbolTableRecord
100
AcDbLinetypeTableRecord
  2
DOT2
 70
     0
  3
Dot (.5x) ........................................
 72
    65
 73
     2
 40
0.635
 49
0.0
 74
     0
 49
-0.635
 74
     0
  0
ENDTAB
  0
TABLE
  2
LAYER
  5
2
330
0
100
AcDbSymbolTable
 70
    17
  0
LAYER
  5
10
330
2
100
AcDbSymbolTableRecord
100
AcDbLayerTableRecord
  2
0
 70
     0
 62
     7
  6
Continuous
370
    -3
390
F
  0
LAYER
  5
6F
330
2
100
AcDbSymbolTableRecord
100
AcDbLayerTableRecord
  2
FORMAT
 70
     0
 62
     2
  6
Continuous
370
    -3
390
F
  0
LAYER
  5
70
330
2
100
AcDbSymbolTableRecord
100
AcDbLayerTableRecord
  2
외형선
 70
     0
 62
   100
  6
Continuous
370
    30
390
F
  0
LAYER
  5
71
330
2
100
AcDbSymbolTableRecord
100
AcDbLayerTableRecord
  2
숨은선
 70
     0
 62
     2
  6
HIDDEN
370
    15
390
F
  0
LAYER
  5
72
330
2
100
AcDbSymbolTableRecord
100
AcDbLayerTableRecord
  2
중심선
 70
     0
 62
     1
  6
CENTERX2
370
    -3
390
F
  0
LAYER
  5
73
330
2
100
AcDbSymbolTableRecord
100
AcDbLayerTableRecord
  2
파단선
 70
     0
 62
     4
  6
Continuous
370
    -3
390
F
  0
LAYER
  5
74
330
2
100
AcDbSymbolTableRecord
100
AcDbLayerTableRecord
  2
해칭선
 70
     0
 62
     4
  6
Continuous
370
    -3
390
F
  0
LAYER
  5
75
330
2
100
AcDbSymbolTableRecord
100
AcDbLayerTableRecord
  2
가는실선
 70
     0
 62
     4
  6
Continuous
370
    -3
390
F
  0
LAYER
  5
76
330
2
100
AcDbSymbolTableRecord
100
AcDbLayerTableRecord
  2
치수_보조선
 70
     0
 62
     4
  6
Continuous
370
    -3
390
F
  0
LAYER
  5
77
330
2
100
AcDbSymbolTableRecord
100
AcDbLayerTableRecord
  2
치수문자_일반주서
 70
     0
 62
     7
  6
Continuous
370
    15
390
F
  0
LAYER
  5
78
330
2
100
AcDbSymbolTableRecord
100
AcDbLayerTableRecord
  2
개별주서
 70
     0
 62
   100
  6
Continuous
370
    30
390
F
  0
LAYER
  5
79
330
2
100
AcDbSymbolTableRecord
100
AcDbLayerTableRecord
  2
중간선
 70
     0
 62
     2
  6
Continuous
370
    15
390
F
  0
LAYER
  5
7A
330
2
100
AcDbSymbolTableRecord
100
AcDbLayerTableRecord
  2
윤곽선
 70
     0
 62
     3
  6
Continuous
370
    40
390
F
  0
LAYER
  5
7B
330
2
100
AcDbSymbolTableRecord
100
AcDbLayerTableRecord
  2
중심마크
 70
     0
 62
   100
  6
Continuous
370
    30
390
F
  0
LAYER
  5
7C
330
2
100
AcDbSymbolTableRecord
100
AcDbLayerTableRecord
  2
가상선
 70
     0
 62
     4
  6
PHANTOM
370
    -3
390
F
  0
LAYER
  5
7D
330
2
100
AcDbSymbolTableRecord
100
AcDbLayerTableRecord
  2
특수지정선
 70
     0
 62
     5
  6
CENTERX2
370
    60
390
F
  0
LAYER
  5
146
330
2
100
AcDbSymbolTableRecord
100
AcDbLayerTableRecord
  2
Defpoints
 70
     0
 62
     7
  6
Continuous
290
     0
370
    -3
390
F
  0
ENDTAB
  0
TABLE
  2
STYLE
  5
3
330
0
100
AcDbSymbolTable
 70
     2
  0
STYLE
  5
11
330
3
100
AcDbSymbolTableRecord
100
AcDbTextStyleTableRecord
  2
Standard
 70
     0
 40
0.0
 41
1.0
 50
0.0
 71
     0
 42
3.5
  3
txt
  4

  0
STYLE
  5
93
330
3
100
AcDbSymbolTableRecord
100
AcDbTextStyleTableRecord
  2
SLDTEXTSTYLE0
 70
     0
 40
0.0
 41
0.75
 50
0.0
 71
     0
 42
3.5
  3
TXT
  4

  0
ENDTAB
  0
TABLE
  2
VIEW
  5
6
330
0
100
AcDbSymbolTable
 70
     0
  0
ENDTAB
  0
TABLE
  2
UCS
  5
7
330
0
100
AcDbSymbolTable
 70
     0
  0
ENDTAB
  0
TABLE
  2
APPID
  5
9
330
0
100
AcDbSymbolTable
 70
     1
  0
APPID
  5
12
330
9
100
AcDbSymbolTableRecord
100
AcDbRegAppTableRecord
  2
ACAD
 70
     0
  0
ENDTAB
  0
TABLE
  2
DIMSTYLE
  5
A
330
0
100
AcDbSymbolTable
 70
     3
100
AcDbDimStyleTable
  0
DIMSTYLE
105
27
330
A
100
AcDbSymbolTableRecord
100
AcDbDimStyleTableRecord
  2
ISO-25
 70
     0
 41
2.5
 42
0.625
 43
3.75
 44
1.25
 73
     0
 74
     0
 77
     1
 78
     8
140
2.5
141
2.5
143
0.03937007874016
147
0.625
171
     3
172
     1
178
     0
271
     2
272
     2
274
     3
278
    44
283
     0
284
     8
340
11
  0
DIMSTYLE
105
EC
102
{ACAD_REACTORS
330
EB
330
F9
102
}
330
A
100
AcDbSymbolTableRecord
100
AcDbDimStyleTableRecord
  2
SLDDIMSTYLE0
 70
     0
 41
3.302
 44
0.0
 45
0.000000001
 73
     0
 74
     0
 77
     1
 78
    12
 79
     3
140
3.5
147
0.875
172
     1
173
     1
178
     0
271
     2
272
     2
276
     2
284
    12
289
     0
340
93
  0
DIMSTYLE
105
107
102
{ACAD_REACTORS
330
106
330
111
102
}
330
A
100
AcDbSymbolTableRecord
100
AcDbDimStyleTableRecord
  2
SLDDIMSTYLE1
 70
     0
 41
3.302
 44
0.0
 45
0.000000001
 73
     0
 74
     0
 77
     1
 78
    12
 79
     3
140
3.5
147
0.875
173
     1
178
     0
271
     2
272
     2
276
     2
284
    12
340
93
  0
ENDTAB
  0
TABLE
  2
BLOCK_RECORD
  5
1
330
0
100
AcDbSymbolTable
 70
     7
  0
BLOCK_RECORD
  5
1F
330
1
100
AcDbSymbolTableRecord
100
AcDbBlockTableRecord
  2
*Model_Space
340
22
  0
BLOCK_RECORD
  5
1B
330
1
100
AcDbSymbolTableRecord
100
AcDbBlockTableRecord
  2
*Paper_Space
340
1E
  0
BLOCK_RECORD
  5
23
330
1
100
AcDbSymbolTableRecord
100
AcDbBlockTableRecord
  2
*Paper_Space0
340
26
  0
BLOCK_RECORD
  5
7E
330
1
100
AcDbSymbolTableRecord
100
AcDbBlockTableRecord
  2
블럭10
340
0
102
{BLKREFS
331
E4
102
}
  0
BLOCK_RECORD
  5
ED
330
1
100
AcDbSymbolTableRecord
100
AcDbBlockTableRecord
  2
_D
340
0
  0
BLOCK_RECORD
  5
FA
330
1
100
AcDbSymbolTableRecord
100
AcDbBlockTableRecord
  2
_D_1
340
0
  0
BLOCK_RECORD
  5
108
330
1
100
AcDbSymbolTableRecord
100
AcDbBlockTableRecord
  2
_D_2
340
0
  0
BLOCK_RECORD
  5
112
330
1
100
AcDbSymbolTableRecord
100
AcDbBlockTableRecord
  2
_D_3
340
0
  0
BLOCK_RECORD
  5
11B
330
1
100
AcDbSymbolTableRecord
100
AcDbBlockTableRecord
  2
SW_DOWELSYMBOL_0
340
0
102
{BLKREFS
331
121
102
}
  0
ENDTAB
  0
ENDSEC
  0
SECTION
  2
BLOCKS
  0
BLOCK
  5
20
330
1F
100
AcDbEntity
  8
0
100
AcDbBlockBegin
  2
*Model_Space
 70
     0
 10
0.0
 20
0.0
 30
0.0
  3
*Model_Space
  1
*Model_Space
  0
ENDBLK
  5
21
330
1F
100
AcDbEntity
  8
0
100
AcDbBlockEnd
  0
BLOCK
  5
1C
330
1B
100
AcDbEntity
 67
     1
  8
0
100
AcDbBlockBegin
  2
*Paper_Space
 70
     0
 10
0.0
 20
0.0
 30
0.0
  3
*Paper_Space
  1
*Paper_Space
  0
ENDBLK
  5
1D
330
1B
100
AcDbEntity
 67
     1
  8
0
100
AcDbBlockEnd
  0
BLOCK
  5
24
330
23
100
AcDbEntity
  8
0
100
AcDbBlockBegin
  2
*Paper_Space0
 70
     0
 10
0.0
 20
0.0
 30
0.0
  3
*Paper_Space0
  1
*Paper_Space0
  0
ENDBLK
  5
25
330
23
100
AcDbEntity
  8
0
100
AcDbBlockEnd
  0
BLOCK
  5
7F
330
7E
100
AcDbEntity
  8
0
100
AcDbBlockBegin
  2
블럭10
 70
     2
 10
0.0
 20
0.0
 30
0.0
  3
블럭10
  1
블럭10
  0
ELLIPSE
  5
81
330
7E
100
AcDbEntity
  8
중심선
100
AcDbEllipse
 10
20.54032771741204
 20
12.0471743016438
 30
0.0
 11
6.600054785286829
 21
-1.261213355974178E-13
 31
0.0
210
0.0
220
0.0
230
1.0
 40
0.636358354079598
 41
0.9219305317359503
 42
6.513795318482858
  0
ELLIPSE
  5
82
330
7E
100
AcDbEntity
  8
중심선
100
AcDbEllipse
 10
20.54032771746488
 20
12.04717430159265
 30
0.0
 11
3.960054785062283
 21
1.540847449632565E-10
 31
0.0
210
0.0
220
0.0
230
1.0
 40
0.3939339440162632
 41
1.131841032648279
 42
5.62031148352944
  0
LINE
  5
83
330
7E
100
AcDbEntity
  8
중심선
100
AcDbLine
 10
2.268634060543552
 20
16.24717430164393
 30
0.0
 11
5.714909304380834
 21
16.24717430164393
 31
0.0
  0
LINE
  5
84
330
7E
100
AcDbEntity
  8
중심선
100
AcDbLine
 10
5.245725140726316
 20
7.84717430164391
 30
0.0
 11
8.692000384563599
 21
7.84717430164391
 31
0.0
  0
LINE
  5
85
330
7E
100
AcDbEntity
  8
중심선
100
AcDbLine
 10
15.74043728645272
 20
16.24717430164393
 30
0.0
 11
8.692000384563599
 21
7.84717430164391
 31
0.0
  0
LINE
  5
86
330
7E
100
AcDbEntity
  8
중심선
100
AcDbLine
 10
0.1404042013395286
 20
13.71084872107135
 30
0.0
 11
3.58671253028996
 21
13.71088815037384
 31
0.0
  0
LINE
  5
87
330
7E
100
AcDbEntity
  8
중심선
100
AcDbLine
 10
2.750260043222114
 20
10.84717430164391
 30
0.0
 11
6.196535287059397
 21
10.84717430164391
 31
0.0
  0
LINE
  5
88
330
7E
100
AcDbEntity
  8
중심선
100
AcDbLine
 10
12.29416204261559
 20
16.24717430164393
 30
0.0
 11
5.245725140726316
 21
7.84717430164391
 31
0.0
  0
LINE
  5
89
330
7E
100
AcDbEntity
  8
중심선
100
AcDbLine
 10
10.72767329541681
 20
16.24717430164393
 30
0.0
 11
6.196535287059397
 21
10.84717430164391
 31
0.0
  0
LINE
  5
8A
330
7E
100
AcDbEntity
  8
중심선
100
AcDbLine
 10
7.28139805157953
 20
16.24717430164393
 30
0.0
 11
2.750260043222114
 21
10.84717430164391
 31
0.0
  0
LINE
  5
8B
330
7E
100
AcDbEntity
  8
중심선
100
AcDbLine
 10
5.714909304380834
 20
16.24717430164393
 30
0.0
 11
3.58671253028996
 21
13.71088815037384
 31
0.0
  0
LINE
  5
8C
330
7E
100
AcDbEntity
  8
중심선
100
AcDbLine
 10
2.268634060543552
 20
16.24717430164393
 30
0.0
 11
0.1404042013395286
 21
13.71084872107135
 31
0.0
  0
LINE
  5
8D
330
7E
100
AcDbEntity
  8
중심선
100
AcDbLine
 10
7.28139805157953
 20
16.24717430164393
 30
0.0
 11
10.72767329541681
 21
16.24717430164393
 31
0.0
  0
LINE
  5
8E
330
7E
100
AcDbEntity
  8
중심선
100
AcDbLine
 10
12.29416204261559
 20
16.24717430164393
 30
0.0
 11
15.74043728645272
 21
16.24717430164393
 31
0.0
  0
LINE
  5
8F
330
7E
100
AcDbEntity
  8
중심선
100
AcDbLine
 10
19.22036997980202
 20
11.08717430171403
 30
0.0
 11
23.66174974927406
 21
11.08717430171406
 31
0.0
  0
LINE
  5
90
330
7E
100
AcDbEntity
  8
중심선
100
AcDbLine
 10
19.22039502424796
 20
13.00717430171391
 30
0.0
 11
19.22036997980202
 21
11.08717430171403
 31
0.0
  0
LINE
  5
91
330
7E
100
AcDbEntity
  8
중심선
100
AcDbLine
 10
19.22039502424796
 20
13.00717430171391
 30
0.0
 11
26.96566020931264
 21
13.00717430171391
 31
0.0
  0
LINE
  5
92
330
7E
100
AcDbEntity
  8
중심선
100
AcDbLine
 10
22.22332737316547
 20
13.45928029700563
 30
0.0
 11
24.52862924686651
 21
15.39360700705356
 31
0.0
  0
ATTDEF
  5
94
330
7E
100
AcDbEntity
  8
FORMAT
 62
     2
100
AcDbText
 10
-16.11926103943555
 20
2.075366912832191
 30
0.0
 40
4.233333333333333
  1
SEME7512050E [ 6 FLUTE ]
 41
0.75
  7
SLDTEXTSTYLE0
 11
-16.11926103943555
 21
-0.0412997538344756
 31
0.0
100
AcDbAttributeDefinition
  3

  2
AUTOATTR0
 70
     0
 74
     1
  0
ENDBLK
  5
80
330
7E
100
AcDbEntity
  8
0
100
AcDbBlockEnd
  0
BLOCK
  5
EE
330
ED
100
AcDbEntity
  8
0
100
AcDbBlockBegin
  2
_D
 70
     0
 10
0.0
 20
0.0
 30
0.0
  3
_D
  1
_D
  0
LINE
  5
F0
330
ED
100
AcDbEntity
  8
치수문자_일반주서
 62
     0
370
    -2
100
AcDbLine
 10
-38.86250000000003
 20
5.999999999999985
 30
0.0
 11
-57.42890613132349
 21
5.999999999999916
 31
0.0
  0
LINE
  5
F1
330
ED
100
AcDbEntity
  8
치수문자_일반주서
 62
     0
370
    -2
100
AcDbLine
 10
-38.86250000000003
 20
-6.000000000000026
 30
0.0
 11
-57.42890613132345
 21
-6.000000000000095
 31
0.0
  0
LINE
  5
F2
330
ED
100
AcDbEntity
  8
치수문자_일반주서
 62
     0
370
    -2
100
AcDbLine
 10
-57.42890613132348
 20
2.697999999999916
 30
0.0
 11
-57.42890613132347
 21
-2.698000000000095
 31
0.0
  0
SOLID
  5
F3
330
ED
100
AcDbEntity
  8
치수문자_일반주서
 62
     0
100
AcDbTrace
 10
-56.87857279799015
 20
2.697999999999918
 30
0.0
 11
-57.97923946465681
 21
2.697999999999914
 31
0.0
 12
-57.42890613132349
 22
5.999999999999916
 32
0.0
 13
-57.42890613132349
 23
5.999999999999916
 33
0.0
  0
SOLID
  5
F4
330
ED
100
AcDbEntity
  8
치수문자_일반주서
 62
     0
100
AcDbTrace
 10
-57.9792394646568
 20
-2.698000000000097
 30
0.0
 11
-56.87857279799013
 21
-2.698000000000094
 31
0.0
 12
-57.42890613132345
 22
-6.000000000000095
 32
0.0
 13
-57.42890613132345
 23
-6.000000000000095
 33
0.0
  0
MTEXT
  5
F5
330
ED
100
AcDbEntity
  8
치수문자_일반주서
 62
     0
100
AcDbMText
 10
-61.80390613132347
 20
-0.0000000000000338
 30
0.0
 40
3.5
 41
0.0
 71
     2
 72
     1
  1
\A1;%%c12
  7
SLDTEXTSTYLE0
 11
-3.552713678800498E-15
 21
1.0
 31
0.0
 73
     1
 44
1.0
  0
POINT
  5
F6
330
ED
100
AcDbEntity
  8
Defpoints
 62
     0
100
AcDbPoint
 10
-38.80000000000003
 20
5.999999999999985
 30
0.0
  0
POINT
  5
F7
330
ED
100
AcDbEntity
  8
Defpoints
 62
     0
100
AcDbPoint
 10
-38.80000000000003
 20
-6.000000000000026
 30
0.0
  0
POINT
  5
F8
330
ED
100
AcDbEntity
  8
Defpoints
 62
     0
100
AcDbPoint
 10
-57.42890613132347
 20
-6.000000000000095
 30
0.0
  0
ENDBLK
  5
EF
330
ED
100
AcDbEntity
  8
0
100
AcDbBlockEnd
  0
BLOCK
  5
FB
330
FA
100
AcDbEntity
  8
0
100
AcDbBlockBegin
  2
_D_1
 70
     0
 10
0.0
 20
0.0
 30
0.0
  3
_D_1
  1
_D_1
  0
LINE
  5
FD
330
FA
100
AcDbEntity
  8
치수문자_일반주서
 62
     0
370
    -2
100
AcDbLine
 10
60.06249999999997
 20
5.999999999999981
 30
0.0
 11
69.99999999999993
 21
6.00000000000002
 31
0.0
  0
LINE
  5
FE
330
FA
100
AcDbEntity
  8
치수문자_일반주서
 62
     0
370
    -2
100
AcDbLine
 10
60.06249999999997
 20
-6.000000000000024
 30
0.0
 11
69.99999999999997
 21
-5.999999999999986
 31
0.0
  0
LINE
  5
FF
330
FA
100
AcDbEntity
  8
치수문자_일반주서
 62
     0
370
    -2
100
AcDbLine
 10
69.99999999999994
 20
2.69800000000002
 30
0.0
 11
69.99999999999996
 21
-2.697999999999986
 31
0.0
  0
SOLID
  5
100
330
FA
100
AcDbEntity
  8
치수문자_일반주서
 62
     0
100
AcDbTrace
 10
70.55033333333327
 20
2.698000000000022
 30
0.0
 11
69.44966666666662
 21
2.698000000000018
 31
0.0
 12
69.99999999999993
 22
6.00000000000002
 32
0.0
 13
69.99999999999993
 23
6.00000000000002
 33
0.0
  0
SOLID
  5
101
330
FA
100
AcDbEntity
  8
치수문자_일반주서
 62
     0
100
AcDbTrace
 10
69.44966666666663
 20
-2.697999999999988
 30
0.0
 11
70.55033333333328
 21
-2.697999999999984
 31
0.0
 12
69.99999999999997
 22
-5.999999999999986
 32
0.0
 13
69.99999999999997
 23
-5.999999999999986
 33
0.0
  0
MTEXT
  5
102
330
FA
100
AcDbEntity
  8
치수문자_일반주서
 62
     0
100
AcDbMText
 10
65.62499999999994
 20
0.791316900115156
 30
0.0
 40
3.5
 41
0.0
 71
     2
 72
     1
  1
\A1;%%c12
  7
SLDTEXTSTYLE0
 11
-3.552713678800499E-15
 21
1.0
 31
0.0
 73
     1
 44
1.0
  0
POINT
  5
103
330
FA
100
AcDbEntity
  8
Defpoints
 62
     0
100
AcDbPoint
 10
59.99999999999997
 20
5.999999999999981
 30
0.0
  0
POINT
  5
104
330
FA
100
AcDbEntity
  8
Defpoints
 62
     0
100
AcDbPoint
 10
59.99999999999997
 20
-6.000000000000024
 30
0.0
  0
POINT
  5
105
330
FA
100
AcDbEntity
  8
Defpoints
 62
     0
100
AcDbPoint
 10
69.99999999999997
 20
-5.999999999999987
 30
0.0
  0
ENDBLK
  5
FC
330
FA
100
AcDbEntity
  8
0
100
AcDbBlockEnd
  0
BLOCK
  5
109
330
108
100
AcDbEntity
  8
0
100
AcDbBlockBegin
  2
_D_2
 70
     0
 10
0.0
 20
0.0
 30
0.0
  3
_D_2
  1
_D_2
  0
LINE
  5
10B
330
108
100
AcDbEntity
  8
치수문자_일반주서
 62
     0
370
    -2
100
AcDbLine
 10
9.999999999999963
 20
6.044953421643917
 30
0.0
 11
9.999999999999964
 21
49.47729404028571
 31
0.0
  0
LINE
  5
10C
330
108
100
AcDbEntity
  8
치수문자_일반주서
 62
     0
370
    -2
100
AcDbLine
 10
59.99999999999997
 20
6.018715305426007
 30
0.0
 11
59.99999999999997
 21
49.47729404028571
 31
0.0
  0
LINE
  5
10D
330
108
100
AcDbEntity
  8
치수문자_일반주서
 62
     0
370
    -2
100
AcDbLine
 10
13.30199999999996
 20
49.47729404028571
 30
0.0
 11
56.69799999999997
 21
49.47729404028571
 31
0.0
  0
SOLID
  5
10E
330
108
100
AcDbEntity
  8
치수문자_일반주서
 62
     0
100
AcDbTrace
 10
13.30199999999996
 20
50.02762737361905
 30
0.0
 11
13.30199999999996
 21
48.92696070695238
 31
0.0
 12
9.999999999999964
 22
49.47729404028571
 32
0.0
 13
9.999999999999964
 23
49.47729404028571
 33
0.0
  0
SOLID
  5
10F
330
108
100
AcDbEntity
  8
치수문자_일반주서
 62
     0
100
AcDbTrace
 10
56.69799999999997
 20
48.92696070695238
 30
0.0
 11
56.69799999999997
 21
50.02762737361905
 31
0.0
 12
59.99999999999997
 22
49.47729404028571
 32
0.0
 13
59.99999999999997
 23
49.47729404028571
 33
0.0
  0
MTEXT
  5
110
330
108
100
AcDbEntity
  8
치수문자_일반주서
 62
     0
100
AcDbMText
 10
30.46249388206542
 20
53.85229404028571
 30
0.0
 40
3.5
 41
0.0
 71
     2
 72
     1
  1
\A1;50
  7
SLDTEXTSTYLE0
 73
     1
 44
1.0
  0
POINT
  5
148
330
108
100
AcDbEntity
  8
Defpoints
 62
     0
100
AcDbPoint
 10
9.999999999999963
 20
5.982453421643917
 30
0.0
  0
POINT
  5
149
330
108
100
AcDbEntity
  8
Defpoints
 62
     0
100
AcDbPoint
 10
59.99999999999997
 20
5.956215305426007
 30
0.0
  0
POINT
  5
14A
330
108
100
AcDbEntity
  8
Defpoints
 62
     0
100
AcDbPoint
 10
59.99999999999997
 20
49.47729404028571
 30
0.0
  0
ENDBLK
  5
10A
330
108
100
AcDbEntity
  8
0
100
AcDbBlockEnd
  0
BLOCK
  5
113
330
112
100
AcDbEntity
  8
0
100
AcDbBlockBegin
  2
_D_3
 70
     0
 10
0.0
 20
0.0
 30
0.0
  3
_D_3
  1
_D_3
  0
LINE
  5
115
330
112
100
AcDbEntity
  8
치수문자_일반주서
 62
     0
370
    -2
100
AcDbLine
 10
59.99999999999997
 20
6.018715305426007
 30
0.0
 11
59.99999999999996
 21
76.90089796629564
 31
0.0
  0
LINE
  5
116
330
112
100
AcDbEntity
  8
치수문자_일반주서
 62
     0
370
    -2
100
AcDbLine
 10
-40.00000000000004
 20
4.862499999999983
 30
0.0
 11
-40.00000000000004
 21
76.90089796629564
 31
0.0
  0
LINE
  5
117
330
112
100
AcDbEntity
  8
치수문자_일반주서
 62
     0
370
    -2
100
AcDbLine
 10
56.69799999999996
 20
76.90089796629564
 30
0.0
 11
-36.69800000000004
 21
76.90089796629564
 31
0.0
  0
SOLID
  5
118
330
112
100
AcDbEntity
  8
치수문자_일반주서
 62
     0
100
AcDbTrace
 10
56.69799999999996
 20
76.35056463296232
 30
0.0
 11
56.69799999999996
 21
77.45123129962897
 31
0.0
 12
59.99999999999996
 22
76.90089796629564
 32
0.0
 13
59.99999999999996
 23
76.90089796629564
 33
0.0
  0
SOLID
  5
119
330
112
100
AcDbEntity
  8
치수문자_일반주서
 62
     0
100
AcDbTrace
 10
-36.69800000000004
 20
77.45123129962897
 30
0.0
 11
-36.69800000000004
 21
76.35056463296232
 31
0.0
 12
-40.00000000000004
 22
76.90089796629564
 32
0.0
 13
-40.00000000000004
 23
76.90089796629564
 33
0.0
  0
MTEXT
  5
11A
330
112
100
AcDbEntity
  8
치수문자_일반주서
 62
     0
100
AcDbMText
 10
13.09816319842714
 20
81.27589796629564
 30
0.0
 40
3.5
 41
0.0
 71
     2
 72
     1
  1
\A1;100
  7
SLDTEXTSTYLE0
 73
     1
 44
1.0
  0
POINT
  5
14B
330
112
100
AcDbEntity
  8
Defpoints
 62
     0
100
AcDbPoint
 10
59.99999999999997
 20
5.956215305426007
 30
0.0
  0
POINT
  5
14C
330
112
100
AcDbEntity
  8
Defpoints
 62
     0
100
AcDbPoint
 10
-40.00000000000004
 20
4.799999999999983
 30
0.0
  0
POINT
  5
14D
330
112
100
AcDbEntity
  8
Defpoints
 62
     0
100
AcDbPoint
 10
-40.00000000000004
 20
76.90089796629564
 30
0.0
  0
ENDBLK
  5
114
330
112
100
AcDbEntity
  8
0
100
AcDbBlockEnd
  0
BLOCK
  5
11C
330
11B
100
AcDbEntity
  8
0
100
AcDbBlockBegin
  2
SW_DOWELSYMBOL_0
 70
     0
 10
0.0
 20
0.0
 30
0.0
  3
SW_DOWELSYMBOL_0
  1
SW_DOWELSYMBOL_0
  0
CIRCLE
  5
11E
330
11B
100
AcDbEntity
  8
외형선
 62
     0
100
AcDbCircle
 10
0.0
 20
0.0
 30
0.0
 40
3.000000000000001
  0
HATCH
  5
11F
330
11B
100
AcDbEntity
  8
0
  6
Continuous
 62
     0
370
    30
100
AcDbHatch
 10
0.0
 20
0.0
 30
0.0
210
0.0
220
0.0
230
1.0
  2
SOLID
 70
     1
 71
     0
 91
        1
 92
        0
 93
        3
 72
     2
 10
-0.0000000000000208
 20
0.0
 40
3.000000000000001
 50
0.0
 51
90.0
 73
     1
 72
     1
 10
-0.0000000000000208
 20
3.000000000000001
 11
-0.0000000000000208
 21
0.0
 72
     1
 10
-0.0000000000000208
 20
0.0
 11
2.99999999999998
 21
0.0
 97
        0
 75
     0
 76
     1
 98
        1
 10
0.0
 20
0.0
  0
HATCH
  5
120
330
11B
100
AcDbEntity
  8
0
  6
Continuous
 62
     0
370
    30
100
AcDbHatch
 10
0.0
 20
0.0
 30
0.0
210
0.0
220
0.0
230
1.0
  2
SOLID
 70
     1
 71
     0
 91
        1
 92
        0
 93
        3
 72
     2
 10
-0.0000000000000208
 20
0.0
 40
3.000000000000001
 50
180.0
 51
270.0000000000008
 73
     1
 72
     1
 10
-0.0000000000000208
 20
-3.000000000000001
 11
-0.0000000000000208
 21
0.0
 72
     1
 10
-0.0000000000000208
 20
0.0
 11
-3.000000000000022
 21
0.0
 97
        0
 75
     0
 76
     1
 98
        1
 10
0.0
 20
0.0
  0
ENDBLK
  5
11D
330
11B
100
AcDbEntity
  8
0
100
AcDbBlockEnd
  0
ENDSEC
  0
SECTION
  2
ENTITIES
  0
LINE
  5
95
330
1F
100
AcDbEntity
  8
0
  6
Continuous
 62
   131
370
    15
100
AcDbLine
 10
33.53121403114962
 20
-1.077254825068231
 30
0.0
 11
33.6579252632681
 21
-1.199679746648167
 31
0.0
  0
LINE
  5
96
330
1F
100
AcDbEntity
  8
0
  6
Continuous
 62
   131
370
    15
100
AcDbLine
 10
14.75751657068993
 20
-1.150321851966293
 30
0.0
 11
14.80856462965122
 21
-1.199871019567726
 31
0.0
  0
LINE
  5
97
330
1F
100
AcDbEntity
  8
0
  6
Continuous
 62
   131
370
    15
100
AcDbLine
 10
17.3767061557221
 20
1.053676861310314
 30
0.0
 11
17.22704557607095
 21
1.199670717814353
 31
0.0
  0
LINE
  5
98
330
1F
100
AcDbEntity
  8
0
  6
Continuous
 62
     1
370
    15
100
AcDbLine
 10
59.27400819438691
 20
-6.000000000000024
 30
0.0
 11
59.99999999999997
 21
-6.000000000000024
 31
0.0
  0
LINE
  5
99
330
1F
100
AcDbEntity
  8
0
  6
Continuous
 62
     1
370
    15
100
AcDbLine
 10
21.57639485773711
 20
-6.000000000000024
 30
0.0
 11
23.02536459271502
 21
-6.000000000000024
 31
0.0
  0
LINE
  5
9A
330
1F
100
AcDbEntity
  8
0
  6
Continuous
 62
     1
370
    15
100
AcDbLine
 10
41.87592911775127
 20
5.999999999999983
 30
0.0
 11
40.42539945177867
 21
5.999999999999983
 31
0.0
  0
LINE
  5
9B
330
1F
100
AcDbEntity
  8
0
  6
Continuous
 62
     1
370
    15
100
AcDbLine
 10
34.14252985743142
 20
-6.000000000000024
 30
0.0
 11
35.59221566553288
 21
-6.000000000000024
 31
0.0
  0
LINE
  5
9C
330
1F
100
AcDbEntity
  8
0
  6
Continuous
 62
     1
370
    15
100
AcDbLine
 10
16.74229611218398
 20
5.999999999999983
 30
0.0
 11
15.29299004452036
 21
5.999999999999983
 31
0.0
  0
LINE
  5
9D
330
1F
100
AcDbEntity
  8
0
  6
Continuous
 62
     1
370
    15
100
AcDbLine
 10
54.44286398887821
 20
5.999999999999983
 30
0.0
 11
52.99107367616831
 21
5.999999999999983
 31
0.0
  0
LINE
  5
9E
330
1F
100
AcDbEntity
  8
0
  6
Continuous
 62
     1
370
    15
100
AcDbLine
 10
40.42539945177868
 20
-6.000000000000024
 30
0.0
 11
41.87592911775123
 21
-6.000000000000024
 31
0.0
  0
LINE
  5
9F
330
1F
100
AcDbEntity
  8
0
  6
Continuous
 62
     1
370
    15
100
AcDbLine
 10
23.02536459271499
 20
5.999999999999983
 30
0.0
 11
21.57639485773712
 21
5.999999999999983
 31
0.0
  0
LINE
  5
A0
330
1F
100
AcDbEntity
  8
0
  6
Continuous
 62
     1
370
    15
100
AcDbLine
 10
59.99999999999997
 20
5.999999999999983
 30
0.0
 11
59.27400819438691
 21
5.999999999999983
 31
0.0
  0
LINE
  5
A1
330
1F
100
AcDbEntity
  8
0
  6
Continuous
 62
     1
370
    15
100
AcDbLine
 10
27.8595520397557
 20
-6.000000000000024
 30
0.0
 11
29.30866496917355
 21
-6.000000000000024
 31
0.0
  0
LINE
  5
A2
330
1F
100
AcDbEntity
  8
0
  6
Continuous
 62
   131
370
    15
100
AcDbLine
 10
10.45957056351358
 20
5.999999999999983
 30
0.0
 11
9.999999999999963
 21
5.999999999999983
 31
0.0
  0
LINE
  5
A3
330
1F
100
AcDbEntity
  8
0
  6
Continuous
 62
     1
370
    15
100
AcDbLine
 10
48.15949953951893
 20
5.999999999999983
 30
0.0
 11
46.70822573052946
 21
5.999999999999983
 31
0.0
  0
LINE
  5
A4
330
1F
100
AcDbEntity
  8
0
  6
Continuous
 62
     1
370
    15
100
AcDbLine
 10
52.99107367616826
 20
-6.000000000000024
 30
0.0
 11
54.44286398887821
 21
-6.000000000000024
 31
0.0
  0
LINE
  5
A5
330
1F
100
AcDbEntity
  8
0
  6
Continuous
 62
     1
370
    15
100
AcDbLine
 10
15.29299004452032
 20
-6.000000000000024
 30
0.0
 11
16.74229611218396
 21
-6.000000000000024
 31
0.0
  0
LINE
  5
A6
330
1F
100
AcDbEntity
  8
0
  6
Continuous
 62
     1
370
    15
100
AcDbLine
 10
35.59221566553285
 20
5.999999999999983
 30
0.0
 11
34.14252985743138
 21
5.999999999999983
 31
0.0
  0
LINE
  5
A7
330
1F
100
AcDbEntity
  8
0
  6
Continuous
 62
     1
370
    15
100
AcDbLine
 10
46.70822573052941
 20
-6.000000000000024
 30
0.0
 11
48.15949953951887
 21
-6.000000000000024
 31
0.0
  0
LINE
  5
A8
330
1F
100
AcDbEntity
  8
0
  6
Continuous
 62
   131
370
    15
100
AcDbLine
 10
9.999999999999963
 20
-6.000000000000024
 30
0.0
 11
10.45957056351353
 21
-6.000000000000024
 31
0.0
  0
LINE
  5
A9
330
1F
100
AcDbEntity
  8
0
  6
Continuous
 62
     1
370
    15
100
AcDbLine
 10
29.30866496917353
 20
5.999999999999983
 30
0.0
 11
27.85955203975565
 21
5.999999999999983
 31
0.0
  0
LINE
  5
AA
330
1F
100
AcDbEntity
  8
0
  6
Continuous
 62
   131
370
    15
100
AcDbLine
 10
9.009334608205808
 20
-6.00000000000002
 30
0.0
 11
9.999999999999963
 21
-6.00000000000002
 31
0.0
  0
LINE
  5
AB
330
1F
100
AcDbEntity
  8
0
  6
Continuous
 62
   131
370
    15
100
AcDbLine
 10
-38.80000000000004
 20
-6.00000000000002
 30
0.0
 11
9.009334608205808
 21
-6.00000000000002
 31
0.0
  0
LINE
  5
AC
330
1F
100
AcDbEntity
  8
0
  6
Continuous
 62
   131
370
    15
100
AcDbLine
 10
9.00006240670138
 20
5.99999999999998
 30
0.0
 11
-38.80000000000004
 21
5.99999999999998
 31
0.0
  0
LINE
  5
AD
330
1F
100
AcDbEntity
  8
0
  6
Continuous
 62
   131
370
    15
100
AcDbLine
 10
9.999999999999963
 20
5.99999999999998
 30
0.0
 11
9.00006240670138
 21
5.99999999999998
 31
0.0
  0
LINE
  5
AE
330
1F
100
AcDbEntity
  8
0
  6
Continuous
 62
   131
370
    15
100
AcDbLine
 10
-38.80000000000004
 20
5.999999999999981
 30
0.0
 11
-40.00000000000004
 21
4.799999999999983
 31
0.0
  0
LINE
  5
AF
330
1F
100
AcDbEntity
  8
0
  6
Continuous
 62
   131
370
    15
100
AcDbLine
 10
-40.00000000000004
 20
-4.800000000000025
 30
0.0
 11
-38.80000000000004
 21
-6.000000000000022
 31
0.0
  0
LINE
  5
B0
330
1F
100
AcDbEntity
  8
0
  6
Continuous
 62
     1
370
    15
100
AcDbLine
 10
59.99999999999997
 20
3.601286626287092
 30
0.0
 11
59.99999999999997
 21
5.956215305426007
 31
0.0
  0
SPLINE
  5
B1
330
1F
100
AcDbEntity
  8
0
  6
Continuous
 62
     1
370
    15
100
AcDbSpline
210
0.0
220
0.0
230
1.0
 70
     8
 71
     3
 72
    28
 73
    24
 74
     0
 42
0.000000001
 43
0.00000001
 40
0.0
 40
0.0
 40
0.0
 40
0.0
 40
0.0356310277636747
 40
0.0855950348617354
 40
0.1354952570939867
 40
0.1855017140800364
 40
0.2354799228099362
 40
0.2853788368465299
 40
0.3353703743186178
 40
0.3853641613858197
 40
0.4352631736227587
 40
0.4852393157719678
 40
0.535247625452585
 40
0.5851481422620338
 40
0.6351102767718394
 40
0.685130189407798
 40
0.7350336167966927
 40
0.7849831347394273
 40
0.8350117271218677
 40
0.8849194703906859
 40
0.934857765892983
 40
0.9848921121558576
 40
1.0
 40
1.0
 40
1.0
 40
1.0
 10
16.74229611218397
 20
5.980720273110204
 30
0.0
 10
16.99504977542011
 20
5.979178212948107
 30
0.0
 10
17.60223008915175
 20
5.975473781680809
 30
0.0
 10
18.56292194836046
 20
5.752236435982367
 30
0.0
 10
19.62411831936147
 20
5.349774941539096
 30
0.0
 10
20.68761767552874
 20
4.774189472450448
 30
0.0
 10
21.75050251173853
 20
4.050971246583264
 30
0.0
 10
22.81170033154948
 20
3.199348734087403
 30
0.0
 10
23.87487120968009
 20
2.249190834639503
 30
0.0
 10
24.93809063831839
 20
1.228810446651706
 30
0.0
 10
25.99929020950886
 20
0.1682349561730369
 30
0.0
 10
27.06213364862322
 20
-0.896187480449939
 30
0.0
 10
28.12566436962538
 20
-1.931973383161499
 30
0.0
 10
29.18689805233126
 20
-2.909289315088253
 30
0.0
 10
30.24944565427581
 20
-3.794471622072574
 30
0.0
 10
31.31322455730747
 20
-4.560266736354098
 30
0.0
 10
32.37452172749655
 20
-5.184879666347819
 30
0.0
 10
33.43680391637393
 20
-5.646837459301445
 30
0.0
 10
34.5007627293936
 20
-5.930980567064325
 30
0.0
 10
35.56217438423185
 20
-6.033509006727118
 30
0.0
 10
36.6241399994173
 20
-5.934381890136713
 30
0.0
 10
37.44135340156529
 20
-5.75224999101482
 30
0.0
 10
37.90284805481163
 20
-5.548922749987094
 30
0.0
 10
38.0098786096812
 20
-5.501766781279309
 30
0.0
  0
SPLINE
  5
B2
330
1F
100
AcDbEntity
  8
0
  6
Continuous
 62
     1
370
    15
100
AcDbSpline
210
0.0
220
0.0
230
1.0
 70
     8
 71
     3
 72
    13
 73
     9
 74
     0
 42
0.000000001
 43
0.00000001
 40
0.0
 40
0.0
 40
0.0
 40
0.0
 40
0.0441509884306954
 40
0.2351105286296616
 40
0.4264796313917619
 40
0.617733093914971
 40
0.8086872521370534
 40
1.0
 40
1.0
 40
1.0
 40
1.0
 10
54.44286398887821
 20
5.983312023943816
 30
0.0
 10
54.52466235130443
 20
5.988404182409633
 30
0.0
 10
54.96025070197653
 20
6.015520677675505
 30
0.0
 10
55.74916694477736
 20
5.87874242426286
 30
0.0
 10
56.81275821054624
 20
5.569867408404441
 30
0.0
 10
57.87560191646674
 20
5.069126799744747
 30
0.0
 10
58.93680588295899
 20
4.421096911889969
 30
0.0
 10
59.64538039896846
 20
3.877005869045245
 30
0.0
 10
59.99999999999999
 20
3.604705152354151
 30
0.0
  0
SPLINE
  5
B3
330
1F
100
AcDbEntity
  8
0
  6
Continuous
 62
     1
370
    15
100
AcDbSpline
210
0.0
220
0.0
230
1.0
 70
     8
 71
     3
 72
    10
 73
     6
 74
     0
 42
0.000000001
 43
0.00000001
 40
0.0
 40
0.0
 40
0.0
 40
0.0
 40
0.3384626473674153
 40
0.6762908926862479
 40
1.0
 40
1.0
 40
1.0
 40
1.0
 10
59.99999999999994
 20
5.956215305426007
 30
0.0
 10
59.64537709676203
 20
5.98020306834964
 30
0.0
 10
58.93679598252929
 20
6.028133632408485
 30
0.0
 10
57.8909615254153
 20
5.87661294847849
 30
0.0
 10
57.19797212547162
 20
5.634765173504356
 30
0.0
 10
56.85887263374838
 20
5.516422154729761
 30
0.0
  0
SPLINE
  5
B4
330
1F
100
AcDbEntity
  8
0
  6
Continuous
 62
     1
370
    15
100
AcDbSpline
210
0.0
220
0.0
230
1.0
 70
     8
 71
     3
 72
    28
 73
    24
 74
     0
 42
0.000000001
 43
0.00000001
 40
0.0
 40
0.0
 40
0.0
 40
0.0
 40
0.0288570980760855
 40
0.0787873701181964
 40
0.1287026351136372
 40
0.1787387873332869
 40
0.2286788853254695
 40
0.2785884299814114
 40
0.3286188281129439
 40
0.3785701489506302
 40
0.4284753775708695
 40
0.4784970956426307
 40
0.528461033502775
 40
0.5783633514385127
 40
0.6283734661361313
 40
0.6783514121412761
 40
0.7282522254501973
 40
0.7782478170102172
 40
0.8282411588939245
 40
0.8781418739989562
 40
0.9281218866593842
 40
0.9781301485955632
 40
1.0
 40
1.0
 40
1.0
 40
1.0
 10
40.42539945177869
 20
-5.977014944337835
 30
0.0
 10
40.22064183737502
 20
-5.979951116332868
 30
0.0
 10
39.6616003873995
 20
-5.987967628218207
 30
0.0
 10
38.74979430511059
 20
-5.792579401217451
 30
0.0
 10
37.68829037339492
 20
-5.415451802039182
 30
0.0
 10
36.62420034296057
 20
-4.861549240742264
 30
0.0
 10
35.56215824060388
 20
-4.156957933709128
 30
0.0
 10
34.50076706584158
 20
-3.321060233428748
 30
0.0
 10
33.43680275525772
 20
-2.383500923267208
 30
0.0
 10
32.37452203805751
 20
-1.369986291708695
 30
0.0
 10
31.31322447393762
 20
-0.3127275085526481
 30
0.0
 10
30.24944567648947
 20
0.7520378130510996
 30
0.0
 10
29.18689804683471
 20
1.794487177567279
 30
0.0
 10
28.12566436944462
 20
2.781812914429134
 30
0.0
 10
27.06213365486879
 20
3.68026579574802
 30
0.0
 10
25.99929018474642
 20
4.464337123154408
 30
0.0
 10
24.93809073104777
 20
5.109524742171449
 30
0.0
 10
23.87487086275866
 20
5.594045496086249
 30
0.0
 10
22.81170162515072
 20
5.903188848165612
 30
0.0
 10
21.75049769068022
 20
6.030611485219628
 30
0.0
 10
20.68763570521626
 20
5.959135430293462
 30
0.0
 10
19.82296044380201
 20
5.780277775777487
 30
0.0
 10
19.3138299587742
 20
5.564412328872653
 30
0.0
 10
19.15892038288896
 20
5.498732457382574
 30
0.0
  0
SPLINE
  5
B5
330
1F
100
AcDbEntity
  8
0
  6
Continuous
 62
     1
370
    15
100
AcDbSpline
210
0.0
220
0.0
230
1.0
 70
     8
 71
     3
 72
    10
 73
     6
 74
     0
 42
0.000000001
 43
0.00000001
 40
0.0
 40
0.0
 40
0.0
 40
0.0
 40
0.3743845298099812
 40
0.747986275245308
 40
1.0
 40
1.0
 40
1.0
 40
1.0
 10
9.99999999999997
 20
-5.982453421643966
 30
0.0
 10
10.35915092655109
 20
-5.990031043275187
 30
0.0
 10
11.07670184655897
 20
-6.005170442817232
 30
0.0
 10
12.03447665116787
 20
-5.828829458297108
 30
0.0
 10
12.63374252282106
 20
-5.594855159617956
 30
0.0
 10
12.87514196325981
 20
-5.500604398061356
 30
0.0
  0
SPLINE
  5
B6
330
1F
100
AcDbEntity
  8
0
  6
Continuous
 62
     1
370
    15
100
AcDbSpline
210
0.0
220
0.0
230
1.0
 70
     8
 71
     3
 72
    28
 73
    24
 74
     0
 42
0.000000001
 43
0.00000001
 40
0.0
 40
0.0
 40
0.0
 40
0.0
 40
0.0442257869993711
 40
0.0942457200999261
 40
0.1441491679057595
 40
0.1940987062842899
 40
0.2441273191348776
 40
0.2940350828224004
 40
0.3439733987559018
 40
0.3940077654892779
 40
0.4439212493121756
 40
0.4938497396462341
 40
0.5438869326332235
 40
0.5938075394573666
 40
0.6437276034188152
 40
0.6937646941646634
 40
0.7436938251282845
 40
0.7936068639870022
 40
0.8436409240282707
 40
0.8935799782029089
 40
0.9434873949327097
 40
0.9935154967341445
 40
1.0
 40
1.0
 40
1.0
 40
1.0
 10
29.30866496917353
 20
5.990455797101434
 30
0.0
 10
29.62211778969718
 20
5.980090182362904
 30
0.0
 10
30.29008977599619
 20
5.958000924226585
 30
0.0
 10
31.31324371614302
 20
5.695761465900108
 30
0.0
 10
32.37451688483895
 20
5.261863800597401
 30
0.0
 10
33.43680412909112
 20
4.658787072098208
 30
0.0
 10
34.5007667360191
 20
3.912505323743257
 30
0.0
 10
35.56215818923742
 20
3.041753209994101
 30
0.0
 10
36.62420087901875
 20
2.076249737642254
 30
0.0
 10
37.68828827818932
 20
1.047698821759695
 30
0.0
 10
38.74980212859101
 20
-0.0159623483054784
 30
0.0
 10
39.81163619505683
 20
-1.078847765218571
 30
0.0
 10
40.8757839723577
 20
-2.105874864504274
 30
0.0
 10
41.93745010498512
 20
-3.069297724939117
 30
0.0
 10
42.99910460327281
 20
-3.936514235060363
 30
0.0
 10
44.06325034669688
 20
-4.678978133171384
 30
0.0
 10
45.12509748545476
 20
-5.276566040967379
 30
0.0
 10
46.18660387035829
 20
-5.709230125706581
 30
0.0
 10
47.25067697938104
 20
-5.961483476168533
 30
0.0
 10
48.31276415311705
 20
-6.032309657540329
 30
0.0
 10
49.37404059598347
 20
-5.897365244216441
 30
0.0
 10
50.1297390758935
 20
-5.715311601010796
 30
0.0
 10
50.53029076482856
 20
-5.531350121123358
 30
0.0
 10
50.57625181603036
 20
-5.510241577008268
 30
0.0
  0
SPLINE
  5
B7
330
1F
100
AcDbEntity
  8
0
  6
Continuous
 62
   131
370
    15
100
AcDbSpline
210
0.0
220
0.0
230
1.0
 70
    24
 71
     3
 72
    13
 73
     9
 74
     0
 42
0.000000001
 43
0.00000001
 40
0.0
 40
0.0
 40
0.0
 40
0.0
 40
0.0204135455436906
 40
0.2006154262905129
 40
0.3860431737867375
 40
0.5662450545335422
 40
0.7516728020297436
 40
1.0
 40
1.0
 40
1.0
 40
1.0
 10
9.999999999999963
 20
-3.883300953667463
 30
0.0
 10
9.99999999999997
 20
-3.894625747189396
 30
0.0
 10
9.999999999999957
 20
-4.005920880863838
 30
0.0
 10
9.999999999999991
 20
-4.259911075431455
 30
0.0
 10
9.9999999999999
 20
-4.632831039289943
 30
0.0
 10
9.999999999999957
 20
-5.033012450087975
 30
0.0
 10
9.999999999999996
 20
-5.48857589026358
 30
0.0
 10
9.999999999999984
 20
-5.802646305025705
 30
0.0
 10
9.999999999999963
 20
-5.982453421643966
 30
0.0
  0
SPLINE
  5
B8
330
1F
100
AcDbEntity
  8
0
  6
Continuous
 62
     1
370
    15
100
AcDbSpline
210
0.0
220
0.0
230
1.0
 70
     8
 71
     3
 72
    28
 73
    24
 74
     0
 42
0.000000001
 43
0.00000001
 40
0.0
 40
0.0
 40
0.0
 40
0.0
 40
0.020200997658064
 40
0.0701088130117015
 40
0.120063807843003
 40
0.1700965376137538
 40
0.2200085711486096
 40
0.269952245055001
 40
0.3199909336167668
 40
0.3699085898006276
 40
0.4198423395780303
 40
0.4698840591247396
 40
0.5198087410612052
 40
0.5697339659105846
 40
0.6197757877078927
 40
0.6697088967964697
 40
0.7196269979856736
 40
0.769665993267919
 40
0.8196089288648798
 40
0.8695213093895543
 40
0.9195545502567342
 40
0.9695087093368827
 40
1.0
 40
1.0
 40
1.0
 40
1.0
 10
52.99107367616827
 20
-5.977340744088393
 30
0.0
 10
52.84776934179047
 20
-5.982957882518988
 30
0.0
 10
52.35042277739206
 20
-6.002452509198192
 30
0.0
 10
51.5004061375323
 20
-5.838753871211256
 30
0.0
 10
50.43807061716002
 20
-5.494898057553566
 30
0.0
 10
49.374127140282
 20
-4.968500485335912
 30
0.0
 10
48.31274097230271
 20
-4.288531835168622
 30
0.0
 10
47.25068320598015
 20
-3.473739876911151
 30
0.0
 10
46.18660220512376
 20
-2.552247702308702
 30
0.0
 10
45.12509793133925
 20
-1.548744606609231
 30
0.0
 10
44.06325022686204
 20
-0.4970009039641566
 30
0.0
 10
42.9991046355045
 20
0.5681033761886408
 30
0.0
 10
41.93745009570074
 20
1.617792093624143
 30
0.0
 10
40.87578397730669
 20
2.616761639153492
 30
0.0
 10
39.8116361845533
 20
3.531860801900459
 30
0.0
 10
38.74980216555792
 20
4.338415443370097
 30
0.0
 10
37.68828814069445
 20
5.009139843118645
 30
0.0
 10
36.62420139297652
 20
5.522116219658836
 30
0.0
 10
35.56215627590753
 20
5.862865833570635
 30
0.0
 10
34.50077387950803
 20
6.021996144383463
 30
0.0
 10
33.4367774145578
 20
5.985279766880796
 30
0.0
 10
32.51220385256555
 20
5.814624999871299
 30
0.0
 10
31.94232019392571
 20
5.586088801981472
 30
0.0
 10
31.72631682350262
 20
5.499466579604181
 30
0.0
  0
SPLINE
  5
B9
330
1F
100
AcDbEntity
  8
0
  6
Continuous
 62
     1
370
    15
100
AcDbSpline
210
0.0
220
0.0
230
1.0
 70
     8
 71
     3
 72
    12
 73
     8
 74
     0
 42
0.000000001
 43
0.00000001
 40
0.0
 40
0.0
 40
0.0
 40
0.0
 40
0.1874442055054018
 40
0.3907942419331832
 40
0.5936692433056882
 40
0.7966220045381923
 40
1.0
 40
1.0
 40
1.0
 40
1.0
 10
15.29299004452032
 20
-5.99319478541642
 30
0.0
 10
14.96244366037462
 20
-5.98008653993939
 30
0.0
 10
14.27330193274598
 20
-5.952757731132216
 30
0.0
 10
13.22454458161254
 20
-5.675635102391931
 30
0.0
 10
12.15090941410669
 20
-5.223187309124399
 30
0.0
 10
11.07667279139111
 20
-4.607889680460501
 30
0.0
 10
10.35914123474041
 20
-4.078803175443985
 30
0.0
 10
9.99999999999997
 20
-3.813983072502322
 30
0.0
  0
SPLINE
  5
BA
330
1F
100
AcDbEntity
  8
0
  6
Continuous
 62
     1
370
    15
100
AcDbSpline
210
0.0
220
0.0
230
1.0
 70
     8
 71
     3
 72
    28
 73
    24
 74
     0
 42
0.000000001
 43
0.00000001
 40
0.0
 40
0.0
 40
0.0
 40
0.0
 40
0.0399313712945824
 40
0.0899247210479684
 40
0.1398232968001213
 40
0.1897990017898611
 40
0.2398068740296278
 40
0.2897069543411296
 40
0.3396686518139957
 40
0.3896881269076087
 40
0.4395911177730963
 40
0.4895401987892531
 40
0.5395683535534229
 40
0.5894756602610814
 40
0.6394135189349676
 40
0.6894474275292403
 40
0.7393604543198975
 40
0.7892884874843087
 40
0.8393252223063162
 40
0.8892453720329971
 40
0.9391649789019543
 40
0.9892016114837566
 40
1.0
 40
1.0
 40
1.0
 40
1.0
 10
23.02536459271499
 20
5.98488942616037
 30
0.0
 10
23.30850904199194
 20
5.979375980248745
 30
0.0
 10
23.946145186007
 20
5.966959800449704
 30
0.0
 10
24.93811586786184
 20
5.724708579191198
 30
0.0
 10
25.99928344328936
 20
5.306433538188023
 30
0.0
 10
27.06213546383182
 20
4.717022175948954
 30
0.0
 10
28.12566388580013
 20
3.982247783165428
 30
0.0
 10
29.18689817643338
 20
3.12092661676542
 30
0.0
 10
30.2494456418815
 20
2.162926708427861
 30
0.0
 10
31.31322448250654
 20
1.138456191336485
 30
0.0
 10
32.37452203830909
 20
0.0761531032871445
 30
0.0
 10
33.43680274566421
 20
-0.9876869448728328
 30
0.0
 10
34.50076710399249
 20
-2.019096431584678
 30
0.0
 10
35.56215809795808
 20
-2.989639400192314
 30
0.0
 10
36.62420087632521
 20
-3.865990311976273
 30
0.0
 10
37.68828838061057
 20
-4.620120985700782
 30
0.0
 10
38.74980172275502
 20
-5.231335332221517
 30
0.0
 10
39.81163771828622
 20
-5.678717710729864
 30
0.0
 10
40.87577827766989
 20
-5.946925101501302
 30
0.0
 10
41.93747130156552
 20
-6.033590035266695
 30
0.0
 10
42.99902541326926
 20
-5.916652630671277
 30
0.0
 10
43.78563309954499
 20
-5.733936110253394
 30
0.0
 10
44.21670549841699
 20
-5.539814702181039
 30
0.0
 10
44.29322206991856
 20
-5.505357602539253
 30
0.0
  0
SPLINE
  5
BB
330
1F
100
AcDbEntity
  8
0
  6
Continuous
 62
     1
370
    15
100
AcDbSpline
210
0.0
220
0.0
230
1.0
 70
     8
 71
     3
 72
    28
 73
    24
 74
     0
 42
0.000000001
 43
0.00000001
 40
0.0
 40
0.0
 40
0.0
 40
0.0
 40
0.0245314486727688
 40
0.0744477238658555
 40
0.124380092207249
 40
0.1744204273309246
 40
0.2243437280822462
 40
0.2742675717314617
 40
0.3243080091029072
 40
0.3742397367731999
 40
0.4241564569593186
 40
0.4741940678938981
 40
0.5241356218007205
 40
0.5740466214805742
 40
0.6240784781592862
 40
0.6740312552387945
 40
0.723937938757119
 40
0.7739611151230081
 40
0.8239265095928011
 40
0.8738302823417684
 40
0.9238418549952392
 40
0.9738212580184152
 40
1.0
 40
1.0
 40
1.0
 40
1.0
 10
46.70822573052941
 20
-5.976470483090296
 30
0.0
 10
46.53416806420063
 20
-5.981162398500689
 30
0.0
 10
46.00594010455454
 20
-5.995401362841291
 30
0.0
 10
45.12510735101427
 20
-5.816410354348093
 30
0.0
 10
44.06324769629549
 20
-5.455773262498846
 30
0.0
 10
42.99910531224878
 20
-4.91564074590032
 30
0.0
 10
41.93744991518094
 20
-4.223238859977531
 30
0.0
 10
40.87578402347923
 20
-3.397747016385756
 30
0.0
 10
39.81163618090175
 20
-2.468217851793048
 30
0.0
 10
38.74980213415259
 20
-1.459534073400335
 30
0.0
 10
37.68828827007066
 20
-0.404847009894964
 30
0.0
 10
36.62420090597099
 20
0.6600916882938339
 30
0.0
 10
35.5621580898062
 20
1.706344665996208
 30
0.0
 10
34.50076710700638
 20
2.699662743309836
 30
0.0
 10
33.43680274177385
 20
3.606443884319832
 30
0.0
 10
32.37452205082835
 20
4.40189751639678
 30
0.0
 10
31.31322443631107
 20
5.059960611229871
 30
0.0
 10
30.24944581451297
 20
5.558714095399418
 30
0.0
 10
29.18689753341378
 20
5.883722517919201
 30
0.0
 10
28.12566628454416
 20
6.026995445413507
 30
0.0
 10
27.06212649211842
 20
5.97296441224111
 30
0.0
 10
26.16752720552982
 20
5.797636081701284
 30
0.0
 10
25.6280672030822
 20
5.574988625335275
 30
0.0
 10
25.44263222153719
 20
5.498455375835861
 30
0.0
  0
SPLINE
  5
BC
330
1F
100
AcDbEntity
  8
0
  6
Continuous
 62
     1
370
    15
100
AcDbSpline
210
0.0
220
0.0
230
1.0
 70
     8
 71
     3
 72
    16
 73
    12
 74
     0
 42
0.000000001
 43
0.00000001
 40
0.0
 40
0.0
 40
0.0
 40
0.0
 40
0.1175227036140754
 40
0.2347996841046475
 40
0.3520317307814158
 40
0.4695382781674721
 40
0.5868587635251258
 40
0.702738699264744
 40
0.8188869111798932
 40
0.9349086593405541
 40
1.0
 40
1.0
 40
1.0
 40
1.0
 10
9.999999999999963
 20
-2.594126857642075
 30
0.0
 10
10.35914157720553
 20
-2.909286576761202
 30
0.0
 10
11.07667381807046
 20
-3.538947061212631
 30
0.0
 10
12.15090531805867
 20
-4.348834691294055
 30
0.0
 10
13.2245599514715
 20
-5.025564196502003
 30
0.0
 10
14.30077436460057
 20
-5.538864878801616
 30
0.0
 10
15.37122346422953
 20
-5.874373010234931
 30
0.0
 10
16.4365588265664
 20
-6.025008156418203
 30
0.0
 10
17.50032670509684
 20
-5.978448970868858
 30
0.0
 10
18.4078082570516
 20
-5.804989803302487
 30
0.0
 10
18.96034192774227
 20
-5.579700542623272
 30
0.0
 10
19.15892038288896
 20
-5.498732457382613
 30
0.0
  0
SPLINE
  5
BD
330
1F
100
AcDbEntity
  8
0
  6
Continuous
 62
     1
370
    15
100
AcDbSpline
210
0.0
220
0.0
230
1.0
 70
     8
 71
     3
 72
    28
 73
    24
 74
     0
 42
0.000000001
 43
0.00000001
 40
0.0
 40
0.0
 40
0.0
 40
0.0
 40
0.0485207938993705
 40
0.0985567251048812
 40
0.1484717696201526
 40
0.1984018211158077
 40
0.2484405786633029
 40
0.2983627464025413
 40
0.348284371262111
 40
0.3983230265652681
 40
0.448253718710517
 40
0.4981683182476952
 40
0.5482039427515087
 40
0.5981445584180531
 40
0.648053535650522
 40
0.6980832017281998
 40
0.748035137626432
 40
0.7979398969359778
 40
0.8479606787852694
 40
0.8979253288836128
 40
0.947827275675633
 40
0.9978362502140136
 40
1.0
 40
1.0
 40
1.0
 40
1.0
 10
35.59221566553285
 20
5.997410052456972
 30
0.0
 10
35.93597977125218
 20
5.981307773712116
 30
0.0
 10
36.63424255191834
 20
5.948600397507388
 30
0.0
 10
37.68829708008889
 20
5.665383205473261
 30
0.0
 10
38.74979977205904
 20
5.21606862323073
 30
0.0
 10
39.8116368275894
 20
4.599521438495554
 30
0.0
 10
40.87578380524285
 20
3.841747709660854
 30
0.0
 10
41.93745014195134
 20
2.961857382866151
 30
0.0
 10
42.99910462234779
 20
1.989191933840051
 30
0.0
 10
44.06325023311505
 20
0.9565690123699541
 30
0.0
 10
45.12509791949774
 20
-0.1080791900499477
 30
0.0
 10
46.18660224627953
 20
-1.169638623624526
 30
0.0
 10
47.25068305291732
 20
-2.192276274264207
 30
0.0
 10
48.31274154191578
 20
-3.148236296272165
 30
0.0
 10
49.37412501372193
 20
-4.006022040460158
 30
0.0
 10
50.43807856991698
 20
-4.736813220502429
 30
0.0
 10
51.5003765229268
 20
-5.32055567680227
 30
0.0
 10
52.56167033371708
 20
-5.738370410448898
 30
0.0
 10
53.62542761954858
 20
-5.97464130388071
 30
0.0
 10
54.68801815287996
 20
-6.029683660998502
 30
0.0
 10
55.74916201430594
 20
-5.876477035724669
 30
0.0
 10
56.47363173058975
 20
-5.696431680942138
 30
0.0
 10
56.84353183485754
 20
-5.523590370558942
 30
0.0
 10
56.85887263374838
 20
-5.516422154729804
 30
0.0
  0
SPLINE
  5
BE
330
1F
100
AcDbEntity
  8
0
  6
Continuous
 62
   131
370
    15
100
AcDbSpline
210
0.0
220
0.0
230
1.0
 70
    24
 71
     3
 72
    24
 73
    20
 74
     0
 42
0.000000001
 43
0.00000001
 40
0.0
 40
0.0
 40
0.0
 40
0.0
 40
0.1249999999999996
 40
0.1249999999999996
 40
0.1874999999999994
 40
0.1874999999999994
 40
0.2499999999999993
 40
0.2499999999999993
 40
0.3749999999999993
 40
0.3749999999999993
 40
0.4999999999999994
 40
0.4999999999999994
 40
0.6249999999999996
 40
0.6249999999999996
 40
0.7499999999999996
 40
0.7499999999999996
 40
0.8749999999999998
 40
0.8749999999999998
 40
1.0
 40
1.0
 40
1.0
 40
1.0
 10
9.999999999999957
 20
2.104261365523955
 30
0.0
 10
9.999999999999957
 20
2.068658157256818
 30
0.0
 10
9.99999999999997
 20
2.005339187983023
 30
0.0
 10
9.999999999999963
 20
1.894201974249191
 30
0.0
 10
9.999999999999957
 20
1.855952596806626
 30
0.0
 10
9.999999999999957
 20
1.765306896022412
 30
0.0
 10
9.999999999999957
 20
1.713116718426004
 30
0.0
 10
9.99999999999997
 20
1.531673269193239
 30
0.0
 10
9.999999999999957
 20
1.377125791062424
 30
0.0
 10
9.99999999999995
 20
0.9821503847096309
 30
0.0
 10
9.999999999999963
 20
0.7406970717893326
 30
0.0
 10
9.99999999999995
 20
0.1779984274367991
 30
0.0
 10
9.999999999999957
 20
-0.1436932262860674
 30
0.0
 10
9.999999999999963
 20
-0.8067989599229632
 30
0.0
 10
9.999999999999984
 20
-1.146258555085058
 30
0.0
 10
9.999999999999957
 20
-1.748369550191665
 30
0.0
 10
9.99999999999997
 20
-2.00871738733903
 30
0.0
 10
9.99999999999997
 20
-2.396310891174033
 30
0.0
 10
9.999999999999957
 20
-2.524144013167081
 30
0.0
 10
9.99999999999995
 20
-2.594126857642055
 30
0.0
  0
SPLINE
  5
BF
330
1F
100
AcDbEntity
  8
0
  6
Continuous
 62
     1
370
    15
100
AcDbSpline
210
0.0
220
0.0
230
1.0
 70
     8
 71
     3
 72
    28
 73
    24
 74
     0
 42
0.000000001
 43
0.00000001
 40
0.0
 40
0.0
 40
0.0
 40
0.0
 40
0.0158687228211245
 40
0.0657733616607171
 40
0.1157562217508447
 40
0.1657693036722786
 40
0.2156753490568511
 40
0.2656441028977525
 40
0.3156689930998665
 40
0.3655778512329649
 40
0.4155338898295007
 40
0.4655676649896883
 40
0.5154807413921401
 40
0.5654254588272251
 40
0.6154651929029313
 40
0.6653838920718683
 40
0.7153186851706088
 40
0.7653614502945882
 40
0.815287175362927
 40
0.8652134433555233
 40
0.915256310732238
 40
0.9651904631287661
 40
1.0
 40
1.0
 40
1.0
 40
1.0
 10
59.27400819438691
 20
-5.979623580900865
 30
0.0
 10
59.1614738074755
 20
-5.985361970978232
 30
0.0
 10
58.69503646320874
 20
-6.009146695821152
 30
0.0
 10
57.87565508077616
 20
-5.859576289191174
 30
0.0
 10
56.81272820889095
 20
-5.532814398185206
 30
0.0
 10
55.74923368417596
 20
-5.020112975759342
 30
0.0
 10
54.68799894016036
 20
-4.352814682773941
 30
0.0
 10
53.62543277714224
 20
-3.549008839155687
 30
0.0
 10
52.56166895470164
 20
-2.635563364487724
 30
0.0
 10
51.50037689245762
 20
-1.637586655658937
 30
0.0
 10
50.43807847062274
 20
-0.5891564030822429
 30
0.0
 10
49.3741250404965
 20
0.4761058258809454
 30
0.0
 10
48.31274153391261
 20
1.528860394186182
 30
0.0
 10
47.25068305817588
 20
2.533136026071387
 30
0.0
 10
46.18660223325474
 20
3.456545949398126
 30
0.0
 10
45.12509796621576
 20
4.273912769825079
 30
0.0
 10
44.06325005899986
 20
4.957075092469148
 30
0.0
 10
42.99910527294402
 20
5.484269138394752
 30
0.0
 10
41.93744772041183
 20
5.840626224093361
 30
0.0
 10
40.87579285223079
 20
6.015604457686938
 30
0.0
 10
39.81160300690222
 20
5.996094127994012
 30
0.0
 10
38.85694326206558
 20
5.831232225735231
 30
0.0
 10
38.25651292647672
 20
5.597695096281437
 30
0.0
 10
38.00987860968119
 20
5.501766781279265
 30
0.0
  0
SPLINE
  5
C0
330
1F
100
AcDbEntity
  8
0
  6
Continuous
 62
     1
370
    15
100
AcDbSpline
210
0.0
220
0.0
230
1.0
 70
     8
 71
     3
 72
    18
 73
    14
 74
     0
 42
0.000000001
 43
0.00000001
 40
0.0
 40
0.0
 40
0.0
 40
0.0
 40
0.0767574949003939
 40
0.1686308141517658
 40
0.2603089558192906
 40
0.3521042849000662
 40
0.4439996709283004
 40
0.5356827993392516
 40
0.6285056772225341
 40
0.721475765653814
 40
0.8142286716745429
 40
0.9070171289112319
 40
1.0
 40
1.0
 40
1.0
 40
1.0
 10
21.5763948577371
 20
-5.987113327228415
 30
0.0
 10
21.28021234653155
 20
-5.979620720553756
 30
0.0
 10
20.62952021455252
 20
-5.963159991014493
 30
0.0
 10
19.62410147957475
 20
-5.712432377449445
 30
0.0
 10
18.56290401572782
 20
-5.287411698257396
 30
0.0
 10
17.50030866862324
 20
-4.692098296881369
 30
0.0
 10
16.4365636472134
 20
-3.952373031674075
 30
0.0
 10
15.3712221559952
 20
-3.083650201644049
 30
0.0
 10
14.30077471760976
 20
-2.114486953736871
 30
0.0
 10
13.22455985709991
 20
-1.07518185318509
 30
0.0
 10
12.15090534320857
 20
-0.0005551486417042
 30
0.0
 10
11.07667381176663
 20
1.078453436545069
 30
0.0
 10
10.3591415751028
 20
1.762086909955142
 30
0.0
 10
9.99999999999997
 20
2.10426136552394
 30
0.0
  0
LINE
  5
C1
330
1F
100
AcDbEntity
  8
0
  6
Continuous
 62
     1
370
    15
100
AcDbLine
 10
59.99999999999997
 20
-5.956215305426046
 30
0.0
 11
59.99999999999997
 21
-3.59630826041657
 31
0.0
  0
SPLINE
  5
C2
330
1F
100
AcDbEntity
  8
0
  6
Continuous
 62
     1
370
    15
100
AcDbSpline
210
0.0
220
0.0
230
1.0
 70
     8
 71
     3
 72
    22
 73
    18
 74
     0
 42
0.000000001
 43
0.00000001
 40
0.0
 40
0.0
 40
0.0
 40
0.0
 40
0.0697013447471365
 40
0.1392569539757987
 40
0.2087859134835949
 40
0.2784776761603368
 40
0.3480590876182335
 40
0.4167861259000163
 40
0.4856722756523754
 40
0.5544834212270008
 40
0.623206721371654
 40
0.6920763295394878
 40
0.7609070338047115
 40
0.8296285322835844
 40
0.8984775930832875
 40
0.967329752057574
 40
1.0
 40
1.0
 40
1.0
 40
1.0
 10
9.999999999999963
 20
3.38832656400191
 30
0.0
 10
10.3591415752982
 20
3.082033711102513
 30
0.0
 10
11.07667381235246
 20
2.470088419744563
 30
0.0
 10
12.15090534087127
 20
1.443159071615033
 30
0.0
 10
13.22455986587024
 20
0.3772948789833394
 30
0.0
 10
14.30077468480311
 20
-0.7004537180255507
 30
0.0
 10
15.37122227757509
 20
-1.752830231251761
 30
0.0
 10
16.43656319920999
 20
-2.746570962829678
 30
0.0
 10
17.50031034483028
 20
-3.648603430062316
 30
0.0
 10
18.56289777128613
 20
-4.437606365524647
 30
0.0
 10
19.62412477273329
 20
-5.088358044589361
 30
0.0
 10
20.6876160836742
 20
-5.579003047368486
 30
0.0
 10
21.75050242360125
 20
-5.894985569643468
 30
0.0
 10
22.81170227038417
 20
-6.029224729985484
 30
0.0
 10
23.87486352484149
 20
-5.965269669999226
 30
0.0
 10
24.7524236537582
 20
-5.787791505833486
 30
0.0
 10
25.27459556509731
 20
-5.568896512242701
 30
0.0
 10
25.44263222153723
 20
-5.498455375835904
 30
0.0
  0
SPLINE
  5
C3
330
1F
100
AcDbEntity
  8
0
  6
Continuous
 62
     1
370
    15
100
AcDbSpline
210
0.0
220
0.0
230
1.0
 70
     8
 71
     3
 72
    25
 73
    21
 74
     0
 42
0.000000001
 43
0.00000001
 40
0.0
 40
0.0
 40
0.0
 40
0.0
 40
0.0033958837767984
 40
0.0619727599691921
 40
0.1206869569684315
 40
0.1792744725034374
 40
0.2378431053455577
 40
0.2965537460751764
 40
0.3551529056397977
 40
0.4137149414000362
 40
0.4724185906506907
 40
0.5310310331124917
 40
0.5895881196598479
 40
0.6482813443630703
 40
0.7069087053722521
 40
0.7654624917768076
 40
0.8241418620553923
 40
0.8827857736507358
 40
0.9413379097835921
 40
1.0
 40
1.0
 40
1.0
 40
1.0
 10
41.87592911775127
 20
5.994877590946015
 30
0.0
 10
41.89643703791359
 20
5.996569215005794
 30
0.0
 10
42.27069378438103
 20
6.027440298560251
 30
0.0
 10
42.99904557993103
 20
5.912600627811036
 30
0.0
 10
44.06326603115849
 20
5.63904040111628
 30
0.0
 10
45.12509369224955
 20
5.167602016545488
 30
0.0
 10
46.18660338149265
 20
4.539642786772017
 30
0.0
 10
47.25068275075139
 20
3.76989082924382
 30
0.0
 10
48.3127416164775
 20
2.881295089861716
 30
0.0
 10
49.37412501711918
 20
1.901778289997386
 30
0.0
 10
50.43807848136919
 20
0.8650996378819036
 30
0.0
 10
51.50037687287942
 20
-0.200164917218758
 30
0.0
 10
52.56166902228865
 20
-1.260031537738551
 30
0.0
 10
53.62543252583732
 20
-2.278257168428856
 30
0.0
 10
54.68799987591129
 20
-3.226469212473321
 30
0.0
 10
55.7492301936173
 20
-4.074338067015192
 30
0.0
 10
56.8127412641544
 20
-4.794182393222258
 30
0.0
 10
57.87560642617419
 20
-5.361125488105025
 30
0.0
 10
58.93680475379904
 20
-5.774202016549983
 30
0.0
 10
59.64538002234651
 20
-5.895506278871891
 30
0.0
 10
59.99999999999999
 20
-5.956215305426046
 30
0.0
  0
SPLINE
  5
C4
330
1F
100
AcDbEntity
  8
0
  6
Continuous
 62
   131
370
    15
100
AcDbSpline
210
0.0
220
0.0
230
1.0
 70
    24
 71
     3
 72
    14
 73
    10
 74
     0
 42
0.000000001
 43
0.00000001
 40
0.0
 40
0.0
 40
0.0
 40
0.0
 40
0.1345792748390592
 40
0.28580548590796
 40
0.4414172673426514
 40
0.5926434784115172
 40
0.7482552598461729
 40
0.8994814709150382
 40
1.0
 40
1.0
 40
1.0
 40
1.0
 10
9.999999999999977
 20
5.918244438026268
 30
0.0
 10
9.99999999999997
 20
5.80594366603983
 30
0.0
 10
9.999999999999991
 20
5.567450950547005
 30
0.0
 10
9.999999999999943
 20
5.180142231756543
 30
0.0
 10
9.999999999999984
 20
4.776401556493704
 30
0.0
 10
9.99999999999995
 20
4.376060597833177
 30
0.0
 10
10.00000000000002
 20
4.000560677234518
 30
0.0
 10
9.999999999999957
 20
3.687284138624273
 30
0.0
 10
9.99999999999997
 20
3.523172265469533
 30
0.0
 10
9.999999999999977
 20
3.457644445167062
 30
0.0
  0
SPLINE
  5
C5
330
1F
100
AcDbEntity
  8
0
  6
Continuous
 62
     1
370
    15
100
AcDbSpline
210
0.0
220
0.0
230
1.0
 70
     8
 71
     3
 72
    22
 73
    18
 74
     0
 42
0.000000001
 43
0.00000001
 40
0.0
 40
0.0
 40
0.0
 40
0.0
 40
0.0676889574290006
 40
0.1352510411435947
 40
0.2029190226424387
 40
0.2706279191733157
 40
0.3381919071018644
 40
0.4058407912259296
 40
0.4735656740872639
 40
0.5411334699814805
 40
0.6087651399061395
 40
0.67650205143445
 40
0.7440755581217675
 40
0.8116919011895356
 40
0.8794368800390105
 40
0.9470179989609583
 40
1.0
 40
1.0
 40
1.0
 40
1.0
 10
59.99999999999994
 20
-3.60470515235416
 30
0.0
 10
59.64538002234507
 20
-3.310676472785288
 30
0.0
 10
58.93680475379482
 20
-2.72317023028659
 30
0.0
 10
57.87560642619112
 20
-1.724679721895764
 30
0.0
 10
56.81274126409055
 20
-0.6816426043483308
 30
0.0
 10
55.74923019385535
 20
0.3842285758083372
 30
0.0
 10
54.68799987502435
 20
1.439554807017984
 30
0.0
 10
53.62543252915381
 20
2.448820020458973
 30
0.0
 10
52.56166900990837
 20
3.380527203711317
 30
0.0
 10
51.50037691898042
 20
4.20841256195903
 30
0.0
 10
50.43807830901055
 20
4.903779902275775
 30
0.0
 10
49.37412566081088
 20
5.445190928392467
 30
0.0
 10
48.31273922012462
 20
5.817012177599127
 30
0.0
 10
47.25069170825677
 20
6.007813365185383
 30
0.0
 10
46.18656991559622
 20
6.005420978952696
 30
0.0
 10
45.20168797552976
 20
5.847442800646593
 30
0.0
 10
44.57056977798246
 20
5.609793602912637
 30
0.0
 10
44.29322206991861
 20
5.505357602539207
 30
0.0
  0
SPLINE
  5
C6
330
1F
100
AcDbEntity
  8
0
  6
Continuous
 62
     1
370
    15
100
AcDbSpline
210
0.0
220
0.0
230
1.0
 70
     8
 71
     3
 72
    24
 73
    20
 74
     0
 42
0.000000001
 43
0.00000001
 40
0.0
 40
0.0
 40
0.0
 40
0.0
 40
0.0446361977805297
 40
0.1041500719109223
 40
0.1635720962167159
 40
0.2231069827218806
 40
0.2826391903063691
 40
0.3420610976707037
 40
0.4015774327798325
 40
0.4611274072034131
 40
0.520550872426925
 40
0.5800502955838033
 40
0.6396145731370461
 40
0.6990412706422031
 40
0.7592067250844087
 40
0.8194675977006777
 40
0.8795876981417501
 40
0.9397308419867005
 40
0.9999999999999999
 40
0.9999999999999999
 40
0.9999999999999999
 40
0.9999999999999999
 10
27.8595520397557
 20
-5.982341777694039
 30
0.0
 10
27.59370432063378
 20
-5.979198974551605
 30
0.0
 10
26.97339926687354
 20
-5.971865841588627
 30
0.0
 10
25.99926453273873
 20
-5.740566491112103
 30
0.0
 10
24.93809752016605
 20
-5.331277184859162
 30
0.0
 10
23.87486939528868
 20
-4.749735364003644
 30
0.0
 10
22.81170070076125
 20
-4.021526925878221
 30
0.0
 10
21.75050284458842
 20
-3.165707713860013
 30
0.0
 10
20.68761597071665
 20
-2.212134435147154
 30
0.0
 10
19.62412480293441
 20
-1.189993240492634
 30
0.0
 10
18.56289776318978
 20
-0.1286301673898549
 30
0.0
 10
17.50031034700353
 20
0.9355904236720599
 30
0.0
 10
16.4365631986291
 20
1.969483022783708
 30
0.0
 10
15.37122227773268
 20
2.947690345898376
 30
0.0
 10
14.30077468476054
 20
3.835164388675814
 30
0.0
 10
13.22455986588166
 20
4.603228415559482
 30
0.0
 10
12.15090534086825
 20
5.221892582145727
 30
0.0
 10
11.07667381235324
 20
5.68652849320958
 30
0.0
 10
10.35914157529847
 20
5.840951920563292
 30
0.0
 10
9.99999999999997
 20
5.918244438026271
 30
0.0
  0
LINE
  5
C7
330
1F
100
AcDbEntity
  8
0
  6
Continuous
 62
     1
370
    15
100
AcDbLine
 10
59.99999999999997
 20
-2.351510153071817
 30
0.0
 11
59.99999999999997
 21
2.351510153071887
 31
0.0
  0
SPLINE
  5
C8
330
1F
100
AcDbEntity
  8
0
  6
Continuous
 62
     1
370
    15
100
AcDbSpline
210
0.0
220
0.0
230
1.0
 70
     8
 71
     3
 72
    28
 73
    24
 74
     0
 42
0.000000001
 43
0.00000001
 40
0.0
 40
0.0
 40
0.0
 40
0.0
 40
0.0290184353887799
 40
0.0795245357909982
 40
0.1300112851517594
 40
0.1806162500423355
 40
0.2311410861007381
 40
0.2810455400232898
 40
0.331065528839392
 40
0.3810310552106503
 40
0.4309327947765703
 40
0.4809407723266062
 40
0.5309205007615376
 40
0.5808209320920212
 40
0.6308139896744325
 40
0.680809296920362
 40
0.7307098264541768
 40
0.7806874882455783
 40
0.8306973185465173
 40
0.880599352698592
 40
0.9305630064246547
 40
0.9805844400337503
 40
1.0
 40
1.0
 40
1.0
 40
1.0
 10
10.45957056351359
 20
5.976435921812955
 30
0.0
 10
10.66547229204315
 20
5.979524720034198
 30
0.0
 10
11.2297425278605
 20
5.987989519786683
 30
0.0
 10
12.15088478693386
 20
5.788764660141022
 30
0.0
 10
13.22456538721068
 20
5.403751179045566
 30
0.0
 10
14.30077320585895
 20
4.838079886529748
 30
0.0
 10
15.3712226683445
 20
4.121972541072681
 30
0.0
 10
16.43656309407116
 20
3.277062825017518
 30
0.0
 10
17.50031037564484
 20
2.334930912171374
 30
0.0
 10
18.56289775318163
 20
1.318821157660198
 30
0.0
 10
19.62412481438071
 20
0.2602636735514042
 30
0.0
 10
20.68761593487551
 20
-0.8043991673728267
 30
0.0
 10
21.75050297630536
 20
-1.844517561817384
 30
0.0
 10
22.81170021016121
 20
-2.828278170505953
 30
0.0
 10
23.87487123001692
 20
-3.721979788279221
 30
0.0
 10
24.93809067844283
 20
-4.499441073247367
 30
0.0
 10
25.99929002900577
 20
-5.137215870556346
 30
0.0
 10
27.06213433199398
 20
-5.613595025695508
 30
0.0
 10
28.12566181763574
 20
-5.913664102358115
 30
0.0
 10
29.18690755895289
 20
-6.032055935790815
 30
0.0
 10
30.24941010628387
 20
-5.950581314668482
 30
0.0
 10
31.09693797030331
 20
-5.770212107152327
 30
0.0
 10
31.58878849844382
 20
-5.558628368615083
 30
0.0
 10
31.7263168235027
 20
-5.499466579604219
 30
0.0
  0
SPLINE
  5
C9
330
1F
100
AcDbEntity
  8
0
  6
Continuous
 62
     1
370
    15
100
AcDbSpline
210
0.0
220
0.0
230
1.0
 70
     8
 71
     3
 72
    19
 73
    15
 74
     0
 42
0.000000001
 43
0.00000001
 40
0.0
 40
0.0
 40
0.0
 40
0.0
 40
0.0129547564908458
 40
0.1025936481799013
 40
0.1924493027626016
 40
0.2821653502541
 40
0.3717966663534115
 40
0.4616363644403026
 40
0.551375247238591
 40
0.6410015119229502
 40
0.7308200035190939
 40
0.8205842197297387
 40
0.9102079584000311
 40
1.0
 40
1.0
 40
1.0
 40
1.0
 10
48.15949953951893
 20
5.988398961619859
 30
0.0
 10
48.21062227199274
 20
5.992121055954864
 30
0.0
 10
48.6154826515081
 20
6.021597737895401
 30
0.0
 10
49.37405723972159
 20
5.896540391390521
 30
0.0
 10
50.43809662984012
 20
5.604912478366574
 30
0.0
 10
51.50037201867875
 20
5.119645804915559
 30
0.0
 10
52.56167032586599
 20
4.478324897972261
 30
0.0
 10
53.62543217662594
 20
3.697188650305913
 30
0.0
 10
54.68799996930044
 20
2.800016846030004
 30
0.0
 10
55.74923016854727
 20
1.81412082750314
 30
0.0
 10
56.81274127087145
 20
0.7730816613095974
 30
0.0
 10
57.87560642438663
 20
-0.2913058940223251
 30
0.0
 10
58.93680475424663
 20
-1.353278569483025
 30
0.0
 10
59.64538002249579
 20
-2.018558267583086
 30
0.0
 10
59.99999999999999
 20
-2.351510153071817
 30
0.0
  0
SPLINE
  5
CA
330
1F
100
AcDbEntity
  8
0
  6
Continuous
 62
     1
370
    15
100
AcDbSpline
210
0.0
220
0.0
230
1.0
 70
     8
 71
     3
 72
    16
 73
    12
 74
     0
 42
0.000000001
 43
0.00000001
 40
0.0
 40
0.0
 40
0.0
 40
0.0
 40
0.1128176987174136
 40
0.2254239360527827
 40
0.3382066740283176
 40
0.4510576053980518
 40
0.5636670165012614
 40
0.6764179247374126
 40
0.7892955006453644
 40
0.9019112585138332
 40
1.0
 40
1.0
 40
1.0
 40
1.0
 10
59.99999999999994
 20
2.351510153071887
 30
0.0
 10
59.64538001959142
 20
2.670249811979149
 30
0.0
 10
58.9368047455391
 20
3.307131695795719
 30
0.0
 10
57.87560645916337
 20
4.141053789511871
 30
0.0
 10
56.81274114018894
 20
4.849506217489073
 30
0.0
 10
55.7492306562921
 20
5.404837013454786
 30
0.0
 10
54.68799815238227
 20
5.792049952957776
 30
0.0
 10
53.62543897065319
 20
5.998612962139013
 30
0.0
 10
52.56164496432057
 20
6.013273672202627
 30
0.0
 10
51.54638016634433
 20
5.863244133124216
 30
0.0
 10
50.88441487265442
 20
5.622373488887308
 30
0.0
 10
50.5762518160304
 20
5.510241577008223
 30
0.0
  0
SPLINE
  5
CB
330
1F
100
AcDbEntity
  8
0
  6
Continuous
 62
     1
370
    15
100
AcDbSpline
210
0.0
220
0.0
230
1.0
 70
     8
 71
     3
 72
    28
 73
    24
 74
     0
 42
0.000000001
 43
0.00000001
 40
0.0
 40
0.0
 40
0.0
 40
0.0
 40
0.0331749656429672
 40
0.083124872466051
 40
0.1330286883764593
 40
0.1830489904408235
 40
0.2330115139292044
 40
0.2829124192375065
 40
0.3329211182561946
 40
0.3828976494930356
 40
0.4327970502171138
 40
0.4827912265093221
 40
0.5327831531889012
 40
0.5826824557118699
 40
0.6326610535454916
 40
0.6826678998551878
 40
0.7325685105839989
 40
0.7825329066752155
 40
0.8325517639792689
 40
0.8824550890033087
 40
0.9329787821294141
 40
0.9835826022750813
 40
0.9999999999999999
 40
0.9999999999999999
 40
0.9999999999999999
 40
0.9999999999999999
 10
34.14252985743142
 20
-5.978973305726131
 30
0.0
 10
33.90716301310603
 20
-5.979303001122593
 30
0.0
 10
33.31741593912727
 20
-5.980129102589541
 30
0.0
 10
32.37450189730277
 20
-5.767289705874471
 30
0.0
 10
31.31322988273824
 20
-5.373947749599323
 30
0.0
 10
30.24944422772132
 20
-4.806242044766693
 30
0.0
 10
29.18689843379495
 20
-4.089712025410539
 30
0.0
 10
28.12566426737574
 20
-3.243709770673188
 30
0.0
 10
27.0621336754358
 20
-2.29812474103146
 30
0.0
 10
25.99929020454427
 20
-1.28013268388321
 30
0.0
 10
24.93809063143048
 20
-0.2206750546477311
 30
0.0
 10
23.87487124227981
 20
0.8439091126680801
 30
0.0
 10
22.81170020816586
 20
1.882187133705141
 30
0.0
 10
21.75050297205853
 20
2.863205563676051
 30
0.0
 10
20.68761595390286
 20
3.753282143580913
 30
0.0
 10
19.62412474255008
 20
4.525724786427869
 30
0.0
 10
18.56289802098636
 20
5.157864845911869
 30
0.0
 10
17.50030937417052
 20
5.628068930600907
 30
0.0
 10
16.4365668323816
 20
5.921253608897841
 30
0.0
 10
15.37120868009071
 20
6.033376196548626
 30
0.0
 10
14.30082617322131
 20
5.942003355472699
 30
0.0
 10
13.46625313410153
 20
5.759765700782663
 30
0.0
 10
12.99144910860363
 20
5.551597024812347
 30
0.0
 10
12.87514196325986
 20
5.500604398061315
 30
0.0
  0
LINE
  5
CC
330
1F
100
AcDbEntity
  8
0
  6
Continuous
 62
     1
370
    15
100
AcDbLine
 10
59.99999999999997
 20
-6.000000000000023
 30
0.0
 11
59.99999999999997
 21
-5.956215305426046
 31
0.0
  0
LINE
  5
CD
330
1F
100
AcDbEntity
  8
0
  6
Continuous
 62
   131
370
    15
100
AcDbLine
 10
9.999999999999977
 20
2.104261365523947
 30
0.0
 11
9.999999999999963
 21
3.388326564001911
 31
0.0
  0
LINE
  5
CE
330
1F
100
AcDbEntity
  8
0
  6
Continuous
 62
     1
370
    15
100
AcDbLine
 10
59.99999999999997
 20
2.351510153071887
 30
0.0
 11
59.99999999999997
 21
3.604705152354151
 31
0.0
  0
LINE
  5
CF
330
1F
100
AcDbEntity
  8
0
  6
Continuous
 62
   131
370
    15
100
AcDbLine
 10
59.99999999999997
 20
5.956215305426007
 30
0.0
 11
59.99999999999997
 21
5.999999999999981
 31
0.0
  0
LINE
  5
D0
330
1F
100
AcDbEntity
  8
0
  6
Continuous
 62
     1
370
    15
100
AcDbLine
 10
59.99999999999997
 20
-3.60470515235416
 30
0.0
 11
59.99999999999997
 21
-2.351510153071817
 31
0.0
  0
LINE
  5
D1
330
1F
100
AcDbEntity
  8
0
  6
Continuous
 62
   131
370
    15
100
AcDbLine
 10
9.999999999999977
 20
-3.813983072502312
 30
0.0
 11
9.999999999999963
 21
-2.594126857642082
 31
0.0
  0
SPLINE
  5
D2
330
1F
100
AcDbEntity
  8
0
  6
Continuous
 62
   131
370
    15
100
AcDbSpline
210
0.0
220
0.0
230
1.0
 70
     8
 71
     3
 72
    10
 73
     6
 74
     0
 42
0.000000001
 43
0.00000001
 40
0.0
 40
0.0
 40
0.0
 40
0.0
 40
0.5
 40
0.5
 40
1.0
 40
1.0
 40
1.0
 40
1.0
 10
9.99999999999997
 20
5.918244438026269
 30
0.0
 10
9.833320703447823
 20
5.945690593778322
 30
0.0
 10
9.668305680956983
 20
5.966207763745505
 30
0.0
 10
9.335191063669162
 20
5.993515181152661
 30
0.0
 10
9.167671843798425
 20
6.000251915078201
 30
0.0
 10
9.000062406701366
 20
5.999992788962642
 30
0.0
  0
LINE
  5
D3
330
1F
100
AcDbEntity
  8
0
  6
Continuous
 62
   131
370
    15
100
AcDbLine
 10
9.00006240670138
 20
4.163487990889934
 30
0.0
 11
9.00006240670138
 21
5.999992764046607
 31
0.0
  0
SPLINE
  5
D4
330
1F
100
AcDbEntity
  8
0
  6
Continuous
 62
   131
370
    15
100
AcDbSpline
210
0.0
220
0.0
230
1.0
 70
     8
 71
     3
 72
    10
 73
     6
 74
     0
 42
0.000000001
 43
0.00000001
 40
0.0
 40
0.0
 40
0.0
 40
0.0
 40
0.5
 40
0.5
 40
1.0
 40
1.0
 40
1.0
 40
1.0
 10
9.999999999999963
 20
3.388326564001899
 30
0.0
 10
9.833320703447823
 20
3.526006373063517
 30
0.0
 10
9.668305680956998
 20
3.659313603570782
 30
0.0
 10
9.335191063669177
 20
3.917974902281448
 30
0.0
 10
9.16767184379843
 20
4.043155224151083
 30
0.0
 10
9.000062406701387
 20
4.16350315466114
 30
0.0
  0
SPLINE
  5
D5
330
1F
100
AcDbEntity
  8
0
  6
Continuous
 62
   131
370
    15
100
AcDbSpline
210
0.0
220
0.0
230
1.0
 70
     8
 71
     3
 72
    10
 73
     6
 74
     0
 42
0.000000001
 43
0.00000001
 40
0.0
 40
0.0
 40
0.0
 40
0.0
 40
0.5
 40
0.5
 40
1.0
 40
1.0
 40
1.0
 40
1.0
 10
9.99999999999997
 20
2.104261365523947
 30
0.0
 10
9.833320703447823
 20
2.260492774985595
 30
0.0
 10
9.668305680956983
 20
2.413773476203566
 30
0.0
 10
9.335191063669162
 20
2.715341082670919
 30
0.0
 10
9.167671843798425
 20
2.863437097639156
 30
0.0
 10
9.000062406701366
 20
3.008052404476205
 30
0.0
  0
LINE
  5
D6
330
1F
100
AcDbEntity
  8
0
  6
Continuous
 62
   131
370
    15
100
AcDbLine
 10
9.00006240670138
 20
-1.659783207755195
 30
0.0
 11
9.00006240670138
 21
3.008066297826421
 31
0.0
  0
SPLINE
  5
D7
330
1F
100
AcDbEntity
  8
0
  6
Continuous
 62
   131
370
    15
100
AcDbSpline
210
0.0
220
0.0
230
1.0
 70
     8
 71
     3
 72
    10
 73
     6
 74
     0
 42
0.000000001
 43
0.00000001
 40
0.0
 40
0.0
 40
0.0
 40
0.0
 40
0.5
 40
0.5
 40
1.0
 40
1.0
 40
1.0
 40
1.0
 10
9.999999999999963
 20
-2.594126857642088
 30
0.0
 10
9.833320703447823
 20
-2.443697763857687
 30
0.0
 10
9.668305680956998
 20
-2.290771741945728
 30
0.0
 10
9.335191063669177
 20
-1.979028282673994
 30
0.0
 10
9.16767184379843
 20
-1.820378010102549
 30
0.0
 10
9.000062406701387
 20
-1.659762970395442
 30
0.0
  0
SPLINE
  5
D8
330
1F
100
AcDbEntity
  8
0
  6
Continuous
 62
   131
370
    15
100
AcDbSpline
210
0.0
220
0.0
230
1.0
 70
     8
 71
     3
 72
    10
 73
     6
 74
     0
 42
0.000000001
 43
0.00000001
 40
0.0
 40
0.0
 40
0.0
 40
0.0
 40
0.5
 40
0.5
 40
1.0
 40
1.0
 40
1.0
 40
1.0
 10
9.99999999999997
 20
-3.813983072502312
 30
0.0
 10
9.833320703447823
 20
-3.685197818792718
 30
0.0
 10
9.668305680956983
 20
-3.552434287541932
 30
0.0
 10
9.335191063669162
 20
-3.278174098481738
 30
0.0
 10
9.167671843798425
 20
-3.136814817439042
 30
0.0
 10
9.000062406701366
 20
-2.991940384486434
 30
0.0
  0
LINE
  5
D9
330
1F
100
AcDbEntity
  8
0
  6
Continuous
 62
   131
370
    15
100
AcDbLine
 10
9.00006240670138
 20
-5.823271198645103
 30
0.0
 11
9.00006240670138
 21
-2.991926466220185
 31
0.0
  0
SPLINE
  5
DA
330
1F
100
AcDbEntity
  8
0
  6
Continuous
 62
   131
370
    15
100
AcDbSpline
210
0.0
220
0.0
230
1.0
 70
     8
 71
     3
 72
    10
 73
     6
 74
     0
 42
0.000000001
 43
0.00000001
 40
0.0
 40
0.0
 40
0.0
 40
0.0
 40
0.5
 40
0.5
 40
1.0
 40
1.0
 40
1.0
 40
1.0
 10
9.999999999999963
 20
-5.982453421643962
 30
0.0
 10
9.833320703447823
 20
-5.969704136921179
 30
0.0
 10
9.668305680956998
 20
-5.950085345516483
 30
0.0
 10
9.335191063669177
 20
-5.897003184955417
 30
0.0
 10
9.16767184379843
 20
-5.863533234253607
 30
0.0
 10
9.000062406701387
 20
-5.823266125056558
 30
0.0
  0
LINE
  5
DB
330
1F
100
AcDbEntity
  8
0
  6
Continuous
 62
   131
370
    15
100
AcDbLine
 10
-38.80000000000004
 20
-0.0000000000000207
 30
0.0
 11
-38.80000000000004
 21
5.99999999999998
 31
0.0
  0
LINE
  5
DC
330
1F
100
AcDbEntity
  8
0
  6
Continuous
 62
   131
370
    15
100
AcDbLine
 10
-38.80000000000004
 20
-6.00000000000002
 30
0.0
 11
-38.80000000000004
 21
-0.0000000000000207
 31
0.0
  0
LINE
  5
DD
330
1F
100
AcDbEntity
  8
0
  6
Continuous
 62
   131
370
    15
100
AcDbLine
 10
-40.00000000000004
 20
-0.0000000000000207
 30
0.0
 11
-40.00000000000004
 21
4.799999999999984
 31
0.0
  0
LINE
  5
DE
330
1F
100
AcDbEntity
  8
0
  6
Continuous
 62
   131
370
    15
100
AcDbLine
 10
-40.00000000000004
 20
-4.800000000000029
 30
0.0
 11
-40.00000000000004
 21
-0.0000000000000207
 31
0.0
  0
SPLINE
  5
DF
330
1F
100
AcDbEntity
  8
0
  6
Continuous
 62
   131
370
    15
100
AcDbSpline
210
0.0
220
0.0
230
1.0
 70
    24
 71
     3
 72
    24
 73
    20
 74
     0
 42
0.000000001
 43
0.00000001
 40
0.0
 40
0.0
 40
0.0
 40
0.0
 40
0.1250000000000002
 40
0.1250000000000002
 40
0.2500000000000003
 40
0.2500000000000003
 40
0.3750000000000004
 40
0.3750000000000004
 40
0.5000000000000004
 40
0.5000000000000004
 40
0.6250000000000004
 40
0.6250000000000004
 40
0.7500000000000006
 40
0.7500000000000006
 40
0.8125000000000004
 40
0.8125000000000004
 40
0.8750000000000002
 40
0.8750000000000002
 40
1.0
 40
1.0
 40
1.0
 40
1.0
 10
9.999999999999963
 20
-2.594126857641998
 30
0.0
 10
9.999999999999963
 20
-2.524144013166994
 30
0.0
 10
9.999999999999963
 20
-2.396310891173911
 30
0.0
 10
9.999999999999963
 20
-2.008717387338851
 30
0.0
 10
9.999999999999963
 20
-1.748369550191463
 30
0.0
 10
9.999999999999963
 20
-1.14625855508483
 30
0.0
 10
9.99999999999997
 20
-0.8067989599227353
 30
0.0
 10
9.999999999999991
 20
-0.143693226285858
 30
0.0
 10
9.999999999999963
 20
0.1779984274369894
 30
0.0
 10
9.999999999999957
 20
0.7406970717894815
 30
0.0
 10
9.999999999999984
 20
0.982150384709759
 30
0.0
 10
9.999999999999977
 20
1.377125791062513
 30
0.0
 10
9.99999999999997
 20
1.531673269193312
 30
0.0
 10
9.999999999999963
 20
1.713116718426058
 30
0.0
 10
9.999999999999963
 20
1.76530689602246
 30
0.0
 10
9.999999999999991
 20
1.855952596806662
 30
0.0
 10
9.999999999999977
 20
1.894201974249227
 30
0.0
 10
9.99999999999995
 20
2.005339187983049
 30
0.0
 10
9.999999999999929
 20
2.068658157256839
 30
0.0
 10
9.999999999999957
 20
2.104261365523969
 30
0.0
  0
SPLINE
  5
E0
330
1F
100
AcDbEntity
  8
0
  6
Continuous
 62
   131
370
    15
100
AcDbSpline
210
0.0
220
0.0
230
1.0
 70
    24
 71
     3
 72
    14
 73
    10
 74
     0
 42
0.000000001
 43
0.00000001
 40
0.0
 40
0.0
 40
0.0
 40
0.0
 40
0.0641524775612969
 40
0.2468831319856067
 40
0.4296137864099163
 40
0.6123444408342226
 40
0.7950750952585294
 40
0.977805749682838
 40
1.0
 40
1.0
 40
1.0
 40
1.0
 10
9.999999999999963
 20
-5.982453421643961
 30
0.0
 10
9.999999999999957
 20
-5.93671413817531
 30
0.0
 10
9.99999999999995
 20
-5.760691979923843
 30
0.0
 10
9.999999999999996
 20
-5.444470932565644
 30
0.0
 10
10.00000000000001
 20
-5.038862910874075
 30
0.0
 10
9.999999999999991
 20
-4.640120329801954
 30
0.0
 10
9.999999999999957
 20
-4.264756944970962
 30
0.0
 10
9.99999999999995
 20
-4.009676837363841
 30
0.0
 10
9.999999999999984
 20
-3.895650497659409
 30
0.0
 10
9.999999999999984
 20
-3.883300953667463
 30
0.0
  0
SPLINE
  5
E1
330
1F
100
AcDbEntity
  8
0
  6
Continuous
 62
   131
370
    15
100
AcDbSpline
210
0.0
220
0.0
230
1.0
 70
    24
 71
     3
 72
    19
 73
    15
 74
     0
 42
0.000000001
 43
0.00000001
 40
0.0
 40
0.0
 40
0.0
 40
0.0
 40
0.0167104096477488
 40
0.0949956495836852
 40
0.170530776541469
 40
0.3241673773070244
 40
0.4024526172428707
 40
0.477987744200935
 40
0.5540473246635279
 40
0.6317610024699409
 40
0.710046242405813
 40
0.7814197229039291
 40
0.9263217479605901
 40
1.0
 40
1.0
 40
1.0
 40
1.0
 10
9.999999999999957
 20
3.457644445167062
 30
0.0
 10
9.999999999999957
 20
3.468256950690819
 30
0.0
 10
9.999999999999977
 20
3.528587120757929
 30
0.0
 10
9.99999999999995
 20
3.648243286775466
 30
0.0
 10
9.999999999999991
 20
3.872352321227306
 30
0.0
 10
9.999999999999957
 20
4.115906479593687
 30
0.0
 10
9.999999999999922
 20
4.371069012950763
 30
0.0
 10
9.99999999999997
 20
4.56682136693307
 30
0.0
 10
9.999999999999943
 20
4.765482492414051
 30
0.0
 10
9.999999999999977
 20
4.968626120682904
 30
0.0
 10
9.999999999999929
 20
5.168354661135636
 30
0.0
 10
10.0
 20
5.425839705052649
 30
0.0
 10
9.999999999999929
 20
5.676664374492024
 30
0.0
 10
9.999999999999977
 20
5.857342205809442
 30
0.0
 10
9.999999999999977
 20
5.91824443802634
 30
0.0
  0
LINE
  5
E2
330
1F
100
AcDbEntity
  8
중심선
 62
     1
100
AcDbLine
 10
-43.20259277488957
 20
-0.0000000000000259
 30
0.0
 11
62.99999999999996
 21
0.0000000000000373
 31
0.0
  0
CIRCLE
  5
E3
330
1F
100
AcDbEntity
  8
외형선
100
AcDbCircle
 10
0.0
 20
0.0
 30
0.0
 40
3.000000000000001
  0
INSERT
  5
E4
330
1F
100
AcDbEntity
  8
0
  6
Continuous
 62
     7
100
AcDbBlockReference
 66
     1
  2
블럭10
 10
-18.94078629968147
 20
-52.04717430164396
 30
0.0
  0
ATTRIB
  5
E5
330
E4
100
AcDbEntity
  8
FORMAT
 62
     2
100
AcDbText
 10
-35.06004733911703
 20
-49.97180738881177
 30
0.0
 40
4.233333333333333
  1
SEME7512050E [ 6 FLUTE ]
 41
0.75
  7
SLDTEXTSTYLE0
 11
-35.06004733911703
 21
-52.08847405547844
 31
0.0
100
AcDbAttribute
  2
AUTOATTR0
 70
     0
 74
     1
  0
SEQEND
  5
E6
330
E4
100
AcDbEntity
  8
0
  6
Continuous
 62
     7
  0
HATCH
  5
E7
330
1F
100
AcDbEntity
  8
중심선
100
AcDbHatch
 10
0.0
 20
0.0
 30
0.0
210
0.0
220
0.0
230
1.0
  2
SOLID
 70
     1
 71
     0
 91
        1
 92
        0
 93
        4
 72
     1
 10
-13.22587699530062
 20
-35.80000000000002
 11
-16.6721522391379
 21
-35.80000000000002
 72
     1
 10
-16.6721522391379
 20
-35.80000000000002
 11
-18.80038209834193
 21
-38.33632558057262
 72
     1
 10
-18.80038209834193
 20
-38.33632558057262
 11
-15.35407376939149
 21
-38.33628615127013
 72
     1
 10
-15.35407376939149
 20
-38.33628615127013
 11
-13.22587699530062
 21
-35.80000000000002
 97
        0
 75
     0
 76
     1
 98
        1
 10
3.99865738838442
 20
-0.0010749287239138
  0
HATCH
  5
E8
330
1F
100
AcDbEntity
  8
중심선
100
AcDbHatch
 10
0.0
 20
0.0
 30
0.0
210
0.0
220
0.0
230
1.0
  2
SOLID
 70
     1
 71
     0
 91
        1
 92
        0
 93
        4
 72
     1
 10
-8.21311300426467
 20
-35.80000000000002
 11
-11.65938824810195
 21
-35.80000000000002
 72
     1
 10
-11.65938824810195
 20
-35.80000000000002
 11
-16.19052625645934
 21
-41.20000000000004
 72
     1
 10
-16.19052625645934
 20
-41.20000000000004
 11
-12.74425101262206
 21
-41.20000000000004
 72
     1
 10
-12.74425101262206
 20
-41.20000000000004
 11
-8.21311300426467
 21
-35.80000000000002
 97
        0
 75
     0
 76
     1
 98
        1
 10
3.99865738838442
 20
-0.0010749287239138
  0
HATCH
  5
E9
330
1F
100
AcDbEntity
  8
중심선
100
AcDbHatch
 10
0.0
 20
0.0
 30
0.0
210
0.0
220
0.0
230
1.0
  2
SOLID
 70
     1
 71
     0
 91
        1
 92
        0
 93
        4
 72
     1
 10
-3.200349013228775
 20
-35.80000000000005
 11
-6.64662425706589
 21
-35.80000000000002
 72
     1
 10
-6.64662425706589
 20
-35.80000000000002
 11
-13.69506115895514
 21
-44.20000000000004
 72
     1
 10
-13.69506115895514
 20
-44.20000000000004
 11
-10.24878591511786
 21
-44.20000000000004
 72
     1
 10
-10.24878591511786
 20
-44.20000000000004
 11
-3.200349013228774
 21
-35.80000000000005
 97
        0
 75
     0
 76
     1
 98
        1
 10
3.99865738838442
 20
-0.0010749287239138
  0
HATCH
  5
EA
330
1F
100
AcDbEntity
  8
중심선
100
AcDbHatch
 10
0.0
 20
0.0
 30
0.0
210
0.0
220
0.0
230
1.0
  2
SOLID
 70
     1
 71
     0
 91
        1
 92
        0
 93
        6
 72
     3
 10
1.599541417783425
 20
-40.00000000005129
 11
3.960054785062284
 21
1.540882976769353E-10
 40
0.3939339440162627
 50
17.09539180608438
 51
320.0019657685081
 73
     0
 72
     1
 10
3.28254107348402
 20
-38.58789400463832
 11
5.587842947185058
 21
-36.6535672945904
 72
     3
 10
1.599541417730578
 20
-40.00000000000017
 11
6.600054785286829
 21
-1.278976924368180E-13
 40
0.636358354079598
 50
39.99873849337411
 51
368.4976242363725
 73
     1
 72
     1
 10
8.024873909631188
 20
-39.03999999993005
 11
0.2796087245665007
 21
-39.03999999993002
 72
     1
 10
0.2796087245665007
 20
-39.03999999993002
 11
0.2795836801205667
 21
-40.95999999992993
 72
     1
 10
0.2795836801205667
 20
-40.95999999992993
 11
4.720963449592603
 21
-40.95999999992991
 97
        0
 75
     0
 76
     1
 98
        1
 10
3.99865738838442
 20
-0.0010749287239138
  0
DIMENSION
  5
EB
330
1F
100
AcDbEntity
  8
치수문자_일반주서
100
AcDbDimension
  2
_D
 10
-57.42890613132345
 20
-6.000000000000095
 30
0.0
 11
-57.42890613132347
 21
-0.0000000000000183
 31
0.0
 70
   160
  1
%%c<>
 71
     2
 42
12.00000000000001
 52
-270.0
  3
SLDDIMSTYLE0
100
AcDbAlignedDimension
 13
-38.80000000000003
 23
5.999999999999985
 33
0.0
 14
-38.80000000000003
 24
-6.000000000000026
 34
0.0
 50
90.0000000000002
100
AcDbRotatedDimension
  0
DIMENSION
  5
F9
330
1F
100
AcDbEntity
  8
치수문자_일반주서
100
AcDbDimension
  2
_D_1
 10
69.99999999999997
 20
-5.999999999999986
 30
0.0
 11
69.99999999999994
 21
0.7913169001151714
 31
0.0
 70
   160
  1
%%c<>
 71
     2
 42
12.00000000000001
 52
-270.0
  3
SLDDIMSTYLE0
100
AcDbAlignedDimension
 13
59.99999999999997
 23
5.999999999999981
 33
0.0
 14
59.99999999999997
 24
-6.000000000000024
 34
0.0
 50
90.0000000000002
100
AcDbRotatedDimension
  0
DIMENSION
  5
106
330
1F
100
AcDbEntity
  8
치수문자_일반주서
100
AcDbDimension
  2
_D_2
 10
59.99999999999997
 20
49.47729404028571
 30
0.0
 11
30.46249388206542
 21
49.47729404028571
 31
0.0
 70
   160
  1
<>
 71
     2
 42
50.00000000000001
  3
SLDDIMSTYLE1
100
AcDbAlignedDimension
 13
9.999999999999963
 23
5.982453421643917
 33
0.0
 14
59.99999999999997
 24
5.956215305426007
 34
0.0
 50
-0.0000000000000081
100
AcDbRotatedDimension
  0
DIMENSION
  5
111
330
1F
100
AcDbEntity
  8
치수문자_일반주서
100
AcDbDimension
  2
_D_3
 10
-40.00000000000004
 20
76.90089796629564
 30
0.0
 11
13.09816319842714
 21
76.90089796629564
 31
0.0
 70
   160
  1
<>
 71
     2
 42
100.0
  3
SLDDIMSTYLE1
100
AcDbAlignedDimension
 13
59.99999999999997
 23
5.956215305426007
 33
0.0
 14
-40.00000000000004
 24
4.799999999999983
 34
0.0
100
AcDbRotatedDimension
  0
INSERT
  5
121
330
1F
100
AcDbEntity
  8
외형선
100
AcDbBlockReference
  2
SW_DOWELSYMBOL_0
 10
0.0
 20
0.0
 30
0.0
  0
ENDSEC
  0
SECTION
  2
OBJECTS
  0
DICTIONARY
  5
C
330
0
100
AcDbDictionary
281
     1
  3
ACAD_GROUP
350
D
  3
ACAD_IMAGE_VARS
350
145
  3
ACAD_LAYOUT
350
1A
  3
ACAD_MLINESTYLE
350
17
  3
ACAD_PLOTSETTINGS
350
19
  3
ACAD_PLOTSTYLENAME
350
E
  3
ACAD_SCALELIST
350
47
  3
APPDATA
350
143
  3
DWGPROPS
350
14E
  0
DICTIONARY
  5
D
102
{ACAD_REACTORS
330
C
102
}
330
C
100
AcDbDictionary
281
     1
  0
RASTERVARIABLES
  5
145
102
{ACAD_REACTORS
330
C
102
}
330
C
100
AcDbRasterVariables
 90
        0
 70
     1
 71
     1
 72
     1
  0
DICTIONARY
  5
1A
102
{ACAD_REACTORS
330
C
102
}
330
C
100
AcDbDictionary
281
     1
  3
Layout1
350
1E
  3
Layout2
350
26
  3
Model
350
22
  0
DICTIONARY
  5
17
102
{ACAD_REACTORS
330
C
102
}
330
C
100
AcDbDictionary
281
     1
  3
Standard
350
18
  0
DICTIONARY
  5
19
102
{ACAD_REACTORS
330
C
102
}
330
C
100
AcDbDictionary
281
     1
  0
ACDBDICTIONARYWDFLT
  5
E
102
{ACAD_REACTORS
330
C
102
}
330
C
100
AcDbDictionary
281
     1
  3
Normal
350
F
100
AcDbDictionaryWithDefault
340
F
  0
DICTIONARY
  5
47
102
{ACAD_REACTORS
330
C
102
}
330
C
100
AcDbDictionary
281
     1
  3
A0
350
48
  3
A1
350
49
  3
A2
350
4A
  3
A3
350
4B
  3
A4
350
4C
  3
A5
350
4D
  3
A6
350
4E
  3
A7
350
4F
  3
A8
350
50
  3
A9
350
51
  3
B0
350
52
  3
B1
350
53
  3
B2
350
54
  3
B3
350
55
  3
B4
350
56
  3
B5
350
57
  3
B6
350
58
  3
B7
350
59
  3
B8
350
5A
  3
B9
350
5B
  3
C0
350
5C
  3
C1
350
5D
  3
C2
350
5E
  3
C3
350
5F
  3
C4
350
60
  3
C5
350
61
  3
C6
350
62
  3
C7
350
63
  3
C8
350
64
  3
C9
350
65
  3
D0
350
66
  3
D1
350
67
  3
D2
350
68
  0
DICTIONARY
  5
143
102
{ACAD_REACTORS
330
C
102
}
330
C
100
AcDbDictionary
281
     1
  0
XRECORD
  5
14E
102
{ACAD_REACTORS
330
C
102
}
330
C
100
AcDbXrecord
280
     1
  1
DWGPROPS COOKIE
  2

  3

  4

  6

  7

  8
12016016
  9

300
=
301
=
302
=
303
=
304
=
305
=
306
=
307
=
308
=
309
=
 40
0.0
 41
2458268.396901053
 42
2458270.004475949
  1

 90
        0
  0
LAYOUT
  5
1E
102
{ACAD_REACTORS
330
1A
102
}
330
1A
100
AcDbPlotSettings
  1

  2
none_device
  4

  6

 40
0.0
 41
0.0
 42
0.0
 43
0.0
 44
0.0
 45
0.0
 46
0.0
 47
0.0
 48
0.0
 49
0.0
140
0.0
141
0.0
142
1.0
143
1.0
 70
   688
 72
     1
 73
     0
 74
     5
  7

 75
    16
147
1.0
148
0.0
149
0.0
100
AcDbLayout
  1
Layout1
 70
     1
 71
     1
 10
0.0
 20
0.0
 11
420.0
 21
297.0
 12
0.0
 22
0.0
 32
0.0
 14
1.000000000000000E+20
 24
1.000000000000000E+20
 34
1.000000000000000E+20
 15
-1.000000000000000E+20
 25
-1.000000000000000E+20
 35
-1.000000000000000E+20
146
0.0
 13
0.0
 23
0.0
 33
0.0
 16
1.0
 26
0.0
 36
0.0
 17
0.0
 27
1.0
 37
0.0
 76
     0
330
1B
  0
LAYOUT
  5
26
102
{ACAD_REACTORS
330
1A
102
}
330
1A
100
AcDbPlotSettings
  1

  2
none_device
  4

  6

 40
0.0
 41
0.0
 42
0.0
 43
0.0
 44
0.0
 45
0.0
 46
0.0
 47
0.0
 48
0.0
 49
0.0
140
0.0
141
0.0
142
1.0
143
1.0
 70
   688
 72
     1
 73
     0
 74
     5
  7

 75
    16
147
1.0
148
0.0
149
0.0
100
AcDbLayout
  1
Layout2
 70
     1
 71
     2
 10
0.0
 20
0.0
 11
0.0
 21
0.0
 12
0.0
 22
0.0
 32
0.0
 14
0.0
 24
0.0
 34
0.0
 15
0.0
 25
0.0
 35
0.0
146
0.0
 13
0.0
 23
0.0
 33
0.0
 16
1.0
 26
0.0
 36
0.0
 17
0.0
 27
1.0
 37
0.0
 76
     0
330
23
  0
LAYOUT
  5
22
102
{ACAD_REACTORS
330
1A
102
}
330
1A
100
AcDbPlotSettings
  1

  2
none_device
  4
ANSI_A_(11.00_x_8.50_Inches)
  6

 40
6.35
 41
19.05
 42
6.35000508
 43
19.05000254
 44
279.4
 45
215.9
 46
132.5342276855828
 47
64.06946629632628
 48
0.0
 49
0.0
140
0.0
141
0.0
142
0.0636880450381154
143
1.0
 70
  1696
 72
     0
 73
     0
 74
     0
  7

 75
     0
147
0.0235690232323232
148
0.0
149
0.0
100
AcDbLayout
  1
Model
 70
     1
 71
     0
 10
0.0
 20
0.0
 11
420.0
 21
297.0
 12
0.0
 22
0.0
 32
0.0
 14
-61.80390613132349
 24
-49.97180738881177
 34
0.0
 15
70.55033333333328
 25
81.27589796629564
 35
0.0
146
0.0
 13
0.0
 23
0.0
 33
0.0
 16
1.0
 26
0.0
 36
0.0
 17
0.0
 27
1.0
 37
0.0
 76
     0
330
1F
331
29
  0
MLINESTYLE
  5
18
102
{ACAD_REACTORS
330
17
102
}
330
17
100
AcDbMlineStyle
  2
Standard
 70
     0
  3

 62
   256
 51
90.0
 52
90.0
 71
     2
 49
0.5
 62
   256
  6
BYLAYER
 49
-0.5
 62
   256
  6
BYLAYER
  0
ACDBPLACEHOLDER
  5
F
102
{ACAD_REACTORS
330
E
102
}
330
E
  0
SCALE
  5
48
102
{ACAD_REACTORS
330
47
102
}
330
47
100
AcDbScale
 70
     0
300
1:1
140
1.0
141
1.0
290
     1
  0
SCALE
  5
49
102
{ACAD_REACTORS
330
47
102
}
330
47
100
AcDbScale
 70
     0
300
1:2
140
1.0
141
2.0
290
     0
  0
SCALE
  5
4A
102
{ACAD_REACTORS
330
47
102
}
330
47
100
AcDbScale
 70
     0
300
1:4
140
1.0
141
4.0
290
     0
  0
SCALE
  5
4B
102
{ACAD_REACTORS
330
47
102
}
330
47
100
AcDbScale
 70
     0
300
1:5
140
1.0
141
5.0
290
     0
  0
SCALE
  5
4C
102
{ACAD_REACTORS
330
47
102
}
330
47
100
AcDbScale
 70
     0
300
1:8
140
1.0
141
8.0
290
     0
  0
SCALE
  5
4D
102
{ACAD_REACTORS
330
47
102
}
330
47
100
AcDbScale
 70
     0
300
1:10
140
1.0
141
10.0
290
     0
  0
SCALE
  5
4E
102
{ACAD_REACTORS
330
47
102
}
330
47
100
AcDbScale
 70
     0
300
1:16
140
1.0
141
16.0
290
     0
  0
SCALE
  5
4F
102
{ACAD_REACTORS
330
47
102
}
330
47
100
AcDbScale
 70
     0
300
1:20
140
1.0
141
20.0
290
     0
  0
SCALE
  5
50
102
{ACAD_REACTORS
330
47
102
}
330
47
100
AcDbScale
 70
     0
300
1:30
140
1.0
141
30.0
290
     0
  0
SCALE
  5
51
102
{ACAD_REACTORS
330
47
102
}
330
47
100
AcDbScale
 70
     0
300
1:40
140
1.0
141
40.0
290
     0
  0
SCALE
  5
52
102
{ACAD_REACTORS
330
47
102
}
330
47
100
AcDbScale
 70
     0
300
1:50
140
1.0
141
50.0
290
     0
  0
SCALE
  5
53
102
{ACAD_REACTORS
330
47
102
}
330
47
100
AcDbScale
 70
     0
300
1:100
140
1.0
141
100.0
290
     0
  0
SCALE
  5
54
102
{ACAD_REACTORS
330
47
102
}
330
47
100
AcDbScale
 70
     0
300
2:1
140
2.0
141
1.0
290
     0
  0
SCALE
  5
55
102
{ACAD_REACTORS
330
47
102
}
330
47
100
AcDbScale
 70
     0
300
4:1
140
4.0
141
1.0
290
     0
  0
SCALE
  5
56
102
{ACAD_REACTORS
330
47
102
}
330
47
100
AcDbScale
 70
     0
300
8:1
140
8.0
141
1.0
290
     0
  0
SCALE
  5
57
102
{ACAD_REACTORS
330
47
102
}
330
47
100
AcDbScale
 70
     0
300
10:1
140
10.0
141
1.0
290
     0
  0
SCALE
  5
58
102
{ACAD_REACTORS
330
47
102
}
330
47
100
AcDbScale
 70
     0
300
100:1
140
100.0
141
1.0
290
     0
  0
SCALE
  5
59
102
{ACAD_REACTORS
330
47
102
}
330
47
100
AcDbScale
 70
     0
300
1/128" = 1'-0"
140
0.0078125
141
12.0
290
     0
  0
SCALE
  5
5A
102
{ACAD_REACTORS
330
47
102
}
330
47
100
AcDbScale
 70
     0
300
1/64" = 1'-0"
140
0.015625
141
12.0
290
     0
  0
SCALE
  5
5B
102
{ACAD_REACTORS
330
47
102
}
330
47
100
AcDbScale
 70
     0
300
1/32" = 1'-0"
140
0.03125
141
12.0
290
     0
  0
SCALE
  5
5C
102
{ACAD_REACTORS
330
47
102
}
330
47
100
AcDbScale
 70
     0
300
1/16" = 1'-0"
140
0.0625
141
12.0
290
     0
  0
SCALE
  5
5D
102
{ACAD_REACTORS
330
47
102
}
330
47
100
AcDbScale
 70
     0
300
3/32" = 1'-0"
140
0.09375
141
12.0
290
     0
  0
SCALE
  5
5E
102
{ACAD_REACTORS
330
47
102
}
330
47
100
AcDbScale
 70
     0
300
1/8" = 1'-0"
140
0.125
141
12.0
290
     0
  0
SCALE
  5
5F
102
{ACAD_REACTORS
330
47
102
}
330
47
100
AcDbScale
 70
     0
300
3/16" = 1'-0"
140
0.1875
141
12.0
290
     0
  0
SCALE
  5
60
102
{ACAD_REACTORS
330
47
102
}
330
47
100
AcDbScale
 70
     0
300
1/4" = 1'-0"
140
0.25
141
12.0
290
     0
  0
SCALE
  5
61
102
{ACAD_REACTORS
330
47
102
}
330
47
100
AcDbScale
 70
     0
300
3/8" = 1'-0"
140
0.375
141
12.0
290
     0
  0
SCALE
  5
62
102
{ACAD_REACTORS
330
47
102
}
330
47
100
AcDbScale
 70
     0
300
1/2" = 1'-0"
140
0.5
141
12.0
290
     0
  0
SCALE
  5
63
102
{ACAD_REACTORS
330
47
102
}
330
47
100
AcDbScale
 70
     0
300
3/4" = 1'-0"
140
0.75
141
12.0
290
     0
  0
SCALE
  5
64
102
{ACAD_REACTORS
330
47
102
}
330
47
100
AcDbScale
 70
     0
300
1" = 1'-0"
140
1.0
141
12.0
290
     0
  0
SCALE
  5
65
102
{ACAD_REACTORS
330
47
102
}
330
47
100
AcDbScale
 70
     0
300
1-1/2" = 1'-0"
140
1.5
141
12.0
290
     0
  0
SCALE
  5
66
102
{ACAD_REACTORS
330
47
102
}
330
47
100
AcDbScale
 70
     0
300
3" = 1'-0"
140
3.0
141
12.0
290
     0
  0
SCALE
  5
67
102
{ACAD_REACTORS
330
47
102
}
330
47
100
AcDbScale
 70
     0
300
6" = 1'-0"
140
6.0
141
12.0
290
     0
  0
SCALE
  5
68
102
{ACAD_REACTORS
330
47
102
}
330
47
100
AcDbScale
 70
     0
300
1'-0" = 1'-0"
140
12.0
141
12.0
290
     0
  0
ENDSEC
  0
EOF
