  0
SECTION
  2
HEADER
  9
$ACADVER
  1
AC1015
  9
$ACADMAINTVER
 70
     6
  9
$DWGCODEPAGE
  3
ANSI_949
  9
$INSBASE
 10
0.0
 20
0.0
 30
0.0
  9
$EXTMIN
 10
-101.8039061313234
 20
-49.97073246008785
 30
0.0
  9
$EXTMAX
 10
80.55033333333331
 20
81.27589796629563
 30
0.0
  9
$LIMMIN
 10
0.0
 20
0.0
  9
$LIMMAX
 10
420.0
 20
297.0
  9
$ORTHOMODE
 70
     1
  9
$REGENMODE
 70
     1
  9
$FILLMODE
 70
     1
  9
$QTEXTMODE
 70
     0
  9
$MIRRTEXT
 70
     1
  9
$LTSCALE
 40
1.0
  9
$ATTMODE
 70
     1
  9
$TEXTSIZE
 40
3.5
  9
$TRACEWID
 40
1.0
  9
$TEXTSTYLE
  7
Standard
  9
$CLAYER
  8
0
  9
$CELTYPE
  6
ByLayer
  9
$CECOLOR
 62
   256
  9
$CELTSCALE
 40
1.0
  9
$DISPSILH
 70
     0
  9
$DIMSCALE
 40
1.0
  9
$DIMASZ
 40
3.302
  9
$DIMEXO
 40
1.0
  9
$DIMDLI
 40
3.75
  9
$DIMRND
 40
0.0
  9
$DIMDLE
 40
0.0
  9
$DIMEXE
 40
1.0
  9
$DIMTP
 40
0.0
  9
$DIMTM
 40
0.0
  9
$DIMTXT
 40
3.5
  9
$DIMCEN
 40
2.5
  9
$DIMTSZ
 40
0.0
  9
$DIMTOL
 70
     0
  9
$DIMLIM
 70
     0
  9
$DIMTIH
 70
     1
  9
$DIMTOH
 70
     1
  9
$DIMSE1
 70
     0
  9
$DIMSE2
 70
     0
  9
$DIMTAD
 70
     1
  9
$DIMZIN
 70
     0
  9
$DIMBLK
  1

  9
$DIMASO
 70
     1
  9
$DIMSHO
 70
     1
  9
$DIMPOST
  1

  9
$DIMAPOST
  1

  9
$DIMALT
 70
     0
  9
$DIMALTD
 70
     3
  9
$DIMALTF
 40
0.0393700787401575
  9
$DIMLFAC
 40
1.0
  9
$DIMTOFL
 70
     1
  9
$DIMTVP
 40
0.0
  9
$DIMTIX
 70
     0
  9
$DIMSOXD
 70
     0
  9
$DIMSAH
 70
     0
  9
$DIMBLK1
  1

  9
$DIMBLK2
  1

  9
$DIMSTYLE
  2
ISO-25
  9
$DIMCLRD
 70
     0
  9
$DIMCLRE
 70
     0
  9
$DIMCLRT
 70
     0
  9
$DIMTFAC
 40
1.0
  9
$DIMGAP
 40
1.524
  9
$DIMJUST
 70
     0
  9
$DIMSD1
 70
     0
  9
$DIMSD2
 70
     0
  9
$DIMTOLJ
 70
     0
  9
$DIMTZIN
 70
     0
  9
$DIMALTZ
 70
     0
  9
$DIMALTTZ
 70
     0
  9
$DIMUPT
 70
     0
  9
$DIMDEC
 70
     2
  9
$DIMTDEC
 70
     2
  9
$DIMALTU
 70
     2
  9
$DIMALTTD
 70
     3
  9
$DIMTXSTY
  7
Standard
  9
$DIMAUNIT
 70
     0
  9
$DIMADEC
 70
     2
  9
$DIMALTRND
 40
0.0
  9
$DIMAZIN
 70
     0
  9
$DIMDSEP
 70
    44
  9
$DIMATFIT
 70
     3
  9
$DIMFRAC
 70
     0
  9
$DIMLDRBLK
  1

  9
$DIMLUNIT
 70
     2
  9
$DIMLWD
 70
    -2
  9
$DIMLWE
 70
    -2
  9
$DIMTMOVE
 70
     0
  9
$LUNITS
 70
     2
  9
$LUPREC
 70
     2
  9
$SKETCHINC
 40
1.0
  9
$FILLETRAD
 40
10.0
  9
$AUNITS
 70
     0
  9
$AUPREC
 70
     2
  9
$MENU
  1
.
  9
$ELEVATION
 40
0.0
  9
$PELEVATION
 40
0.0
  9
$THICKNESS
 40
0.0
  9
$LIMCHECK
 70
     0
  9
$CHAMFERA
 40
0.0
  9
$CHAMFERB
 40
0.0
  9
$CHAMFERC
 40
0.0
  9
$CHAMFERD
 40
0.0
  9
$SKPOLY
 70
     0
  9
$TDCREATE
 40
2458268.772088901
  9
$TDUCREATE
 40
2458268.397088901
  9
$TDUPDATE
 40
2458270.370593264
  9
$TDUUPDATE
 40
2458269.995593264
  9
$TDINDWG
 40
0.0009785185
  9
$TDUSRTIMER
 40
2458269.994615011
  9
$USRTIMER
 70
     1
  9
$ANGBASE
 50
0.0
  9
$ANGDIR
 70
     0
  9
$PDMODE
 70
     0
  9
$PDSIZE
 40
-1.0
  9
$PLINEWID
 40
0.0
  9
$SPLFRAME
 70
     0
  9
$SPLINETYPE
 70
     6
  9
$SPLINESEGS
 70
     8
  9
$HANDSEED
  5
15D
  9
$SURFTAB1
 70
     6
  9
$SURFTAB2
 70
     6
  9
$SURFTYPE
 70
     6
  9
$SURFU
 70
     6
  9
$SURFV
 70
     6
  9
$UCSBASE
  2

  9
$UCSNAME
  2

  9
$UCSORG
 10
0.0
 20
0.0
 30
0.0
  9
$UCSXDIR
 10
1.0
 20
0.0
 30
0.0
  9
$UCSYDIR
 10
0.0
 20
1.0
 30
0.0
  9
$UCSORTHOREF
  2

  9
$UCSORTHOVIEW
 70
     0
  9
$UCSORGTOP
 10
0.0
 20
0.0
 30
0.0
  9
$UCSORGBOTTOM
 10
0.0
 20
0.0
 30
0.0
  9
$UCSORGLEFT
 10
0.0
 20
0.0
 30
0.0
  9
$UCSORGRIGHT
 10
0.0
 20
0.0
 30
0.0
  9
$UCSORGFRONT
 10
0.0
 20
0.0
 30
0.0
  9
$UCSORGBACK
 10
0.0
 20
0.0
 30
0.0
  9
$PUCSBASE
  2

  9
$PUCSNAME
  2

  9
$PUCSORG
 10
0.0
 20
0.0
 30
0.0
  9
$PUCSXDIR
 10
1.0
 20
0.0
 30
0.0
  9
$PUCSYDIR
 10
0.0
 20
1.0
 30
0.0
  9
$PUCSORTHOREF
  2

  9
$PUCSORTHOVIEW
 70
     0
  9
$PUCSORGTOP
 10
0.0
 20
0.0
 30
0.0
  9
$PUCSORGBOTTOM
 10
0.0
 20
0.0
 30
0.0
  9
$PUCSORGLEFT
 10
0.0
 20
0.0
 30
0.0
  9
$PUCSORGRIGHT
 10
0.0
 20
0.0
 30
0.0
  9
$PUCSORGFRONT
 10
0.0
 20
0.0
 30
0.0
  9
$PUCSORGBACK
 10
0.0
 20
0.0
 30
0.0
  9
$USERI1
 70
     0
  9
$USERI2
 70
     0
  9
$USERI3
 70
     0
  9
$USERI4
 70
     0
  9
$USERI5
 70
     0
  9
$USERR1
 40
0.0
  9
$USERR2
 40
0.0
  9
$USERR3
 40
0.0
  9
$USERR4
 40
0.0
  9
$USERR5
 40
0.0
  9
$WORLDVIEW
 70
     1
  9
$SHADEDGE
 70
     3
  9
$SHADEDIF
 70
    70
  9
$TILEMODE
 70
     1
  9
$MAXACTVP
 70
    64
  9
$PINSBASE
 10
0.0
 20
0.0
 30
0.0
  9
$PLIMCHECK
 70
     0
  9
$PEXTMIN
 10
1.000000000000000E+20
 20
1.000000000000000E+20
 30
1.000000000000000E+20
  9
$PEXTMAX
 10
-1.000000000000000E+20
 20
-1.000000000000000E+20
 30
-1.000000000000000E+20
  9
$PLIMMIN
 10
0.0
 20
0.0
  9
$PLIMMAX
 10
0.0
 20
0.0
  9
$UNITMODE
 70
     0
  9
$VISRETAIN
 70
     1
  9
$PLINEGEN
 70
     0
  9
$PSLTSCALE
 70
     1
  9
$TREEDEPTH
 70
  3020
  9
$CMLSTYLE
  2
Standard
  9
$CMLJUST
 70
     0
  9
$CMLSCALE
 40
20.0
  9
$PROXYGRAPHICS
 70
     1
  9
$MEASUREMENT
 70
     1
  9
$CELWEIGHT
370
    -1
  9
$ENDCAPS
280
     0
  9
$JOINSTYLE
280
     0
  9
$LWDISPLAY
290
     1
  9
$INSUNITS
 70
     4
  9
$HYPERLINKBASE
  1

  9
$STYLESHEET
  1

  9
$XEDIT
290
     1
  9
$CEPSNTYPE
380
     0
  9
$PSTYLEMODE
290
     1
  9
$FINGERPRINTGUID
  2
{FA73F9A7-BB27-46E5-95D0-724AA69843E0}
  9
$VERSIONGUID
  2
{FAEB1C32-E019-11D5-929B-00C0DF256EC4}
  9
$EXTNAMES
290
     1
  9
$PSVPSCALE
 40
0.0
  9
$OLESTARTUP
290
     0
  0
ENDSEC
  0
SECTION
  2
CLASSES
  0
CLASS
  1
ACDBDICTIONARYWDFLT
  2
AcDbDictionaryWithDefault
  3
ObjectDBX Classes
 90
        0
280
     0
281
     0
  0
CLASS
  1
VISUALSTYLE
  2
AcDbVisualStyle
  3
ObjectDBX Classes
 90
     4095
280
     0
281
     0
  0
CLASS
  1
MATERIAL
  2
AcDbMaterial
  3
ObjectDBX Classes
 90
     1153
280
     0
281
     0
  0
CLASS
  1
SCALE
  2
AcDbScale
  3
ObjectDBX Classes
 90
     1153
280
     0
281
     0
  0
CLASS
  1
SUN
  2
AcDbSun
  3
SCENEOE
 90
     1153
280
     0
281
     0
  0
CLASS
  1
ACDBPLACEHOLDER
  2
AcDbPlaceHolder
  3
ObjectDBX Classes
 90
        0
280
     0
281
     0
  0
CLASS
  1
LAYOUT
  2
AcDbLayout
  3
ObjectDBX Classes
 90
        0
280
     0
281
     0
  0
CLASS
  1
TABLESTYLE
  2
AcDbTableStyle
  3
ObjectDBX Classes
 90
     4095
280
     0
281
     0
  0
CLASS
  1
MLEADERSTYLE
  2
AcDbMLeaderStyle
  3
ACDB_MLEADERSTYLE_CLASS
 90
     4095
280
     0
281
     0
  0
CLASS
  1
RASTERVARIABLES
  2
AcDbRasterVariables
  3
ISM
 90
        0
280
     0
281
     0
  0
ENDSEC
  0
SECTION
  2
TABLES
  0
TABLE
  2
VPORT
  5
8
330
0
100
AcDbSymbolTable
 70
     1
  0
VPORT
  5
29
330
8
100
AcDbSymbolTableRecord
100
AcDbViewportTableRecord
  2
*Active
 70
     0
 10
0.0
 20
0.0
 11
1.0
 21
1.0
 12
25.47235826577914
 22
-8.76534133097379
 13
0.0
 23
0.0
 14
10.0
 24
10.0
 15
10.0
 25
10.0
 16
0.0
 26
0.0
 36
1.0
 17
0.0
 27
0.0
 37
0.0
 40
108.9361621552219
 41
1.627413127413127
 42
50.0
 43
0.0
 44
0.0
 50
0.0
 51
0.0
 71
    16
 72
  2000
 73
     1
 74
     3
 75
     0
 76
     0
 77
     0
 78
     0
281
     0
 65
     1
110
0.0
120
0.0
130
0.0
111
1.0
121
0.0
131
0.0
112
0.0
122
1.0
132
0.0
 79
     0
146
0.0
  0
ENDTAB
  0
TABLE
  2
LTYPE
  5
5
330
0
100
AcDbSymbolTable
 70
     6
  0
LTYPE
  5
14
330
5
100
AcDbSymbolTableRecord
100
AcDbLinetypeTableRecord
  2
ByBlock
 70
     0
  3

 72
    65
 73
     0
 40
0.0
  0
LTYPE
  5
15
330
5
100
AcDbSymbolTableRecord
100
AcDbLinetypeTableRecord
  2
ByLayer
 70
     0
  3

 72
    65
 73
     0
 40
0.0
  0
LTYPE
  5
16
330
5
100
AcDbSymbolTableRecord
100
AcDbLinetypeTableRecord
  2
Continuous
 70
     0
  3
Solid line
 72
    65
 73
     0
 40
0.0
  0
LTYPE
  5
6A
330
5
100
AcDbSymbolTableRecord
100
AcDbLinetypeTableRecord
  2
HIDDEN
 70
     0
  3
Hidden __ __ __ __ __ __ __ __ __ __ __ __ __ __
 72
    65
 73
     2
 40
1.905
 49
1.27
 74
     0
 49
-0.635
 74
     0
  0
LTYPE
  5
6B
330
5
100
AcDbSymbolTableRecord
100
AcDbLinetypeTableRecord
  2
PHANTOM
 70
     0
  3
Phantom ______  __  __  ______  __  __  ______
 72
    65
 73
     6
 40
12.7
 49
6.35
 74
     0
 49
-1.27
 74
     0
 49
1.27
 74
     0
 49
-1.27
 74
     0
 49
1.27
 74
     0
 49
-1.27
 74
     0
  0
LTYPE
  5
6C
330
5
100
AcDbSymbolTableRecord
100
AcDbLinetypeTableRecord
  2
CENTER
 70
     0
  3
Center ____ _ ____ _ ____ _ ____ _ ____ _ ____
 72
    65
 73
     4
 40
10.16
 49
6.35
 74
     0
 49
-1.27
 74
     0
 49
1.27
 74
     0
 49
-1.27
 74
     0
  0
LTYPE
  5
6D
330
5
100
AcDbSymbolTableRecord
100
AcDbLinetypeTableRecord
  2
CENTERX2
 70
     0
  3
Center (2x) ________  __  ________  __  _____
 72
    65
 73
     4
 40
20.32
 49
12.7
 74
     0
 49
-2.54
 74
     0
 49
2.54
 74
     0
 49
-2.54
 74
     0
  0
LTYPE
  5
6E
330
5
100
AcDbSymbolTableRecord
100
AcDbLinetypeTableRecord
  2
DOT2
 70
     0
  3
Dot (.5x) ........................................
 72
    65
 73
     2
 40
0.635
 49
0.0
 74
     0
 49
-0.635
 74
     0
  0
ENDTAB
  0
TABLE
  2
LAYER
  5
2
330
0
100
AcDbSymbolTable
 70
    17
  0
LAYER
  5
10
330
2
100
AcDbSymbolTableRecord
100
AcDbLayerTableRecord
  2
0
 70
     0
 62
     7
  6
Continuous
370
    -3
390
F
  0
LAYER
  5
6F
330
2
100
AcDbSymbolTableRecord
100
AcDbLayerTableRecord
  2
FORMAT
 70
     0
 62
     2
  6
Continuous
370
    -3
390
F
  0
LAYER
  5
70
330
2
100
AcDbSymbolTableRecord
100
AcDbLayerTableRecord
  2
외형선
 70
     0
 62
   100
  6
Continuous
370
    30
390
F
  0
LAYER
  5
71
330
2
100
AcDbSymbolTableRecord
100
AcDbLayerTableRecord
  2
숨은선
 70
     0
 62
     2
  6
HIDDEN
370
    15
390
F
  0
LAYER
  5
72
330
2
100
AcDbSymbolTableRecord
100
AcDbLayerTableRecord
  2
중심선
 70
     0
 62
     1
  6
CENTERX2
370
    -3
390
F
  0
LAYER
  5
73
330
2
100
AcDbSymbolTableRecord
100
AcDbLayerTableRecord
  2
파단선
 70
     0
 62
     4
  6
Continuous
370
    -3
390
F
  0
LAYER
  5
74
330
2
100
AcDbSymbolTableRecord
100
AcDbLayerTableRecord
  2
해칭선
 70
     0
 62
     4
  6
Continuous
370
    -3
390
F
  0
LAYER
  5
75
330
2
100
AcDbSymbolTableRecord
100
AcDbLayerTableRecord
  2
가는실선
 70
     0
 62
     4
  6
Continuous
370
    -3
390
F
  0
LAYER
  5
76
330
2
100
AcDbSymbolTableRecord
100
AcDbLayerTableRecord
  2
치수_보조선
 70
     0
 62
     4
  6
Continuous
370
    -3
390
F
  0
LAYER
  5
77
330
2
100
AcDbSymbolTableRecord
100
AcDbLayerTableRecord
  2
치수문자_일반주서
 70
     0
 62
     7
  6
Continuous
370
    15
390
F
  0
LAYER
  5
78
330
2
100
AcDbSymbolTableRecord
100
AcDbLayerTableRecord
  2
개별주서
 70
     0
 62
   100
  6
Continuous
370
    30
390
F
  0
LAYER
  5
79
330
2
100
AcDbSymbolTableRecord
100
AcDbLayerTableRecord
  2
중간선
 70
     0
 62
     2
  6
Continuous
370
    15
390
F
  0
LAYER
  5
7A
330
2
100
AcDbSymbolTableRecord
100
AcDbLayerTableRecord
  2
윤곽선
 70
     0
 62
     3
  6
Continuous
370
    40
390
F
  0
LAYER
  5
7B
330
2
100
AcDbSymbolTableRecord
100
AcDbLayerTableRecord
  2
중심마크
 70
     0
 62
   100
  6
Continuous
370
    30
390
F
  0
LAYER
  5
7C
330
2
100
AcDbSymbolTableRecord
100
AcDbLayerTableRecord
  2
가상선
 70
     0
 62
     4
  6
PHANTOM
370
    -3
390
F
  0
LAYER
  5
7D
330
2
100
AcDbSymbolTableRecord
100
AcDbLayerTableRecord
  2
특수지정선
 70
     0
 62
     5
  6
CENTERX2
370
    60
390
F
  0
LAYER
  5
154
330
2
100
AcDbSymbolTableRecord
100
AcDbLayerTableRecord
  2
Defpoints
 70
     0
 62
     7
  6
Continuous
290
     0
370
    -3
390
F
  0
ENDTAB
  0
TABLE
  2
STYLE
  5
3
330
0
100
AcDbSymbolTable
 70
     2
  0
STYLE
  5
11
330
3
100
AcDbSymbolTableRecord
100
AcDbTextStyleTableRecord
  2
Standard
 70
     0
 40
0.0
 41
1.0
 50
0.0
 71
     0
 42
3.5
  3
txt
  4

  0
STYLE
  5
93
330
3
100
AcDbSymbolTableRecord
100
AcDbTextStyleTableRecord
  2
SLDTEXTSTYLE0
 70
     0
 40
0.0
 41
0.75
 50
0.0
 71
     0
 42
3.5
  3
TXT
  4

  0
ENDTAB
  0
TABLE
  2
VIEW
  5
6
330
0
100
AcDbSymbolTable
 70
     0
  0
ENDTAB
  0
TABLE
  2
UCS
  5
7
330
0
100
AcDbSymbolTable
 70
     0
  0
ENDTAB
  0
TABLE
  2
APPID
  5
9
330
0
100
AcDbSymbolTable
 70
     1
  0
APPID
  5
12
330
9
100
AcDbSymbolTableRecord
100
AcDbRegAppTableRecord
  2
ACAD
 70
     0
  0
ENDTAB
  0
TABLE
  2
DIMSTYLE
  5
A
330
0
100
AcDbSymbolTable
 70
     3
100
AcDbDimStyleTable
  0
DIMSTYLE
105
27
330
A
100
AcDbSymbolTableRecord
100
AcDbDimStyleTableRecord
  2
ISO-25
 70
     0
 41
2.5
 42
0.625
 43
3.75
 44
1.25
 73
     0
 74
     0
 77
     1
 78
     8
140
2.5
141
2.5
143
0.03937007874016
147
0.625
171
     3
172
     1
178
     0
271
     2
272
     2
274
     3
278
    44
283
     0
284
     8
340
11
  0
DIMSTYLE
105
F9
102
{ACAD_REACTORS
330
F8
330
106
102
}
330
A
100
AcDbSymbolTableRecord
100
AcDbDimStyleTableRecord
  2
SLDDIMSTYLE0
 70
     0
 41
3.302
 44
0.0
 45
0.000000001
 73
     0
 74
     0
 77
     1
 78
    12
 79
     3
140
3.5
147
0.875
172
     1
173
     1
178
     0
271
     2
272
     2
276
     2
284
    12
289
     0
340
93
  0
DIMSTYLE
105
114
102
{ACAD_REACTORS
330
113
330
11E
102
}
330
A
100
AcDbSymbolTableRecord
100
AcDbDimStyleTableRecord
  2
SLDDIMSTYLE1
 70
     0
 41
3.302
 44
0.0
 45
0.000000001
 73
     0
 74
     0
 77
     1
 78
    12
 79
     3
140
3.5
147
0.875
173
     1
178
     0
271
     2
272
     2
276
     2
284
    12
340
93
  0
ENDTAB
  0
TABLE
  2
BLOCK_RECORD
  5
1
330
0
100
AcDbSymbolTable
 70
     7
  0
BLOCK_RECORD
  5
1F
330
1
100
AcDbSymbolTableRecord
100
AcDbBlockTableRecord
  2
*Model_Space
340
22
  0
BLOCK_RECORD
  5
1B
330
1
100
AcDbSymbolTableRecord
100
AcDbBlockTableRecord
  2
*Paper_Space
340
1E
  0
BLOCK_RECORD
  5
23
330
1
100
AcDbSymbolTableRecord
100
AcDbBlockTableRecord
  2
*Paper_Space0
340
26
  0
BLOCK_RECORD
  5
7E
330
1
100
AcDbSymbolTableRecord
100
AcDbBlockTableRecord
  2
블럭10
340
0
102
{BLKREFS
331
F1
102
}
  0
BLOCK_RECORD
  5
FA
330
1
100
AcDbSymbolTableRecord
100
AcDbBlockTableRecord
  2
_D
340
0
  0
BLOCK_RECORD
  5
107
330
1
100
AcDbSymbolTableRecord
100
AcDbBlockTableRecord
  2
_D_1
340
0
  0
BLOCK_RECORD
  5
115
330
1
100
AcDbSymbolTableRecord
100
AcDbBlockTableRecord
  2
_D_2
340
0
  0
BLOCK_RECORD
  5
11F
330
1
100
AcDbSymbolTableRecord
100
AcDbBlockTableRecord
  2
_D_3
340
0
  0
BLOCK_RECORD
  5
128
330
1
100
AcDbSymbolTableRecord
100
AcDbBlockTableRecord
  2
SW_DOWELSYMBOL_0
340
0
102
{BLKREFS
331
12E
102
}
  0
ENDTAB
  0
ENDSEC
  0
SECTION
  2
BLOCKS
  0
BLOCK
  5
20
330
1F
100
AcDbEntity
  8
0
100
AcDbBlockBegin
  2
*Model_Space
 70
     0
 10
0.0
 20
0.0
 30
0.0
  3
*Model_Space
  1
*Model_Space
  0
ENDBLK
  5
21
330
1F
100
AcDbEntity
  8
0
100
AcDbBlockEnd
  0
BLOCK
  5
1C
330
1B
100
AcDbEntity
 67
     1
  8
0
100
AcDbBlockBegin
  2
*Paper_Space
 70
     0
 10
0.0
 20
0.0
 30
0.0
  3
*Paper_Space
  1
*Paper_Space
  0
ENDBLK
  5
1D
330
1B
100
AcDbEntity
 67
     1
  8
0
100
AcDbBlockEnd
  0
BLOCK
  5
24
330
23
100
AcDbEntity
  8
0
100
AcDbBlockBegin
  2
*Paper_Space0
 70
     0
 10
0.0
 20
0.0
 30
0.0
  3
*Paper_Space0
  1
*Paper_Space0
  0
ENDBLK
  5
25
330
23
100
AcDbEntity
  8
0
100
AcDbBlockEnd
  0
BLOCK
  5
7F
330
7E
100
AcDbEntity
  8
0
100
AcDbBlockBegin
  2
블럭10
 70
     2
 10
0.0
 20
0.0
 30
0.0
  3
블럭10
  1
블럭10
  0
ELLIPSE
  5
81
330
7E
100
AcDbEntity
  8
중심선
100
AcDbEllipse
 10
20.54032771741204
 20
12.0471743016438
 30
0.0
 11
6.600054785286829
 21
-1.261213355974178E-13
 31
0.0
210
0.0
220
0.0
230
1.0
 40
0.636358354079598
 41
0.9219305317359503
 42
6.513795318482858
  0
ELLIPSE
  5
82
330
7E
100
AcDbEntity
  8
중심선
100
AcDbEllipse
 10
20.54032771746488
 20
12.04717430159265
 30
0.0
 11
3.960054785062283
 21
1.540847449632565E-10
 31
0.0
210
0.0
220
0.0
230
1.0
 40
0.3939339440162632
 41
1.131841032648279
 42
5.62031148352944
  0
LINE
  5
83
330
7E
100
AcDbEntity
  8
중심선
100
AcDbLine
 10
2.268634060543552
 20
16.24717430164393
 30
0.0
 11
5.714909304380834
 21
16.24717430164393
 31
0.0
  0
LINE
  5
84
330
7E
100
AcDbEntity
  8
중심선
100
AcDbLine
 10
5.245725140726316
 20
7.84717430164391
 30
0.0
 11
8.692000384563599
 21
7.84717430164391
 31
0.0
  0
LINE
  5
85
330
7E
100
AcDbEntity
  8
중심선
100
AcDbLine
 10
15.74043728645272
 20
16.24717430164393
 30
0.0
 11
8.692000384563599
 21
7.84717430164391
 31
0.0
  0
LINE
  5
86
330
7E
100
AcDbEntity
  8
중심선
100
AcDbLine
 10
0.1404042013395286
 20
13.71084872107135
 30
0.0
 11
3.58671253028996
 21
13.71088815037384
 31
0.0
  0
LINE
  5
87
330
7E
100
AcDbEntity
  8
중심선
100
AcDbLine
 10
2.750260043222114
 20
10.84717430164391
 30
0.0
 11
6.196535287059397
 21
10.84717430164391
 31
0.0
  0
LINE
  5
88
330
7E
100
AcDbEntity
  8
중심선
100
AcDbLine
 10
12.29416204261559
 20
16.24717430164393
 30
0.0
 11
5.245725140726316
 21
7.84717430164391
 31
0.0
  0
LINE
  5
89
330
7E
100
AcDbEntity
  8
중심선
100
AcDbLine
 10
10.72767329541681
 20
16.24717430164393
 30
0.0
 11
6.196535287059397
 21
10.84717430164391
 31
0.0
  0
LINE
  5
8A
330
7E
100
AcDbEntity
  8
중심선
100
AcDbLine
 10
7.28139805157953
 20
16.24717430164393
 30
0.0
 11
2.750260043222114
 21
10.84717430164391
 31
0.0
  0
LINE
  5
8B
330
7E
100
AcDbEntity
  8
중심선
100
AcDbLine
 10
5.714909304380834
 20
16.24717430164393
 30
0.0
 11
3.58671253028996
 21
13.71088815037384
 31
0.0
  0
LINE
  5
8C
330
7E
100
AcDbEntity
  8
중심선
100
AcDbLine
 10
2.268634060543552
 20
16.24717430164393
 30
0.0
 11
0.1404042013395286
 21
13.71084872107135
 31
0.0
  0
LINE
  5
8D
330
7E
100
AcDbEntity
  8
중심선
100
AcDbLine
 10
7.28139805157953
 20
16.24717430164393
 30
0.0
 11
10.72767329541681
 21
16.24717430164393
 31
0.0
  0
LINE
  5
8E
330
7E
100
AcDbEntity
  8
중심선
100
AcDbLine
 10
12.29416204261559
 20
16.24717430164393
 30
0.0
 11
15.74043728645272
 21
16.24717430164393
 31
0.0
  0
LINE
  5
8F
330
7E
100
AcDbEntity
  8
중심선
100
AcDbLine
 10
19.22036997980202
 20
11.08717430171403
 30
0.0
 11
23.66174974927406
 21
11.08717430171406
 31
0.0
  0
LINE
  5
90
330
7E
100
AcDbEntity
  8
중심선
100
AcDbLine
 10
19.22039502424796
 20
13.00717430171391
 30
0.0
 11
19.22036997980202
 21
11.08717430171403
 31
0.0
  0
LINE
  5
91
330
7E
100
AcDbEntity
  8
중심선
100
AcDbLine
 10
19.22039502424796
 20
13.00717430171391
 30
0.0
 11
26.96566020931264
 21
13.00717430171391
 31
0.0
  0
LINE
  5
92
330
7E
100
AcDbEntity
  8
중심선
100
AcDbLine
 10
22.22332737316547
 20
13.45928029700563
 30
0.0
 11
24.52862924686651
 21
15.39360700705356
 31
0.0
  0
ATTDEF
  5
94
330
7E
100
AcDbEntity
  8
FORMAT
 62
     2
100
AcDbText
 10
-20.85824753159254
 20
2.075366912832191
 30
0.0
 40
4.233333333333333
  1
SEME7512060150E [ 6 FLUTE ]
 41
0.75
  7
SLDTEXTSTYLE0
 11
-20.85824753159254
 21
-0.0412997538344756
 31
0.0
100
AcDbAttributeDefinition
  3

  2
AUTOATTR0
 70
     0
 74
     1
  0
ENDBLK
  5
80
330
7E
100
AcDbEntity
  8
0
100
AcDbBlockEnd
  0
BLOCK
  5
FB
330
FA
100
AcDbEntity
  8
0
100
AcDbBlockBegin
  2
_D
 70
     0
 10
0.0
 20
0.0
 30
0.0
  3
_D
  1
_D
  0
LINE
  5
FD
330
FA
100
AcDbEntity
  8
치수문자_일반주서
 62
     0
370
    -2
100
AcDbLine
 10
-78.8625
 20
5.999999999999977
 30
0.0
 11
-97.42890613132344
 21
5.999999999999908
 31
0.0
  0
LINE
  5
FE
330
FA
100
AcDbEntity
  8
치수문자_일반주서
 62
     0
370
    -2
100
AcDbLine
 10
-78.8625
 20
-6.000000000000034
 30
0.0
 11
-97.4289061313234
 21
-6.000000000000103
 31
0.0
  0
LINE
  5
FF
330
FA
100
AcDbEntity
  8
치수문자_일반주서
 62
     0
370
    -2
100
AcDbLine
 10
-97.42890613132343
 20
2.697999999999908
 30
0.0
 11
-97.42890613132342
 21
-2.698000000000103
 31
0.0
  0
SOLID
  5
100
330
FA
100
AcDbEntity
  8
치수문자_일반주서
 62
     0
100
AcDbTrace
 10
-96.8785727979901
 20
2.69799999999991
 30
0.0
 11
-97.97923946465676
 21
2.697999999999906
 31
0.0
 12
-97.42890613132344
 22
5.999999999999908
 32
0.0
 13
-97.42890613132344
 23
5.999999999999908
 33
0.0
  0
SOLID
  5
101
330
FA
100
AcDbEntity
  8
치수문자_일반주서
 62
     0
100
AcDbTrace
 10
-97.97923946465674
 20
-2.698000000000105
 30
0.0
 11
-96.87857279799009
 21
-2.698000000000102
 31
0.0
 12
-97.4289061313234
 22
-6.000000000000103
 32
0.0
 13
-97.4289061313234
 23
-6.000000000000103
 33
0.0
  0
MTEXT
  5
102
330
FA
100
AcDbEntity
  8
치수문자_일반주서
 62
     0
100
AcDbMText
 10
-101.8039061313234
 20
-0.0000000000000417
 30
0.0
 40
3.5
 41
0.0
 71
     2
 72
     1
  1
\A1;%%c12
  7
SLDTEXTSTYLE0
 11
-3.552713678800498E-15
 21
1.0
 31
0.0
 73
     1
 44
1.0
  0
POINT
  5
103
330
FA
100
AcDbEntity
  8
Defpoints
 62
     0
100
AcDbPoint
 10
-78.8
 20
5.999999999999977
 30
0.0
  0
POINT
  5
104
330
FA
100
AcDbEntity
  8
Defpoints
 62
     0
100
AcDbPoint
 10
-78.8
 20
-6.000000000000034
 30
0.0
  0
POINT
  5
105
330
FA
100
AcDbEntity
  8
Defpoints
 62
     0
100
AcDbPoint
 10
-97.42890613132343
 20
-6.000000000000103
 30
0.0
  0
ENDBLK
  5
FC
330
FA
100
AcDbEntity
  8
0
100
AcDbBlockEnd
  0
BLOCK
  5
108
330
107
100
AcDbEntity
  8
0
100
AcDbBlockBegin
  2
_D_1
 70
     0
 10
0.0
 20
0.0
 30
0.0
  3
_D_1
  1
_D_1
  0
LINE
  5
10A
330
107
100
AcDbEntity
  8
치수문자_일반주서
 62
     0
370
    -2
100
AcDbLine
 10
70.0625
 20
5.999999999999973
 30
0.0
 11
79.99999999999996
 21
6.000000000000011
 31
0.0
  0
LINE
  5
10B
330
107
100
AcDbEntity
  8
치수문자_일반주서
 62
     0
370
    -2
100
AcDbLine
 10
70.0625
 20
-6.00000000000003
 30
0.0
 11
80.0
 21
-5.999999999999993
 31
0.0
  0
LINE
  5
10C
330
107
100
AcDbEntity
  8
치수문자_일반주서
 62
     0
370
    -2
100
AcDbLine
 10
79.99999999999997
 20
2.698000000000011
 30
0.0
 11
79.99999999999999
 21
-2.697999999999993
 31
0.0
  0
SOLID
  5
10D
330
107
100
AcDbEntity
  8
치수문자_일반주서
 62
     0
100
AcDbTrace
 10
80.5503333333333
 20
2.698000000000013
 30
0.0
 11
79.44966666666664
 21
2.698000000000009
 31
0.0
 12
79.99999999999996
 22
6.000000000000011
 32
0.0
 13
79.99999999999996
 23
6.000000000000011
 33
0.0
  0
SOLID
  5
10E
330
107
100
AcDbEntity
  8
치수문자_일반주서
 62
     0
100
AcDbTrace
 10
79.44966666666666
 20
-2.697999999999995
 30
0.0
 11
80.55033333333331
 21
-2.697999999999992
 31
0.0
 12
80.0
 22
-5.999999999999993
 32
0.0
 13
80.0
 23
-5.999999999999993
 33
0.0
  0
MTEXT
  5
10F
330
107
100
AcDbEntity
  8
치수문자_일반주서
 62
     0
100
AcDbMText
 10
75.62499999999997
 20
0.791316900115148
 30
0.0
 40
3.5
 41
0.0
 71
     2
 72
     1
  1
\A1;%%c12
  7
SLDTEXTSTYLE0
 11
-3.552713678800500E-15
 21
1.0
 31
0.0
 73
     1
 44
1.0
  0
POINT
  5
110
330
107
100
AcDbEntity
  8
Defpoints
 62
     0
100
AcDbPoint
 10
70.0
 20
5.999999999999973
 30
0.0
  0
POINT
  5
111
330
107
100
AcDbEntity
  8
Defpoints
 62
     0
100
AcDbPoint
 10
70.0
 20
-6.00000000000003
 30
0.0
  0
POINT
  5
112
330
107
100
AcDbEntity
  8
Defpoints
 62
     0
100
AcDbPoint
 10
80.0
 20
-5.999999999999993
 30
0.0
  0
ENDBLK
  5
109
330
107
100
AcDbEntity
  8
0
100
AcDbBlockEnd
  0
BLOCK
  5
116
330
115
100
AcDbEntity
  8
0
100
AcDbBlockBegin
  2
_D_2
 70
     0
 10
0.0
 20
0.0
 30
0.0
  3
_D_2
  1
_D_2
  0
LINE
  5
118
330
115
100
AcDbEntity
  8
치수문자_일반주서
 62
     0
370
    -2
100
AcDbLine
 10
10.00000000000001
 20
5.696781408165412
 30
0.0
 11
10.00000000000001
 21
49.12912202680722
 31
0.0
  0
LINE
  5
119
330
115
100
AcDbEntity
  8
치수문자_일반주서
 62
     0
370
    -2
100
AcDbLine
 10
70.0
 20
6.018715305425999
 30
0.0
 11
70.0
 21
49.12912202680722
 31
0.0
  0
LINE
  5
11A
330
115
100
AcDbEntity
  8
치수문자_일반주서
 62
     0
370
    -2
100
AcDbLine
 10
13.30200000000001
 20
49.12912202680722
 30
0.0
 11
66.69800000000001
 21
49.12912202680722
 31
0.0
  0
SOLID
  5
11B
330
115
100
AcDbEntity
  8
치수문자_일반주서
 62
     0
100
AcDbTrace
 10
13.30200000000001
 20
49.67945536014055
 30
0.0
 11
13.30200000000001
 21
48.57878869347388
 31
0.0
 12
10.00000000000001
 22
49.12912202680722
 32
0.0
 13
10.00000000000001
 23
49.12912202680722
 33
0.0
  0
SOLID
  5
11C
330
115
100
AcDbEntity
  8
치수문자_일반주서
 62
     0
100
AcDbTrace
 10
66.69800000000001
 20
48.57878869347388
 30
0.0
 11
66.69800000000001
 21
49.67945536014055
 31
0.0
 12
70.0
 22
49.12912202680722
 32
0.0
 13
70.0
 23
49.12912202680722
 33
0.0
  0
MTEXT
  5
11D
330
115
100
AcDbEntity
  8
치수문자_일반주서
 62
     0
100
AcDbMText
 10
34.55499265847857
 20
53.50412202680722
 30
0.0
 40
3.5
 41
0.0
 71
     2
 72
     1
  1
\A1;60
  7
SLDTEXTSTYLE0
 73
     1
 44
1.0
  0
POINT
  5
156
330
115
100
AcDbEntity
  8
Defpoints
 62
     0
100
AcDbPoint
 10
10.00000000000001
 20
5.634281408165412
 30
0.0
  0
POINT
  5
157
330
115
100
AcDbEntity
  8
Defpoints
 62
     0
100
AcDbPoint
 10
70.0
 20
5.956215305425999
 30
0.0
  0
POINT
  5
158
330
115
100
AcDbEntity
  8
Defpoints
 62
     0
100
AcDbPoint
 10
70.0
 20
49.12912202680722
 30
0.0
  0
ENDBLK
  5
117
330
115
100
AcDbEntity
  8
0
100
AcDbBlockEnd
  0
BLOCK
  5
120
330
11F
100
AcDbEntity
  8
0
100
AcDbBlockBegin
  2
_D_3
 70
     0
 10
0.0
 20
0.0
 30
0.0
  3
_D_3
  1
_D_3
  0
LINE
  5
122
330
11F
100
AcDbEntity
  8
치수문자_일반주서
 62
     0
370
    -2
100
AcDbLine
 10
70.0
 20
6.018715305425999
 30
0.0
 11
70.0
 21
76.90089796629563
 31
0.0
  0
LINE
  5
123
330
11F
100
AcDbEntity
  8
치수문자_일반주서
 62
     0
370
    -2
100
AcDbLine
 10
-80.0
 20
4.862499999999975
 30
0.0
 11
-80.0
 21
76.90089796629563
 31
0.0
  0
LINE
  5
124
330
11F
100
AcDbEntity
  8
치수문자_일반주서
 62
     0
370
    -2
100
AcDbLine
 10
66.69800000000001
 20
76.90089796629563
 30
0.0
 11
-76.69800000000001
 21
76.90089796629563
 31
0.0
  0
SOLID
  5
125
330
11F
100
AcDbEntity
  8
치수문자_일반주서
 62
     0
100
AcDbTrace
 10
66.69800000000001
 20
76.3505646329623
 30
0.0
 11
66.69800000000001
 21
77.45123129962896
 31
0.0
 12
70.0
 22
76.90089796629563
 32
0.0
 13
70.0
 23
76.90089796629563
 33
0.0
  0
SOLID
  5
126
330
11F
100
AcDbEntity
  8
치수문자_일반주서
 62
     0
100
AcDbTrace
 10
-76.69800000000001
 20
77.45123129962896
 30
0.0
 11
-76.69800000000001
 21
76.3505646329623
 31
0.0
 12
-80.0
 22
76.90089796629563
 32
0.0
 13
-80.0
 23
76.90089796629563
 33
0.0
  0
MTEXT
  5
127
330
11F
100
AcDbEntity
  8
치수문자_일반주서
 62
     0
100
AcDbMText
 10
-0.3527552023592193
 20
81.27589796629563
 30
0.0
 40
3.5
 41
0.0
 71
     2
 72
     1
  1
\A1;150
  7
SLDTEXTSTYLE0
 73
     1
 44
1.0
  0
POINT
  5
159
330
11F
100
AcDbEntity
  8
Defpoints
 62
     0
100
AcDbPoint
 10
70.0
 20
5.956215305425999
 30
0.0
  0
POINT
  5
15A
330
11F
100
AcDbEntity
  8
Defpoints
 62
     0
100
AcDbPoint
 10
-80.0
 20
4.799999999999975
 30
0.0
  0
POINT
  5
15B
330
11F
100
AcDbEntity
  8
Defpoints
 62
     0
100
AcDbPoint
 10
-80.0
 20
76.90089796629563
 30
0.0
  0
ENDBLK
  5
121
330
11F
100
AcDbEntity
  8
0
100
AcDbBlockEnd
  0
BLOCK
  5
129
330
128
100
AcDbEntity
  8
0
100
AcDbBlockBegin
  2
SW_DOWELSYMBOL_0
 70
     0
 10
0.0
 20
0.0
 30
0.0
  3
SW_DOWELSYMBOL_0
  1
SW_DOWELSYMBOL_0
  0
CIRCLE
  5
12B
330
128
100
AcDbEntity
  8
외형선
 62
     0
100
AcDbCircle
 10
0.0
 20
0.0
 30
0.0
 40
3.000000000000001
  0
HATCH
  5
12C
330
128
100
AcDbEntity
  8
0
  6
Continuous
 62
     0
370
    30
100
AcDbHatch
 10
0.0
 20
0.0
 30
0.0
210
0.0
220
0.0
230
1.0
  2
SOLID
 70
     1
 71
     0
 91
        1
 92
        0
 93
        3
 72
     2
 10
0.0
 20
0.0
 40
3.000000000000001
 50
0.0
 51
90.0
 73
     1
 72
     1
 10
0.0
 20
3.000000000000001
 11
0.0
 21
0.0
 72
     1
 10
0.0
 20
0.0
 11
3.000000000000003
 21
0.0
 97
        0
 75
     0
 76
     1
 98
        1
 10
0.0
 20
0.0
  0
HATCH
  5
12D
330
128
100
AcDbEntity
  8
0
  6
Continuous
 62
     0
370
    30
100
AcDbHatch
 10
0.0
 20
0.0
 30
0.0
210
0.0
220
0.0
230
1.0
  2
SOLID
 70
     1
 71
     0
 91
        1
 92
        0
 93
        3
 72
     2
 10
0.0
 20
0.0
 40
3.000000000000001
 50
180.0
 51
270.0000000000008
 73
     1
 72
     1
 10
0.0
 20
-3.000000000000001
 11
0.0
 21
0.0
 72
     1
 10
0.0
 20
0.0
 11
-3.000000000000003
 21
0.0
 97
        0
 75
     0
 76
     1
 98
        1
 10
0.0
 20
0.0
  0
ENDBLK
  5
12A
330
128
100
AcDbEntity
  8
0
100
AcDbBlockEnd
  0
ENDSEC
  0
SECTION
  2
ENTITIES
  0
LINE
  5
95
330
1F
100
AcDbEntity
  8
0
  6
Continuous
 62
     1
370
    15
100
AcDbLine
 10
37.26567069575771
 20
-1.094430890467553
 30
0.0
 11
37.37470286927764
 21
-1.199643422126668
 31
0.0
  0
LINE
  5
96
330
1F
100
AcDbEntity
  8
0
  6
Continuous
 62
     1
370
    15
100
AcDbLine
 10
52.4401744526667
 20
1.122202540543692
 30
0.0
 11
52.36003846442127
 21
1.199424229528204
 31
0.0
  0
LINE
  5
97
330
1F
100
AcDbEntity
  8
0
  6
Continuous
 62
     1
370
    15
100
AcDbLine
 10
21.09658757947702
 20
1.053415156251102
 30
0.0
 11
20.94397674060719
 21
1.199556639825004
 31
0.0
  0
LINE
  5
98
330
1F
100
AcDbEntity
  8
0
  6
Continuous
 62
     1
370
    15
100
AcDbLine
 10
58.73410770251948
 20
1.112465167748408
 30
0.0
 11
58.64267243018774
 21
1.199964237740839
 31
0.0
  0
LINE
  5
99
330
1F
100
AcDbEntity
  8
0
  6
Continuous
 62
     1
370
    15
100
AcDbLine
 10
46.1525157328073
 20
1.126677281458032
 30
0.0
 11
46.07624664573224
 21
1.20001827302806
 31
0.0
  0
LINE
  5
9A
330
1F
100
AcDbEntity
  8
0
  6
Continuous
 62
     1
370
    15
100
AcDbLine
 10
43.58116473033357
 20
-1.125616684133546
 30
0.0
 11
43.65762004605735
 21
-1.199380801095972
 31
0.0
  0
LINE
  5
9B
330
1F
100
AcDbEntity
  8
0
  6
Continuous
 62
   131
370
    15
100
AcDbLine
 10
68.60220199292858
 20
-1.018811934123403
 30
0.0
 11
68.79062483184413
 21
-1.199638942792042
 31
0.0
  0
LINE
  5
9C
330
1F
100
AcDbEntity
  8
0
  6
Continuous
 62
     1
370
    15
100
AcDbLine
 10
31.01806708303469
 20
-1.128157157950894
 30
0.0
 11
31.0918819782255
 21
-1.200000345301998
 31
0.0
  0
LINE
  5
9D
330
1F
100
AcDbEntity
  8
0
  6
Continuous
 62
     1
370
    15
100
AcDbLine
 10
69.27468899402596
 20
-6.00000000000003
 30
0.0
 11
70.0
 21
-6.00000000000003
 31
0.0
  0
LINE
  5
9E
330
1F
100
AcDbEntity
  8
0
  6
Continuous
 62
     1
370
    15
100
AcDbLine
 10
31.57720011485776
 20
-6.00000000000003
 30
0.0
 11
33.02773082145612
 21
-6.00000000000003
 31
0.0
  0
LINE
  5
9F
330
1F
100
AcDbEntity
  8
0
  6
Continuous
 62
     1
370
    15
100
AcDbLine
 10
14.17545168061525
 20
5.999999999999973
 30
0.0
 11
12.72569253958801
 21
5.999999999999973
 31
0.0
  0
LINE
  5
A0
330
1F
100
AcDbEntity
  8
0
  6
Continuous
 62
     1
370
    15
100
AcDbLine
 10
51.87447243310673
 20
5.999999999999973
 30
0.0
 11
50.42386043867837
 21
5.999999999999973
 31
0.0
  0
LINE
  5
A1
330
1F
100
AcDbEntity
  8
0
  6
Continuous
 62
     1
370
    15
100
AcDbLine
 10
50.42386043867843
 20
-6.00000000000003
 30
0.0
 11
51.8744724331067
 21
-6.00000000000003
 31
0.0
  0
LINE
  5
A2
330
1F
100
AcDbEntity
  8
0
  6
Continuous
 62
     1
370
    15
100
AcDbLine
 10
12.72569253958801
 20
-6.00000000000003
 30
0.0
 11
14.17545168061518
 21
-6.00000000000003
 31
0.0
  0
LINE
  5
A3
330
1F
100
AcDbEntity
  8
0
  6
Continuous
 62
     1
370
    15
100
AcDbLine
 10
33.02773082145606
 20
5.999999999999973
 30
0.0
 11
31.57720011485775
 21
5.999999999999973
 31
0.0
  0
LINE
  5
A4
330
1F
100
AcDbEntity
  8
0
  6
Continuous
 62
     1
370
    15
100
AcDbLine
 10
70.0
 20
5.999999999999973
 30
0.0
 11
69.27468899402596
 21
5.999999999999973
 31
0.0
  0
LINE
  5
A5
330
1F
100
AcDbEntity
  8
0
  6
Continuous
 62
     1
370
    15
100
AcDbLine
 10
56.70677435554725
 20
-6.00000000000003
 30
0.0
 11
58.15728473897381
 21
-6.00000000000003
 31
0.0
  0
LINE
  5
A6
330
1F
100
AcDbEntity
  8
0
  6
Continuous
 62
     1
370
    15
100
AcDbLine
 10
19.00967415237674
 20
-6.00000000000003
 30
0.0
 11
20.46026635203503
 21
-6.00000000000003
 31
0.0
  0
LINE
  5
A7
330
1F
100
AcDbEntity
  8
0
  6
Continuous
 62
     1
370
    15
100
AcDbLine
 10
39.31042588112714
 20
5.999999999999973
 30
0.0
 11
37.8597574150277
 21
5.999999999999973
 31
0.0
  0
LINE
  5
A8
330
1F
100
AcDbEntity
  8
0
  6
Continuous
 62
     1
370
    15
100
AcDbLine
 10
44.1416236718009
 20
-6.00000000000003
 30
0.0
 11
45.59244881955414
 21
-6.00000000000003
 31
0.0
  0
LINE
  5
A9
330
1F
100
AcDbEntity
  8
0
  6
Continuous
 62
     1
370
    15
100
AcDbLine
 10
26.74434862634524
 20
5.999999999999973
 30
0.0
 11
25.29384313135331
 21
5.999999999999973
 31
0.0
  0
LINE
  5
AA
330
1F
100
AcDbEntity
  8
0
  6
Continuous
 62
     1
370
    15
100
AcDbLine
 10
64.4409009479009
 20
5.999999999999973
 30
0.0
 11
62.99037979476992
 21
5.999999999999973
 31
0.0
  0
LINE
  5
AB
330
1F
100
AcDbEntity
  8
0
  6
Continuous
 62
     1
370
    15
100
AcDbLine
 10
37.85975741502776
 20
-6.00000000000003
 30
0.0
 11
39.31042588112719
 21
-6.00000000000003
 31
0.0
  0
LINE
  5
AC
330
1F
100
AcDbEntity
  8
0
  6
Continuous
 62
     1
370
    15
100
AcDbLine
 10
20.46026635203507
 20
5.999999999999973
 30
0.0
 11
19.0096741523768
 21
5.999999999999973
 31
0.0
  0
LINE
  5
AD
330
1F
100
AcDbEntity
  8
0
  6
Continuous
 62
     1
370
    15
100
AcDbLine
 10
58.15728473897384
 20
5.999999999999973
 30
0.0
 11
56.70677435554734
 21
5.999999999999973
 31
0.0
  0
LINE
  5
AE
330
1F
100
AcDbEntity
  8
0
  6
Continuous
 62
     1
370
    15
100
AcDbLine
 10
62.99037979476984
 20
-6.00000000000003
 30
0.0
 11
64.44090094790096
 21
-6.00000000000003
 31
0.0
  0
LINE
  5
AF
330
1F
100
AcDbEntity
  8
0
  6
Continuous
 62
     1
370
    15
100
AcDbLine
 10
25.29384313135324
 20
-6.00000000000003
 30
0.0
 11
26.74434862634521
 21
-6.00000000000003
 31
0.0
  0
LINE
  5
B0
330
1F
100
AcDbEntity
  8
0
  6
Continuous
 62
     1
370
    15
100
AcDbLine
 10
45.59244881955411
 20
5.999999999999973
 30
0.0
 11
44.14162367180084
 21
5.999999999999973
 31
0.0
  0
LINE
  5
B1
330
1F
100
AcDbEntity
  8
0
  6
Continuous
 62
   131
370
    15
100
AcDbLine
 10
-78.80000000000001
 20
-6.000000000000027
 30
0.0
 11
8.99964061573261
 21
-6.000000000000027
 31
0.0
  0
LINE
  5
B2
330
1F
100
AcDbEntity
  8
0
  6
Continuous
 62
   131
370
    15
100
AcDbLine
 10
8.99964061573261
 20
5.99999999999997
 30
0.0
 11
-78.80000000000001
 21
5.99999999999997
 31
0.0
  0
LINE
  5
B3
330
1F
100
AcDbEntity
  8
0
  6
Continuous
 62
   131
370
    15
100
AcDbLine
 10
-78.80000000000001
 20
5.999999999999973
 30
0.0
 11
-80.0
 21
4.799999999999975
 31
0.0
  0
LINE
  5
B4
330
1F
100
AcDbEntity
  8
0
  6
Continuous
 62
   131
370
    15
100
AcDbLine
 10
-80.0
 20
-4.800000000000033
 30
0.0
 11
-78.80000000000001
 21
-6.00000000000003
 31
0.0
  0
LINE
  5
B5
330
1F
100
AcDbEntity
  8
0
  6
Continuous
 62
     1
370
    15
100
AcDbLine
 10
70.0
 20
3.586272038050982
 30
0.0
 11
70.0
 21
5.956215305425999
 31
0.0
  0
LINE
  5
B6
330
1F
100
AcDbEntity
  8
0
  6
Continuous
 62
     1
370
    15
100
AcDbLine
 10
9.999999999997911
 20
-5.634281408166188
 30
0.0
 11
10.31156945021029
 21
-5.49582749819031
 31
0.0
  0
SPLINE
  5
B7
330
1F
100
AcDbEntity
  8
0
  6
Continuous
 62
     1
370
    15
100
AcDbSpline
210
0.0
220
0.0
230
1.0
 70
     8
 71
     3
 72
    22
 73
    18
 74
     0
 42
0.000000001
 43
0.00000001
 40
0.0
 40
0.0
 40
0.0
 40
0.0
 40
0.0262198982553636
 40
0.097936542137426
 40
0.1696519445956007
 40
0.2413662306426591
 40
0.3130795255827921
 40
0.3847919549791385
 40
0.4565036446211442
 40
0.5282147204918171
 40
0.5999253087348383
 40
0.6716355356216093
 40
0.7433455275182089
 40
0.8150554108522998
 40
0.886765312080001
 40
0.9584753576527394
 40
1.0
 40
1.0
 40
1.0
 40
1.0
 10
26.74434862634523
 20
5.955123865144557
 30
0.0
 10
26.93019900323486
 20
5.966963297663938
 30
0.0
 10
27.62438717628718
 20
6.011185936154924
 30
0.0
 10
28.82688902912034
 20
5.687210241209125
 30
0.0
 10
30.35184800153314
 20
5.005310016120854
 30
0.0
 10
31.8767703551227
 20
3.976535498017737
 30
0.0
 10
33.40166135209486
 20
2.69905273761914
 30
0.0
 10
34.92652465738369
 20
1.246349834240734
 30
0.0
 10
36.4513643745171
 20
-0.2859287343813872
 30
0.0
 10
37.97618449821157
 20
-1.799983036530708
 30
0.0
 10
39.50098906117744
 20
-3.198270113482951
 30
0.0
 10
41.02578208727448
 20
-4.39139524567728
 30
0.0
 10
42.55056762504863
 20
-5.301223683135694
 30
0.0
 10
44.07534965337292
 20
-5.874797275922335
 30
0.0
 10
45.60013241828024
 20
-6.054776764228225
 30
0.0
 10
46.9109710505025
 20
-5.926931896041595
 30
0.0
 10
47.71355090956415
 20
-5.59743749244452
 30
0.0
 10
48.00786744997089
 20
-5.476607581432985
 30
0.0
  0
SPLINE
  5
B8
330
1F
100
AcDbEntity
  8
0
  6
Continuous
 62
     1
370
    15
100
AcDbSpline
210
0.0
220
0.0
230
1.0
 70
     8
 71
     3
 72
    11
 73
     7
 74
     0
 42
0.000000001
 43
0.00000001
 40
0.0
 40
0.0
 40
0.0
 40
0.0
 40
0.1768811978230544
 40
0.4512467239302512
 40
0.7256195018510738
 40
1.0
 40
1.0
 40
1.0
 40
1.0
 10
64.4409009479009
 20
5.955680195775962
 30
0.0
 10
64.76865999796753
 20
5.957740459542925
 30
0.0
 10
65.60481556114397
 20
5.962996457844138
 30
0.0
 10
66.94940250402341
 20
5.53033322597051
 30
0.0
 10
68.47467328716453
 20
4.758687931912864
 30
0.0
 10
69.49155299367358
 20
3.989369686634918
 30
0.0
 10
69.99999999999997
 20
3.604705152354139
 30
0.0
  0
LINE
  5
B9
330
1F
100
AcDbEntity
  8
0
  6
Continuous
 62
   131
370
    15
100
AcDbLine
 10
9.999999999999993
 20
-5.494062639757019
 30
0.0
 11
9.999999999999993
 21
-5.634281408165477
 31
0.0
  0
SPLINE
  5
BA
330
1F
100
AcDbEntity
  8
0
  6
Continuous
 62
     1
370
    15
100
AcDbSpline
210
0.0
220
0.0
230
1.0
 70
     8
 71
     3
 72
    10
 73
     6
 74
     0
 42
0.000000001
 43
0.00000001
 40
0.0
 40
0.0
 40
0.0
 40
0.0
 40
0.4853306765004887
 40
0.9706476972799899
 40
1.0
 40
1.0
 40
1.0
 40
1.0
 10
70.00000000000004
 20
5.956215305425999
 30
0.0
 10
69.49155343288392
 20
5.973268636130284
 30
0.0
 10
68.47467460478306
 20
6.007374817710279
 30
0.0
 10
67.42705937755233
 20
5.792776681527501
 30
0.0
 10
66.88789283741393
 20
5.525174563973868
 30
0.0
 10
66.85714342457729
 20
5.509912845421184
 30
0.0
  0
SPLINE
  5
BB
330
1F
100
AcDbEntity
  8
0
  6
Continuous
 62
     1
370
    15
100
AcDbSpline
210
0.0
220
0.0
230
1.0
 70
     8
 71
     3
 72
    22
 73
    18
 74
     0
 42
0.000000001
 43
0.00000001
 40
0.0
 40
0.0
 40
0.0
 40
0.0
 40
0.0117269314893734
 40
0.0834420148760896
 40
0.1551567011373329
 40
0.2268711166234435
 40
0.2985853877557204
 40
0.3702996409932984
 40
0.4420140027999987
 40
0.5137285996111909
 40
0.5854435578006547
 40
0.6571590036474836
 40
0.7288750633030513
 40
0.8005918627580354
 40
0.8723095278095525
 40
0.9440281840283913
 40
0.9999999999999999
 40
0.9999999999999999
 40
0.9999999999999999
 40
0.9999999999999999
 10
50.42386043867843
 20
-5.973577838203155
 30
0.0
 10
50.34074734511027
 20
-5.981970793771104
 30
0.0
 10
49.74936297519262
 20
-6.041690177651692
 30
0.0
 10
48.64971579281007
 20
-5.779082593443261
 30
0.0
 10
47.12491946256849
 20
-5.176537077133338
 30
0.0
 10
45.60013234066881
 20
-4.205812395555771
 30
0.0
 10
44.0753496741638
 20
-2.97442084572579
 30
0.0
 10
42.55056761949662
 20
-1.549376159474984
 30
0.0
 10
41.02578208869161
 20
-0.0254775056905783
 30
0.0
 10
39.50098906106092
 20
1.500259476554588
 30
0.0
 10
37.97618449726069
 20
2.929506612537031
 30
0.0
 10
36.45136437843723
 20
4.170773346428419
 30
0.0
 10
34.92652464265387
 20
5.143277961953548
 30
0.0
 10
33.40166140709476
 20
5.788328852576605
 30
0.0
 10
31.87677014984942
 20
6.050335504568372
 30
0.0
 10
30.46346259876907
 20
5.971459725745465
 30
0.0
 10
29.55844562005541
 20
5.636398334062763
 30
0.0
 10
29.16174065910747
 20
5.489527590829204
 30
0.0
  0
SPLINE
  5
BC
330
1F
100
AcDbEntity
  8
0
  6
Continuous
 62
     1
370
    15
100
AcDbSpline
210
0.0
220
0.0
230
1.0
 70
     8
 71
     3
 72
    10
 73
     6
 74
     0
 42
0.000000001
 43
0.00000001
 40
0.0
 40
0.0
 40
0.0
 40
0.0
 40
0.0279680131530743
 40
0.5139134371657058
 40
1.0
 40
1.0
 40
1.0
 40
1.0
 10
12.72569253958801
 20
-5.992090219536795
 30
0.0
 10
12.70028330769607
 20
-5.994694731348455
 30
0.0
 10
12.2333875855776
 20
-6.042552747216213
 30
0.0
 10
11.32494950785009
 20
-5.878313010444179
 30
0.0
 10
10.44169258551618
 20
-5.553406282787565
 30
0.0
 10
9.999999999997897
 20
-5.39092933076807
 30
0.0
  0
SPLINE
  5
BD
330
1F
100
AcDbEntity
  8
0
  6
Continuous
 62
     1
370
    15
100
AcDbSpline
210
0.0
220
0.0
230
1.0
 70
     8
 71
     3
 72
    17
 73
    13
 74
     0
 42
0.000000001
 43
0.00000001
 40
0.0
 40
0.0
 40
0.0
 40
0.0
 40
0.102916581612065
 40
0.2058032806349596
 40
0.3086921219646985
 40
0.4116151148472648
 40
0.5146040194308223
 40
0.6330201902490264
 40
0.7514347012000555
 40
0.869845937425272
 40
0.9882541013147026
 40
1.0
 40
1.0
 40
1.0
 40
1.0
 10
9.999999999997925
 20
1.03076035259159
 30
0.0
 10
10.4416905207736
 20
0.590730423664452
 30
0.0
 10
11.32494331422178
 20
-0.2892016682517906
 30
0.0
 10
12.64946566257701
 20
-1.608698933921815
 30
0.0
 10
13.9740664285172
 20
-2.846451054909286
 30
0.0
 10
15.29928707128803
 20
-3.946950553386527
 30
0.0
 10
16.69171694668643
 20
-4.901073597827086
 30
0.0
 10
18.15086811448568
 20
-5.619808686825602
 30
0.0
 10
19.67616827325878
 20
-6.019240566413589
 30
0.0
 10
21.2014248725623
 20
-5.996376587933603
 30
0.0
 10
22.26867018351108
 20
-5.803664396191923
 30
0.0
 10
22.82749384200568
 20
-5.528923697587137
 30
0.0
 10
22.87792550695548
 20
-5.50412941651207
 30
0.0
  0
SPLINE
  5
BE
330
1F
100
AcDbEntity
  8
0
  6
Continuous
 62
     1
370
    15
100
AcDbSpline
210
0.0
220
0.0
230
1.0
 70
     8
 71
     3
 72
    22
 73
    18
 74
     0
 42
0.000000001
 43
0.00000001
 40
0.0
 40
0.0
 40
0.0
 40
0.0
 40
0.0089626250560844
 40
0.0806765788252093
 40
0.15239029759195
 40
0.2241039077905399
 40
0.2958175358836699
 40
0.3675313083293391
 40
0.4392453515477141
 40
0.5109597918879991
 40
0.5826747555953652
 40
0.6543903687779165
 40
0.7261067573737584
 40
0.7978240471181474
 40
0.8695423635107667
 40
0.9412618317831357
 40
1.0
 40
1.0
 40
1.0
 40
1.0
 10
39.31042588112714
 20
5.978884829190853
 30
0.0
 10
39.37394758933803
 20
5.985709972923535
 30
0.0
 10
39.94573476859863
 20
6.0471461306226
 30
0.0
 10
41.02578182038711
 20
5.794615534269528
 30
0.0
 10
42.55056768970304
 20
5.207799359874523
 30
0.0
 10
44.07534966164175
 20
4.248356271318322
 30
0.0
 10
45.60013232055039
 20
3.026165720498688
 30
0.0
 10
47.12491955556446
 20
1.606820788830728
 30
0.0
 10
48.64971544094227
 20
0.0849758648324276
 30
0.0
 10
50.17452399758109
 20
-1.442543167243276
 30
0.0
 10
51.69934925954396
 20
-2.877282363051628
 30
0.0
 10
53.22419523937285
 20
-4.127380975855041
 30
0.0
 10
54.7490659932573
 20
-5.111563051058759
 30
0.0
 10
56.27396538801112
 20
-5.770101763503991
 30
0.0
 10
57.79889796100092
 20
-6.04759599095003
 30
0.0
 10
59.23184978216355
 20
-5.979412295695532
 30
0.0
 10
60.15649821486991
 20
-5.644458824307055
 30
0.0
 10
60.57281845984271
 20
-5.493647006181997
 30
0.0
  0
SPLINE
  5
BF
330
1F
100
AcDbEntity
  8
0
  6
Continuous
 62
   131
370
    15
100
AcDbSpline
210
0.0
220
0.0
230
1.0
 70
    24
 71
     3
 72
    20
 73
    16
 74
     0
 42
0.000000001
 43
0.00000001
 40
0.0
 40
0.0
 40
0.0
 40
0.0
 40
0.0254692692660358
 40
0.1085972333173306
 40
0.1941359139576024
 40
0.2772638780088831
 40
0.3628025586491387
 40
0.445930522700427
 40
0.5314692033406903
 40
0.6145971673919745
 40
0.7001358480322335
 40
0.7832638120835221
 40
0.8688024927237873
 40
0.9519304567750698
 40
1.0
 40
1.0
 40
1.0
 40
1.0
 10
9.999999999999993
 20
4.976563241288471
 30
0.0
 10
9.999999999999993
 20
4.947571032546433
 30
0.0
 10
10.00000000000011
 20
4.823952501356677
 30
0.0
 10
9.999999999999886
 20
4.576589689659827
 30
0.0
 10
10.00000000000005
 20
4.220410385842126
 30
0.0
 10
9.999999999999979
 20
3.833228308458092
 30
0.0
 10
10.00000000000005
 20
3.433613228184111
 30
0.0
 10
9.999999999999979
 20
3.025506598732057
 30
0.0
 10
9.999999999999858
 20
2.627870690406036
 30
0.0
 10
10.00000000000002
 20
2.244717897419198
 30
0.0
 10
10.00000000000004
 20
1.8940667602772
 30
0.0
 10
10.00000000000011
 20
1.5785054885978
 30
0.0
 10
9.999999999999886
 20
1.316463765599851
 30
0.0
 10
9.99999999999995
 20
1.128806003322173
 30
0.0
 10
9.999999999999979
 20
1.057050792649394
 30
0.0
 10
9.999999999999979
 20
1.030760352589528
 30
0.0
  0
SPLINE
  5
C0
330
1F
100
AcDbEntity
  8
0
  6
Continuous
 62
   131
370
    15
100
AcDbSpline
210
0.0
220
0.0
230
1.0
 70
    24
 71
     3
 72
    10
 73
     6
 74
     0
 42
0.000000001
 43
0.00000001
 40
0.0
 40
0.0
 40
0.0
 40
0.0
 40
0.0397332009323205
 40
0.5830954113995828
 40
1.0
 40
1.0
 40
1.0
 40
1.0
 10
9.999999999999993
 20
0.9755878772252644
 30
0.0
 10
9.999999999999993
 20
0.9719830229794236
 30
0.0
 10
10.00000000000002
 20
0.9190808172624869
 30
0.0
 10
9.999999999999993
 20
0.8765534491790827
 30
0.0
 10
9.999999999999979
 20
0.8730481732428568
 30
0.0
 10
9.999999999999964
 20
0.8715263403277314
 30
0.0
  0
SPLINE
  5
C1
330
1F
100
AcDbEntity
  8
0
  6
Continuous
 62
     1
370
    15
100
AcDbSpline
210
0.0
220
0.0
230
1.0
 70
     8
 71
     3
 72
    22
 73
    18
 74
     0
 42
0.000000001
 43
0.00000001
 40
0.0
 40
0.0
 40
0.0
 40
0.0
 40
0.0289889439119326
 40
0.1007054823049873
 40
0.1724206193989001
 40
0.2441344797819812
 40
0.3158471883753793
 40
0.3875588704008227
 40
0.4592696513481815
 40
0.5309796569428809
 40
0.6026890131131787
 40
0.6743978459573193
 40
0.7461062817105999
 40
0.8178144467123479
 40
0.8895224673728439
 40
0.9612304701402005
 40
0.9999999999999999
 40
0.9999999999999999
 40
0.9999999999999999
 40
0.9999999999999999
 10
62.99037979476989
 20
-5.953396312921042
 30
0.0
 10
62.78489382198059
 20
-5.964917834528966
 30
0.0
 10
62.0710505009021
 20
-6.00494276244418
 30
0.0
 10
60.84887705290458
 20
-5.667732220005754
 30
0.0
 10
59.3238665130887
 20
-4.971181941942107
 30
0.0
 10
57.79889774485623
 20
-3.931546022671951
 30
0.0
 10
56.27396544592466
 20
-2.64565988897791
 30
0.0
 10
54.74906597774316
 20
-1.188097696251065
 30
0.0
 10
53.22419524351695
 20
0.34532734395106
 30
0.0
 10
51.69934925848136
 20
1.856703136371
 30
0.0
 10
50.17452399768727
 20
3.24866126484329
 30
0.0
 10
48.6497154415801
 20
4.432237483354359
 30
0.0
 10
47.1249195529068
 20
5.329811285080076
 30
0.0
 10
45.60013233054315
 20
5.889586855213292
 30
0.0
 10
44.07534962432867
 20
6.053715330371549
 30
0.0
 10
42.78403372735509
 20
5.917890963022105
 30
0.0
 10
42.00097729765805
 20
5.590630489037471
 30
0.0
 10
41.72618179027192
 20
5.475786009654514
 30
0.0
  0
SPLINE
  5
C2
330
1F
100
AcDbEntity
  8
0
  6
Continuous
 62
     1
370
    15
100
AcDbSpline
210
0.0
220
0.0
230
1.0
 70
     8
 71
     3
 72
    18
 73
    14
 74
     0
 42
0.000000001
 43
0.00000001
 40
0.0
 40
0.0
 40
0.0
 40
0.0
 40
0.0681252440304973
 40
0.1678297290187498
 40
0.2675366300062337
 40
0.367246118087967
 40
0.4669583636887075
 40
0.5666720069989171
 40
0.6533949505428367
 40
0.7400623924116284
 40
0.8267010765885129
 40
0.9133379568122801
 40
1.0
 40
1.0
 40
1.0
 40
1.0
 10
25.29384313135324
 20
-5.958138241679051
 30
0.0
 10
24.94648615518295
 20
-5.957286776343613
 30
0.0
 10
24.09075597743361
 20
-5.955189151615083
 30
0.0
 10
22.72662064992625
 20
-5.509438507392837
 30
0.0
 10
21.20142610777874
 20
-4.711090420649995
 30
0.0
 10
19.67616794215954
 20
-3.595482131075505
 30
0.0
 10
18.15086820361785
 20
-2.252845417756435
 30
0.0
 10
16.69171692624062
 20
-0.8285033677900316
 30
0.0
 10
15.29928707643658
 20
0.5708184592491978
 30
0.0
 10
13.97406642713906
 20
1.87759207699537
 30
0.0
 10
12.64946566294442
 20
3.08811862114691
 30
0.0
 10
11.32494331412989
 20
4.165997227337446
 30
0.0
 10
10.44169052074291
 20
4.706348417015946
 30
0.0
 10
9.999999999997883
 20
4.976563241289631
 30
0.0
  0
LINE
  5
C3
330
1F
100
AcDbEntity
  8
0
  6
Continuous
 62
     1
370
    15
100
AcDbLine
 10
70.0
 20
-5.956215305426049
 30
0.0
 11
70.0
 21
-3.576678890255174
 31
0.0
  0
SPLINE
  5
C4
330
1F
100
AcDbEntity
  8
0
  6
Continuous
 62
     1
370
    15
100
AcDbSpline
210
0.0
220
0.0
230
1.0
 70
     8
 71
     3
 72
    22
 73
    18
 74
     0
 42
0.000000001
 43
0.00000001
 40
0.0
 40
0.0
 40
0.0
 40
0.0
 40
0.0528510467809813
 40
0.1152197211877665
 40
0.186930937382583
 40
0.258641148384502
 40
0.330349376257182
 40
0.4020557435652597
 40
0.4737603733554078
 40
0.54546338912514
 40
0.6171649147913538
 40
0.6888650746586458
 40
0.7605639933873903
 40
0.8322617959616249
 40
0.903958607656739
 40
0.9756545540070111
 40
1.0
 40
1.0
 40
1.0
 40
1.0
 10
14.17545168061525
 20
5.981173806053853
 30
0.0
 10
14.54997368794048
 20
5.968442299326711
 30
0.0
 10
15.36646312175484
 20
5.940686545283081
 30
0.0
 10
16.69172219180186
 20
5.526887508988351
 30
0.0
 10
18.15086670353428
 20
4.784116451635824
 30
0.0
 10
19.67616836984944
 20
3.690513370394799
 30
0.0
 10
21.20142589705743
 20
2.362361480793504
 30
0.0
 10
22.72662106512252
 20
0.8817285291556055
 30
0.0
 10
24.25176162654359
 20
-0.6553480473860674
 30
0.0
 10
25.77685048612324
 20
-2.150380487515711
 30
0.0
 10
27.30189186288644
 20
-3.507089161413709
 30
0.0
 10
28.82688965600573
 20
-4.638911269243418
 30
0.0
 10
30.35184781264664
 20
-5.470936954413705
 30
0.0
 10
31.8767704837956
 20
-5.957894606993584
 30
0.0
 10
33.40166102629206
 20
-6.037988232598948
 30
0.0
 10
34.59083999369287
 20
-5.867963581555939
 30
0.0
 10
35.2717203966253
 20
-5.558527357867202
 30
0.0
 10
35.44431615635801
 20
-5.480088648386986
 30
0.0
  0
SPLINE
  5
C5
330
1F
100
AcDbEntity
  8
0
  6
Continuous
 62
     1
370
    15
100
AcDbSpline
210
0.0
220
0.0
230
1.0
 70
     8
 71
     3
 72
    19
 73
    15
 74
     0
 42
0.000000001
 43
0.00000001
 40
0.0
 40
0.0
 40
0.0
 40
0.0
 40
0.074468509952615
 40
0.1586002531940837
 40
0.2427330535885916
 40
0.3268670583620012
 40
0.4110024144255863
 40
0.4951392683379842
 40
0.5792777662673346
 40
0.6634180539536703
 40
0.7475602766715341
 40
0.8317045791928618
 40
0.9158511057501616
 40
1.0
 40
1.0
 40
1.0
 40
1.0
 10
51.87447243310673
 20
5.980373483853196
 30
0.0
 10
52.32437819475368
 20
5.959025688444113
 30
0.0
 10
53.28257069459131
 20
5.913559950521191
 30
0.0
 10
54.74906608680637
 20
5.376246740092016
 30
0.0
 10
56.27396542824302
 20
4.508203653070897
 30
0.0
 10
57.7988977065166
 20
3.340834336874088
 30
0.0
 10
59.32386668413352
 20
1.961382938342876
 30
0.0
 10
60.84887640704774
 20
0.4552390192829054
 30
0.0
 10
62.37393081801864
 20
-1.080126319367094
 30
0.0
 10
63.89903391807898
 20
-2.545626045414237
 30
0.0
 10
65.42418950047173
 20
-3.84952945818278
 30
0.0
 10
66.94940204667306
 20
-4.898726973779763
 30
0.0
 10
68.47467340150719
 20
-5.660626374285909
 30
0.0
 10
69.49155303178813
 20
-5.857684737596384
 30
0.0
 10
69.99999999999997
 20
-5.956215305426048
 30
0.0
  0
SPLINE
  5
C6
330
1F
100
AcDbEntity
  8
0
  6
Continuous
 62
     1
370
    15
100
AcDbSpline
210
0.0
220
0.0
230
1.0
 70
     8
 71
     3
 72
    18
 73
    14
 74
     0
 42
0.000000001
 43
0.00000001
 40
0.0
 40
0.0
 40
0.0
 40
0.0
 40
0.0970874577113977
 40
0.1941721836786503
 40
0.2912543436466649
 40
0.3883341040248479
 40
0.4854116318449794
 40
0.5824870947187157
 40
0.6795606607947834
 40
0.7766324987158437
 40
0.8737027775750876
 40
0.9707716668725705
 40
1.0
 40
1.0
 40
1.0
 40
1.0
 10
70.00000000000001
 20
-3.604705152354168
 30
0.0
 10
69.49155303179184
 20
-3.175791623196879
 30
0.0
 10
68.4746734015182
 20
-2.317976633197299
 30
0.0
 10
66.94940204662917
 20
-0.8202249047835137
 30
0.0
 10
65.42418950063623
 20
0.7135723404757056
 30
0.0
 10
63.89903391746481
 20
2.205989636713155
 30
0.0
 10
62.37393082031113
 20
3.555315911506549
 30
0.0
 10
60.84887639849205
 20
4.676995788752306
 30
0.0
 10
59.32386671606309
 20
5.496228431682724
 30
0.0
 10
57.79889758735713
 20
5.969196771503638
 30
0.0
 10
56.27396587294191
 20
6.033015782633535
 30
0.0
 10
55.10430437644379
 20
5.857967855087691
 30
0.0
 10
54.44295566825531
 20
5.553107886259608
 30
0.0
 10
54.28990305169583
 20
5.482555671768726
 30
0.0
  0
SPLINE
  5
C7
330
1F
100
AcDbEntity
  8
0
  6
Continuous
 62
     1
370
    15
100
AcDbSpline
210
0.0
220
0.0
230
1.0
 70
     8
 71
     3
 72
    22
 73
    18
 74
     0
 42
0.000000001
 43
0.00000001
 40
0.0
 40
0.0
 40
0.0
 40
0.0
 40
0.0662266554708657
 40
0.1379287924577768
 40
0.2096316691004824
 40
0.2813354111716777
 40
0.3530401442177733
 40
0.4247459935262701
 40
0.4964530840932857
 40
0.5681615405912442
 40
0.6398714873367584
 40
0.7115830482587016
 40
0.7832963468665282
 40
0.8550115062188027
 40
0.9267286488920111
 40
0.99844679685528
 40
1.0
 40
1.0
 40
1.0
 40
1.0
 10
37.85975741502776
 20
-5.986391037971144
 30
0.0
 10
37.39029454664838
 20
-5.959998162953903
 30
0.0
 10
36.41255460071658
 20
-5.905030305152019
 30
0.0
 10
34.92652458330038
 20
-5.34907451973121
 30
0.0
 10
33.40166136090879
 20
-4.468064757618277
 30
0.0
 10
31.87677039395243
 20
-3.291099871074524
 30
0.0
 10
30.35184783739676
 20
-1.905053444166684
 30
0.0
 10
28.8268896468507
 20
-0.3959532295105654
 30
0.0
 10
27.30189187475629
 20
1.13841726816287
 30
0.0
 10
25.77685044779848
 20
2.599750075291591
 30
0.0
 10
24.25176176797714
 20
3.893858252253912
 30
0.0
 10
22.72662053769639
 20
4.938459366356162
 30
0.0
 10
21.20142786539694
 20
5.663205941811606
 30
0.0
 10
19.67616102364561
 20
6.033503498747141
 30
0.0
 10
18.15089412091326
 20
5.980802574459236
 30
0.0
 10
17.1228723261548
 20
5.775035552002273
 30
0.0
 10
16.60349371620777
 20
5.522102121477628
 30
0.0
 10
16.59248394938799
 20
5.516740448821739
 30
0.0
  0
SPLINE
  5
C8
330
1F
100
AcDbEntity
  8
0
  6
Continuous
 62
     1
370
    15
100
AcDbSpline
210
0.0
220
0.0
230
1.0
 70
     8
 71
     3
 72
    21
 73
    17
 74
     0
 42
0.000000001
 43
0.00000001
 40
0.0
 40
0.0
 40
0.0
 40
0.0
 40
0.0691710157017198
 40
0.1383219470884308
 40
0.2074743183358334
 40
0.2766496431011226
 40
0.3458692676209584
 40
0.4254576748795541
 40
0.505044966528822
 40
0.584630057210014
 40
0.6642130829510036
 40
0.7437941803146492
 40
0.8233734863641743
 40
0.9029511386282528
 40
0.9825272750658459
 40
0.9999999999999999
 40
0.9999999999999999
 40
0.9999999999999999
 40
0.9999999999999999
 10
9.999999999997911
 20
5.634281408166132
 30
0.0
 10
10.44169052074559
 20
5.455863843091167
 30
0.0
 10
11.32494331413785
 20
5.099080517798285
 30
0.0
 10
12.64946566291261
 20
4.242706644794847
 30
0.0
 10
13.97406642725844
 20
3.199873743383122
 30
0.0
 10
15.29928707599047
 20
1.995956643597755
 30
0.0
 10
16.69171692801179
 20
0.6320264664253546
 30
0.0
 10
18.15086819589663
 20
-0.8389569752355621
 30
0.0
 10
19.67616797084139
 20
-2.322311130699106
 30
0.0
 10
21.20142600077657
 20
-3.656413807027258
 30
0.0
 10
22.72662104923889
 20
-4.756067221682944
 30
0.0
 10
24.25176158636425
 20
-5.548009507049857
 30
0.0
 10
25.77685066271818
 20
-5.99128156994434
 30
0.0
 10
27.3018911967052
 20
-6.020362239982179
 30
0.0
 10
28.43018357420888
 20
-5.836371104701586
 30
0.0
 10
29.05012593099916
 20
-5.542446010042373
 30
0.0
 10
29.16174065910748
 20
-5.48952759082926
 30
0.0
  0
SPLINE
  5
C9
330
1F
100
AcDbEntity
  8
0
  6
Continuous
 62
     1
370
    15
100
AcDbSpline
210
0.0
220
0.0
230
1.0
 70
     8
 71
     3
 72
    22
 73
    18
 74
     0
 42
0.000000001
 43
0.00000001
 40
0.0
 40
0.0
 40
0.0
 40
0.0
 40
0.0003613033187988
 40
0.0720688807859161
 40
0.1437767290023485
 40
0.2154849743063857
 40
0.2871937429322929
 40
0.3589031609772805
 40
0.4306133543685751
 40
0.502324448830571
 40
0.5740365698521107
 40
0.645749842653895
 40
0.717464392156053
 40
0.7891803429458708
 40
0.860897819245735
 40
0.9326169448812693
 40
1.0
 40
1.0
 40
1.0
 40
1.0
 10
45.59244881955411
 20
5.999033683850703
 30
0.0
 10
45.59500972925125
 20
5.999355614559784
 30
0.0
 10
46.10583231532816
 20
6.063570872728812
 30
0.0
 10
47.1249196403286
 20
5.838600761028864
 30
0.0
 10
48.64971541813985
 20
5.302266381215543
 30
0.0
 10
50.17452400402595
 20
4.378281108789924
 30
0.0
 10
51.69934925656726
 20
3.185591218014612
 30
0.0
 10
53.2241952448348
 20
1.784852915313853
 30
0.0
 10
54.74906597438581
 20
0.2703394317417809
 30
0.0
 10
56.27396545803647
 20
-1.261806119219692
 30
0.0
 10
57.7988976997656
 20
-2.712785612746654
 30
0.0
 10
59.3238666813435
 20
-3.989646552062851
 30
0.0
 10
60.84887642495968
 20
-5.009601174775304
 30
0.0
 10
62.37393074915894
 20
-5.709803864287693
 30
0.0
 10
63.89903417561372
 20
-6.03521038139642
 30
0.0
 10
65.39343952715205
 20
-6.003039629885158
 30
0.0
 10
66.37948777050246
 20
-5.670836647830495
 30
0.0
 10
66.85714342457729
 20
-5.50991284542124
 30
0.0
  0
SPLINE
  5
CA
330
1F
100
AcDbEntity
  8
0
  6
Continuous
 62
     1
370
    15
100
AcDbSpline
210
0.0
220
0.0
230
1.0
 70
     8
 71
     3
 72
    22
 73
    18
 74
     0
 42
0.000000001
 43
0.00000001
 40
0.0
 40
0.0
 40
0.0
 40
0.0
 40
0.0376157312130848
 40
0.1093322451435167
 40
0.1810468635696016
 40
0.252759709418014
 40
0.3244709060751762
 40
0.3961805773558649
 40
0.4678888474715912
 40
0.5395958409987353
 40
0.6113016828464843
 40
0.6830064982245762
 40
0.7547104126108649
 40
0.8264135517187368
 40
0.8981160414643921
 40
0.9698180079340003
 40
1.0
 40
1.0
 40
1.0
 40
1.0
 10
69.27468899402596
 20
-5.951725048605303
 30
0.0
 10
69.00801332493398
 20
-5.960122878584302
 30
0.0
 10
68.23290544621668
 20
-5.984531645244624
 30
0.0
 10
66.94940246661841
 20
-5.60322130743622
 30
0.0
 10
65.4241893879625
 20
-4.861926037654881
 30
0.0
 10
63.89903394818521
 20
-3.788963856141494
 30
0.0
 10
62.37393081009938
 20
-2.477713378540142
 30
0.0
 10
60.84887640861932
 20
-1.005888359477598
 30
0.0
 10
59.32386668576615
 20
0.5301750506975618
 30
0.0
 10
57.79889769841502
 20
2.032288153987396
 30
0.0
 10
56.2739654590161
 20
3.403677461123739
 30
0.0
 10
54.74906597181798
 20
4.556783484490111
 30
0.0
 10
53.22419525412622
 20
5.41559764962901
 30
0.0
 10
51.69934922196994
 20
5.932112557309692
 30
0.0
 10
50.17452413312213
 20
6.046420981333807
 30
0.0
 10
48.94403227686001
 20
5.888663822286411
 30
0.0
 10
48.22181600558969
 20
5.570777790601392
 30
0.0
 10
48.00786744997089
 20
5.476607581432926
 30
0.0
  0
SPLINE
  5
CB
330
1F
100
AcDbEntity
  8
0
  6
Continuous
 62
     1
370
    15
100
AcDbSpline
210
0.0
220
0.0
230
1.0
 70
     8
 71
     3
 72
    22
 73
    18
 74
     0
 42
0.000000001
 43
0.00000001
 40
0.0
 40
0.0
 40
0.0
 40
0.0
 40
0.0576160808522094
 40
0.1293193926155854
 40
0.2010239455935541
 40
0.2727298644541279
 40
0.3444372735095201
 40
0.4161462966842184
 40
0.4878570574833065
 40
0.559569678960994
 40
0.631284283689429
 40
0.7029998936723492
 40
0.7653723894442467
 40
0.8277049675443519
 40
0.8900168626631882
 40
0.9523274603507615
 40
1.0
 40
1.0
 40
1.0
 40
1.0
 10
31.57720011485779
 20
-5.969494502708382
 30
0.0
 10
31.16875192225925
 20
-5.957630820979768
 30
0.0
 10
30.25198925113507
 20
-5.931002766925479
 30
0.0
 10
28.82688944625234
 20
-5.431972969263606
 30
0.0
 10
27.30189191959977
 20
-4.591753981929053
 30
0.0
 10
25.7768504690291
 20
-3.445022793819196
 30
0.0
 10
24.25176163820575
 20
-2.079994269125058
 30
0.0
 10
22.72662103556787
 20
-0.5804724962062626
 30
0.0
 10
21.20142600361752
 20
0.9561398941489555
 30
0.0
 10
19.67616797314923
 20
2.431417329572712
 30
0.0
 10
18.15086818382395
 20
3.750349572286364
 30
0.0
 10
16.69171697147417
 20
4.781823392246688
 30
0.0
 10
15.29928693697689
 20
5.50029935322219
 30
0.0
 10
13.9740669480942
 20
5.919925062179553
 30
0.0
 10
12.64946371915835
 20
6.043030356546306
 30
0.0
 10
11.42878660835652
 20
5.915820119757528
 30
0.0
 10
10.64939794003531
 20
5.622826508227964
 30
0.0
 10
10.31156945021031
 20
5.495827498190253
 30
0.0
  0
SPLINE
  5
CC
330
1F
100
AcDbEntity
  8
0
  6
Continuous
 62
     1
370
    15
100
AcDbSpline
210
0.0
220
0.0
230
1.0
 70
     8
 71
     3
 72
    12
 73
     8
 74
     0
 42
0.000000001
 43
0.00000001
 40
0.0
 40
0.0
 40
0.0
 40
0.0
 40
0.2009934519003862
 40
0.4019285438683396
 40
0.6028678197067726
 40
0.803873792654486
 40
1.0
 40
1.0
 40
1.0
 40
1.0
 10
9.999999999997911
 20
-4.60352105557459
 30
0.0
 10
10.44169057634263
 20
-4.865056076505176
 30
0.0
 10
11.32494348091287
 20
-5.388050179742448
 30
0.0
 10
12.6494649960328
 20
-5.85233329763574
 30
0.0
 10
13.97406892849054
 20
-6.042845250199492
 30
0.0
 10
15.28827206958643
 20
-5.956627847284694
 30
0.0
 10
16.16132252817567
 20
-5.662163503796195
 30
0.0
 10
16.59248394938793
 20
-5.516740448821793
 30
0.0
  0
SPLINE
  5
CD
330
1F
100
AcDbEntity
  8
0
  6
Continuous
 62
     1
370
    15
100
AcDbSpline
210
0.0
220
0.0
230
1.0
 70
     8
 71
     3
 72
    22
 73
    18
 74
     0
 42
0.000000001
 43
0.00000001
 40
0.0
 40
0.0
 40
0.0
 40
0.0
 40
0.0175865794714494
 40
0.0893029790421885
 40
0.1610186388176323
 40
0.2327336847877634
 40
0.3044482431032465
 40
0.376162440042474
 40
0.4478764019785204
 40
0.5195902553460479
 40
0.5913041266081761
 40
0.6630181422233329
 40
0.7347324286121137
 40
0.8064471121241511
 40
0.8781623190050442
 40
0.9498781753633246
 40
1.0
 40
1.0
 40
1.0
 40
1.0
 10
33.02773082145606
 20
5.964217560566531
 30
0.0
 10
33.1523759281548
 20
5.97500253859452
 30
0.0
 10
33.78531193309527
 20
6.029767631964014
 30
0.0
 10
34.92652416901629
 20
5.744012030564429
 30
0.0
 10
36.45136450533795
 20
5.108796583689289
 30
0.0
 10
37.97618446328914
 20
4.114369440831294
 30
0.0
 10
39.50098907004752
 20
2.863912331123169
 30
0.0
 10
41.02578208671623
 20
1.42723528672816
 30
0.0
 10
42.55056761841155
 20
-0.1005333827884846
 30
0.0
 10
44.07534968047952
 20
-1.62201969506727
 30
0.0
 10
45.60013231649081
 20
-3.039187239239886
 30
0.0
 10
47.12491955296478
 20
-4.261361335714069
 30
0.0
 10
48.64971545540058
 20
-5.20882005640912
 30
0.0
 10
50.17452394234711
 20
-5.825124572259964
 30
0.0
 10
51.69934946602388
 20
-6.05414283815356
 30
0.0
 10
53.07114270697923
 20
-5.954026942916181
 30
0.0
 10
53.93466539241294
 20
-5.619977562387043
 30
0.0
 10
54.2899030516958
 20
-5.482555671768782
 30
0.0
  0
SPLINE
  5
CE
330
1F
100
AcDbEntity
  8
0
  6
Continuous
 62
   131
370
    15
100
AcDbSpline
210
0.0
220
0.0
230
1.0
 70
    24
 71
     3
 72
    22
 73
    18
 74
     0
 42
0.000000001
 43
0.00000001
 40
0.0
 40
0.0
 40
0.0
 40
0.0
 40
0.0105440795355579
 40
0.0805335705861999
 40
0.1525527616187352
 40
0.2225422526693837
 40
0.2945614437019256
 40
0.3645509347525702
 40
0.4365701257851086
 40
0.5065596168357575
 40
0.5785788078683005
 40
0.6485682989189443
 40
0.7205874899514815
 40
0.7905769810020636
 40
0.8625961720346733
 40
0.9303791954133852
 40
1.0
 40
1.0
 40
1.0
 40
1.0
 10
9.999999999999993
 20
-0.3418058499157208
 30
0.0
 10
9.999999999999993
 20
-0.3422535178539876
 30
0.0
 10
9.999999999999929
 20
-0.3456727160290404
 30
0.0
 10
10.00000000000001
 20
-0.41759049733926
 30
0.0
 10
10.00000000000004
 20
-0.5584163282995602
 30
0.0
 10
9.999999999999929
 20
-0.7690516783245767
 30
0.0
 10
9.9999999999999
 20
-1.03136486476234
 30
0.0
 10
9.999999999999993
 20
-1.344901715518338
 30
0.0
 10
10.00000000000011
 20
-1.694542577704781
 30
0.0
 10
9.999999999999858
 20
-2.076847028462968
 30
0.0
 10
9.999999999999929
 20
-2.47406345237283
 30
0.0
 10
9.999999999999964
 20
-2.882133951973158
 30
0.0
 10
9.999999999999993
 20
-3.282069213433884
 30
0.0
 10
9.999999999999993
 20
-3.670089412210739
 30
0.0
 10
9.999999999999979
 20
-4.02324197096883
 30
0.0
 10
9.999999999999943
 20
-4.343510907277542
 30
0.0
 10
9.999999999999979
 20
-4.5160816262574
 30
0.0
 10
9.999999999999993
 20
-4.603521055575921
 30
0.0
  0
SPLINE
  5
CF
330
1F
100
AcDbEntity
  8
0
  6
Continuous
 62
     1
370
    15
100
AcDbSpline
210
0.0
220
0.0
230
1.0
 70
     8
 71
     3
 72
    22
 73
    18
 74
     0
 42
0.000000001
 43
0.00000001
 40
0.0
 40
0.0
 40
0.0
 40
0.0
 40
0.0203552957996569
 40
0.0920719307984248
 40
0.1637876646568726
 40
0.2355026231091089
 40
0.3072169320920894
 40
0.3789307177127677
 40
0.4506441062151596
 40
0.5223572239473189
 40
0.5940701973282566
 40
0.6657831528148193
 40
0.7374962168685396
 40
0.8092095159224991
 40
0.8809231763481906
 40
0.9526373244224225
 40
1.0
 40
1.0
 40
1.0
 40
1.0
 10
56.70677435554728
 20
-5.960690513779422
 30
0.0
 10
56.56250280159237
 20
-5.972143433231535
 30
0.0
 10
55.90992763576551
 20
-6.02394776059742
 30
0.0
 10
54.74906651640315
 20
-5.72645140599955
 30
0.0
 10
53.22419509920502
 20
-5.076087998119685
 30
0.0
 10
51.69934929707772
 20
-4.070568185123575
 30
0.0
 10
50.17452398761198
 20
-2.811306879324324
 30
0.0
 10
48.64971544328529
 20
-1.369345941729248
 30
0.0
 10
47.12491955616129
 20
0.1600235008936815
 30
0.0
 10
45.60013231582015
 20
1.679277993755087
 30
0.0
 10
44.07534967996588
 20
3.090531057615896
 30
0.0
 10
42.55056762113678
 20
4.303508328171325
 30
0.0
 10
41.02578207632885
 20
5.238993857637282
 30
0.0
 10
39.50098910887189
 20
5.841642887946451
 30
0.0
 10
37.97618431837802
 20
6.054993844187769
 30
0.0
 10
36.62396003950246
 20
5.94551939349342
 30
0.0
 10
35.78000023852074
 20
5.612533443560991
 30
0.0
 10
35.44431615635797
 20
5.480088648386932
 30
0.0
  0
SPLINE
  5
D0
330
1F
100
AcDbEntity
  8
0
  6
Continuous
 62
     1
370
    15
100
AcDbSpline
210
0.0
220
0.0
230
1.0
 70
     8
 71
     3
 72
    14
 73
    10
 74
     0
 42
0.000000001
 43
0.00000001
 40
0.0
 40
0.0
 40
0.0
 40
0.0
 40
0.0952873688544055
 40
0.2645277929694361
 40
0.4117195639111165
 40
0.5588171338314935
 40
0.7058658943431135
 40
0.8529115930691995
 40
0.9999999999999999
 40
0.9999999999999999
 40
0.9999999999999999
 40
0.9999999999999999
 10
19.00967415237674
 20
-5.952381076071259
 30
0.0
 10
18.72340553281636
 20
-5.95911036804806
 30
0.0
 10
17.92869363092285
 20
-5.977791592813435
 30
0.0
 10
16.69171596514762
 20
-5.600563649716871
 30
0.0
 10
15.29928731845061
 20
-4.93209060639337
 30
0.0
 10
13.97406636235531
 20
-4.041063237722753
 30
0.0
 10
12.64946568021713
 20
-2.957381868258198
 30
0.0
 10
11.32494330981025
 20
-1.730389751013556
 30
0.0
 10
10.44169051930291
 20
-0.8530831048980934
 30
0.0
 10
9.999999999997883
 20
-0.4143660894784107
 30
0.0
  0
LINE
  5
D1
330
1F
100
AcDbEntity
  8
0
  6
Continuous
 62
     1
370
    15
100
AcDbLine
 10
70.0
 20
-2.351510153071823
 30
0.0
 11
70.0
 21
2.351510153071879
 31
0.0
  0
SPLINE
  5
D2
330
1F
100
AcDbEntity
  8
0
  6
Continuous
 62
     1
370
    15
100
AcDbSpline
210
0.0
220
0.0
230
1.0
 70
     8
 71
     3
 72
    22
 73
    18
 74
     0
 42
0.000000001
 43
0.00000001
 40
0.0
 40
0.0
 40
0.0
 40
0.0
 40
0.034850154260923
 40
0.1065665635720166
 40
0.1782812351218526
 40
0.2499942924252401
 40
0.3217058594164298
 40
0.3934160604174267
 40
0.4651250201060628
 40
0.5368328634838788
 40
0.6085397158438084
 40
0.6802457027377102
 40
0.7519509499437295
 40
0.8236555834335557
 40
0.895359729339538
 40
0.9670635139217335
 40
1.0
 40
1.0
 40
1.0
 40
1.0
 10
20.46026635203506
 20
5.951648677947291
 30
0.0
 10
20.70732312484702
 20
5.96140502045944
 30
0.0
 10
21.4627858148725
 20
5.991238457831536
 30
0.0
 10
22.72662051696197
 20
5.624528086560859
 30
0.0
 10
24.25176177352542
 20
4.897435781804896
 30
0.0
 10
25.77685044633885
 20
3.835071190558299
 30
0.0
 10
27.30189187504661
 20
2.531817914823571
 30
0.0
 10
28.82688964714866
 20
1.064420662885234
 30
0.0
 10
30.3518478359144
 20
-0.4709508648472089
 30
0.0
 10
31.87677039958332
 20
-1.976184819476525
 30
0.0
 10
33.4016613398678
 20
-3.354308536200115
 30
0.0
 10
34.92652466183202
 20
-4.517301556451065
 30
0.0
 10
36.45136436895072
 20
-5.388637463343687
 30
0.0
 10
37.97618451602854
 20
-5.919064749177672
 30
0.0
 10
39.50098899547625
 20
-6.049421263550109
 30
0.0
 10
40.75098639790693
 20
-5.898205554020342
 30
0.0
 10
41.49271568578155
 20
-5.576915123118213
 30
0.0
 10
41.72618179027198
 20
-5.47578600965457
 30
0.0
  0
SPLINE
  5
D3
330
1F
100
AcDbEntity
  8
0
  6
Continuous
 62
     1
370
    15
100
AcDbSpline
210
0.0
220
0.0
230
1.0
 70
     8
 71
     3
 72
    15
 73
    11
 74
     0
 42
0.000000001
 43
0.00000001
 40
0.0
 40
0.0
 40
0.0
 40
0.0
 40
0.0985094928314941
 40
0.2272851906657721
 40
0.3560634047509019
 40
0.4848443581493528
 40
0.6136282732111391
 40
0.7424153715170088
 40
0.8712058738220891
 40
1.0
 40
1.0
 40
1.0
 40
1.0
 10
58.15728473897387
 20
5.96524470460192
 30
0.0
 10
58.54614249881341
 20
5.95729396951735
 30
0.0
 10
59.44333126252143
 20
5.938949703521374
 30
0.0
 10
60.84887666171589
 20
5.457428737077935
 30
0.0
 10
62.37393074977849
 20
4.630475078496773
 30
0.0
 10
63.89903393636408
 20
3.493806027069299
 30
0.0
 10
65.42418949557376
 20
2.135163273554949
 30
0.0
 10
66.94940204797926
 20
0.6413203395651246
 30
0.0
 10
68.47467340118064
 20
-0.904367070684368
 30
0.0
 10
69.49155303167925
 20
-1.869124601324609
 30
0.0
 10
69.99999999999997
 20
-2.351510153071823
 30
0.0
  0
SPLINE
  5
D4
330
1F
100
AcDbEntity
  8
0
  6
Continuous
 62
     1
370
    15
100
AcDbSpline
210
0.0
220
0.0
230
1.0
 70
     8
 71
     3
 72
    14
 73
    10
 74
     0
 42
0.000000001
 43
0.00000001
 40
0.0
 40
0.0
 40
0.0
 40
0.0
 40
0.1617965387241071
 40
0.3235885249884243
 40
0.4853762350073347
 40
0.647159946102612
 40
0.8089399366332177
 40
0.9707164859244783
 40
1.0
 40
1.0
 40
1.0
 40
1.0
 10
70.00000000000001
 20
2.351510153071879
 30
0.0
 10
69.49155303308065
 20
2.804465225658966
 30
0.0
 10
68.47467340538456
 20
3.710362626062635
 30
0.0
 10
66.94940203116444
 20
4.790851260786025
 30
0.0
 10
65.4241895586266
 20
5.572095657315623
 30
0.0
 10
63.89903370097542
 20
6.000709607466612
 30
0.0
 10
62.37393162825315
 20
6.013408092047899
 30
0.0
 10
61.26519795617351
 20
5.825986669118819
 30
0.0
 10
60.66483523183929
 20
5.537814725116318
 30
0.0
 10
60.57281845984276
 20
5.493647006181943
 30
0.0
  0
SPLINE
  5
D5
330
1F
100
AcDbEntity
  8
0
  6
Continuous
 62
     1
370
    15
100
AcDbSpline
210
0.0
220
0.0
230
1.0
 70
     8
 71
     3
 72
    22
 73
    18
 74
     0
 42
0.000000001
 43
0.00000001
 40
0.0
 40
0.0
 40
0.0
 40
0.0
 40
0.0031168562926375
 40
0.0748270127641415
 40
0.1465372777985656
 40
0.2182477778240566
 40
0.2899586392071751
 40
0.3616699882198006
 40
0.4333819510061004
 40
0.5050946535495546
 40
0.5768082216400935
 40
0.6485227808413323
 40
0.720238456457941
 40
0.7919553735031658
 40
0.863673656666516
 40
0.9353934302816397
 40
0.9999999999999999
 40
0.9999999999999999
 40
0.9999999999999999
 40
0.9999999999999999
 10
44.1416236718009
 20
-5.99198135542866
 30
0.0
 10
44.11953230970566
 20
-5.994636776979906
 30
0.0
 10
43.58918041719701
 20
-6.058386030604033
 30
0.0
 10
42.550567664377
 20
-5.825245542929969
 30
0.0
 10
41.02578207675126
 20
-5.272461078981954
 30
0.0
 10
39.50098906394182
 20
-4.337063579946645
 30
0.0
 10
37.97618449767754
 20
-3.134776866820943
 30
0.0
 10
36.45136437388888
 20
-1.727933931245744
 30
0.0
 10
34.92652466043069
 20
-0.2109160380359799
 30
0.0
 10
33.4016613405347
 20
1.31989899981893
 30
0.0
 10
31.87677039831722
 20
2.76581570739621
 30
0.0
 10
30.35184784031212
 20
4.034221432000633
 30
0.0
 10
28.82688963082387
 20
5.042808263065226
 30
0.0
 10
27.30189193594995
 20
5.729713633774661
 30
0.0
 10
25.77685021904427
 20
6.039814477022037
 30
0.0
 10
24.30219369236421
 20
5.995654573345281
 30
0.0
 10
23.33587478176901
 20
5.662170992831978
 30
0.0
 10
22.87792550695553
 20
5.504129416512006
 30
0.0
  0
LINE
  5
D6
330
1F
100
AcDbEntity
  8
0
  6
Continuous
 62
   131
370
    15
100
AcDbLine
 10
70.0
 20
-6.00000000000003
 30
0.0
 11
70.0
 21
-5.956215305426049
 31
0.0
  0
LINE
  5
D7
330
1F
100
AcDbEntity
  8
0
  6
Continuous
 62
   131
370
    15
100
AcDbLine
 10
70.0
 20
5.956215305425999
 30
0.0
 11
70.0
 21
5.999999999999972
 31
0.0
  0
LINE
  5
D8
330
1F
100
AcDbEntity
  8
0
  6
Continuous
 62
   131
370
    15
100
AcDbLine
 10
9.999999999999993
 20
-5.390929330768977
 30
0.0
 11
9.999999999999993
 21
-4.603521055575921
 31
0.0
  0
LINE
  5
D9
330
1F
100
AcDbEntity
  8
0
  6
Continuous
 62
   131
370
    15
100
AcDbLine
 10
9.999999999999993
 20
-0.414366089480481
 30
0.0
 11
9.999999999999993
 21
1.030760352589545
 31
0.0
  0
LINE
  5
DA
330
1F
100
AcDbEntity
  8
0
  6
Continuous
 62
     1
370
    15
100
AcDbLine
 10
70.0
 20
2.351510153071879
 30
0.0
 11
70.0
 21
3.60470515235414
 31
0.0
  0
LINE
  5
DB
330
1F
100
AcDbEntity
  8
0
  6
Continuous
 62
     1
370
    15
100
AcDbLine
 10
70.0
 20
-3.604705152354168
 30
0.0
 11
70.0
 21
-2.351510153071823
 31
0.0
  0
LINE
  5
DC
330
1F
100
AcDbEntity
  8
0
  6
Continuous
 62
   131
370
    15
100
AcDbLine
 10
9.999999999999993
 20
4.976563241288471
 30
0.0
 11
9.999999999999993
 21
5.634281408165419
 31
0.0
  0
SPLINE
  5
DD
330
1F
100
AcDbEntity
  8
0
  6
Continuous
 62
   131
370
    15
100
AcDbSpline
210
0.0
220
0.0
230
1.0
 70
    24
 71
     3
 72
    15
 73
    11
 74
     0
 42
0.000000001
 43
0.00000001
 40
0.0
 40
0.0
 40
0.0
 40
0.0
 40
0.0697088162113651
 40
0.2214318407183063
 40
0.3731548652252459
 40
0.5248778897321837
 40
0.676600914239127
 40
0.8283239387460668
 40
0.9800469632529926
 40
1.0
 40
1.0
 40
1.0
 40
1.0
 10
10.00000000000001
 20
-4.603521055575931
 30
0.0
 10
10.00000000000001
 20
-4.522024729190958
 30
0.0
 10
10.00000000000005
 20
-4.263149560396134
 30
0.0
 10
9.99999999999995
 20
-3.690962231234254
 30
0.0
 10
10.00000000000014
 20
-2.894568762075703
 30
0.0
 10
9.999999999999943
 20
-2.078285924234908
 30
0.0
 10
9.999999999999993
 20
-1.328973836567143
 30
0.0
 10
9.99999999999995
 20
-0.7630193736108479
 30
0.0
 10
10.00000000000008
 20
-0.44950935832582
 30
0.0
 10
9.999999999999979
 20
-0.4180253194303988
 30
0.0
 10
9.999999999999979
 20
-0.4143660894804798
 30
0.0
  0
SPLINE
  5
DE
330
1F
100
AcDbEntity
  8
0
  6
Continuous
 62
   131
370
    15
100
AcDbSpline
210
0.0
220
0.0
230
1.0
 70
     8
 71
     3
 72
     8
 73
     4
 74
     0
 42
0.000000001
 43
0.00000001
 40
0.0
 40
0.0
 40
0.0
 40
0.0
 40
1.0
 40
1.0
 40
1.0
 40
1.0
 10
9.999999999997911
 20
-4.603521055574594
 30
0.0
 10
9.667530987579525
 20
-4.390235028085019
 30
0.0
 10
9.3317697688627
 20
-4.154892155856185
 30
0.0
 10
8.99964061573261
 20
-3.902365848928945
 30
0.0
  0
SPLINE
  5
DF
330
1F
100
AcDbEntity
  8
0
  6
Continuous
 62
   131
370
    15
100
AcDbSpline
210
0.0
220
0.0
230
1.0
 70
     8
 71
     3
 72
     8
 73
     4
 74
     0
 42
0.000000001
 43
0.00000001
 40
0.0
 40
0.0
 40
0.0
 40
0.0
 40
1.0
 40
1.0
 40
1.0
 40
1.0
 10
9.999999999997897
 20
-0.4143660894784177
 30
0.0
 10
9.66753098757954
 20
-0.0825990300818639
 30
0.0
 10
9.3317697688627
 20
0.2521735422905511
 30
0.0
 10
8.99964061573261
 20
0.5830480251046852
 30
0.0
  0
LINE
  5
E0
330
1F
100
AcDbEntity
  8
0
  6
Continuous
 62
   131
370
    15
100
AcDbLine
 10
8.99964061573261
 20
5.898161660006491
 30
0.0
 11
8.99964061573261
 21
5.99999999999997
 31
0.0
  0
SPLINE
  5
E1
330
1F
100
AcDbEntity
  8
0
  6
Continuous
 62
   131
370
    15
100
AcDbSpline
210
0.0
220
0.0
230
1.0
 70
     8
 71
     3
 72
     8
 73
     4
 74
     0
 42
0.000000001
 43
0.00000001
 40
0.0
 40
0.0
 40
0.0
 40
0.0
 40
1.0
 40
1.0
 40
1.0
 40
1.0
 10
9.999999999997911
 20
5.634281408166129
 30
0.0
 10
9.667530987579525
 20
5.748612265325448
 30
0.0
 10
9.3317697688627
 20
5.837172737794798
 30
0.0
 10
8.99964061573261
 20
5.89816349014181
 30
0.0
  0
SPLINE
  5
E2
330
1F
100
AcDbEntity
  8
0
  6
Continuous
 62
   131
370
    15
100
AcDbSpline
210
0.0
220
0.0
230
1.0
 70
     8
 71
     3
 72
     8
 73
     4
 74
     0
 42
0.000000001
 43
0.00000001
 40
0.0
 40
0.0
 40
0.0
 40
0.0
 40
1.0
 40
1.0
 40
1.0
 40
1.0
 10
9.999999999997897
 20
4.976563241289625
 30
0.0
 10
9.66753098757954
 20
5.162336780756089
 30
0.0
 10
9.3317697688627
 20
5.325624977124289
 30
0.0
 10
8.99964061573261
 20
5.463084826302484
 30
0.0
  0
LINE
  5
E3
330
1F
100
AcDbEntity
  8
0
  6
Continuous
 62
   131
370
    15
100
AcDbLine
 10
8.99964061573261
 20
1.99578823361858
 30
0.0
 11
8.99964061573261
 21
5.463091371805653
 31
0.0
  0
SPLINE
  5
E4
330
1F
100
AcDbEntity
  8
0
  6
Continuous
 62
   131
370
    15
100
AcDbSpline
210
0.0
220
0.0
230
1.0
 70
     8
 71
     3
 72
     8
 73
     4
 74
     0
 42
0.000000001
 43
0.00000001
 40
0.0
 40
0.0
 40
0.0
 40
0.0
 40
1.0
 40
1.0
 40
1.0
 40
1.0
 10
9.999999999997911
 20
1.030760352591581
 30
0.0
 10
9.667530987579525
 20
1.358377237240475
 30
0.0
 10
9.3317697688627
 20
1.682280581938657
 30
0.0
 10
8.99964061573261
 20
1.99579764121291
 30
0.0
  0
SPLINE
  5
E5
330
1F
100
AcDbEntity
  8
0
  6
Continuous
 62
   131
370
    15
100
AcDbSpline
210
0.0
220
0.0
230
1.0
 70
     8
 71
     3
 72
     8
 73
     4
 74
     0
 42
0.000000001
 43
0.00000001
 40
0.0
 40
0.0
 40
0.0
 40
0.0
 40
1.0
 40
1.0
 40
1.0
 40
1.0
 10
9.999999999997897
 20
-5.390929330768069
 30
0.0
 10
9.66753098757954
 20
-5.24493581083798
 30
0.0
 10
9.3317697688627
 20
-5.073451434833767
 30
0.0
 10
8.99964061573261
 20
-4.880036801197829
 30
0.0
  0
LINE
  5
E6
330
1F
100
AcDbEntity
  8
0
  6
Continuous
 62
   131
370
    15
100
AcDbLine
 10
8.99964061573261
 20
-6.000000000000027
 30
0.0
 11
8.99964061573261
 21
-4.880027591220388
 31
0.0
  0
SPLINE
  5
E7
330
1F
100
AcDbEntity
  8
0
  6
Continuous
 62
   131
370
    15
100
AcDbSpline
210
0.0
220
0.0
230
1.0
 70
     8
 71
     3
 72
     8
 73
     4
 74
     0
 42
0.000000001
 43
0.00000001
 40
0.0
 40
0.0
 40
0.0
 40
0.0
 40
1.0
 40
1.0
 40
1.0
 40
1.0
 10
9.999999999997911
 20
-5.634281408166187
 30
0.0
 10
9.667530987579525
 20
-5.748612265325506
 30
0.0
 10
9.3317697688627
 20
-5.837172737794854
 30
0.0
 10
8.99964061573261
 20
-5.898163490141868
 30
0.0
  0
LINE
  5
E8
330
1F
100
AcDbEntity
  8
0
  6
Continuous
 62
   131
370
    15
100
AcDbLine
 10
-78.80000000000001
 20
-0.0000000000000286
 30
0.0
 11
-78.80000000000001
 21
5.99999999999997
 31
0.0
  0
LINE
  5
E9
330
1F
100
AcDbEntity
  8
0
  6
Continuous
 62
   131
370
    15
100
AcDbLine
 10
-78.80000000000001
 20
-6.000000000000027
 30
0.0
 11
-78.80000000000001
 21
-0.0000000000000286
 31
0.0
  0
LINE
  5
EA
330
1F
100
AcDbEntity
  8
0
  6
Continuous
 62
   131
370
    15
100
AcDbLine
 10
8.99964061573261
 20
-3.902373426387956
 30
0.0
 11
8.99964061573261
 21
0.5830637805852952
 31
0.0
  0
LINE
  5
EB
330
1F
100
AcDbEntity
  8
0
  6
Continuous
 62
   131
370
    15
100
AcDbLine
 10
-80.0
 20
-0.0000000000000286
 30
0.0
 11
-80.0
 21
4.799999999999975
 31
0.0
  0
LINE
  5
EC
330
1F
100
AcDbEntity
  8
0
  6
Continuous
 62
   131
370
    15
100
AcDbLine
 10
-80.0
 20
-4.800000000000033
 30
0.0
 11
-80.0
 21
-0.0000000000000286
 31
0.0
  0
SPLINE
  5
ED
330
1F
100
AcDbEntity
  8
0
  6
Continuous
 62
   131
370
    15
100
AcDbSpline
210
0.0
220
0.0
230
1.0
 70
    24
 71
     3
 72
    15
 73
    11
 74
     0
 42
0.000000001
 43
0.00000001
 40
0.0
 40
0.0
 40
0.0
 40
0.0
 40
0.0469634694559121
 40
0.1900108330207352
 40
0.3330581965855568
 40
0.4761055601503836
 40
0.619152923715207
 40
0.7622002872800172
 40
0.9052476508448559
 40
1.0
 40
1.0
 40
1.0
 40
1.0
 10
10.00000000000001
 20
0.8949389982176671
 30
0.0
 10
10.00000000000002
 20
0.8872154136328175
 30
0.0
 10
9.999999999999979
 20
0.8559663437094147
 30
0.0
 10
10.00000000000018
 20
1.079802538303122
 30
0.0
 10
9.999999999999872
 20
1.544507107905508
 30
0.0
 10
10.00000000000004
 20
2.221726991528724
 30
0.0
 10
9.999999999999993
 20
3.012365731123779
 30
0.0
 10
10.00000000000001
 20
3.82965170581129
 30
0.0
 10
9.999999999999979
 20
4.508619973849918
 30
0.0
 10
9.99999999999995
 20
4.843234572053682
 30
0.0
 10
9.99999999999995
 20
4.976563241288643
 30
0.0
  0
LINE
  5
EE
330
1F
100
AcDbEntity
  8
0
  6
Continuous
 62
   131
370
    15
100
AcDbLine
 10
10.00000000000001
 20
-5.63428140816547
 30
0.0
 11
10.00000000000002
 21
-5.49406263975702
 31
0.0
  0
LINE
  5
EF
330
1F
100
AcDbEntity
  8
중심선
 62
     1
100
AcDbLine
 10
-83.20259277488955
 20
-0.0000000000000333
 30
0.0
 11
73.0
 21
0.0000000000000292
 31
0.0
  0
CIRCLE
  5
F0
330
1F
100
AcDbEntity
  8
외형선
100
AcDbCircle
 10
0.0
 20
0.0
 30
0.0
 40
3.000000000000004
  0
INSERT
  5
F1
330
1F
100
AcDbEntity
  8
0
  6
Continuous
 62
     7
100
AcDbBlockReference
 66
     1
  2
블럭10
 10
-22.93944368806589
 20
-52.04609937292004
 30
0.0
  0
ATTRIB
  5
F2
330
F1
100
AcDbEntity
  8
FORMAT
 62
     2
100
AcDbText
 10
-43.79769121965843
 20
-49.97073246008785
 30
0.0
 40
4.233333333333333
  1
SEME7512060150E [ 6 FLUTE ]
 41
0.75
  7
SLDTEXTSTYLE0
 11
-43.79769121965843
 21
-52.08739912675452
 31
0.0
100
AcDbAttribute
  2
AUTOATTR0
 70
     0
 74
     1
  0
SEQEND
  5
F3
330
F1
100
AcDbEntity
  8
0
  6
Continuous
 62
     7
  0
HATCH
  5
F4
330
1F
100
AcDbEntity
  8
중심선
100
AcDbHatch
 10
0.0
 20
0.0
 30
0.0
210
0.0
220
0.0
230
1.0
  2
SOLID
 70
     1
 71
     0
 91
        1
 92
        0
 93
        4
 72
     1
 10
-17.22453438368504
 20
-35.7989250712761
 11
-20.67080962752232
 21
-35.7989250712761
 72
     1
 10
-20.67080962752232
 20
-35.7989250712761
 11
-22.79903948672635
 21
-38.3352506518487
 72
     1
 10
-22.79903948672635
 20
-38.3352506518487
 11
-19.35273115777591
 21
-38.33521122254621
 72
     1
 10
-19.35273115777591
 20
-38.33521122254621
 11
-17.22453438368504
 21
-35.7989250712761
 97
        0
 75
     0
 76
     1
 98
        1
 10
0.0
 20
0.0
  0
HATCH
  5
F5
330
1F
100
AcDbEntity
  8
중심선
100
AcDbHatch
 10
0.0
 20
0.0
 30
0.0
210
0.0
220
0.0
230
1.0
  2
SOLID
 70
     1
 71
     0
 91
        1
 92
        0
 93
        4
 72
     1
 10
-12.21177039264909
 20
-35.7989250712761
 11
-15.65804563648637
 21
-35.7989250712761
 72
     1
 10
-15.65804563648637
 20
-35.7989250712761
 11
-20.18918364484376
 21
-41.19892507127612
 72
     1
 10
-20.18918364484376
 20
-41.19892507127612
 11
-16.74290840100648
 21
-41.19892507127612
 72
     1
 10
-16.74290840100648
 20
-41.19892507127612
 11
-12.21177039264909
 21
-35.7989250712761
 97
        0
 75
     0
 76
     1
 98
        1
 10
0.0
 20
0.0
  0
HATCH
  5
F6
330
1F
100
AcDbEntity
  8
중심선
100
AcDbHatch
 10
0.0
 20
0.0
 30
0.0
210
0.0
220
0.0
230
1.0
  2
SOLID
 70
     1
 71
     0
 91
        1
 92
        0
 93
        4
 72
     1
 10
-7.199006401613195
 20
-35.79892507127613
 11
-10.64528164545031
 21
-35.7989250712761
 72
     1
 10
-10.64528164545031
 20
-35.7989250712761
 11
-17.69371854733956
 21
-44.19892507127612
 72
     1
 10
-17.69371854733956
 20
-44.19892507127612
 11
-14.24744330350228
 21
-44.19892507127612
 72
     1
 10
-14.24744330350228
 20
-44.19892507127612
 11
-7.199006401613195
 21
-35.79892507127613
 97
        0
 75
     0
 76
     1
 98
        1
 10
0.0
 20
0.0
  0
HATCH
  5
F7
330
1F
100
AcDbEntity
  8
중심선
100
AcDbHatch
 10
0.0
 20
0.0
 30
0.0
210
0.0
220
0.0
230
1.0
  2
SOLID
 70
     1
 71
     0
 91
        1
 92
        0
 93
        6
 72
     3
 10
-2.399115970600996
 20
-39.99892507132738
 11
3.960054785062284
 21
1.540850780301639E-10
 40
0.3939339440162633
 50
17.09539180608433
 51
320.0019657685079
 73
     0
 72
     1
 10
-0.7161163149004002
 20
-38.58681907591441
 11
1.589185558800638
 21
-36.65249236586649
 72
     3
 10
-2.399115970653842
 20
-39.99892507127625
 11
6.600054785286829
 21
-1.249000902703301E-13
 40
0.6363583540795982
 50
39.99873849337408
 51
368.4976242363725
 73
     1
 72
     1
 10
4.026216521246767
 20
-39.03892507120613
 11
-3.71904866381792
 21
-39.0389250712061
 72
     1
 10
-3.71904866381792
 20
-39.0389250712061
 11
-3.719073708263854
 21
-40.95892507120602
 72
     1
 10
-3.719073708263854
 20
-40.95892507120602
 11
0.7223060612081831
 21
-40.95892507120599
 97
        0
 75
     0
 76
     1
 98
        1
 10
0.0
 20
0.0
  0
DIMENSION
  5
F8
330
1F
100
AcDbEntity
  8
치수문자_일반주서
100
AcDbDimension
  2
_D
 10
-97.4289061313234
 20
-6.000000000000103
 30
0.0
 11
-97.42890613132343
 21
-0.0000000000000263
 31
0.0
 70
   160
  1
%%c<>
 71
     2
 42
12.00000000000001
 52
-270.0
  3
SLDDIMSTYLE0
100
AcDbAlignedDimension
 13
-78.8
 23
5.999999999999977
 33
0.0
 14
-78.8
 24
-6.000000000000034
 34
0.0
 50
90.0000000000002
100
AcDbRotatedDimension
  0
DIMENSION
  5
106
330
1F
100
AcDbEntity
  8
치수문자_일반주서
100
AcDbDimension
  2
_D_1
 10
80.0
 20
-5.999999999999993
 30
0.0
 11
79.99999999999997
 21
0.7913169001151634
 31
0.0
 70
   160
  1
%%c<>
 71
     2
 42
12.0
 52
-270.0
  3
SLDDIMSTYLE0
100
AcDbAlignedDimension
 13
70.0
 23
5.999999999999973
 33
0.0
 14
70.0
 24
-6.00000000000003
 34
0.0
 50
90.0000000000002
100
AcDbRotatedDimension
  0
DIMENSION
  5
113
330
1F
100
AcDbEntity
  8
치수문자_일반주서
100
AcDbDimension
  2
_D_2
 10
70.0
 20
49.12912202680722
 30
0.0
 11
34.55499265847857
 21
49.12912202680722
 31
0.0
 70
   160
  1
<>
 71
     2
 42
59.99999999999999
  3
SLDDIMSTYLE1
100
AcDbAlignedDimension
 13
10.00000000000001
 23
5.634281408165412
 33
0.0
 14
70.0
 24
5.956215305425999
 34
0.0
 50
0.0000000000000068
100
AcDbRotatedDimension
  0
DIMENSION
  5
11E
330
1F
100
AcDbEntity
  8
치수문자_일반주서
100
AcDbDimension
  2
_D_3
 10
-80.0
 20
76.90089796629563
 30
0.0
 11
-0.3527552023592193
 21
76.90089796629563
 31
0.0
 70
   160
  1
<>
 71
     2
 42
150.0
  3
SLDDIMSTYLE1
100
AcDbAlignedDimension
 13
70.0
 23
5.956215305425999
 33
0.0
 14
-80.0
 24
4.799999999999975
 34
0.0
100
AcDbRotatedDimension
  0
INSERT
  5
12E
330
1F
100
AcDbEntity
  8
외형선
100
AcDbBlockReference
  2
SW_DOWELSYMBOL_0
 10
0.0
 20
0.0
 30
0.0
  0
ENDSEC
  0
SECTION
  2
OBJECTS
  0
DICTIONARY
  5
C
330
0
100
AcDbDictionary
281
     1
  3
ACAD_GROUP
350
D
  3
ACAD_IMAGE_VARS
350
152
  3
ACAD_LAYOUT
350
1A
  3
ACAD_MLINESTYLE
350
17
  3
ACAD_PLOTSETTINGS
350
19
  3
ACAD_PLOTSTYLENAME
350
E
  3
ACAD_SCALELIST
350
47
  3
APPDATA
350
150
  3
DWGPROPS
350
15C
  0
DICTIONARY
  5
D
102
{ACAD_REACTORS
330
C
102
}
330
C
100
AcDbDictionary
281
     1
  0
RASTERVARIABLES
  5
152
102
{ACAD_REACTORS
330
C
102
}
330
C
100
AcDbRasterVariables
 90
        0
 70
     1
 71
     1
 72
     1
  0
DICTIONARY
  5
1A
102
{ACAD_REACTORS
330
C
102
}
330
C
100
AcDbDictionary
281
     1
  3
Layout1
350
1E
  3
Layout2
350
26
  3
Model
350
22
  0
DICTIONARY
  5
17
102
{ACAD_REACTORS
330
C
102
}
330
C
100
AcDbDictionary
281
     1
  3
Standard
350
18
  0
DICTIONARY
  5
19
102
{ACAD_REACTORS
330
C
102
}
330
C
100
AcDbDictionary
281
     1
  0
ACDBDICTIONARYWDFLT
  5
E
102
{ACAD_REACTORS
330
C
102
}
330
C
100
AcDbDictionary
281
     1
  3
Normal
350
F
100
AcDbDictionaryWithDefault
340
F
  0
DICTIONARY
  5
47
102
{ACAD_REACTORS
330
C
102
}
330
C
100
AcDbDictionary
281
     1
  3
A0
350
48
  3
A1
350
49
  3
A2
350
4A
  3
A3
350
4B
  3
A4
350
4C
  3
A5
350
4D
  3
A6
350
4E
  3
A7
350
4F
  3
A8
350
50
  3
A9
350
51
  3
B0
350
52
  3
B1
350
53
  3
B2
350
54
  3
B3
350
55
  3
B4
350
56
  3
B5
350
57
  3
B6
350
58
  3
B7
350
59
  3
B8
350
5A
  3
B9
350
5B
  3
C0
350
5C
  3
C1
350
5D
  3
C2
350
5E
  3
C3
350
5F
  3
C4
350
60
  3
C5
350
61
  3
C6
350
62
  3
C7
350
63
  3
C8
350
64
  3
C9
350
65
  3
D0
350
66
  3
D1
350
67
  3
D2
350
68
  0
DICTIONARY
  5
150
102
{ACAD_REACTORS
330
C
102
}
330
C
100
AcDbDictionary
281
     1
  0
XRECORD
  5
15C
102
{ACAD_REACTORS
330
C
102
}
330
C
100
AcDbXrecord
280
     1
  1
DWGPROPS COOKIE
  2

  3

  4

  6

  7

  8
12016016
  9

300
=
301
=
302
=
303
=
304
=
305
=
306
=
307
=
308
=
309
=
 40
0.0
 41
2458268.397088901
 42
2458269.995593264
  1

 90
        0
  0
LAYOUT
  5
1E
102
{ACAD_REACTORS
330
1A
102
}
330
1A
100
AcDbPlotSettings
  1

  2
none_device
  4

  6

 40
0.0
 41
0.0
 42
0.0
 43
0.0
 44
0.0
 45
0.0
 46
0.0
 47
0.0
 48
0.0
 49
0.0
140
0.0
141
0.0
142
1.0
143
1.0
 70
   688
 72
     1
 73
     0
 74
     5
  7

 75
    16
147
1.0
148
0.0
149
0.0
100
AcDbLayout
  1
Layout1
 70
     1
 71
     1
 10
0.0
 20
0.0
 11
420.0
 21
297.0
 12
0.0
 22
0.0
 32
0.0
 14
1.000000000000000E+20
 24
1.000000000000000E+20
 34
1.000000000000000E+20
 15
-1.000000000000000E+20
 25
-1.000000000000000E+20
 35
-1.000000000000000E+20
146
0.0
 13
0.0
 23
0.0
 33
0.0
 16
1.0
 26
0.0
 36
0.0
 17
0.0
 27
1.0
 37
0.0
 76
     0
330
1B
  0
LAYOUT
  5
26
102
{ACAD_REACTORS
330
1A
102
}
330
1A
100
AcDbPlotSettings
  1

  2
none_device
  4

  6

 40
0.0
 41
0.0
 42
0.0
 43
0.0
 44
0.0
 45
0.0
 46
0.0
 47
0.0
 48
0.0
 49
0.0
140
0.0
141
0.0
142
1.0
143
1.0
 70
   688
 72
     1
 73
     0
 74
     5
  7

 75
    16
147
1.0
148
0.0
149
0.0
100
AcDbLayout
  1
Layout2
 70
     1
 71
     2
 10
0.0
 20
0.0
 11
0.0
 21
0.0
 12
0.0
 22
0.0
 32
0.0
 14
0.0
 24
0.0
 34
0.0
 15
0.0
 25
0.0
 35
0.0
146
0.0
 13
0.0
 23
0.0
 33
0.0
 16
1.0
 26
0.0
 36
0.0
 17
0.0
 27
1.0
 37
0.0
 76
     0
330
23
  0
LAYOUT
  5
22
102
{ACAD_REACTORS
330
1A
102
}
330
1A
100
AcDbPlotSettings
  1

  2
none_device
  4
ANSI_A_(11.00_x_8.50_Inches)
  6

 40
6.35
 41
19.05
 42
6.35000508
 43
19.05000254
 44
279.4
 45
215.9
 46
94.79882209930784
 47
65.69834880967979
 48
0.0
 49
0.0
140
0.0
141
0.0
142
0.0595101103462451
143
1.0
 70
  1696
 72
     0
 73
     0
 74
     0
  7

 75
     0
147
0.0235690232323232
148
0.0
149
0.0
100
AcDbLayout
  1
Model
 70
     1
 71
     0
 10
0.0
 20
0.0
 11
420.0
 21
297.0
 12
0.0
 22
0.0
 32
0.0
 14
-101.8039061313234
 24
-49.97073246008785
 34
0.0
 15
80.55033333333331
 25
81.27589796629563
 35
0.0
146
0.0
 13
0.0
 23
0.0
 33
0.0
 16
1.0
 26
0.0
 36
0.0
 17
0.0
 27
1.0
 37
0.0
 76
     0
330
1F
331
29
  0
MLINESTYLE
  5
18
102
{ACAD_REACTORS
330
17
102
}
330
17
100
AcDbMlineStyle
  2
Standard
 70
     0
  3

 62
   256
 51
90.0
 52
90.0
 71
     2
 49
0.5
 62
   256
  6
BYLAYER
 49
-0.5
 62
   256
  6
BYLAYER
  0
ACDBPLACEHOLDER
  5
F
102
{ACAD_REACTORS
330
E
102
}
330
E
  0
SCALE
  5
48
102
{ACAD_REACTORS
330
47
102
}
330
47
100
AcDbScale
 70
     0
300
1:1
140
1.0
141
1.0
290
     1
  0
SCALE
  5
49
102
{ACAD_REACTORS
330
47
102
}
330
47
100
AcDbScale
 70
     0
300
1:2
140
1.0
141
2.0
290
     0
  0
SCALE
  5
4A
102
{ACAD_REACTORS
330
47
102
}
330
47
100
AcDbScale
 70
     0
300
1:4
140
1.0
141
4.0
290
     0
  0
SCALE
  5
4B
102
{ACAD_REACTORS
330
47
102
}
330
47
100
AcDbScale
 70
     0
300
1:5
140
1.0
141
5.0
290
     0
  0
SCALE
  5
4C
102
{ACAD_REACTORS
330
47
102
}
330
47
100
AcDbScale
 70
     0
300
1:8
140
1.0
141
8.0
290
     0
  0
SCALE
  5
4D
102
{ACAD_REACTORS
330
47
102
}
330
47
100
AcDbScale
 70
     0
300
1:10
140
1.0
141
10.0
290
     0
  0
SCALE
  5
4E
102
{ACAD_REACTORS
330
47
102
}
330
47
100
AcDbScale
 70
     0
300
1:16
140
1.0
141
16.0
290
     0
  0
SCALE
  5
4F
102
{ACAD_REACTORS
330
47
102
}
330
47
100
AcDbScale
 70
     0
300
1:20
140
1.0
141
20.0
290
     0
  0
SCALE
  5
50
102
{ACAD_REACTORS
330
47
102
}
330
47
100
AcDbScale
 70
     0
300
1:30
140
1.0
141
30.0
290
     0
  0
SCALE
  5
51
102
{ACAD_REACTORS
330
47
102
}
330
47
100
AcDbScale
 70
     0
300
1:40
140
1.0
141
40.0
290
     0
  0
SCALE
  5
52
102
{ACAD_REACTORS
330
47
102
}
330
47
100
AcDbScale
 70
     0
300
1:50
140
1.0
141
50.0
290
     0
  0
SCALE
  5
53
102
{ACAD_REACTORS
330
47
102
}
330
47
100
AcDbScale
 70
     0
300
1:100
140
1.0
141
100.0
290
     0
  0
SCALE
  5
54
102
{ACAD_REACTORS
330
47
102
}
330
47
100
AcDbScale
 70
     0
300
2:1
140
2.0
141
1.0
290
     0
  0
SCALE
  5
55
102
{ACAD_REACTORS
330
47
102
}
330
47
100
AcDbScale
 70
     0
300
4:1
140
4.0
141
1.0
290
     0
  0
SCALE
  5
56
102
{ACAD_REACTORS
330
47
102
}
330
47
100
AcDbScale
 70
     0
300
8:1
140
8.0
141
1.0
290
     0
  0
SCALE
  5
57
102
{ACAD_REACTORS
330
47
102
}
330
47
100
AcDbScale
 70
     0
300
10:1
140
10.0
141
1.0
290
     0
  0
SCALE
  5
58
102
{ACAD_REACTORS
330
47
102
}
330
47
100
AcDbScale
 70
     0
300
100:1
140
100.0
141
1.0
290
     0
  0
SCALE
  5
59
102
{ACAD_REACTORS
330
47
102
}
330
47
100
AcDbScale
 70
     0
300
1/128" = 1'-0"
140
0.0078125
141
12.0
290
     0
  0
SCALE
  5
5A
102
{ACAD_REACTORS
330
47
102
}
330
47
100
AcDbScale
 70
     0
300
1/64" = 1'-0"
140
0.015625
141
12.0
290
     0
  0
SCALE
  5
5B
102
{ACAD_REACTORS
330
47
102
}
330
47
100
AcDbScale
 70
     0
300
1/32" = 1'-0"
140
0.03125
141
12.0
290
     0
  0
SCALE
  5
5C
102
{ACAD_REACTORS
330
47
102
}
330
47
100
AcDbScale
 70
     0
300
1/16" = 1'-0"
140
0.0625
141
12.0
290
     0
  0
SCALE
  5
5D
102
{ACAD_REACTORS
330
47
102
}
330
47
100
AcDbScale
 70
     0
300
3/32" = 1'-0"
140
0.09375
141
12.0
290
     0
  0
SCALE
  5
5E
102
{ACAD_REACTORS
330
47
102
}
330
47
100
AcDbScale
 70
     0
300
1/8" = 1'-0"
140
0.125
141
12.0
290
     0
  0
SCALE
  5
5F
102
{ACAD_REACTORS
330
47
102
}
330
47
100
AcDbScale
 70
     0
300
3/16" = 1'-0"
140
0.1875
141
12.0
290
     0
  0
SCALE
  5
60
102
{ACAD_REACTORS
330
47
102
}
330
47
100
AcDbScale
 70
     0
300
1/4" = 1'-0"
140
0.25
141
12.0
290
     0
  0
SCALE
  5
61
102
{ACAD_REACTORS
330
47
102
}
330
47
100
AcDbScale
 70
     0
300
3/8" = 1'-0"
140
0.375
141
12.0
290
     0
  0
SCALE
  5
62
102
{ACAD_REACTORS
330
47
102
}
330
47
100
AcDbScale
 70
     0
300
1/2" = 1'-0"
140
0.5
141
12.0
290
     0
  0
SCALE
  5
63
102
{ACAD_REACTORS
330
47
102
}
330
47
100
AcDbScale
 70
     0
300
3/4" = 1'-0"
140
0.75
141
12.0
290
     0
  0
SCALE
  5
64
102
{ACAD_REACTORS
330
47
102
}
330
47
100
AcDbScale
 70
     0
300
1" = 1'-0"
140
1.0
141
12.0
290
     0
  0
SCALE
  5
65
102
{ACAD_REACTORS
330
47
102
}
330
47
100
AcDbScale
 70
     0
300
1-1/2" = 1'-0"
140
1.5
141
12.0
290
     0
  0
SCALE
  5
66
102
{ACAD_REACTORS
330
47
102
}
330
47
100
AcDbScale
 70
     0
300
3" = 1'-0"
140
3.0
141
12.0
290
     0
  0
SCALE
  5
67
102
{ACAD_REACTORS
330
47
102
}
330
47
100
AcDbScale
 70
     0
300
6" = 1'-0"
140
6.0
141
12.0
290
     0
  0
SCALE
  5
68
102
{ACAD_REACTORS
330
47
102
}
330
47
100
AcDbScale
 70
     0
300
1'-0" = 1'-0"
140
12.0
141
12.0
290
     0
  0
ENDSEC
  0
EOF
