  0
SECTION
  2
HEADER
  9
$ACADVER
  1
AC1015
  9
$ACADMAINTVER
 70
     6
  9
$DWGCODEPAGE
  3
ANSI_949
  9
$INSBASE
 10
0.0
 20
0.0
 30
0.0
  9
$EXTMIN
 10
-61.80390613132344
 20
-49.97180738881176
 30
0.0
  9
$EXTMAX
 10
80.55033333333334
 20
81.27589796629564
 30
0.0
  9
$LIMMIN
 10
0.0
 20
0.0
  9
$LIMMAX
 10
420.0
 20
297.0
  9
$ORTHOMODE
 70
     1
  9
$REGENMODE
 70
     1
  9
$FILLMODE
 70
     1
  9
$QTEXTMODE
 70
     0
  9
$MIRRTEXT
 70
     1
  9
$LTSCALE
 40
1.0
  9
$ATTMODE
 70
     1
  9
$TEXTSIZE
 40
3.5
  9
$TRACEWID
 40
1.0
  9
$TEXTSTYLE
  7
Standard
  9
$CLAYER
  8
0
  9
$CELTYPE
  6
ByLayer
  9
$CECOLOR
 62
   256
  9
$CELTSCALE
 40
1.0
  9
$DISPSILH
 70
     0
  9
$DIMSCALE
 40
1.0
  9
$DIMASZ
 40
3.302
  9
$DIMEXO
 40
1.0
  9
$DIMDLI
 40
3.75
  9
$DIMRND
 40
0.0
  9
$DIMDLE
 40
0.0
  9
$DIMEXE
 40
1.0
  9
$DIMTP
 40
0.0
  9
$DIMTM
 40
0.0
  9
$DIMTXT
 40
3.5
  9
$DIMCEN
 40
2.5
  9
$DIMTSZ
 40
0.0
  9
$DIMTOL
 70
     0
  9
$DIMLIM
 70
     0
  9
$DIMTIH
 70
     1
  9
$DIMTOH
 70
     1
  9
$DIMSE1
 70
     0
  9
$DIMSE2
 70
     0
  9
$DIMTAD
 70
     1
  9
$DIMZIN
 70
     0
  9
$DIMBLK
  1

  9
$DIMASO
 70
     1
  9
$DIMSHO
 70
     1
  9
$DIMPOST
  1

  9
$DIMAPOST
  1

  9
$DIMALT
 70
     0
  9
$DIMALTD
 70
     3
  9
$DIMALTF
 40
0.0393700787401575
  9
$DIMLFAC
 40
1.0
  9
$DIMTOFL
 70
     1
  9
$DIMTVP
 40
0.0
  9
$DIMTIX
 70
     0
  9
$DIMSOXD
 70
     0
  9
$DIMSAH
 70
     0
  9
$DIMBLK1
  1

  9
$DIMBLK2
  1

  9
$DIMSTYLE
  2
ISO-25
  9
$DIMCLRD
 70
     0
  9
$DIMCLRE
 70
     0
  9
$DIMCLRT
 70
     0
  9
$DIMTFAC
 40
1.0
  9
$DIMGAP
 40
1.524
  9
$DIMJUST
 70
     0
  9
$DIMSD1
 70
     0
  9
$DIMSD2
 70
     0
  9
$DIMTOLJ
 70
     0
  9
$DIMTZIN
 70
     0
  9
$DIMALTZ
 70
     0
  9
$DIMALTTZ
 70
     0
  9
$DIMUPT
 70
     0
  9
$DIMDEC
 70
     2
  9
$DIMTDEC
 70
     2
  9
$DIMALTU
 70
     2
  9
$DIMALTTD
 70
     3
  9
$DIMTXSTY
  7
Standard
  9
$DIMAUNIT
 70
     0
  9
$DIMADEC
 70
     2
  9
$DIMALTRND
 40
0.0
  9
$DIMAZIN
 70
     0
  9
$DIMDSEP
 70
    44
  9
$DIMATFIT
 70
     3
  9
$DIMFRAC
 70
     0
  9
$DIMLDRBLK
  1

  9
$DIMLUNIT
 70
     2
  9
$DIMLWD
 70
    -2
  9
$DIMLWE
 70
    -2
  9
$DIMTMOVE
 70
     0
  9
$LUNITS
 70
     2
  9
$LUPREC
 70
     2
  9
$SKETCHINC
 40
1.0
  9
$FILLETRAD
 40
10.0
  9
$AUNITS
 70
     0
  9
$AUPREC
 70
     2
  9
$MENU
  1
.
  9
$ELEVATION
 40
0.0
  9
$PELEVATION
 40
0.0
  9
$THICKNESS
 40
0.0
  9
$LIMCHECK
 70
     0
  9
$CHAMFERA
 40
0.0
  9
$CHAMFERB
 40
0.0
  9
$CHAMFERC
 40
0.0
  9
$CHAMFERD
 40
0.0
  9
$SKPOLY
 70
     0
  9
$TDCREATE
 40
2458268.772276204
  9
$TDUCREATE
 40
2458268.397276204
  9
$TDUPDATE
 40
2458270.378703877
  9
$TDUUPDATE
 40
2458270.003703877
  9
$TDINDWG
 40
0.0008332755
  9
$TDUSRTIMER
 40
2458270.002870845
  9
$USRTIMER
 70
     1
  9
$ANGBASE
 50
0.0
  9
$ANGDIR
 70
     0
  9
$PDMODE
 70
     0
  9
$PDSIZE
 40
-1.0
  9
$PLINEWID
 40
0.0
  9
$SPLFRAME
 70
     0
  9
$SPLINETYPE
 70
     6
  9
$SPLINESEGS
 70
     8
  9
$HANDSEED
  5
160
  9
$SURFTAB1
 70
     6
  9
$SURFTAB2
 70
     6
  9
$SURFTYPE
 70
     6
  9
$SURFU
 70
     6
  9
$SURFV
 70
     6
  9
$UCSBASE
  2

  9
$UCSNAME
  2

  9
$UCSORG
 10
0.0
 20
0.0
 30
0.0
  9
$UCSXDIR
 10
1.0
 20
0.0
 30
0.0
  9
$UCSYDIR
 10
0.0
 20
1.0
 30
0.0
  9
$UCSORTHOREF
  2

  9
$UCSORTHOVIEW
 70
     0
  9
$UCSORGTOP
 10
0.0
 20
0.0
 30
0.0
  9
$UCSORGBOTTOM
 10
0.0
 20
0.0
 30
0.0
  9
$UCSORGLEFT
 10
0.0
 20
0.0
 30
0.0
  9
$UCSORGRIGHT
 10
0.0
 20
0.0
 30
0.0
  9
$UCSORGFRONT
 10
0.0
 20
0.0
 30
0.0
  9
$UCSORGBACK
 10
0.0
 20
0.0
 30
0.0
  9
$PUCSBASE
  2

  9
$PUCSNAME
  2

  9
$PUCSORG
 10
0.0
 20
0.0
 30
0.0
  9
$PUCSXDIR
 10
1.0
 20
0.0
 30
0.0
  9
$PUCSYDIR
 10
0.0
 20
1.0
 30
0.0
  9
$PUCSORTHOREF
  2

  9
$PUCSORTHOVIEW
 70
     0
  9
$PUCSORGTOP
 10
0.0
 20
0.0
 30
0.0
  9
$PUCSORGBOTTOM
 10
0.0
 20
0.0
 30
0.0
  9
$PUCSORGLEFT
 10
0.0
 20
0.0
 30
0.0
  9
$PUCSORGRIGHT
 10
0.0
 20
0.0
 30
0.0
  9
$PUCSORGFRONT
 10
0.0
 20
0.0
 30
0.0
  9
$PUCSORGBACK
 10
0.0
 20
0.0
 30
0.0
  9
$USERI1
 70
     0
  9
$USERI2
 70
     0
  9
$USERI3
 70
     0
  9
$USERI4
 70
     0
  9
$USERI5
 70
     0
  9
$USERR1
 40
0.0
  9
$USERR2
 40
0.0
  9
$USERR3
 40
0.0
  9
$USERR4
 40
0.0
  9
$USERR5
 40
0.0
  9
$WORLDVIEW
 70
     1
  9
$SHADEDGE
 70
     3
  9
$SHADEDIF
 70
    70
  9
$TILEMODE
 70
     1
  9
$MAXACTVP
 70
    64
  9
$PINSBASE
 10
0.0
 20
0.0
 30
0.0
  9
$PLIMCHECK
 70
     0
  9
$PEXTMIN
 10
1.000000000000000E+20
 20
1.000000000000000E+20
 30
1.000000000000000E+20
  9
$PEXTMAX
 10
-1.000000000000000E+20
 20
-1.000000000000000E+20
 30
-1.000000000000000E+20
  9
$PLIMMIN
 10
0.0
 20
0.0
  9
$PLIMMAX
 10
0.0
 20
0.0
  9
$UNITMODE
 70
     0
  9
$VISRETAIN
 70
     1
  9
$PLINEGEN
 70
     0
  9
$PSLTSCALE
 70
     1
  9
$TREEDEPTH
 70
  3020
  9
$CMLSTYLE
  2
Standard
  9
$CMLJUST
 70
     0
  9
$CMLSCALE
 40
20.0
  9
$PROXYGRAPHICS
 70
     1
  9
$MEASUREMENT
 70
     1
  9
$CELWEIGHT
370
    -1
  9
$ENDCAPS
280
     0
  9
$JOINSTYLE
280
     0
  9
$LWDISPLAY
290
     1
  9
$INSUNITS
 70
     4
  9
$HYPERLINKBASE
  1

  9
$STYLESHEET
  1

  9
$XEDIT
290
     1
  9
$CEPSNTYPE
380
     0
  9
$PSTYLEMODE
290
     1
  9
$FINGERPRINTGUID
  2
{7BEA4D0D-2A8E-460E-9FD8-58C9F42CE997}
  9
$VERSIONGUID
  2
{FAEB1C32-E019-11D5-929B-00C0DF256EC4}
  9
$EXTNAMES
290
     1
  9
$PSVPSCALE
 40
0.0
  9
$OLESTARTUP
290
     0
  0
ENDSEC
  0
SECTION
  2
CLASSES
  0
CLASS
  1
ACDBDICTIONARYWDFLT
  2
AcDbDictionaryWithDefault
  3
ObjectDBX Classes
 90
        0
280
     0
281
     0
  0
CLASS
  1
VISUALSTYLE
  2
AcDbVisualStyle
  3
ObjectDBX Classes
 90
     4095
280
     0
281
     0
  0
CLASS
  1
MATERIAL
  2
AcDbMaterial
  3
ObjectDBX Classes
 90
     1153
280
     0
281
     0
  0
CLASS
  1
SCALE
  2
AcDbScale
  3
ObjectDBX Classes
 90
     1153
280
     0
281
     0
  0
CLASS
  1
SUN
  2
AcDbSun
  3
SCENEOE
 90
     1153
280
     0
281
     0
  0
CLASS
  1
ACDBPLACEHOLDER
  2
AcDbPlaceHolder
  3
ObjectDBX Classes
 90
        0
280
     0
281
     0
  0
CLASS
  1
LAYOUT
  2
AcDbLayout
  3
ObjectDBX Classes
 90
        0
280
     0
281
     0
  0
CLASS
  1
TABLESTYLE
  2
AcDbTableStyle
  3
ObjectDBX Classes
 90
     4095
280
     0
281
     0
  0
CLASS
  1
MLEADERSTYLE
  2
AcDbMLeaderStyle
  3
ACDB_MLEADERSTYLE_CLASS
 90
     4095
280
     0
281
     0
  0
CLASS
  1
RASTERVARIABLES
  2
AcDbRasterVariables
  3
ISM
 90
        0
280
     0
281
     0
  0
ENDSEC
  0
SECTION
  2
TABLES
  0
TABLE
  2
VPORT
  5
8
330
0
100
AcDbSymbolTable
 70
     1
  0
VPORT
  5
29
330
8
100
AcDbSymbolTableRecord
100
AcDbViewportTableRecord
  2
*Active
 70
     0
 10
0.0
 20
0.0
 11
1.0
 21
1.0
 12
-2.985137083368983
 22
1.404509306067121
 13
0.0
 23
0.0
 14
10.0
 24
10.0
 15
10.0
 25
10.0
 16
0.0
 26
0.0
 36
1.0
 17
0.0
 27
0.0
 37
0.0
 40
11.69693134521078
 41
1.627413127413127
 42
50.0
 43
0.0
 44
0.0
 50
0.0
 51
0.0
 71
    16
 72
  2000
 73
     1
 74
     3
 75
     0
 76
     0
 77
     0
 78
     0
281
     0
 65
     1
110
0.0
120
0.0
130
0.0
111
1.0
121
0.0
131
0.0
112
0.0
122
1.0
132
0.0
 79
     0
146
0.0
  0
ENDTAB
  0
TABLE
  2
LTYPE
  5
5
330
0
100
AcDbSymbolTable
 70
     6
  0
LTYPE
  5
14
330
5
100
AcDbSymbolTableRecord
100
AcDbLinetypeTableRecord
  2
ByBlock
 70
     0
  3

 72
    65
 73
     0
 40
0.0
  0
LTYPE
  5
15
330
5
100
AcDbSymbolTableRecord
100
AcDbLinetypeTableRecord
  2
ByLayer
 70
     0
  3

 72
    65
 73
     0
 40
0.0
  0
LTYPE
  5
16
330
5
100
AcDbSymbolTableRecord
100
AcDbLinetypeTableRecord
  2
Continuous
 70
     0
  3
Solid line
 72
    65
 73
     0
 40
0.0
  0
LTYPE
  5
6A
330
5
100
AcDbSymbolTableRecord
100
AcDbLinetypeTableRecord
  2
HIDDEN
 70
     0
  3
Hidden __ __ __ __ __ __ __ __ __ __ __ __ __ __
 72
    65
 73
     2
 40
1.905
 49
1.27
 74
     0
 49
-0.635
 74
     0
  0
LTYPE
  5
6B
330
5
100
AcDbSymbolTableRecord
100
AcDbLinetypeTableRecord
  2
PHANTOM
 70
     0
  3
Phantom ______  __  __  ______  __  __  ______
 72
    65
 73
     6
 40
12.7
 49
6.35
 74
     0
 49
-1.27
 74
     0
 49
1.27
 74
     0
 49
-1.27
 74
     0
 49
1.27
 74
     0
 49
-1.27
 74
     0
  0
LTYPE
  5
6C
330
5
100
AcDbSymbolTableRecord
100
AcDbLinetypeTableRecord
  2
CENTER
 70
     0
  3
Center ____ _ ____ _ ____ _ ____ _ ____ _ ____
 72
    65
 73
     4
 40
10.16
 49
6.35
 74
     0
 49
-1.27
 74
     0
 49
1.27
 74
     0
 49
-1.27
 74
     0
  0
LTYPE
  5
6D
330
5
100
AcDbSymbolTableRecord
100
AcDbLinetypeTableRecord
  2
CENTERX2
 70
     0
  3
Center (2x) ________  __  ________  __  _____
 72
    65
 73
     4
 40
20.32
 49
12.7
 74
     0
 49
-2.54
 74
     0
 49
2.54
 74
     0
 49
-2.54
 74
     0
  0
LTYPE
  5
6E
330
5
100
AcDbSymbolTableRecord
100
AcDbLinetypeTableRecord
  2
DOT2
 70
     0
  3
Dot (.5x) ........................................
 72
    65
 73
     2
 40
0.635
 49
0.0
 74
     0
 49
-0.635
 74
     0
  0
ENDTAB
  0
TABLE
  2
LAYER
  5
2
330
0
100
AcDbSymbolTable
 70
    17
  0
LAYER
  5
10
330
2
100
AcDbSymbolTableRecord
100
AcDbLayerTableRecord
  2
0
 70
     0
 62
     7
  6
Continuous
370
    -3
390
F
  0
LAYER
  5
6F
330
2
100
AcDbSymbolTableRecord
100
AcDbLayerTableRecord
  2
FORMAT
 70
     0
 62
     2
  6
Continuous
370
    -3
390
F
  0
LAYER
  5
70
330
2
100
AcDbSymbolTableRecord
100
AcDbLayerTableRecord
  2
외형선
 70
     0
 62
   100
  6
Continuous
370
    30
390
F
  0
LAYER
  5
71
330
2
100
AcDbSymbolTableRecord
100
AcDbLayerTableRecord
  2
숨은선
 70
     0
 62
     2
  6
HIDDEN
370
    15
390
F
  0
LAYER
  5
72
330
2
100
AcDbSymbolTableRecord
100
AcDbLayerTableRecord
  2
중심선
 70
     0
 62
     1
  6
CENTERX2
370
    -3
390
F
  0
LAYER
  5
73
330
2
100
AcDbSymbolTableRecord
100
AcDbLayerTableRecord
  2
파단선
 70
     0
 62
     4
  6
Continuous
370
    -3
390
F
  0
LAYER
  5
74
330
2
100
AcDbSymbolTableRecord
100
AcDbLayerTableRecord
  2
해칭선
 70
     0
 62
     4
  6
Continuous
370
    -3
390
F
  0
LAYER
  5
75
330
2
100
AcDbSymbolTableRecord
100
AcDbLayerTableRecord
  2
가는실선
 70
     0
 62
     4
  6
Continuous
370
    -3
390
F
  0
LAYER
  5
76
330
2
100
AcDbSymbolTableRecord
100
AcDbLayerTableRecord
  2
치수_보조선
 70
     0
 62
     4
  6
Continuous
370
    -3
390
F
  0
LAYER
  5
77
330
2
100
AcDbSymbolTableRecord
100
AcDbLayerTableRecord
  2
치수문자_일반주서
 70
     0
 62
     7
  6
Continuous
370
    15
390
F
  0
LAYER
  5
78
330
2
100
AcDbSymbolTableRecord
100
AcDbLayerTableRecord
  2
개별주서
 70
     0
 62
   100
  6
Continuous
370
    30
390
F
  0
LAYER
  5
79
330
2
100
AcDbSymbolTableRecord
100
AcDbLayerTableRecord
  2
중간선
 70
     0
 62
     2
  6
Continuous
370
    15
390
F
  0
LAYER
  5
7A
330
2
100
AcDbSymbolTableRecord
100
AcDbLayerTableRecord
  2
윤곽선
 70
     0
 62
     3
  6
Continuous
370
    40
390
F
  0
LAYER
  5
7B
330
2
100
AcDbSymbolTableRecord
100
AcDbLayerTableRecord
  2
중심마크
 70
     0
 62
   100
  6
Continuous
370
    30
390
F
  0
LAYER
  5
7C
330
2
100
AcDbSymbolTableRecord
100
AcDbLayerTableRecord
  2
가상선
 70
     0
 62
     4
  6
PHANTOM
370
    -3
390
F
  0
LAYER
  5
7D
330
2
100
AcDbSymbolTableRecord
100
AcDbLayerTableRecord
  2
특수지정선
 70
     0
 62
     5
  6
CENTERX2
370
    60
390
F
  0
LAYER
  5
157
330
2
100
AcDbSymbolTableRecord
100
AcDbLayerTableRecord
  2
Defpoints
 70
     0
 62
     7
  6
Continuous
290
     0
370
    -3
390
F
  0
ENDTAB
  0
TABLE
  2
STYLE
  5
3
330
0
100
AcDbSymbolTable
 70
     2
  0
STYLE
  5
11
330
3
100
AcDbSymbolTableRecord
100
AcDbTextStyleTableRecord
  2
Standard
 70
     0
 40
0.0
 41
1.0
 50
0.0
 71
     0
 42
3.5
  3
txt
  4

  0
STYLE
  5
93
330
3
100
AcDbSymbolTableRecord
100
AcDbTextStyleTableRecord
  2
SLDTEXTSTYLE0
 70
     0
 40
0.0
 41
0.75
 50
0.0
 71
     0
 42
3.5
  3
TXT
  4

  0
ENDTAB
  0
TABLE
  2
VIEW
  5
6
330
0
100
AcDbSymbolTable
 70
     0
  0
ENDTAB
  0
TABLE
  2
UCS
  5
7
330
0
100
AcDbSymbolTable
 70
     0
  0
ENDTAB
  0
TABLE
  2
APPID
  5
9
330
0
100
AcDbSymbolTable
 70
     1
  0
APPID
  5
12
330
9
100
AcDbSymbolTableRecord
100
AcDbRegAppTableRecord
  2
ACAD
 70
     0
  0
ENDTAB
  0
TABLE
  2
DIMSTYLE
  5
A
330
0
100
AcDbSymbolTable
 70
     3
100
AcDbDimStyleTable
  0
DIMSTYLE
105
27
330
A
100
AcDbSymbolTableRecord
100
AcDbDimStyleTableRecord
  2
ISO-25
 70
     0
 41
2.5
 42
0.625
 43
3.75
 44
1.25
 73
     0
 74
     0
 77
     1
 78
     8
140
2.5
141
2.5
143
0.03937007874016
147
0.625
171
     3
172
     1
178
     0
271
     2
272
     2
274
     3
278
    44
283
     0
284
     8
340
11
  0
DIMSTYLE
105
FC
102
{ACAD_REACTORS
330
FB
330
109
102
}
330
A
100
AcDbSymbolTableRecord
100
AcDbDimStyleTableRecord
  2
SLDDIMSTYLE0
 70
     0
 41
3.302
 44
0.0
 45
0.000000001
 73
     0
 74
     0
 77
     1
 78
    12
 79
     3
140
3.5
147
0.875
172
     1
173
     1
178
     0
271
     2
272
     2
276
     2
284
    12
289
     0
340
93
  0
DIMSTYLE
105
117
102
{ACAD_REACTORS
330
116
330
121
102
}
330
A
100
AcDbSymbolTableRecord
100
AcDbDimStyleTableRecord
  2
SLDDIMSTYLE1
 70
     0
 41
3.302
 44
0.0
 45
0.000000001
 73
     0
 74
     0
 77
     1
 78
    12
 79
     3
140
3.5
147
0.875
173
     1
178
     0
271
     2
272
     2
276
     2
284
    12
340
93
  0
ENDTAB
  0
TABLE
  2
BLOCK_RECORD
  5
1
330
0
100
AcDbSymbolTable
 70
     7
  0
BLOCK_RECORD
  5
1F
330
1
100
AcDbSymbolTableRecord
100
AcDbBlockTableRecord
  2
*Model_Space
340
22
  0
BLOCK_RECORD
  5
1B
330
1
100
AcDbSymbolTableRecord
100
AcDbBlockTableRecord
  2
*Paper_Space
340
1E
  0
BLOCK_RECORD
  5
23
330
1
100
AcDbSymbolTableRecord
100
AcDbBlockTableRecord
  2
*Paper_Space0
340
26
  0
BLOCK_RECORD
  5
7E
330
1
100
AcDbSymbolTableRecord
100
AcDbBlockTableRecord
  2
블럭10
340
0
102
{BLKREFS
331
F4
102
}
  0
BLOCK_RECORD
  5
FD
330
1
100
AcDbSymbolTableRecord
100
AcDbBlockTableRecord
  2
_D
340
0
  0
BLOCK_RECORD
  5
10A
330
1
100
AcDbSymbolTableRecord
100
AcDbBlockTableRecord
  2
_D_1
340
0
  0
BLOCK_RECORD
  5
118
330
1
100
AcDbSymbolTableRecord
100
AcDbBlockTableRecord
  2
_D_2
340
0
  0
BLOCK_RECORD
  5
122
330
1
100
AcDbSymbolTableRecord
100
AcDbBlockTableRecord
  2
_D_3
340
0
  0
BLOCK_RECORD
  5
12B
330
1
100
AcDbSymbolTableRecord
100
AcDbBlockTableRecord
  2
SW_DOWELSYMBOL_0
340
0
102
{BLKREFS
331
131
102
}
  0
ENDTAB
  0
ENDSEC
  0
SECTION
  2
BLOCKS
  0
BLOCK
  5
20
330
1F
100
AcDbEntity
  8
0
100
AcDbBlockBegin
  2
*Model_Space
 70
     0
 10
0.0
 20
0.0
 30
0.0
  3
*Model_Space
  1
*Model_Space
  0
ENDBLK
  5
21
330
1F
100
AcDbEntity
  8
0
100
AcDbBlockEnd
  0
BLOCK
  5
1C
330
1B
100
AcDbEntity
 67
     1
  8
0
100
AcDbBlockBegin
  2
*Paper_Space
 70
     0
 10
0.0
 20
0.0
 30
0.0
  3
*Paper_Space
  1
*Paper_Space
  0
ENDBLK
  5
1D
330
1B
100
AcDbEntity
 67
     1
  8
0
100
AcDbBlockEnd
  0
BLOCK
  5
24
330
23
100
AcDbEntity
  8
0
100
AcDbBlockBegin
  2
*Paper_Space0
 70
     0
 10
0.0
 20
0.0
 30
0.0
  3
*Paper_Space0
  1
*Paper_Space0
  0
ENDBLK
  5
25
330
23
100
AcDbEntity
  8
0
100
AcDbBlockEnd
  0
BLOCK
  5
7F
330
7E
100
AcDbEntity
  8
0
100
AcDbBlockBegin
  2
블럭10
 70
     2
 10
0.0
 20
0.0
 30
0.0
  3
블럭10
  1
블럭10
  0
ELLIPSE
  5
81
330
7E
100
AcDbEntity
  8
중심선
100
AcDbEllipse
 10
20.54032771741204
 20
12.0471743016438
 30
0.0
 11
6.600054785286829
 21
-1.261213355974178E-13
 31
0.0
210
0.0
220
0.0
230
1.0
 40
0.636358354079598
 41
0.9219305317359503
 42
6.513795318482858
  0
ELLIPSE
  5
82
330
7E
100
AcDbEntity
  8
중심선
100
AcDbEllipse
 10
20.54032771746488
 20
12.04717430159265
 30
0.0
 11
3.960054785062283
 21
1.540847449632565E-10
 31
0.0
210
0.0
220
0.0
230
1.0
 40
0.3939339440162632
 41
1.131841032648279
 42
5.62031148352944
  0
LINE
  5
83
330
7E
100
AcDbEntity
  8
중심선
100
AcDbLine
 10
2.268634060543552
 20
16.24717430164393
 30
0.0
 11
5.714909304380834
 21
16.24717430164393
 31
0.0
  0
LINE
  5
84
330
7E
100
AcDbEntity
  8
중심선
100
AcDbLine
 10
5.245725140726316
 20
7.84717430164391
 30
0.0
 11
8.692000384563599
 21
7.84717430164391
 31
0.0
  0
LINE
  5
85
330
7E
100
AcDbEntity
  8
중심선
100
AcDbLine
 10
15.74043728645272
 20
16.24717430164393
 30
0.0
 11
8.692000384563599
 21
7.84717430164391
 31
0.0
  0
LINE
  5
86
330
7E
100
AcDbEntity
  8
중심선
100
AcDbLine
 10
0.1404042013395286
 20
13.71084872107135
 30
0.0
 11
3.58671253028996
 21
13.71088815037384
 31
0.0
  0
LINE
  5
87
330
7E
100
AcDbEntity
  8
중심선
100
AcDbLine
 10
2.750260043222114
 20
10.84717430164391
 30
0.0
 11
6.196535287059397
 21
10.84717430164391
 31
0.0
  0
LINE
  5
88
330
7E
100
AcDbEntity
  8
중심선
100
AcDbLine
 10
12.29416204261559
 20
16.24717430164393
 30
0.0
 11
5.245725140726316
 21
7.84717430164391
 31
0.0
  0
LINE
  5
89
330
7E
100
AcDbEntity
  8
중심선
100
AcDbLine
 10
10.72767329541681
 20
16.24717430164393
 30
0.0
 11
6.196535287059397
 21
10.84717430164391
 31
0.0
  0
LINE
  5
8A
330
7E
100
AcDbEntity
  8
중심선
100
AcDbLine
 10
7.28139805157953
 20
16.24717430164393
 30
0.0
 11
2.750260043222114
 21
10.84717430164391
 31
0.0
  0
LINE
  5
8B
330
7E
100
AcDbEntity
  8
중심선
100
AcDbLine
 10
5.714909304380834
 20
16.24717430164393
 30
0.0
 11
3.58671253028996
 21
13.71088815037384
 31
0.0
  0
LINE
  5
8C
330
7E
100
AcDbEntity
  8
중심선
100
AcDbLine
 10
2.268634060543552
 20
16.24717430164393
 30
0.0
 11
0.1404042013395286
 21
13.71084872107135
 31
0.0
  0
LINE
  5
8D
330
7E
100
AcDbEntity
  8
중심선
100
AcDbLine
 10
7.28139805157953
 20
16.24717430164393
 30
0.0
 11
10.72767329541681
 21
16.24717430164393
 31
0.0
  0
LINE
  5
8E
330
7E
100
AcDbEntity
  8
중심선
100
AcDbLine
 10
12.29416204261559
 20
16.24717430164393
 30
0.0
 11
15.74043728645272
 21
16.24717430164393
 31
0.0
  0
LINE
  5
8F
330
7E
100
AcDbEntity
  8
중심선
100
AcDbLine
 10
19.22036997980202
 20
11.08717430171403
 30
0.0
 11
23.66174974927406
 21
11.08717430171406
 31
0.0
  0
LINE
  5
90
330
7E
100
AcDbEntity
  8
중심선
100
AcDbLine
 10
19.22039502424796
 20
13.00717430171391
 30
0.0
 11
19.22036997980202
 21
11.08717430171403
 31
0.0
  0
LINE
  5
91
330
7E
100
AcDbEntity
  8
중심선
100
AcDbLine
 10
19.22039502424796
 20
13.00717430171391
 30
0.0
 11
26.96566020931264
 21
13.00717430171391
 31
0.0
  0
LINE
  5
92
330
7E
100
AcDbEntity
  8
중심선
100
AcDbLine
 10
22.22332737316547
 20
13.45928029700563
 30
0.0
 11
24.52862924686651
 21
15.39360700705356
 31
0.0
  0
ATTDEF
  5
94
330
7E
100
AcDbEntity
  8
FORMAT
 62
     2
100
AcDbText
 10
-16.11926103943555
 20
2.075366912832191
 30
0.0
 40
4.233333333333333
  1
SEME7512060E [ 6 FLUTE ]
 41
0.75
  7
SLDTEXTSTYLE0
 11
-16.11926103943555
 21
-0.0412997538344756
 31
0.0
100
AcDbAttributeDefinition
  3

  2
AUTOATTR0
 70
     0
 74
     1
  0
ENDBLK
  5
80
330
7E
100
AcDbEntity
  8
0
100
AcDbBlockEnd
  0
BLOCK
  5
FE
330
FD
100
AcDbEntity
  8
0
100
AcDbBlockBegin
  2
_D
 70
     0
 10
0.0
 20
0.0
 30
0.0
  3
_D
  1
_D
  0
LINE
  5
100
330
FD
100
AcDbEntity
  8
치수문자_일반주서
 62
     0
370
    -2
100
AcDbLine
 10
-38.86249999999999
 20
5.999999999999988
 30
0.0
 11
-57.42890613132345
 21
5.999999999999918
 31
0.0
  0
LINE
  5
101
330
FD
100
AcDbEntity
  8
치수문자_일반주서
 62
     0
370
    -2
100
AcDbLine
 10
-38.86249999999999
 20
-6.000000000000023
 30
0.0
 11
-57.42890613132341
 21
-6.000000000000092
 31
0.0
  0
LINE
  5
102
330
FD
100
AcDbEntity
  8
치수문자_일반주서
 62
     0
370
    -2
100
AcDbLine
 10
-57.42890613132344
 20
2.697999999999919
 30
0.0
 11
-57.42890613132342
 21
-2.698000000000093
 31
0.0
  0
SOLID
  5
103
330
FD
100
AcDbEntity
  8
치수문자_일반주서
 62
     0
100
AcDbTrace
 10
-56.8785727979901
 20
2.69799999999992
 30
0.0
 11
-57.97923946465677
 21
2.697999999999917
 31
0.0
 12
-57.42890613132345
 22
5.999999999999918
 32
0.0
 13
-57.42890613132345
 23
5.999999999999918
 33
0.0
  0
SOLID
  5
104
330
FD
100
AcDbEntity
  8
치수문자_일반주서
 62
     0
100
AcDbTrace
 10
-57.97923946465676
 20
-2.698000000000095
 30
0.0
 11
-56.87857279799009
 21
-2.698000000000091
 31
0.0
 12
-57.42890613132341
 22
-6.000000000000092
 32
0.0
 13
-57.42890613132341
 23
-6.000000000000092
 33
0.0
  0
MTEXT
  5
105
330
FD
100
AcDbEntity
  8
치수문자_일반주서
 62
     0
100
AcDbMText
 10
-61.80390613132343
 20
-0.0000000000000314
 30
0.0
 40
3.5
 41
0.0
 71
     2
 72
     1
  1
\A1;%%c12
  7
SLDTEXTSTYLE0
 11
-3.552713678800498E-15
 21
1.0
 31
0.0
 73
     1
 44
1.0
  0
POINT
  5
106
330
FD
100
AcDbEntity
  8
Defpoints
 62
     0
100
AcDbPoint
 10
-38.79999999999999
 20
5.999999999999988
 30
0.0
  0
POINT
  5
107
330
FD
100
AcDbEntity
  8
Defpoints
 62
     0
100
AcDbPoint
 10
-38.79999999999999
 20
-6.000000000000023
 30
0.0
  0
POINT
  5
108
330
FD
100
AcDbEntity
  8
Defpoints
 62
     0
100
AcDbPoint
 10
-57.42890613132343
 20
-6.000000000000092
 30
0.0
  0
ENDBLK
  5
FF
330
FD
100
AcDbEntity
  8
0
100
AcDbBlockEnd
  0
BLOCK
  5
10B
330
10A
100
AcDbEntity
  8
0
100
AcDbBlockBegin
  2
_D_1
 70
     0
 10
0.0
 20
0.0
 30
0.0
  3
_D_1
  1
_D_1
  0
LINE
  5
10D
330
10A
100
AcDbEntity
  8
치수문자_일반주서
 62
     0
370
    -2
100
AcDbLine
 10
70.06250000000003
 20
5.999999999999986
 30
0.0
 11
79.99999999999999
 21
6.000000000000023
 31
0.0
  0
LINE
  5
10E
330
10A
100
AcDbEntity
  8
치수문자_일반주서
 62
     0
370
    -2
100
AcDbLine
 10
70.06250000000003
 20
-6.000000000000021
 30
0.0
 11
80.00000000000003
 21
-5.999999999999984
 31
0.0
  0
LINE
  5
10F
330
10A
100
AcDbEntity
  8
치수문자_일반주서
 62
     0
370
    -2
100
AcDbLine
 10
80.0
 20
2.698000000000023
 30
0.0
 11
80.00000000000001
 21
-2.697999999999984
 31
0.0
  0
SOLID
  5
110
330
10A
100
AcDbEntity
  8
치수문자_일반주서
 62
     0
100
AcDbTrace
 10
80.55033333333333
 20
2.698000000000025
 30
0.0
 11
79.44966666666667
 21
2.698000000000022
 31
0.0
 12
79.99999999999999
 22
6.000000000000023
 32
0.0
 13
79.99999999999999
 23
6.000000000000023
 33
0.0
  0
SOLID
  5
111
330
10A
100
AcDbEntity
  8
치수문자_일반주서
 62
     0
100
AcDbTrace
 10
79.44966666666669
 20
-2.697999999999986
 30
0.0
 11
80.55033333333334
 21
-2.697999999999983
 31
0.0
 12
80.00000000000003
 22
-5.999999999999984
 32
0.0
 13
80.00000000000003
 23
-5.999999999999984
 33
0.0
  0
MTEXT
  5
112
330
10A
100
AcDbEntity
  8
치수문자_일반주서
 62
     0
100
AcDbMText
 10
75.625
 20
0.7913169001151583
 30
0.0
 40
3.5
 41
0.0
 71
     2
 72
     1
  1
\A1;%%c12
  7
SLDTEXTSTYLE0
 11
-3.552713678800499E-15
 21
1.0
 31
0.0
 73
     1
 44
1.0
  0
POINT
  5
113
330
10A
100
AcDbEntity
  8
Defpoints
 62
     0
100
AcDbPoint
 10
70.00000000000003
 20
5.999999999999986
 30
0.0
  0
POINT
  5
114
330
10A
100
AcDbEntity
  8
Defpoints
 62
     0
100
AcDbPoint
 10
70.00000000000003
 20
-6.000000000000021
 30
0.0
  0
POINT
  5
115
330
10A
100
AcDbEntity
  8
Defpoints
 62
     0
100
AcDbPoint
 10
80.00000000000003
 20
-5.999999999999984
 30
0.0
  0
ENDBLK
  5
10C
330
10A
100
AcDbEntity
  8
0
100
AcDbBlockEnd
  0
BLOCK
  5
119
330
118
100
AcDbEntity
  8
0
100
AcDbBlockBegin
  2
_D_2
 70
     0
 10
0.0
 20
0.0
 30
0.0
  3
_D_2
  1
_D_2
  0
LINE
  5
11B
330
118
100
AcDbEntity
  8
치수문자_일반주서
 62
     0
370
    -2
100
AcDbLine
 10
10.0
 20
5.696781408165427
 30
0.0
 11
10.0
 21
49.12912202680723
 31
0.0
  0
LINE
  5
11C
330
118
100
AcDbEntity
  8
치수문자_일반주서
 62
     0
370
    -2
100
AcDbLine
 10
70.00000000000003
 20
6.01871530542601
 30
0.0
 11
70.00000000000003
 21
49.12912202680723
 31
0.0
  0
LINE
  5
11D
330
118
100
AcDbEntity
  8
치수문자_일반주서
 62
     0
370
    -2
100
AcDbLine
 10
13.302
 20
49.12912202680723
 30
0.0
 11
66.69800000000004
 21
49.12912202680723
 31
0.0
  0
SOLID
  5
11E
330
118
100
AcDbEntity
  8
치수문자_일반주서
 62
     0
100
AcDbTrace
 10
13.302
 20
49.67945536014057
 30
0.0
 11
13.302
 21
48.5787886934739
 31
0.0
 12
10.0
 22
49.12912202680723
 32
0.0
 13
10.0
 23
49.12912202680723
 33
0.0
  0
SOLID
  5
11F
330
118
100
AcDbEntity
  8
치수문자_일반주서
 62
     0
100
AcDbTrace
 10
66.69800000000004
 20
48.5787886934739
 30
0.0
 11
66.69800000000004
 21
49.67945536014057
 31
0.0
 12
70.00000000000003
 22
49.12912202680723
 32
0.0
 13
70.00000000000003
 23
49.12912202680723
 33
0.0
  0
MTEXT
  5
120
330
118
100
AcDbEntity
  8
치수문자_일반주서
 62
     0
100
AcDbMText
 10
34.55499265847857
 20
53.50412202680723
 30
0.0
 40
3.5
 41
0.0
 71
     2
 72
     1
  1
\A1;60
  7
SLDTEXTSTYLE0
 73
     1
 44
1.0
  0
POINT
  5
159
330
118
100
AcDbEntity
  8
Defpoints
 62
     0
100
AcDbPoint
 10
10.0
 20
5.634281408165427
 30
0.0
  0
POINT
  5
15A
330
118
100
AcDbEntity
  8
Defpoints
 62
     0
100
AcDbPoint
 10
70.00000000000003
 20
5.95621530542601
 30
0.0
  0
POINT
  5
15B
330
118
100
AcDbEntity
  8
Defpoints
 62
     0
100
AcDbPoint
 10
70.00000000000003
 20
49.12912202680723
 30
0.0
  0
ENDBLK
  5
11A
330
118
100
AcDbEntity
  8
0
100
AcDbBlockEnd
  0
BLOCK
  5
123
330
122
100
AcDbEntity
  8
0
100
AcDbBlockBegin
  2
_D_3
 70
     0
 10
0.0
 20
0.0
 30
0.0
  3
_D_3
  1
_D_3
  0
LINE
  5
125
330
122
100
AcDbEntity
  8
치수문자_일반주서
 62
     0
370
    -2
100
AcDbLine
 10
70.00000000000003
 20
6.01871530542601
 30
0.0
 11
70.00000000000003
 21
76.90089796629564
 31
0.0
  0
LINE
  5
126
330
122
100
AcDbEntity
  8
치수문자_일반주서
 62
     0
370
    -2
100
AcDbLine
 10
-39.99999999999999
 20
4.862499999999986
 30
0.0
 11
-39.99999999999999
 21
76.90089796629564
 31
0.0
  0
LINE
  5
127
330
122
100
AcDbEntity
  8
치수문자_일반주서
 62
     0
370
    -2
100
AcDbLine
 10
66.69800000000004
 20
76.90089796629564
 30
0.0
 11
-36.69799999999999
 21
76.90089796629564
 31
0.0
  0
SOLID
  5
128
330
122
100
AcDbEntity
  8
치수문자_일반주서
 62
     0
100
AcDbTrace
 10
66.69800000000004
 20
76.35056463296232
 30
0.0
 11
66.69800000000004
 21
77.45123129962897
 31
0.0
 12
70.00000000000003
 22
76.90089796629564
 32
0.0
 13
70.00000000000003
 23
76.90089796629564
 33
0.0
  0
SOLID
  5
129
330
122
100
AcDbEntity
  8
치수문자_일반주서
 62
     0
100
AcDbTrace
 10
-36.69799999999999
 20
77.45123129962897
 30
0.0
 11
-36.69799999999999
 21
76.35056463296232
 31
0.0
 12
-39.99999999999999
 22
76.90089796629564
 32
0.0
 13
-39.99999999999999
 23
76.90089796629564
 33
0.0
  0
MTEXT
  5
12A
330
122
100
AcDbEntity
  8
치수문자_일반주서
 62
     0
100
AcDbMText
 10
18.40797951826991
 20
81.27589796629564
 30
0.0
 40
3.5
 41
0.0
 71
     2
 72
     1
  1
\A1;110
  7
SLDTEXTSTYLE0
 73
     1
 44
1.0
  0
POINT
  5
15C
330
122
100
AcDbEntity
  8
Defpoints
 62
     0
100
AcDbPoint
 10
70.00000000000003
 20
5.95621530542601
 30
0.0
  0
POINT
  5
15D
330
122
100
AcDbEntity
  8
Defpoints
 62
     0
100
AcDbPoint
 10
-39.99999999999999
 20
4.799999999999986
 30
0.0
  0
POINT
  5
15E
330
122
100
AcDbEntity
  8
Defpoints
 62
     0
100
AcDbPoint
 10
-39.99999999999999
 20
76.90089796629564
 30
0.0
  0
ENDBLK
  5
124
330
122
100
AcDbEntity
  8
0
100
AcDbBlockEnd
  0
BLOCK
  5
12C
330
12B
100
AcDbEntity
  8
0
100
AcDbBlockBegin
  2
SW_DOWELSYMBOL_0
 70
     0
 10
0.0
 20
0.0
 30
0.0
  3
SW_DOWELSYMBOL_0
  1
SW_DOWELSYMBOL_0
  0
CIRCLE
  5
12E
330
12B
100
AcDbEntity
  8
외형선
 62
     0
100
AcDbCircle
 10
0.0
 20
0.0
 30
0.0
 40
3.000000000000001
  0
HATCH
  5
12F
330
12B
100
AcDbEntity
  8
0
  6
Continuous
 62
     0
370
    30
100
AcDbHatch
 10
0.0
 20
0.0
 30
0.0
210
0.0
220
0.0
230
1.0
  2
SOLID
 70
     1
 71
     0
 91
        1
 92
        0
 93
        3
 72
     2
 10
-0.0000000000000139
 20
0.0
 40
3.000000000000001
 50
0.0
 51
90.0
 73
     1
 72
     1
 10
-0.0000000000000139
 20
3.000000000000001
 11
-0.0000000000000139
 21
0.0
 72
     1
 10
-0.0000000000000139
 20
0.0
 11
2.999999999999988
 21
0.0
 97
        0
 75
     0
 76
     1
 98
        1
 10
0.0
 20
0.0
  0
HATCH
  5
130
330
12B
100
AcDbEntity
  8
0
  6
Continuous
 62
     0
370
    30
100
AcDbHatch
 10
0.0
 20
0.0
 30
0.0
210
0.0
220
0.0
230
1.0
  2
SOLID
 70
     1
 71
     0
 91
        1
 92
        0
 93
        3
 72
     2
 10
-0.0000000000000139
 20
0.0
 40
3.000000000000001
 50
180.0
 51
270.0000000000008
 73
     1
 72
     1
 10
-0.0000000000000139
 20
-3.000000000000001
 11
-0.0000000000000139
 21
0.0
 72
     1
 10
-0.0000000000000139
 20
0.0
 11
-3.000000000000015
 21
0.0
 97
        0
 75
     0
 76
     1
 98
        1
 10
0.0
 20
0.0
  0
ENDBLK
  5
12D
330
12B
100
AcDbEntity
  8
0
100
AcDbBlockEnd
  0
ENDSEC
  0
SECTION
  2
ENTITIES
  0
LINE
  5
95
330
1F
100
AcDbEntity
  8
0
  6
Continuous
 62
     1
370
    15
100
AcDbLine
 10
39.8505383775743
 20
1.144393982908825
 30
0.0
 11
39.79349243982418
 21
1.19959603556644
 31
0.0
  0
LINE
  5
96
330
1F
100
AcDbEntity
  8
0
  6
Continuous
 62
     1
370
    15
100
AcDbLine
 10
37.31374417255591
 20
-1.140824203005337
 30
0.0
 11
37.37470286927768
 21
-1.199643422126695
 31
0.0
  0
LINE
  5
97
330
1F
100
AcDbEntity
  8
0
  6
Continuous
 62
   131
370
    15
100
AcDbLine
 10
12.17184355442415
 20
-1.132594375525842
 30
0.0
 11
12.24203361052168
 21
-1.199713912748393
 31
0.0
  0
LINE
  5
98
330
1F
100
AcDbEntity
  8
0
  6
Continuous
 62
   131
370
    15
100
AcDbLine
 10
14.73535201789736
 20
1.127547008299144
 30
0.0
 11
14.66035128622978
 21
1.199987737925398
 31
0.0
  0
LINE
  5
99
330
1F
100
AcDbEntity
  8
0
  6
Continuous
 62
     1
370
    15
100
AcDbLine
 10
49.78162411014686
 20
-1.045589934196968
 30
0.0
 11
49.94138567650547
 21
-1.199949196198537
 31
0.0
  0
LINE
  5
9A
330
1F
100
AcDbEntity
  8
0
  6
Continuous
 62
     1
370
    15
100
AcDbLine
 10
27.28255991927425
 20
1.145929512760923
 30
0.0
 11
27.22680684989129
 21
1.199904535793554
 31
0.0
  0
LINE
  5
9B
330
1F
100
AcDbEntity
  8
0
  6
Continuous
 62
     1
370
    15
100
AcDbLine
 10
62.4279907188586
 20
-1.122927369723611
 30
0.0
 11
62.50781988943863
 21
-1.200011486627481
 31
0.0
  0
LINE
  5
9C
330
1F
100
AcDbEntity
  8
0
  6
Continuous
 62
   131
370
    15
100
AcDbLine
 10
18.46133890853559
 20
-1.137948707944677
 30
0.0
 11
18.52540463016877
 21
-1.199895806828696
 31
0.0
  0
LINE
  5
9D
330
1F
100
AcDbEntity
  8
0
  6
Continuous
 62
   131
370
    15
100
AcDbLine
 10
21.00664581233917
 20
1.138924081998476
 30
0.0
 11
20.94397674060715
 21
1.199556639825072
 31
0.0
  0
LINE
  5
9E
330
1F
100
AcDbEntity
  8
0
  6
Continuous
 62
     1
370
    15
100
AcDbLine
 10
56.10510692636859
 20
-1.084514204648893
 30
0.0
 11
56.22414513392224
 21
-1.199532100973952
 31
0.0
  0
LINE
  5
9F
330
1F
100
AcDbEntity
  8
0
  6
Continuous
 62
     1
370
    15
100
AcDbLine
 10
68.75349863114403
 20
-1.163819297571457
 30
0.0
 11
68.79062483184421
 21
-1.19963894279204
 31
0.0
  0
LINE
  5
A0
330
1F
100
AcDbEntity
  8
0
  6
Continuous
 62
     1
370
    15
100
AcDbLine
 10
31.03223044520427
 20
-1.142551639959017
 30
0.0
 11
31.09188197822556
 21
-1.200000345302004
 31
0.0
  0
LINE
  5
A1
330
1F
100
AcDbEntity
  8
0
  6
Continuous
 62
     1
370
    15
100
AcDbLine
 10
69.27404816784954
 20
-6.000000000000021
 30
0.0
 11
70.00000000000003
 21
-6.000000000000021
 31
0.0
  0
LINE
  5
A2
330
1F
100
AcDbEntity
  8
0
  6
Continuous
 62
     1
370
    15
100
AcDbLine
 10
31.57679594353939
 20
-6.000000000000021
 30
0.0
 11
33.02674774255354
 21
-6.000000000000021
 31
0.0
  0
LINE
  5
A3
330
1F
100
AcDbEntity
  8
0
  6
Continuous
 62
     1
370
    15
100
AcDbLine
 10
14.17545168061745
 20
5.999999999999986
 30
0.0
 11
12.72569253959189
 21
5.999999999999986
 31
0.0
  0
LINE
  5
A4
330
1F
100
AcDbEntity
  8
0
  6
Continuous
 62
     1
370
    15
100
AcDbLine
 10
51.87688696891235
 20
5.999999999999986
 30
0.0
 11
50.42565628888811
 21
5.999999999999986
 31
0.0
  0
LINE
  5
A5
330
1F
100
AcDbEntity
  8
0
  6
Continuous
 62
     1
370
    15
100
AcDbLine
 10
50.42565628888813
 20
-6.000000000000021
 30
0.0
 11
51.87688696891234
 21
-6.000000000000021
 31
0.0
  0
LINE
  5
A6
330
1F
100
AcDbEntity
  8
0
  6
Continuous
 62
     1
370
    15
100
AcDbLine
 10
12.7256925395919
 20
-6.000000000000021
 30
0.0
 11
14.1754516806174
 21
-6.000000000000021
 31
0.0
  0
LINE
  5
A7
330
1F
100
AcDbEntity
  8
0
  6
Continuous
 62
     1
370
    15
100
AcDbLine
 10
33.02674774255351
 20
5.999999999999986
 30
0.0
 11
31.57679594353942
 21
5.999999999999986
 31
0.0
  0
LINE
  5
A8
330
1F
100
AcDbEntity
  8
0
  6
Continuous
 62
     1
370
    15
100
AcDbLine
 10
70.00000000000003
 20
5.999999999999986
 30
0.0
 11
69.27404816784954
 21
5.999999999999986
 31
0.0
  0
LINE
  5
A9
330
1F
100
AcDbEntity
  8
0
  6
Continuous
 62
     1
370
    15
100
AcDbLine
 10
56.70845693413725
 20
-6.000000000000021
 30
0.0
 11
58.16003710651984
 21
-6.000000000000021
 31
0.0
  0
LINE
  5
AA
330
1F
100
AcDbEntity
  8
0
  6
Continuous
 62
     1
370
    15
100
AcDbLine
 10
19.0102187238666
 20
-6.000000000000021
 30
0.0
 11
20.45949625737731
 21
-6.000000000000021
 31
0.0
  0
LINE
  5
AB
330
1F
100
AcDbEntity
  8
0
  6
Continuous
 62
     1
370
    15
100
AcDbLine
 10
39.31023531562984
 20
5.999999999999986
 30
0.0
 11
37.85987689995
 21
5.999999999999986
 31
0.0
  0
LINE
  5
AC
330
1F
100
AcDbEntity
  8
0
  6
Continuous
 62
     1
370
    15
100
AcDbLine
 10
44.14281244636432
 20
-6.000000000000021
 30
0.0
 11
45.59361739466325
 21
-6.000000000000021
 31
0.0
  0
LINE
  5
AD
330
1F
100
AcDbEntity
  8
0
  6
Continuous
 62
     1
370
    15
100
AcDbLine
 10
26.74316174927645
 20
5.999999999999986
 30
0.0
 11
25.29357427355842
 21
5.999999999999986
 31
0.0
  0
LINE
  5
AE
330
1F
100
AcDbEntity
  8
0
  6
Continuous
 62
     1
370
    15
100
AcDbLine
 10
64.44306097011022
 20
5.999999999999986
 30
0.0
 11
62.99124426357801
 21
5.999999999999986
 31
0.0
  0
LINE
  5
AF
330
1F
100
AcDbEntity
  8
0
  6
Continuous
 62
     1
370
    15
100
AcDbLine
 10
37.85987689995003
 20
-6.000000000000021
 30
0.0
 11
39.31023531562988
 21
-6.000000000000021
 31
0.0
  0
LINE
  5
B0
330
1F
100
AcDbEntity
  8
0
  6
Continuous
 62
     1
370
    15
100
AcDbLine
 10
20.45949625737736
 20
5.999999999999986
 30
0.0
 11
19.01021872386665
 21
5.999999999999986
 31
0.0
  0
LINE
  5
B1
330
1F
100
AcDbEntity
  8
0
  6
Continuous
 62
     1
370
    15
100
AcDbLine
 10
58.16003710651993
 20
5.999999999999986
 30
0.0
 11
56.70845693413727
 21
5.999999999999986
 31
0.0
  0
LINE
  5
B2
330
1F
100
AcDbEntity
  8
0
  6
Continuous
 62
     1
370
    15
100
AcDbLine
 10
62.99124426357798
 20
-6.000000000000021
 30
0.0
 11
64.44306097011024
 21
-6.000000000000021
 31
0.0
  0
LINE
  5
B3
330
1F
100
AcDbEntity
  8
0
  6
Continuous
 62
     1
370
    15
100
AcDbLine
 10
25.29357427355837
 20
-6.000000000000021
 30
0.0
 11
26.74316174927646
 21
-6.000000000000021
 31
0.0
  0
LINE
  5
B4
330
1F
100
AcDbEntity
  8
0
  6
Continuous
 62
     1
370
    15
100
AcDbLine
 10
45.59361739466323
 20
5.999999999999986
 30
0.0
 11
44.14281244636427
 21
5.999999999999986
 31
0.0
  0
LINE
  5
B5
330
1F
100
AcDbEntity
  8
0
  6
Continuous
 62
   131
370
    15
100
AcDbLine
 10
-38.8
 20
-6.000000000000018
 30
0.0
 11
8.999640617609181
 21
-6.000000000000018
 31
0.0
  0
LINE
  5
B6
330
1F
100
AcDbEntity
  8
0
  6
Continuous
 62
   131
370
    15
100
AcDbLine
 10
8.999640617609181
 20
5.999999999999982
 30
0.0
 11
-38.8
 21
5.999999999999982
 31
0.0
  0
LINE
  5
B7
330
1F
100
AcDbEntity
  8
0
  6
Continuous
 62
   131
370
    15
100
AcDbLine
 10
-38.8
 20
5.999999999999984
 30
0.0
 11
-39.99999999999999
 21
4.799999999999986
 31
0.0
  0
LINE
  5
B8
330
1F
100
AcDbEntity
  8
0
  6
Continuous
 62
   131
370
    15
100
AcDbLine
 10
-39.99999999999999
 20
-4.800000000000022
 30
0.0
 11
-38.8
 21
-6.00000000000002
 31
0.0
  0
LINE
  5
B9
330
1F
100
AcDbEntity
  8
0
  6
Continuous
 62
     1
370
    15
100
AcDbLine
 10
70.00000000000003
 20
3.582452771647295
 30
0.0
 11
70.00000000000003
 21
5.95621530542601
 31
0.0
  0
LINE
  5
BA
330
1F
100
AcDbEntity
  8
0
  6
Continuous
 62
     1
370
    15
100
AcDbLine
 10
9.99999999999792
 20
-5.634281408166189
 30
0.0
 11
10.31156945021132
 21
-5.495827498182436
 31
0.0
  0
SPLINE
  5
BB
330
1F
100
AcDbEntity
  8
0
  6
Continuous
 62
     1
370
    15
100
AcDbSpline
210
0.0
220
0.0
230
1.0
 70
     8
 71
     3
 72
    25
 73
    21
 74
     0
 42
0.000000001
 43
0.00000001
 40
0.0
 40
0.0
 40
0.0
 40
0.0
 40
0.0023090998398282
 40
0.0620373721209358
 40
0.1218023029806212
 40
0.1816228591346379
 40
0.2413971735696104
 40
0.3011290449897153
 40
0.3608538160789955
 40
0.4206069062744515
 40
0.4804204049959195
 40
0.5402098699053055
 40
0.599948592771948
 40
0.6596718422744711
 40
0.7194150543057243
 40
0.7792134490853803
 40
0.8390197299815794
 40
0.8987672754660877
 40
0.9584909839075015
 40
1.0
 40
1.0
 40
1.0
 40
1.0
 10
26.74316174927646
 20
5.995017630405131
 30
0.0
 10
26.75952428317456
 20
5.996669341513948
 30
0.0
 10
27.19912788401027
 20
6.041044996012069
 30
0.0
 10
28.06218392802168
 20
5.879970116905706
 30
0.0
 10
29.33311641273277
 20
5.495232157660487
 30
0.0
 10
30.60538914594986
 20
4.834310649258619
 30
0.0
 10
31.87654895348289
 20
3.965270570029241
 30
0.0
 10
33.14658530895359
 20
2.916918586540554
 30
0.0
 10
34.4164164353975
 20
1.738912717729718
 30
0.0
 10
35.68703541875463
 20
0.4826674464703485
 30
0.0
 10
36.95914187326621
 20
-0.7945571878358989
 30
0.0
 10
38.23067203101745
 20
-2.036644769429882
 30
0.0
 10
39.50090121609058
 20
-3.18771444547882
 30
0.0
 10
40.77068335846037
 20
-4.196109875329853
 30
0.0
 10
42.04103642291501
 20
-5.017345769492992
 30
0.0
 10
43.3127825844182
 20
-5.613534174337023
 30
0.0
 10
44.58471364169006
 20
-5.961297363144942
 30
0.0
 10
45.85519606195848
 20
-6.033532256703996
 30
0.0
 10
46.99581166286406
 20
-5.886815931431054
 30
0.0
 10
47.71322595536974
 20
-5.608085589048792
 30
0.0
 10
48.00739132086507
 20
-5.493796239229532
 30
0.0
  0
SPLINE
  5
BC
330
1F
100
AcDbEntity
  8
0
  6
Continuous
 62
     1
370
    15
100
AcDbSpline
210
0.0
220
0.0
230
1.0
 70
     8
 71
     3
 72
    12
 73
     8
 74
     0
 42
0.000000001
 43
0.00000001
 40
0.0
 40
0.0
 40
0.0
 40
0.0
 40
0.0854499539373184
 40
0.3140297854261599
 40
0.5425578304836357
 40
0.771169675095448
 40
1.0
 40
1.0
 40
1.0
 40
1.0
 10
64.44306097011022
 20
5.968530130726585
 30
0.0
 10
64.6013908510366
 20
5.976729624438877
 30
0.0
 10
65.18325539563698
 20
6.006862879431188
 30
0.0
 10
66.1879344011331
 20
5.780657584869517
 30
0.0
 10
67.45775347941793
 20
5.298127050752798
 30
0.0
 10
68.72815654806126
 20
4.57293629126035
 30
0.0
 10
69.57591721553635
 20
3.927551613344206
 30
0.0
 10
70.00000000000003
 20
3.604705152354153
 30
0.0
  0
LINE
  5
BD
330
1F
100
AcDbEntity
  8
0
  6
Continuous
 62
   131
370
    15
100
AcDbLine
 10
10.00000000000001
 20
-5.467035141471927
 30
0.0
 11
10.00000000000001
 21
-5.634281408165471
 31
0.0
  0
SPLINE
  5
BE
330
1F
100
AcDbEntity
  8
0
  6
Continuous
 62
     1
370
    15
100
AcDbSpline
210
0.0
220
0.0
230
1.0
 70
     8
 71
     3
 72
    10
 73
     6
 74
     0
 42
0.000000001
 43
0.00000001
 40
0.0
 40
0.0
 40
0.0
 40
0.0
 40
0.404761606304852
 40
0.8091367584355371
 40
1.0
 40
1.0
 40
1.0
 40
1.0
 10
70.0
 20
5.95621530542601
 30
0.0
 10
69.57591808005722
 20
5.978959090700158
 30
0.0
 10
68.72815914079862
 20
6.024424946168226
 30
0.0
 10
67.68113916117693
 20
5.837291614799028
 30
0.0
 10
67.05797849693002
 20
5.573709075642507
 30
0.0
 10
66.85816197693828
 20
5.489191312043791
 30
0.0
  0
SPLINE
  5
BF
330
1F
100
AcDbEntity
  8
0
  6
Continuous
 62
     1
370
    15
100
AcDbSpline
210
0.0
220
0.0
230
1.0
 70
     8
 71
     3
 72
    25
 73
    21
 74
     0
 42
0.000000001
 43
0.00000001
 40
0.0
 40
0.0
 40
0.0
 40
0.0
 40
0.0356869372674755
 40
0.0954612142075257
 40
0.1551885978603089
 40
0.2149043891639363
 40
0.2746440143507546
 40
0.3344423671631371
 40
0.394232834904381
 40
0.4539681272123983
 40
0.5136834596379728
 40
0.5734142633764753
 40
0.6331958024312168
 40
0.6930013721120541
 40
0.752746541274798
 40
0.8124633950854232
 40
0.8721873482856345
 40
0.9319537388743528
 40
0.9917663650521853
 40
1.0
 40
1.0
 40
1.0
 40
1.0
 10
50.42565628888813
 20
-5.967616025952512
 30
0.0
 10
50.17253888479595
 20
-5.971048884126402
 30
0.0
 10
49.49545935424962
 20
-5.980231650555067
 30
0.0
 10
48.39511107364493
 20
-5.695267784495368
 30
0.0
 10
47.12498733080511
 20
-5.155579629897457
 30
0.0
 10
45.85518682522403
 20
-4.37378473284071
 30
0.0
 10
44.58471611978633
 20
-3.399435106862015
 30
0.0
 10
43.3127819202985
 20
-2.272615814958202
 30
0.0
 10
42.04103660036364
 20
-1.04436152906332
 30
0.0
 10
40.77068331210838
 20
0.2308395080558813
 30
0.0
 10
39.50090122418938
 20
1.495435997409693
 30
0.0
 10
38.23067204498788
 20
2.693403587515135
 30
0.0
 10
36.95914180920411
 20
3.770983163520206
 30
0.0
 10
35.68703566101433
 20
4.679657913741215
 30
0.0
 10
34.41641553163356
 20
5.379983227157304
 30
0.0
 10
33.1465886805736
 20
5.837974496899899
 30
0.0
 10
31.87653636469152
 20
6.041409766314922
 30
0.0
 10
30.60543618039023
 20
5.951363369277337
 30
0.0
 10
29.69852966867968
 20
5.760026091956433
 30
0.0
 10
29.21614743509737
 20
5.532817826273773
 30
0.0
 10
29.1577789200471
 20
5.505325501408152
 30
0.0
  0
SPLINE
  5
C0
330
1F
100
AcDbEntity
  8
0
  6
Continuous
 62
     1
370
    15
100
AcDbSpline
210
0.0
220
0.0
230
1.0
 70
     8
 71
     3
 72
    10
 73
     6
 74
     0
 42
0.000000001
 43
0.00000001
 40
0.0
 40
0.0
 40
0.0
 40
0.0
 40
0.0279680129121065
 40
0.5139134370453123
 40
1.0
 40
1.0
 40
1.0
 40
1.0
 10
12.7256925395919
 20
-5.992090219598739
 30
0.0
 10
12.70028330791886
 20
-5.99469473139037
 30
0.0
 10
12.23338758590915
 20
-6.042552747291182
 30
0.0
 10
11.32494950818009
 20
-5.87831301052573
 30
0.0
 10
10.44169258562612
 20
-5.553406282814715
 30
0.0
 10
9.999999999997913
 20
-5.390929330768055
 30
0.0
  0
SPLINE
  5
C1
330
1F
100
AcDbEntity
  8
0
  6
Continuous
 62
     1
370
    15
100
AcDbSpline
210
0.0
220
0.0
230
1.0
 70
     8
 71
     3
 72
    17
 73
    13
 74
     0
 42
0.000000001
 43
0.00000001
 40
0.0
 40
0.0
 40
0.0
 40
0.0
 40
0.1029148302393805
 40
0.2057997783981586
 40
0.3086868688272311
 40
0.4116081102277355
 40
0.5145952622072203
 40
0.6133768273599369
 40
0.7120595919946157
 40
0.8106997897116589
 40
0.9093559312137673
 40
1.0
 40
1.0
 40
1.0
 40
1.0
 10
9.99999999999792
 20
1.030760352591619
 30
0.0
 10
10.44169050149409
 20
0.5907306933308074
 30
0.0
 10
11.3249432563891
 20
-0.2892008593312698
 30
0.0
 10
12.6494658958113
 20
-1.60870217050904
 30
0.0
 10
13.9740655572024
 20
-2.846438918919734
 30
0.0
 10
15.2992903312863
 20
-3.946995894433217
 30
0.0
 10
16.60741542603499
 20
-4.843150157835226
 30
0.0
 10
17.89758380033537
 20
-5.501417766139133
 30
0.0
 10
19.16811796537262
 20
-5.906316625226942
 30
0.0
 10
20.43794094026917
 20
-6.04134998064423
 30
0.0
 10
21.67328698014336
 20
-5.931100231813841
 30
0.0
 10
22.48589582787207
 20
-5.646832309279926
 30
0.0
 10
22.87500354295398
 20
-5.510714123860928
 30
0.0
  0
SPLINE
  5
C2
330
1F
100
AcDbEntity
  8
0
  6
Continuous
 62
     1
370
    15
100
AcDbSpline
210
0.0
220
0.0
230
1.0
 70
     8
 71
     3
 72
    25
 73
    21
 74
     0
 42
0.000000001
 43
0.00000001
 40
0.0
 40
0.0
 40
0.0
 40
0.0
 40
0.0089723058905266
 40
0.0686953046775847
 40
0.1284382659095713
 40
0.1882364096583058
 40
0.248042439490478
 40
0.307789734157528
 40
0.3675131918815503
 40
0.4272482434429756
 40
0.4870301943119125
 40
0.5468477476517072
 40
0.6066058307361922
 40
0.666331727636834
 40
0.7260608427572246
 40
0.7858285457105629
 40
0.8456492978639357
 40
0.9054201286962738
 40
0.9651504435376111
 40
1.0
 40
1.0
 40
1.0
 40
1.0
 10
39.31023531562982
 20
5.982868946519858
 30
0.0
 10
39.37382121961597
 20
5.988348495139137
 30
0.0
 10
39.86065850546239
 20
6.030301953535424
 30
0.0
 10
40.77066433831626
 20
5.85057230570554
 30
0.0
 10
42.04104168057214
 20
5.433053398510405
 30
0.0
 10
43.31278059467756
 20
4.747354750458372
 30
0.0
 10
44.58471633883664
 20
3.856420319232538
 30
0.0
 10
45.85518727264921
 20
2.790989594870832
 30
0.0
 10
47.12498532285721
 20
1.601593593489718
 30
0.0
 10
48.39511866246554
 20
0.3403508264086821
 30
0.0
 10
49.66647210459983
 20
-0.9361878199320703
 30
0.0
 10
50.93868137196141
 20
-2.170390846125426
 30
0.0
 10
52.20943693125773
 20
-3.308207022979182
 30
0.0
 10
53.47930900904413
 20
-4.297772442440644
 30
0.0
 10
54.74927410508017
 20
-5.095559015756978
 30
0.0
 10
56.02027480634686
 20
-5.664908463849433
 30
0.0
 10
57.29255941028144
 20
-5.983870677711992
 30
0.0
 10
58.56364205924583
 20
-6.024348632746139
 30
0.0
 10
59.65736028640704
 20
-5.863186026073161
 30
0.0
 10
60.32755845180074
 20
-5.590452003917697
 30
0.0
 10
60.57450432393953
 20
-5.489958531328811
 30
0.0
  0
SPLINE
  5
C3
330
1F
100
AcDbEntity
  8
0
  6
Continuous
 62
   131
370
    15
100
AcDbSpline
210
0.0
220
0.0
230
1.0
 70
    24
 71
     3
 72
    22
 73
    18
 74
     0
 42
0.000000001
 43
0.00000001
 40
0.0
 40
0.0
 40
0.0
 40
0.0
 40
0.0215242536620401
 40
0.0917762646624329
 40
0.1640655887410457
 40
0.2343175997414326
 40
0.3066069238200402
 40
0.3768589348204272
 40
0.4491482588990354
 40
0.5194002698994223
 40
0.5916895939780311
 40
0.6619416049784168
 40
0.7342309290570235
 40
0.8044829400574082
 40
0.8767722641360131
 40
0.9470242751363338
 40
1.0
 40
1.0
 40
1.0
 40
1.0
 10
9.999999999999995
 20
4.976563241288481
 30
0.0
 10
10.00000000000001
 20
4.947571032393201
 30
0.0
 10
10.00000000000006
 20
4.823952500550008
 30
0.0
 10
10.00000000000001
 20
4.576589702628399
 30
0.0
 10
9.999999999999961
 20
4.22041033802603
 30
0.0
 10
10.00000000000004
 20
3.833228482882561
 30
0.0
 10
10.00000000000003
 20
3.43361256370966
 30
0.0
 10
9.999999999999973
 20
3.025509028133052
 30
0.0
 10
10.00000000000015
 20
2.627861433950099
 30
0.0
 10
9.99999999999994
 20
2.244751740564895
 30
0.0
 10
10.00000000000005
 20
1.893937811672003
 30
0.0
 10
10.0
 20
1.578976946216458
 30
0.0
 10
9.99999999999998
 20
1.314667425412852
 30
0.0
 10
10.00000000000001
 20
1.102931634804079
 30
0.0
 10
10.00000000000004
 20
0.9565599862539315
 30
0.0
 10
10.00000000000004
 20
0.8740438419999572
 30
0.0
 10
10.00000000000001
 20
0.8724226854383109
 30
0.0
 10
10.0
 20
0.8717257486377721
 30
0.0
  0
SPLINE
  5
C4
330
1F
100
AcDbEntity
  8
0
  6
Continuous
 62
     1
370
    15
100
AcDbSpline
210
0.0
220
0.0
230
1.0
 70
     8
 71
     3
 72
    25
 73
    21
 74
     0
 42
0.000000001
 43
0.00000001
 40
0.0
 40
0.0
 40
0.0
 40
0.0
 40
0.0290141994969336
 40
0.0887630954478923
 40
0.1484817416199782
 40
0.2082055465739111
 40
0.2679698631030894
 40
0.3277840955124779
 40
0.3875452845035554
 40
0.4472678898672981
 40
0.5069872773620384
 40
0.5667388475327148
 40
0.6265498814771562
 40
0.6863253168309816
 40
0.7460538579887573
 40
0.8057708065727199
 40
0.8655115895017693
 40
0.9253111011945128
 40
0.9851027276633064
 40
1.0
 40
1.0
 40
1.0
 40
1.0
 10
62.991244263578
 20
-5.966385897845209
 30
0.0
 10
62.78545430612231
 20
-5.973194344335952
 30
0.0
 10
62.15588140896944
 20
-5.994023414108278
 30
0.0
 10
61.1034966631946
 20
-5.739430280117098
 30
0.0
 10
59.83363625124791
 20
-5.229248800493046
 30
0.0
 10
58.56363958729344
 20
-4.471017334506637
 30
0.0
 10
57.29256007345207
 20
-3.516573152838311
 30
0.0
 10
56.02027462881016
 20
-2.404487286964638
 30
0.0
 10
54.74927415241091
 20
-1.184610049089133
 30
0.0
 10
53.47930899706782
 20
0.0879989496095427
 30
0.0
 10
52.20943693185014
 20
1.356614897529536
 30
0.0
 10
50.93868138158417
 20
2.564940880344291
 30
0.0
 10
49.6664720654814
 20
3.658084374397447
 30
0.0
 10
48.39511880915634
 20
4.588077426692736
 30
0.0
 10
47.1249847756859
 20
5.313261431941139
 30
0.0
 10
45.85518931474035
 20
5.799555423133191
 30
0.0
 10
44.5847087110137
 20
6.031943367181409
 30
0.0
 10
43.31280909131046
 20
5.975194628120664
 30
0.0
 10
42.35895545293616
 20
5.786968117725974
 30
0.0
 10
41.82959458000467
 20
5.545108993539934
 30
0.0
 10
41.72400950358001
 20
5.49686834067535
 30
0.0
  0
SPLINE
  5
C5
330
1F
100
AcDbEntity
  8
0
  6
Continuous
 62
     1
370
    15
100
AcDbSpline
210
0.0
220
0.0
230
1.0
 70
     8
 71
     3
 72
    19
 73
    15
 74
     0
 42
0.000000001
 43
0.00000001
 40
0.0
 40
0.0
 40
0.0
 40
0.0
 40
0.0681230239426759
 40
0.1512998096559876
 40
0.2344201980456146
 40
0.3174780488609225
 40
0.4005224767255528
 40
0.4836027413525053
 40
0.5667661853797752
 40
0.6534702807839382
 40
0.7401188865758707
 40
0.8267387409262084
 40
0.9133567917155737
 40
0.9999999999999999
 40
0.9999999999999999
 40
0.9999999999999999
 40
0.9999999999999999
 10
25.29357427355837
 20
-5.98016127466308
 30
0.0
 10
24.94635279632571
 20
-5.970697320339807
 30
0.0
 10
24.17518116633492
 20
-5.94967807596643
 30
0.0
 10
22.97927941279017
 20
-5.596776573579126
 30
0.0
 10
21.70802244980352
 20
-4.999916545999266
 30
0.0
 10
20.43792950128539
 20
-4.171893637186066
 30
0.0
 10
19.16812103129453
 20
-3.159624256911949
 30
0.0
 10
17.89758297889917
 20
-2.005273885988136
 30
0.0
 10
16.60741565669557
 20
-0.7441208851553784
 30
0.0
 10
15.29929026844109
 20
0.5709068093470699
 30
0.0
 10
13.97406557402514
 20
1.877568425645422
 30
0.0
 10
12.649465891326
 20
3.088124926272854
 30
0.0
 10
11.32494325751077
 20
4.165995650176473
 30
0.0
 10
10.44169050186801
 20
4.706347891244786
 30
0.0
 10
9.99999999999792
 20
4.976563241289649
 30
0.0
  0
LINE
  5
C6
330
1F
100
AcDbEntity
  8
0
  6
Continuous
 62
     1
370
    15
100
AcDbLine
 10
70.00000000000003
 20
-5.956215305426043
 30
0.0
 11
70.00000000000003
 21
-3.600001987145256
 31
0.0
  0
SPLINE
  5
C7
330
1F
100
AcDbEntity
  8
0
  6
Continuous
 62
     1
370
    15
100
AcDbSpline
210
0.0
220
0.0
230
1.0
 70
     8
 71
     3
 72
    24
 73
    20
 74
     0
 42
0.000000001
 43
0.00000001
 40
0.0
 40
0.0
 40
0.0
 40
0.0
 40
0.0528388282181334
 40
0.1151930836367189
 40
0.175001038568875
 40
0.2347491740709487
 40
0.2944715371499229
 40
0.3542035534994962
 40
0.4139805444706754
 40
0.473798094231027
 40
0.5335574725018648
 40
0.593282733372194
 40
0.6530092712016359
 40
0.7127724665451256
 40
0.7725912855676416
 40
0.8323638642139284
 40
0.8920940010778522
 40
0.9518170378171379
 40
1.0
 40
1.0
 40
1.0
 40
1.0
 10
14.17545168061745
 20
5.981173806124195
 30
0.0
 10
14.54997443531626
 20
5.968484959639659
 30
0.0
 10
15.3664654980584
 20
5.940822208522
 30
0.0
 10
16.60741996607926
 20
5.552559388209325
 30
0.0
 10
17.8975818878048
 20
4.921296442575615
 30
0.0
 10
19.16812116648755
 20
4.071231773673372
 30
0.0
 10
20.43793005039559
 20
3.041445739541005
 30
0.0
 10
21.70802011692178
 20
1.875112726520222
 30
0.0
 10
22.97928820479991
 20
0.6249335747762896
 30
0.0
 10
24.25153289358574
 20
-0.6526414059797417
 30
0.0
 10
25.52235988690817
 20
-1.901697144783694
 30
0.0
 10
26.79225669591233
 20
-3.065413978063336
 30
0.0
 10
28.06219057207292
 20
-4.09214549887525
 30
0.0
 10
29.33311436551562
 20
-4.936323845836025
 30
0.0
 10
30.60539068251715
 20
-5.558986654457255
 30
0.0
 10
31.87654485872511
 20
-5.935460500993593
 30
0.0
 10
33.14660014109455
 20
-6.039187961717126
 30
0.0
 10
34.33439287025406
 20
-5.9094658673972
 30
0.0
 10
35.09925942275911
 20
-5.626889098535355
 30
0.0
 10
35.4407931330478
 20
-5.500710888761784
 30
0.0
  0
SPLINE
  5
C8
330
1F
100
AcDbEntity
  8
0
  6
Continuous
 62
     1
370
    15
100
AcDbSpline
210
0.0
220
0.0
230
1.0
 70
     8
 71
     3
 72
    22
 73
    18
 74
     0
 42
0.000000001
 43
0.00000001
 40
0.0
 40
0.0
 40
0.0
 40
0.0
 40
0.018359934030496
 40
0.0884376155900206
 40
0.1585190731561093
 40
0.2286458066579263
 40
0.298834783929028
 40
0.3689651874386619
 40
0.4390480526631839
 40
0.5091248643180573
 40
0.579237172558881
 40
0.6494201327925259
 40
0.7195677834254939
 40
0.7896581509068702
 40
0.8597326389032484
 40
0.9298328226992951
 40
1.0
 40
1.0
 40
1.0
 40
1.0
 10
51.87688696891234
 20
5.974029788743857
 30
0.0
 10
51.98780212609627
 20
5.981755120097901
 30
0.0
 10
52.52206722845703
 20
6.018967121157368
 30
0.0
 10
53.47928060897572
 20
5.817215629873393
 30
0.0
 10
54.74928177479894
 20
5.368032873422495
 30
0.0
 10
56.02027254495597
 20
4.657727351930865
 30
0.0
 10
57.29256077644904
 20
3.745341704232554
 30
0.0
 10
58.56363885898799
 20
2.663563459250902
 30
0.0
 10
59.83363846059383
 20
1.463360370843725
 30
0.0
 10
61.10348855245416
 20
0.1977258426714714
 30
0.0
 10
62.37417479473782
 20
-1.077061246773569
 30
0.0
 10
63.64633799220459
 20
-2.30322609089801
 30
0.0
 10
64.91777873702029
 20
-3.426514458512788
 30
0.0
 10
66.18795866121332
 20
-4.39795206923234
 30
0.0
 10
67.45774700823927
 20
-5.167627073450671
 30
0.0
 10
68.72815816790722
 20
-5.72558490470673
 30
0.0
 10
69.57591775565686
 20
-5.879314030847057
 30
0.0
 10
70.00000000000003
 20
-5.956215305426044
 30
0.0
  0
SPLINE
  5
C9
330
1F
100
AcDbEntity
  8
0
  6
Continuous
 62
     1
370
    15
100
AcDbSpline
210
0.0
220
0.0
230
1.0
 70
     8
 71
     3
 72
    20
 73
    16
 74
     0
 42
0.000000001
 43
0.00000001
 40
0.0
 40
0.0
 40
0.0
 40
0.0
 40
0.0809526855016906
 40
0.1618280798207819
 40
0.2426738285980503
 40
0.3235378977211631
 40
0.404468055080024
 40
0.4854389495343296
 40
0.5663283319658504
 40
0.6471767615748503
 40
0.7280321752572971
 40
0.8089424344101208
 40
0.8899202707902635
 40
0.9708262958125402
 40
1.0
 40
1.0
 40
1.0
 40
1.0
 10
70.0
 20
-3.604705152354158
 30
0.0
 10
69.57591775566331
 20
-3.250378274310602
 30
0.0
 10
68.72815816792658
 20
-2.542062818840213
 30
0.0
 10
67.4577470081618
 20
-1.322368249374388
 30
0.0
 10
66.18795866150364
 20
-0.0554205977508849
 30
0.0
 10
64.91777873593574
 20
1.217281537445451
 30
0.0
 10
63.64633799625651
 20
2.43478183805623
 30
0.0
 10
62.37417477961404
 20
3.543324585123358
 30
0.0
 10
61.10348860882027
 20
4.493853618655398
 30
0.0
 10
59.83363825033678
 20
5.24357977426815
 30
0.0
 10
58.56363964399348
 20
5.757885139444685
 30
0.0
 10
57.29255784352541
 20
6.019218495583818
 30
0.0
 10
56.02028349659824
 20
5.995248850845709
 30
0.0
 10
55.0198524030769
 20
5.813188390160692
 30
0.0
 10
54.44361756393921
 20
5.558888669027585
 30
0.0
 10
54.29090184724737
 20
5.491493292126219
 30
0.0
  0
SPLINE
  5
CA
330
1F
100
AcDbEntity
  8
0
  6
Continuous
 62
     1
370
    15
100
AcDbSpline
210
0.0
220
0.0
230
1.0
 70
     8
 71
     3
 72
    25
 73
    21
 74
     0
 42
0.000000001
 43
0.00000001
 40
0.0
 40
0.0
 40
0.0
 40
0.0
 40
0.042339754643027
 40
0.102146550357316
 40
0.1618929443152815
 40
0.2216110223406543
 40
0.281336199901153
 40
0.341103815720139
 40
0.4009176680760835
 40
0.4606759013713525
 40
0.5203974801961913
 40
0.5801177821679413
 40
0.6398721987074841
 40
0.6996847819066495
 40
0.7594568096841768
 40
0.8191838665742749
 40
0.87890127099527
 40
0.938644445699519
 40
0.9984474348671339
 40
0.9999999999999999
 40
0.9999999999999999
 40
0.9999999999999999
 40
0.9999999999999999
 10
37.85987689995003
 20
-5.972216716399247
 30
0.0
 10
37.55968386147629
 20
-5.970236338727328
 30
0.0
 10
36.83545473969927
 20
-5.965458589085253
 30
0.0
 10
35.68702211411227
 20
-5.647726963399005
 30
0.0
 10
34.4164199885235
 20
-5.079117922579978
 30
0.0
 10
33.14658438839064
 20
-4.274039239408991
 30
0.0
 10
31.87654908308953
 20
-3.280502157786812
 30
0.0
 10
30.60538954929561
 20
-2.139420777106254
 30
0.0
 10
29.33311466878355
 20
-0.903510483431569
 30
0.0
 10
28.06219049152929
 20
0.3734949840623502
 30
0.0
 10
26.79225671514025
 20
1.633461159435209
 30
0.0
 10
25.52235989051452
 20
2.820421034677712
 30
0.0
 10
24.25153285988529
 20
3.881651200541296
 30
0.0
 10
22.97928833609575
 20
4.768751218096742
 30
0.0
 10
21.70801962601049
 20
5.443677589094939
 30
0.0
 10
20.43793188126725
 20
5.873055278427684
 30
0.0
 10
19.16811433327947
 20
6.047862786781506
 30
0.0
 10
17.89760741294703
 20
5.922911192699441
 30
0.0
 10
17.03858650227601
 20
5.734091135491182
 30
0.0
 10
16.60349370892746
 20
5.522104638547401
 30
0.0
 10
16.59248394936753
 20
5.516740448661976
 30
0.0
  0
SPLINE
  5
CB
330
1F
100
AcDbEntity
  8
0
  6
Continuous
 62
     1
370
    15
100
AcDbSpline
210
0.0
220
0.0
230
1.0
 70
     8
 71
     3
 72
    22
 73
    18
 74
     0
 42
0.000000001
 43
0.00000001
 40
0.0
 40
0.0
 40
0.0
 40
0.0
 40
0.0691639194099375
 40
0.1383077565653566
 40
0.2074530334336883
 40
0.2766212614649418
 40
0.3458337847057608
 40
0.4122199430030483
 40
0.4785397024047506
 40
0.5448308547062515
 40
0.6111327220297057
 40
0.6774845106780517
 40
0.7438813191268809
 40
0.8102135578756486
 40
0.8765079266930098
 40
0.942803712920645
 40
1.0
 40
1.0
 40
1.0
 40
1.0
 10
9.99999999999792
 20
5.634281408166154
 30
0.0
 10
10.44169050184806
 20
5.455863355927338
 30
0.0
 10
11.32494325745091
 20
5.099079056448128
 30
0.0
 10
12.64946589156548
 20
4.242712487197164
 30
0.0
 10
13.97406557312698
 20
3.19985182803733
 30
0.0
 10
15.29929027179648
 20
1.996038508935938
 30
0.0
 10
16.60741564438046
 20
0.7142903468254588
 30
0.0
 10
17.89758302275624
 20
-0.5816457584636778
 30
0.0
 10
19.16812086760278
 20
-1.83377491375836
 30
0.0
 10
20.43793011202093
 20
-3.003619669998828
 30
0.0
 10
21.70802016931721
 20
-4.039332169962267
 30
0.0
 10
22.97928793322662
 20
-4.894718374211882
 30
0.0
 10
24.25153392775567
 20
-5.530578388203397
 30
0.0
 10
25.52235602710462
 20
-5.921300814717505
 30
0.0
 10
26.79227109376647
 20
-6.040704489172335
 30
0.0
 10
28.00378962021663
 20
-5.920411646583529
 30
0.0
 10
28.79248752474926
 20
-5.636719611528775
 30
0.0
 10
29.1577789200471
 20
-5.505325501408189
 30
0.0
  0
SPLINE
  5
CC
330
1F
100
AcDbEntity
  8
0
  6
Continuous
 62
     1
370
    15
100
AcDbSpline
210
0.0
220
0.0
230
1.0
 70
     8
 71
     3
 72
    25
 73
    21
 74
     0
 42
0.000000001
 43
0.00000001
 40
0.0
 40
0.0
 40
0.0
 40
0.0
 40
0.012308652772416
 40
0.0720314115393551
 40
0.131765764008012
 40
0.1915470152353071
 40
0.2513638685167964
 40
0.3111212522389698
 40
0.3708464501539822
 40
0.4305748662510797
 40
0.4903418697295229
 40
0.5501619217871538
 40
0.6099320531079906
 40
0.6696616689119942
 40
0.7293861254322244
 40
0.789140834674491
 40
0.8489557585836878
 40
0.908740589133033
 40
0.968476598895362
 40
1.0
 40
1.0
 40
1.0
 40
1.0
 10
45.59361739466323
 20
5.978033408878926
 30
0.0
 10
45.68085594572012
 20
5.984846627013155
 30
0.0
 10
46.19138427806194
 20
6.024718230218497
 30
0.0
 10
47.12496024471761
 20
5.834372728760304
 30
0.0
 10
48.39512538836592
 20
5.400909435023554
 30
0.0
 10
49.66647030082667
 20
4.702855216260171
 30
0.0
 10
50.93868185382532
 20
3.801172474605067
 30
0.0
 10
52.20943680619058
 20
2.727455408614809
 30
0.0
 10
53.47930902794342
 20
1.532583625036349
 30
0.0
 10
54.74927415454182
 20
0.2690755550083329
 30
0.0
 10
56.02027458934505
 20
-1.006737070474865
 30
0.0
 10
57.29256022927774
 20
-2.23690113474541
 30
0.0
 10
58.56363900421061
 20
-3.367731080157402
 30
0.0
 10
59.83363842628169
 20
-4.347714408858292
 30
0.0
 10
61.10348854454065
 20
-5.133628059327775
 30
0.0
 10
62.37417486078738
 20
-5.689370292852814
 30
0.0
 10
63.64633773569437
 20
-5.993939141167796
 30
0.0
 10
64.91777969604786
 20
-6.018423432439679
 30
0.0
 10
65.98812743276298
 20
-5.851017698800869
 30
0.0
 10
66.63478830215007
 20
-5.582087036916312
 30
0.0
 10
66.85816197693828
 20
-5.489191312043826
 30
0.0
  0
SPLINE
  5
CD
330
1F
100
AcDbEntity
  8
0
  6
Continuous
 62
     1
370
    15
100
AcDbSpline
210
0.0
220
0.0
230
1.0
 70
     8
 71
     3
 72
    25
 73
    21
 74
     0
 42
0.000000001
 43
0.00000001
 40
0.0
 40
0.0
 40
0.0
 40
0.0
 40
0.0256724802610302
 40
0.0854121863069185
 40
0.1451299942715798
 40
0.2048613348079783
 40
0.2646414923153472
 40
0.3244517408303398
 40
0.3842017793850426
 40
0.4439215675823933
 40
0.5036465146602445
 40
0.5634119740880612
 40
0.6232273503506511
 40
0.6829896821805579
 40
0.7427134296452786
 40
0.8024339591794603
 40
0.8621866720050211
 40
0.9219988497414981
 40
0.9817754282065922
 40
0.9999999999999999
 40
0.9999999999999999
 40
0.9999999999999999
 40
0.9999999999999999
 10
69.27404816784954
 20
-5.967037373544725
 30
0.0
 10
69.09198542758497
 20
-5.974787605663162
 30
0.0
 10
68.48626379364407
 20
-6.000572580971011
 30
0.0
 10
67.4577641265962
 20
-5.760216160498731
 30
0.0
 10
66.18795407409641
 20
-5.265023394666366
 30
0.0
 10
64.91777996716749
 20
-4.518658806501945
 30
0.0
 10
63.64633766297106
 20
-3.574495982194605
 30
0.0
 10
62.37417488028837
 20
-2.469831679629856
 30
0.0
 10
61.10348853920054
 20
-1.254540620329005
 30
0.0
 10
59.83363842815993
 20
0.0165506070364409
 30
0.0
 10
58.56363900203576
 20
1.286951771770757
 30
0.0
 10
57.29256023610518
 20
2.500085264008877
 30
0.0
 10
56.02027456419901
 20
3.600923366049045
 30
0.0
 10
54.74927424817378
 20
4.541295457584067
 30
0.0
 10
53.47930867877866
 20
5.278786503453955
 30
0.0
 10
52.20943810953363
 20
5.779124187414733
 30
0.0
 10
50.93867698470221
 20
6.025991638670417
 30
0.0
 10
49.66648848787532
 20
5.985689867485234
 30
0.0
 10
48.68934344518182
 20
5.800169950909503
 30
0.0
 10
48.13654894300867
 20
5.55182157367295
 30
0.0
 10
48.00739132086505
 20
5.493796239229495
 30
0.0
  0
SPLINE
  5
CE
330
1F
100
AcDbEntity
  8
0
  6
Continuous
 62
     1
370
    15
100
AcDbSpline
210
0.0
220
0.0
230
1.0
 70
     8
 71
     3
 72
    24
 73
    20
 74
     0
 42
0.000000001
 43
0.00000001
 40
0.0
 40
0.0
 40
0.0
 40
0.0
 40
0.0456683756080538
 40
0.1054884590352467
 40
0.1652529176076828
 40
0.2249807178912317
 40
0.2847072411886765
 40
0.3444678826077781
 40
0.4042866967459784
 40
0.4640649512377045
 40
0.5237982301571867
 40
0.5835218556020261
 40
0.6432712540147226
 40
0.7030804731219201
 40
0.7654360465373082
 40
0.8277517131112361
 40
0.8900467023155565
 40
0.9523403944406779
 40
1.0
 40
1.0
 40
1.0
 40
1.0
 10
31.5767959435394
 20
-5.975772498988919
 30
0.0
 10
31.25309127479682
 20
-5.970310600685894
 30
0.0
 10
30.50537239420352
 20
-5.957694272040048
 30
0.0
 10
29.33310287004873
 20
-5.622677743353885
 30
0.0
 10
28.06219364898557
 20
-5.039855694471243
 30
0.0
 10
26.79225587160333
 20
-4.223261036835147
 30
0.0
 10
25.52236010829963
 20
-3.220300879606274
 30
0.0
 10
24.2515328327388
 20
-2.072457915699907
 30
0.0
 10
22.97928822649697
 20
-0.8327879251311718
 30
0.0
 10
21.70802009099164
 20
0.444706587958809
 30
0.0
 10
20.43793013237118
 20
1.702135704109933
 30
0.0
 10
19.16812086448507
 20
2.883396981116318
 30
0.0
 10
17.89758301486235
 20
3.936046279816122
 30
0.0
 10
16.60741567972227
 20
4.825070192174985
 30
0.0
 10
15.29929013213318
 20
5.50036625284673
 30
0.0
 10
13.9740660935889
 20
5.919907142308933
 30
0.0
 10
12.64946394995508
 20
6.04303517715215
 30
0.0
 10
11.42878656662198
 20
5.915819238740244
 30
0.0
 10
10.64939792742618
 20
5.622826241820805
 30
0.0
 10
10.31156945021132
 20
5.4958274981824
 30
0.0
  0
SPLINE
  5
CF
330
1F
100
AcDbEntity
  8
0
  6
Continuous
 62
     1
370
    15
100
AcDbSpline
210
0.0
220
0.0
230
1.0
 70
     8
 71
     3
 72
    12
 73
     8
 74
     0
 42
0.000000001
 43
0.00000001
 40
0.0
 40
0.0
 40
0.0
 40
0.0
 40
0.2009934519508639
 40
0.4019285439693666
 40
0.6028678198581674
 40
0.8038737928558264
 40
0.9999999999999999
 40
0.9999999999999999
 40
0.9999999999999999
 40
0.9999999999999999
 10
9.99999999999792
 20
-4.603521055574571
 30
0.0
 10
10.4416905764526
 20
-4.865056076564445
 30
0.0
 10
11.32494348124285
 20
-5.38805017992039
 30
0.0
 10
12.64946499669312
 20
-5.852333297828353
 30
0.0
 10
13.97406892947925
 20
-6.042845250245304
 30
0.0
 10
15.28827207034889
 20
-5.956627847145639
 30
0.0
 10
16.16132252860029
 20
-5.662163503580439
 30
0.0
 10
16.59248394936749
 20
-5.51674044866201
 30
0.0
  0
SPLINE
  5
D0
330
1F
100
AcDbEntity
  8
0
  6
Continuous
 62
     1
370
    15
100
AcDbSpline
210
0.0
220
0.0
230
1.0
 70
     8
 71
     3
 72
    25
 73
    21
 74
     0
 42
0.000000001
 43
0.00000001
 40
0.0
 40
0.0
 40
0.0
 40
0.0
 40
0.00563892441224
 40
0.0653637891897003
 40
0.1251169731177597
 40
0.1849305656665919
 40
0.244720124365641
 40
0.3044589409423493
 40
0.3641822841306656
 40
0.4239255898790267
 40
0.4837240784623538
 40
0.5435304531745946
 40
0.6032780923830086
 40
0.6630018945109356
 40
0.7227372905431234
 40
0.7825195861532741
 40
0.8423374844395896
 40
0.9020959121276514
 40
0.9618221534462639
 40
1.0
 40
1.0
 40
1.0
 40
1.0
 10
33.0267477425535
 20
5.988532128085664
 30
0.0
 10
33.06670749009923
 20
5.992281037068025
 30
0.0
 10
33.52990229884369
 20
6.035736646418364
 30
0.0
 10
34.41640379437956
 20
5.865784341192673
 30
0.0
 10
35.68703881023453
 20
5.464481809732732
 30
0.0
 10
36.95914096531642
 20
4.79119269635493
 30
0.0
 10
38.2306722710415
 20
3.9111026686005
 30
0.0
 10
39.5009011629697
 20
2.854150025837556
 30
0.0
 10
40.77068333108662
 20
1.670375486639265
 30
0.0
 10
42.0410365856715
 20
0.4115412264277857
 30
0.0
 10
43.31278196010999
 20
-0.8654452517728944
 30
0.0
 10
44.58471597528986
 20
-2.103645154098099
 30
0.0
 10
45.85518736272873
 20
-3.248196129224948
 30
0.0
 10
47.12498532576119
 20
-4.247234421110321
 30
0.0
 10
48.39511856071086
 20
-5.056795137599024
 30
0.0
 10
49.66647250917608
 20
-5.639628611985128
 30
0.0
 10
50.93867985519773
 20
-5.972988953218358
 30
0.0
 10
52.20944258596981
 20
-6.029383846397288
 30
0.0
 10
53.32658112172342
 20
-5.875120800319571
 30
0.0
 10
54.02036124358156
 20
-5.599120158273956
 30
0.0
 10
54.29090184724734
 20
-5.491493292126253
 30
0.0
  0
SPLINE
  5
D1
330
1F
100
AcDbEntity
  8
0
  6
Continuous
 62
   131
370
    15
100
AcDbSpline
210
0.0
220
0.0
230
1.0
 70
    24
 71
     3
 72
    22
 73
    18
 74
     0
 42
0.000000001
 43
0.00000001
 40
0.0
 40
0.0
 40
0.0
 40
0.0
 40
0.0492943774770629
 40
0.1165428534153688
 40
0.1857415397116218
 40
0.252990015649928
 40
0.3221887019461813
 40
0.3894371778844878
 40
0.4586358641807411
 40
0.5258843401190463
 40
0.5950830264152978
 40
0.6623315023536016
 40
0.7315301886498516
 40
0.7987786645880945
 40
0.867977350884412
 40
0.9331057715698936
 40
1.0
 40
1.0
 40
1.0
 40
1.0
 10
9.999999999999995
 20
-0.3343250620684514
 30
0.0
 10
9.999999999999995
 20
-0.3344906422481474
 30
0.0
 10
9.999999999999988
 20
-0.3348821105574853
 30
0.0
 10
9.999999999999988
 20
-0.4149623247832308
 30
0.0
 10
10.00000000000004
 20
-0.5591061040911625
 30
0.0
 10
9.999999999999973
 20
-0.7688630174084794
 30
0.0
 10
10.00000000000011
 20
-1.03141437967428
 30
0.0
 10
9.999999999999995
 20
-1.344888172670377
 30
0.0
 10
10.00000000000003
 20
-1.694546132086541
 30
0.0
 10
9.999999999999973
 20
-2.076846056302202
 30
0.0
 10
9.999999999999995
 20
-2.474063707520837
 30
0.0
 10
10.00000000000002
 20
-2.882133882187177
 30
0.0
 10
10.00000000000006
 20
-3.282069231750435
 30
0.0
 10
10.00000000000001
 20
-3.670089407197353
 30
0.0
 10
9.99999999999998
 20
-4.023241972232105
 30
0.0
 10
10.00000000000004
 20
-4.343510906959924
 30
0.0
 10
10.00000000000001
 20
-4.516081626150579
 30
0.0
 10
10.0
 20
-4.603521055575906
 30
0.0
  0
SPLINE
  5
D2
330
1F
100
AcDbEntity
  8
0
  6
Continuous
 62
     1
370
    15
100
AcDbSpline
210
0.0
220
0.0
230
1.0
 70
     8
 71
     3
 72
    25
 73
    21
 74
     0
 42
0.000000001
 43
0.00000001
 40
0.0
 40
0.0
 40
0.0
 40
0.0
 40
0.032352771338682
 40
0.0921131481973676
 40
0.1518349419530556
 40
0.2115535178834708
 40
0.2713042760524714
 40
0.3311144971871466
 40
0.3908891202149773
 40
0.450616849684033
 40
0.5103329867368144
 40
0.5700729578107827
 40
0.629871656850343
 40
0.6896624707731107
 40
0.749398108943191
 40
0.8091137871152626
 40
0.8688449366898396
 40
0.9286268218744088
 40
0.9884327378242088
 40
1.0
 40
1.0
 40
1.0
 40
1.0
 10
56.70845693413725
 20
-5.966578813240189
 30
0.0
 10
56.47897650599833
 20
-5.971950934282456
 30
0.0
 10
55.82561162222142
 20
-5.987246161282338
 30
0.0
 10
54.74927363702306
 20
-5.717776294552894
 30
0.0
 10
53.47930913444758
 20
-5.192765757574029
 30
0.0
 10
52.20943689751721
 20
-4.422722669636663
 30
0.0
 10
50.93868138146415
 20
-3.458215031010246
 30
0.0
 10
49.66647210037388
 20
-2.338744375113717
 30
0.0
 10
48.39511866986033
 20
-1.11454530204009
 30
0.0
 10
47.12498529752315
 20
0.1594332283515531
 30
0.0
 10
45.85518736659551
 20
1.426115616458167
 30
0.0
 10
44.5847159880808
 20
2.629373806520328
 30
0.0
 10
43.31278190501595
 20
3.7147841533094
 30
0.0
 10
42.04103679312357
 20
4.63419329719234
 30
0.0
 10
40.77068255724482
 20
5.346996967516212
 30
0.0
 10
39.50090405045773
 20
5.819173411861152
 30
0.0
 10
38.23066148762948
 20
6.037080318735267
 30
0.0
 10
36.9591812541593
 20
5.963753778359123
 30
0.0
 10
36.02869244926726
 20
5.773588547929005
 30
0.0
 10
35.52278432454575
 20
5.538767684867894
 30
0.0
 10
35.44079313304776
 20
5.500710888761746
 30
0.0
  0
SPLINE
  5
D3
330
1F
100
AcDbEntity
  8
0
  6
Continuous
 62
     1
370
    15
100
AcDbSpline
210
0.0
220
0.0
230
1.0
 70
     8
 71
     3
 72
    14
 73
    10
 74
     0
 42
0.000000001
 43
0.00000001
 40
0.0
 40
0.0
 40
0.0
 40
0.0
 40
0.1234750570922739
 40
0.2646354366398586
 40
0.4118056646016579
 40
0.5588817053299312
 40
0.7059089437935133
 40
0.8529331209198173
 40
1.0
 40
1.0
 40
1.0
 40
1.0
 10
19.01021872386659
 20
-5.985379635734471
 30
0.0
 10
18.63947423824582
 20
-5.971382381678588
 30
0.0
 10
17.84488356427066
 20
-5.941383047998835
 30
0.0
 10
16.60740986884143
 20
-5.564627132979572
 30
0.0
 10
15.29929184538462
 20
-4.930856666433165
 30
0.0
 10
13.97406515189985
 20
-4.04139354680709
 30
0.0
 10
12.64946600387327
 20
-2.957293801870867
 30
0.0
 10
11.32494322936464
 20
-1.730411775353188
 30
0.0
 10
10.44169049248508
 20
-0.853090447055177
 30
0.0
 10
9.99999999999792
 20
-0.4143660894783924
 30
0.0
  0
LINE
  5
D4
330
1F
100
AcDbEntity
  8
0
  6
Continuous
 62
     1
370
    15
100
AcDbLine
 10
70.00000000000003
 20
-2.351510153071815
 30
0.0
 11
70.00000000000003
 21
2.35151015307189
 31
0.0
  0
SPLINE
  5
D5
330
1F
100
AcDbEntity
  8
0
  6
Continuous
 62
     1
370
    15
100
AcDbSpline
210
0.0
220
0.0
230
1.0
 70
     8
 71
     3
 72
    24
 73
    20
 74
     0
 42
0.000000001
 43
0.00000001
 40
0.0
 40
0.0
 40
0.0
 40
0.0
 40
0.0587161317106569
 40
0.1184942711460901
 40
0.1783129701499307
 40
0.2380734965466388
 40
0.2977999048873584
 40
0.3575275902117243
 40
0.4172919337544199
 40
0.4771119020448104
 40
0.5368856290705796
 40
0.5966169134985737
 40
0.6563410976655187
 40
0.7160936006603444
 40
0.7759065115875408
 40
0.8356953889388379
 40
0.8954335247460394
 40
0.9551561873411802
 40
0.9999999999999999
 40
0.9999999999999999
 40
0.9999999999999999
 40
0.9999999999999999
 10
20.45949625737736
 20
5.997756649042405
 30
0.0
 10
20.87556422426656
 20
5.973566460797475
 30
0.0
 10
21.71522564349496
 20
5.924748552644146
 30
0.0
 10
22.97928933975026
 20
5.516189550200759
 30
0.0
 10
24.25153259107946
 20
4.879138046740717
 30
0.0
 10
25.52235996278753
 20
4.018260945581932
 30
0.0
 10
26.79225669457738
 20
2.979459229652814
 30
0.0
 10
28.06219050153015
 20
1.807135259830836
 30
0.0
 10
29.33311464933499
 20
0.5538096823278497
 30
0.0
 10
30.60538961712343
 20
-0.7236185329061139
 30
0.0
 10
31.87654883153923
 20
-1.96932461655746
 30
0.0
 10
33.14658532607803
 20
-3.126783224244603
 30
0.0
 10
34.41641648879197
 20
-4.144408643340149
 30
0.0
 10
35.68703518781798
 20
-4.977201196084778
 30
0.0
 10
36.95914274438942
 20
-5.586641658376823
 30
0.0
 10
38.23066878041516
 20
-5.948792665566135
 30
0.0
 10
39.50091333545214
 20
-6.036798198247578
 30
0.0
 10
40.6650743499682
 20
-5.898265991239182
 30
0.0
 10
41.40618206137523
 20
-5.61734331796799
 30
0.0
 10
41.72400950358006
 20
-5.49686834067539
 30
0.0
  0
SPLINE
  5
D6
330
1F
100
AcDbEntity
  8
0
  6
Continuous
 62
     1
370
    15
100
AcDbSpline
210
0.0
220
0.0
230
1.0
 70
     8
 71
     3
 72
    17
 73
    13
 74
     0
 42
0.000000001
 43
0.00000001
 40
0.0
 40
0.0
 40
0.0
 40
0.0
 40
0.0341030694618893
 40
0.141375795238967
 40
0.2486392550861369
 40
0.355957047979173
 40
0.4633829847362939
 40
0.5707548746575929
 40
0.678039083805672
 40
0.7852989869320978
 40
0.8925982214765904
 40
1.0
 40
1.0
 40
1.0
 40
1.0
 10
58.16003710651993
 20
5.970861307025371
 30
0.0
 10
58.29465024946585
 20
5.979057202054216
 30
0.0
 10
58.85269503645694
 20
6.013033650382222
 30
0.0
 10
59.83361034420266
 20
5.799124827765061
 30
0.0
 10
61.10349608994894
 20
5.334422379278942
 30
0.0
 10
62.374172772336
 20
4.611990393405828
 30
0.0
 10
63.64633853404661
 20
3.688913138252842
 30
0.0
 10
64.91777859199964
 20
2.599419643673862
 30
0.0
 10
66.18795870003436
 20
1.393595522988538
 30
0.0
 10
67.45774699788404
 20
0.1275951566014236
 30
0.0
 10
68.72815817049928
 20
-1.151921487478979
 30
0.0
 10
69.57591775652116
 20
-1.951519965018227
 30
0.0
 10
70.00000000000003
 20
-2.351510153071815
 30
0.0
  0
SPLINE
  5
D7
330
1F
100
AcDbEntity
  8
0
  6
Continuous
 62
     1
370
    15
100
AcDbSpline
210
0.0
220
0.0
230
1.0
 70
     8
 71
     3
 72
    15
 73
    11
 74
     0
 42
0.000000001
 43
0.00000001
 40
0.0
 40
0.0
 40
0.0
 40
0.0
 40
0.1349207377290194
 40
0.269712657206839
 40
0.4044551675965187
 40
0.5392282118043348
 40
0.6741114027412816
 40
0.8090624886336123
 40
0.9438777215622054
 40
1.0
 40
1.0
 40
1.0
 40
1.0
 10
70.0
 20
2.351510153071889
 30
0.0
 10
69.57591775394334
 20
2.731125783882823
 30
0.0
 10
68.72815816276832
 20
3.489994599949528
 30
0.0
 10
67.45774702876878
 20
4.444504679413845
 30
0.0
 10
66.18795858424936
 20
5.207985004714214
 30
0.0
 10
64.91777902452822
 20
5.735754336724085
 30
0.0
 10
63.64633691798598
 20
6.011643974172298
 30
0.0
 10
62.37417880421198
 20
6.003876921761206
 30
0.0
 10
61.35045885145071
 20
5.826010540666946
 30
0.0
 10
60.75077070902216
 20
5.566296345963059
 30
0.0
 10
60.57450432393956
 20
5.489958531328775
 30
0.0
  0
SPLINE
  5
D8
330
1F
100
AcDbEntity
  8
0
  6
Continuous
 62
     1
370
    15
100
AcDbSpline
210
0.0
220
0.0
230
1.0
 70
     8
 71
     3
 72
    25
 73
    21
 74
     0
 42
0.000000001
 43
0.00000001
 40
0.0
 40
0.0
 40
0.0
 40
0.0
 40
0.0390154721720252
 40
0.0988061956540091
 40
0.1585417434667654
 40
0.2182573313117049
 40
0.2779883905357476
 40
0.3377701852930386
 40
0.3975760107792111
 40
0.4573214354889402
 40
0.5170385447254378
 40
0.5767627533818874
 40
0.636529399608361
 40
0.6963422816217112
 40
0.7560995454766777
 40
0.8158201554558486
 40
0.875539488602645
 40
0.9352929357638032
 40
0.9951045486409636
 40
1.0
 40
1.0
 40
1.0
 40
1.0
 10
44.14281244636432
 20
-5.969496389435104
 30
0.0
 10
43.86612843577851
 20
-5.970480066435603
 30
0.0
 10
43.16542963701121
 20
-5.972971216145215
 30
0.0
 10
42.04102448255947
 20
-5.671917744875161
 30
0.0
 10
40.77068655540661
 20
-5.117695403836623
 30
0.0
 10
39.50090035933268
 20
-4.324217336998204
 30
0.0
 10
38.23067226096509
 20
-3.340216589078116
 30
0.0
 10
36.95914181107579
 20
-2.206145941144762
 30
0.0
 10
35.68703543735957
 20
-0.974038815378323
 30
0.0
 10
34.416416423125
 20
0.3022012079522338
 30
0.0
 10
33.14658533944399
 20
1.564555277482018
 30
0.0
 10
31.87654884374028
 20
2.757089972890382
 30
0.0
 10
30.60538955487137
 20
3.826609336527314
 30
0.0
 10
29.33311488623425
 20
4.724514966137415
 30
0.0
 10
28.06218961738398
 20
5.412207151087959
 30
0.0
 10
26.79225999238832
 20
5.855954985457374
 30
0.0
 10
25.52234765214808
 20
6.044935022548109
 30
0.0
 10
24.25157858327506
 20
5.938007058717445
 30
0.0
 10
23.368481797212
 20
5.746301274882716
 30
0.0
 10
22.90971204120012
 20
5.527284005405812
 30
0.0
 10
22.87500354295402
 20
5.510714123860896
 30
0.0
  0
LINE
  5
D9
330
1F
100
AcDbEntity
  8
0
  6
Continuous
 62
   131
370
    15
100
AcDbLine
 10
70.00000000000003
 20
-6.00000000000002
 30
0.0
 11
70.00000000000003
 21
-5.956215305426043
 31
0.0
  0
LINE
  5
DA
330
1F
100
AcDbEntity
  8
0
  6
Continuous
 62
   131
370
    15
100
AcDbLine
 10
70.00000000000003
 20
5.95621530542601
 30
0.0
 11
70.00000000000003
 21
5.999999999999984
 31
0.0
  0
LINE
  5
DB
330
1F
100
AcDbEntity
  8
0
  6
Continuous
 62
   131
370
    15
100
AcDbLine
 10
9.999999999999995
 20
-5.390929330768968
 30
0.0
 11
10.0
 21
-4.603521055575906
 31
0.0
  0
LINE
  5
DC
330
1F
100
AcDbEntity
  8
0
  6
Continuous
 62
   131
370
    15
100
AcDbLine
 10
9.999999999999995
 20
-0.4143660894804706
 30
0.0
 11
10.00000000000001
 21
1.030760352589557
 31
0.0
  0
LINE
  5
DD
330
1F
100
AcDbEntity
  8
0
  6
Continuous
 62
     1
370
    15
100
AcDbLine
 10
70.00000000000003
 20
2.35151015307189
 30
0.0
 11
70.00000000000003
 21
3.604705152354153
 31
0.0
  0
LINE
  5
DE
330
1F
100
AcDbEntity
  8
0
  6
Continuous
 62
     1
370
    15
100
AcDbLine
 10
70.00000000000003
 20
-3.604705152354158
 30
0.0
 11
70.00000000000003
 21
-2.351510153071815
 31
0.0
  0
LINE
  5
DF
330
1F
100
AcDbEntity
  8
0
  6
Continuous
 62
   131
370
    15
100
AcDbLine
 10
9.999999999999995
 20
4.976563241288481
 30
0.0
 11
10.00000000000001
 21
5.634281408165434
 31
0.0
  0
SPLINE
  5
E0
330
1F
100
AcDbEntity
  8
0
  6
Continuous
 62
   131
370
    15
100
AcDbSpline
210
0.0
220
0.0
230
1.0
 70
    24
 71
     3
 72
    15
 73
    11
 74
     0
 42
0.000000001
 43
0.00000001
 40
0.0
 40
0.0
 40
0.0
 40
0.0
 40
0.0697088162113642
 40
0.2214318407182977
 40
0.3731548652252302
 40
0.5248778897321639
 40
0.6766009142390955
 40
0.8283239387460273
 40
0.9800469632529443
 40
1.0
 40
1.0
 40
1.0
 40
1.0
 10
10.0
 20
-4.603521055575909
 30
0.0
 10
10.00000000000002
 20
-4.522024729190931
 30
0.0
 10
10.00000000000007
 20
-4.263149560396098
 30
0.0
 10
10.0
 20
-3.690962231234217
 30
0.0
 10
9.999999999999995
 20
-2.894568762075655
 30
0.0
 10
9.999999999999961
 20
-2.078285924234858
 30
0.0
 10
10.00000000000004
 20
-1.328973836567102
 30
0.0
 10
9.999999999999966
 20
-0.7630193736108067
 30
0.0
 10
9.999999999999954
 20
-0.4495093583257643
 30
0.0
 10
9.999999999999988
 20
-0.4180253194303551
 30
0.0
 10
9.999999999999988
 20
-0.4143660894804294
 30
0.0
  0
SPLINE
  5
E1
330
1F
100
AcDbEntity
  8
0
  6
Continuous
 62
   131
370
    15
100
AcDbSpline
210
0.0
220
0.0
230
1.0
 70
     8
 71
     3
 72
     8
 73
     4
 74
     0
 42
0.000000001
 43
0.00000001
 40
0.0
 40
0.0
 40
0.0
 40
0.0
 40
1.0
 40
1.0
 40
1.0
 40
1.0
 10
9.999999999997927
 20
-4.603521055574572
 30
0.0
 10
9.667530988205705
 20
-4.390235028486688
 30
0.0
 10
9.331769770127382
 20
-4.154892156743114
 30
0.0
 10
8.999640617609167
 20
-3.902365850355705
 30
0.0
  0
SPLINE
  5
E2
330
1F
100
AcDbEntity
  8
0
  6
Continuous
 62
   131
370
    15
100
AcDbSpline
210
0.0
220
0.0
230
1.0
 70
     8
 71
     3
 72
     8
 73
     4
 74
     0
 42
0.000000001
 43
0.00000001
 40
0.0
 40
0.0
 40
0.0
 40
0.0
 40
1.0
 40
1.0
 40
1.0
 40
1.0
 10
9.999999999997927
 20
-0.4143660894783993
 30
0.0
 10
9.66753098820572
 20
-0.0825990307066747
 30
0.0
 10
9.331769770127394
 20
0.2521735410296352
 30
0.0
 10
8.999640617609188
 20
0.5830480232352598
 30
0.0
  0
LINE
  5
E3
330
1F
100
AcDbEntity
  8
0
  6
Continuous
 62
   131
370
    15
100
AcDbLine
 10
8.999640617609181
 20
5.898161659666124
 30
0.0
 11
8.999640617609181
 21
5.999999999999982
 31
0.0
  0
SPLINE
  5
E4
330
1F
100
AcDbEntity
  8
0
  6
Continuous
 62
   131
370
    15
100
AcDbSpline
210
0.0
220
0.0
230
1.0
 70
     8
 71
     3
 72
     8
 73
     4
 74
     0
 42
0.000000001
 43
0.00000001
 40
0.0
 40
0.0
 40
0.0
 40
0.0
 40
1.0
 40
1.0
 40
1.0
 40
1.0
 10
9.999999999997927
 20
5.634281408166146
 30
0.0
 10
9.667530988205705
 20
5.748612265110141
 30
0.0
 10
9.331769770127382
 20
5.837172737461936
 30
0.0
 10
8.999640617609167
 20
5.898163489797224
 30
0.0
  0
SPLINE
  5
E5
330
1F
100
AcDbEntity
  8
0
  6
Continuous
 62
   131
370
    15
100
AcDbSpline
210
0.0
220
0.0
230
1.0
 70
     8
 71
     3
 72
     8
 73
     4
 74
     0
 42
0.000000001
 43
0.00000001
 40
0.0
 40
0.0
 40
0.0
 40
0.0
 40
1.0
 40
1.0
 40
1.0
 40
1.0
 10
9.999999999997927
 20
4.97656324128964
 30
0.0
 10
9.66753098820572
 20
5.16233678040623
 30
0.0
 10
9.331769770127394
 20
5.325624976509896
 30
0.0
 10
8.999640617609188
 20
5.46308482552585
 30
0.0
  0
LINE
  5
E6
330
1F
100
AcDbEntity
  8
0
  6
Continuous
 62
   131
370
    15
100
AcDbLine
 10
8.999640617609181
 20
1.995788231868917
 30
0.0
 11
8.999640617609181
 21
5.463091371028945
 31
0.0
  0
SPLINE
  5
E7
330
1F
100
AcDbEntity
  8
0
  6
Continuous
 62
   131
370
    15
100
AcDbSpline
210
0.0
220
0.0
230
1.0
 70
     8
 71
     3
 72
     8
 73
     4
 74
     0
 42
0.000000001
 43
0.00000001
 40
0.0
 40
0.0
 40
0.0
 40
0.0
 40
1.0
 40
1.0
 40
1.0
 40
1.0
 10
9.999999999997927
 20
1.030760352591609
 30
0.0
 10
9.667530988205705
 20
1.358377236623487
 30
0.0
 10
9.331769770127382
 20
1.682280580718857
 30
0.0
 10
8.999640617609167
 20
1.995797639441554
 30
0.0
  0
SPLINE
  5
E8
330
1F
100
AcDbEntity
  8
0
  6
Continuous
 62
   131
370
    15
100
AcDbSpline
210
0.0
220
0.0
230
1.0
 70
     8
 71
     3
 72
     8
 73
     4
 74
     0
 42
0.000000001
 43
0.00000001
 40
0.0
 40
0.0
 40
0.0
 40
0.0
 40
1.0
 40
1.0
 40
1.0
 40
1.0
 10
9.999999999997927
 20
-5.390929330768055
 30
0.0
 10
9.66753098820572
 20
-5.244935811112922
 30
0.0
 10
9.331769770127394
 20
-5.073451435480278
 30
0.0
 10
8.999640617609188
 20
-4.880036802290608
 30
0.0
  0
LINE
  5
E9
330
1F
100
AcDbEntity
  8
0
  6
Continuous
 62
   131
370
    15
100
AcDbLine
 10
8.999640617609181
 20
-6.000000000000018
 30
0.0
 11
8.999640617609181
 21
-4.880027592313285
 31
0.0
  0
SPLINE
  5
EA
330
1F
100
AcDbEntity
  8
0
  6
Continuous
 62
   131
370
    15
100
AcDbSpline
210
0.0
220
0.0
230
1.0
 70
     8
 71
     3
 72
     8
 73
     4
 74
     0
 42
0.000000001
 43
0.00000001
 40
0.0
 40
0.0
 40
0.0
 40
0.0
 40
1.0
 40
1.0
 40
1.0
 40
1.0
 10
9.999999999997927
 20
-5.634281408166181
 30
0.0
 10
9.667530988205705
 20
-5.748612265110177
 30
0.0
 10
9.331769770127382
 20
-5.837172737461971
 30
0.0
 10
8.999640617609167
 20
-5.898163489797261
 30
0.0
  0
LINE
  5
EB
330
1F
100
AcDbEntity
  8
0
  6
Continuous
 62
   131
370
    15
100
AcDbLine
 10
-38.8
 20
-0.0000000000000183
 30
0.0
 11
-38.8
 21
5.999999999999982
 31
0.0
  0
LINE
  5
EC
330
1F
100
AcDbEntity
  8
0
  6
Continuous
 62
   131
370
    15
100
AcDbLine
 10
-38.8
 20
-6.000000000000018
 30
0.0
 11
-38.8
 21
-0.0000000000000183
 31
0.0
  0
LINE
  5
ED
330
1F
100
AcDbEntity
  8
0
  6
Continuous
 62
   131
370
    15
100
AcDbLine
 10
8.999640617609181
 20
-3.902373427797242
 30
0.0
 11
8.999640617609181
 21
0.583063778715679
 31
0.0
  0
LINE
  5
EE
330
1F
100
AcDbEntity
  8
0
  6
Continuous
 62
   131
370
    15
100
AcDbLine
 10
-39.99999999999999
 20
-0.0000000000000183
 30
0.0
 11
-39.99999999999999
 21
4.799999999999986
 31
0.0
  0
LINE
  5
EF
330
1F
100
AcDbEntity
  8
0
  6
Continuous
 62
   131
370
    15
100
AcDbLine
 10
-39.99999999999999
 20
-4.800000000000022
 30
0.0
 11
-39.99999999999999
 21
-0.0000000000000183
 31
0.0
  0
SPLINE
  5
F0
330
1F
100
AcDbEntity
  8
0
  6
Continuous
 62
   131
370
    15
100
AcDbSpline
210
0.0
220
0.0
230
1.0
 70
    24
 71
     3
 72
    15
 73
    11
 74
     0
 42
0.000000001
 43
0.00000001
 40
0.0
 40
0.0
 40
0.0
 40
0.0
 40
0.0469634694562739
 40
0.190010833021044
 40
0.3330581965858153
 40
0.4761055601505846
 40
0.6191529237153539
 40
0.7622002872801095
 40
0.9052476508448979
 40
1.0
 40
1.0
 40
1.0
 40
1.0
 10
10.00000000000001
 20
0.8949389982178073
 30
0.0
 10
10.00000000000001
 20
0.8872154136328764
 30
0.0
 10
9.999999999999988
 20
0.8559663437093347
 30
0.0
 10
10.0
 20
1.079802538303117
 30
0.0
 10
9.999999999999947
 20
1.544507107905563
 30
0.0
 10
10.00000000000006
 20
2.221726991528765
 30
0.0
 10
9.999999999999961
 20
3.012365731123815
 30
0.0
 10
9.999999999999973
 20
3.829651705811331
 30
0.0
 10
10.00000000000003
 20
4.508619973849937
 30
0.0
 10
10.0
 20
4.843234572053701
 30
0.0
 10
9.999999999999995
 20
4.976563241288654
 30
0.0
  0
LINE
  5
F1
330
1F
100
AcDbEntity
  8
0
  6
Continuous
 62
   131
370
    15
100
AcDbLine
 10
10.0
 20
-5.634281408165464
 30
0.0
 11
10.00000000000001
 21
-5.467035141471927
 31
0.0
  0
LINE
  5
F2
330
1F
100
AcDbEntity
  8
중심선
 62
     1
100
AcDbLine
 10
-43.20259277488955
 20
-0.0000000000000234
 30
0.0
 11
73.00000000000003
 21
0.0000000000000395
 31
0.0
  0
CIRCLE
  5
F3
330
1F
100
AcDbEntity
  8
외형선
100
AcDbCircle
 10
0.0
 20
0.0
 30
0.0
 40
3.000000000000001
  0
INSERT
  5
F4
330
1F
100
AcDbEntity
  8
0
  6
Continuous
 62
     7
100
AcDbBlockReference
 66
     1
  2
블럭10
 10
-18.94078629968143
 20
-52.04717430164395
 30
0.0
  0
ATTRIB
  5
F5
330
F4
100
AcDbEntity
  8
FORMAT
 62
     2
100
AcDbText
 10
-35.06004733911698
 20
-49.97180738881176
 30
0.0
 40
4.233333333333333
  1
SEME7512060E [ 6 FLUTE ]
 41
0.75
  7
SLDTEXTSTYLE0
 11
-35.06004733911698
 21
-52.08847405547843
 31
0.0
100
AcDbAttribute
  2
AUTOATTR0
 70
     0
 74
     1
  0
SEQEND
  5
F6
330
F4
100
AcDbEntity
  8
0
  6
Continuous
 62
     7
  0
HATCH
  5
F7
330
1F
100
AcDbEntity
  8
중심선
100
AcDbHatch
 10
0.0
 20
0.0
 30
0.0
210
0.0
220
0.0
230
1.0
  2
SOLID
 70
     1
 71
     0
 91
        1
 92
        0
 93
        4
 72
     1
 10
-13.22587699530058
 20
-35.80000000000001
 11
-16.67215223913786
 21
-35.80000000000001
 72
     1
 10
-16.67215223913786
 20
-35.80000000000001
 11
-18.80038209834188
 21
-38.33632558057261
 72
     1
 10
-18.80038209834188
 20
-38.33632558057261
 11
-15.35407376939145
 21
-38.33628615127012
 72
     1
 10
-15.35407376939145
 20
-38.33628615127012
 11
-13.22587699530058
 21
-35.80000000000001
 97
        0
 75
     0
 76
     1
 98
        1
 10
3.998657388384466
 20
-0.0010749287239114
  0
HATCH
  5
F8
330
1F
100
AcDbEntity
  8
중심선
100
AcDbHatch
 10
0.0
 20
0.0
 30
0.0
210
0.0
220
0.0
230
1.0
  2
SOLID
 70
     1
 71
     0
 91
        1
 92
        0
 93
        4
 72
     1
 10
-8.213113004264624
 20
-35.80000000000001
 11
-11.65938824810191
 21
-35.80000000000001
 72
     1
 10
-11.65938824810191
 20
-35.80000000000001
 11
-16.1905262564593
 21
-41.20000000000003
 72
     1
 10
-16.1905262564593
 20
-41.20000000000003
 11
-12.74425101262201
 21
-41.20000000000003
 72
     1
 10
-12.74425101262201
 20
-41.20000000000003
 11
-8.213113004264624
 21
-35.80000000000001
 97
        0
 75
     0
 76
     1
 98
        1
 10
3.998657388384466
 20
-0.0010749287239114
  0
HATCH
  5
F9
330
1F
100
AcDbEntity
  8
중심선
100
AcDbHatch
 10
0.0
 20
0.0
 30
0.0
210
0.0
220
0.0
230
1.0
  2
SOLID
 70
     1
 71
     0
 91
        1
 92
        0
 93
        4
 72
     1
 10
-3.200349013228729
 20
-35.80000000000004
 11
-6.646624257065845
 21
-35.80000000000001
 72
     1
 10
-6.646624257065845
 20
-35.80000000000001
 11
-13.6950611589551
 21
-44.20000000000003
 72
     1
 10
-13.6950611589551
 20
-44.20000000000003
 11
-10.24878591511781
 21
-44.20000000000003
 72
     1
 10
-10.24878591511781
 20
-44.20000000000003
 11
-3.200349013228729
 21
-35.80000000000004
 97
        0
 75
     0
 76
     1
 98
        1
 10
3.998657388384466
 20
-0.0010749287239114
  0
HATCH
  5
FA
330
1F
100
AcDbEntity
  8
중심선
100
AcDbHatch
 10
0.0
 20
0.0
 30
0.0
210
0.0
220
0.0
230
1.0
  2
SOLID
 70
     1
 71
     0
 91
        1
 92
        0
 93
        6
 72
     3
 10
1.59954141778347
 20
-40.00000000005129
 11
3.960054785062284
 21
1.540882976769353E-10
 40
0.3939339440162627
 50
17.09539180608438
 51
320.0019657685081
 73
     0
 72
     1
 10
3.282541073484065
 20
-38.58789400463831
 11
5.587842947185103
 21
-36.6535672945904
 72
     3
 10
1.599541417730623
 20
-40.00000000000016
 11
6.600054785286829
 21
-1.278976924368180E-13
 40
0.636358354079598
 50
39.99873849337411
 51
368.4976242363725
 73
     1
 72
     1
 10
8.024873909631232
 20
-39.03999999993004
 11
0.2796087245665451
 21
-39.03999999993001
 72
     1
 10
0.279608724566546
 20
-39.03999999993001
 11
0.279583680120612
 21
-40.95999999992993
 72
     1
 10
0.279583680120612
 20
-40.95999999992993
 11
4.720963449592649
 21
-40.9599999999299
 97
        0
 75
     0
 76
     1
 98
        1
 10
3.998657388384466
 20
-0.0010749287239114
  0
DIMENSION
  5
FB
330
1F
100
AcDbEntity
  8
치수문자_일반주서
100
AcDbDimension
  2
_D
 10
-57.42890613132341
 20
-6.000000000000092
 30
0.0
 11
-57.42890613132343
 21
-0.000000000000016
 31
0.0
 70
   160
  1
%%c<>
 71
     2
 42
12.00000000000001
 52
-270.0
  3
SLDDIMSTYLE0
100
AcDbAlignedDimension
 13
-38.79999999999999
 23
5.999999999999988
 33
0.0
 14
-38.79999999999999
 24
-6.000000000000023
 34
0.0
 50
90.0000000000002
100
AcDbRotatedDimension
  0
DIMENSION
  5
109
330
1F
100
AcDbEntity
  8
치수문자_일반주서
100
AcDbDimension
  2
_D_1
 10
80.00000000000003
 20
-5.999999999999984
 30
0.0
 11
80.0
 21
0.7913169001151737
 31
0.0
 70
   160
  1
%%c<>
 71
     2
 42
12.00000000000001
 52
-270.0
  3
SLDDIMSTYLE0
100
AcDbAlignedDimension
 13
70.00000000000003
 23
5.999999999999986
 33
0.0
 14
70.00000000000003
 24
-6.000000000000021
 34
0.0
 50
90.0000000000002
100
AcDbRotatedDimension
  0
DIMENSION
  5
116
330
1F
100
AcDbEntity
  8
치수문자_일반주서
100
AcDbDimension
  2
_D_2
 10
70.00000000000003
 20
49.12912202680723
 30
0.0
 11
34.55499265847857
 21
49.12912202680723
 31
0.0
 70
   160
  1
<>
 71
     2
 42
60.00000000000003
  3
SLDDIMSTYLE1
100
AcDbAlignedDimension
 13
10.0
 23
5.634281408165427
 33
0.0
 14
70.00000000000003
 24
5.95621530542601
 34
0.0
100
AcDbRotatedDimension
  0
DIMENSION
  5
121
330
1F
100
AcDbEntity
  8
치수문자_일반주서
100
AcDbDimension
  2
_D_3
 10
-39.99999999999999
 20
76.90089796629564
 30
0.0
 11
18.40797951826991
 21
76.90089796629564
 31
0.0
 70
   160
  1
<>
 71
     2
 42
110.0
  3
SLDDIMSTYLE1
100
AcDbAlignedDimension
 13
70.00000000000003
 23
5.95621530542601
 33
0.0
 14
-39.99999999999999
 24
4.799999999999986
 34
0.0
100
AcDbRotatedDimension
  0
INSERT
  5
131
330
1F
100
AcDbEntity
  8
외형선
100
AcDbBlockReference
  2
SW_DOWELSYMBOL_0
 10
0.0
 20
0.0
 30
0.0
  0
ENDSEC
  0
SECTION
  2
OBJECTS
  0
DICTIONARY
  5
C
330
0
100
AcDbDictionary
281
     1
  3
ACAD_GROUP
350
D
  3
ACAD_IMAGE_VARS
350
155
  3
ACAD_LAYOUT
350
1A
  3
ACAD_MLINESTYLE
350
17
  3
ACAD_PLOTSETTINGS
350
19
  3
ACAD_PLOTSTYLENAME
350
E
  3
ACAD_SCALELIST
350
47
  3
APPDATA
350
153
  3
DWGPROPS
350
15F
  0
DICTIONARY
  5
D
102
{ACAD_REACTORS
330
C
102
}
330
C
100
AcDbDictionary
281
     1
  0
RASTERVARIABLES
  5
155
102
{ACAD_REACTORS
330
C
102
}
330
C
100
AcDbRasterVariables
 90
        0
 70
     1
 71
     1
 72
     1
  0
DICTIONARY
  5
1A
102
{ACAD_REACTORS
330
C
102
}
330
C
100
AcDbDictionary
281
     1
  3
Layout1
350
1E
  3
Layout2
350
26
  3
Model
350
22
  0
DICTIONARY
  5
17
102
{ACAD_REACTORS
330
C
102
}
330
C
100
AcDbDictionary
281
     1
  3
Standard
350
18
  0
DICTIONARY
  5
19
102
{ACAD_REACTORS
330
C
102
}
330
C
100
AcDbDictionary
281
     1
  0
ACDBDICTIONARYWDFLT
  5
E
102
{ACAD_REACTORS
330
C
102
}
330
C
100
AcDbDictionary
281
     1
  3
Normal
350
F
100
AcDbDictionaryWithDefault
340
F
  0
DICTIONARY
  5
47
102
{ACAD_REACTORS
330
C
102
}
330
C
100
AcDbDictionary
281
     1
  3
A0
350
48
  3
A1
350
49
  3
A2
350
4A
  3
A3
350
4B
  3
A4
350
4C
  3
A5
350
4D
  3
A6
350
4E
  3
A7
350
4F
  3
A8
350
50
  3
A9
350
51
  3
B0
350
52
  3
B1
350
53
  3
B2
350
54
  3
B3
350
55
  3
B4
350
56
  3
B5
350
57
  3
B6
350
58
  3
B7
350
59
  3
B8
350
5A
  3
B9
350
5B
  3
C0
350
5C
  3
C1
350
5D
  3
C2
350
5E
  3
C3
350
5F
  3
C4
350
60
  3
C5
350
61
  3
C6
350
62
  3
C7
350
63
  3
C8
350
64
  3
C9
350
65
  3
D0
350
66
  3
D1
350
67
  3
D2
350
68
  0
DICTIONARY
  5
153
102
{ACAD_REACTORS
330
C
102
}
330
C
100
AcDbDictionary
281
     1
  0
XRECORD
  5
15F
102
{ACAD_REACTORS
330
C
102
}
330
C
100
AcDbXrecord
280
     1
  1
DWGPROPS COOKIE
  2

  3

  4

  6

  7

  8
12016016
  9

300
=
301
=
302
=
303
=
304
=
305
=
306
=
307
=
308
=
309
=
 40
0.0
 41
2458268.397276204
 42
2458270.003703877
  1

 90
        0
  0
LAYOUT
  5
1E
102
{ACAD_REACTORS
330
1A
102
}
330
1A
100
AcDbPlotSettings
  1

  2
none_device
  4

  6

 40
0.0
 41
0.0
 42
0.0
 43
0.0
 44
0.0
 45
0.0
 46
0.0
 47
0.0
 48
0.0
 49
0.0
140
0.0
141
0.0
142
1.0
143
1.0
 70
   688
 72
     1
 73
     0
 74
     5
  7

 75
    16
147
1.0
148
0.0
149
0.0
100
AcDbLayout
  1
Layout1
 70
     1
 71
     1
 10
0.0
 20
0.0
 11
420.0
 21
297.0
 12
0.0
 22
0.0
 32
0.0
 14
1.000000000000000E+20
 24
1.000000000000000E+20
 34
1.000000000000000E+20
 15
-1.000000000000000E+20
 25
-1.000000000000000E+20
 35
-1.000000000000000E+20
146
0.0
 13
0.0
 23
0.0
 33
0.0
 16
1.0
 26
0.0
 36
0.0
 17
0.0
 27
1.0
 37
0.0
 76
     0
330
1B
  0
LAYOUT
  5
26
102
{ACAD_REACTORS
330
1A
102
}
330
1A
100
AcDbPlotSettings
  1

  2
none_device
  4

  6

 40
0.0
 41
0.0
 42
0.0
 43
0.0
 44
0.0
 45
0.0
 46
0.0
 47
0.0
 48
0.0
 49
0.0
140
0.0
141
0.0
142
1.0
143
1.0
 70
   688
 72
     1
 73
     0
 74
     5
  7

 75
    16
147
1.0
148
0.0
149
0.0
100
AcDbLayout
  1
Layout2
 70
     1
 71
     2
 10
0.0
 20
0.0
 11
0.0
 21
0.0
 12
0.0
 22
0.0
 32
0.0
 14
0.0
 24
0.0
 34
0.0
 15
0.0
 25
0.0
 35
0.0
146
0.0
 13
0.0
 23
0.0
 33
0.0
 16
1.0
 26
0.0
 36
0.0
 17
0.0
 27
1.0
 37
0.0
 76
     0
330
23
  0
LAYOUT
  5
22
102
{ACAD_REACTORS
330
1A
102
}
330
1A
100
AcDbPlotSettings
  1

  2
none_device
  4
ANSI_A_(11.00_x_8.50_Inches)
  6

 40
6.35
 41
19.05
 42
6.35000508
 43
19.05000254
 44
279.4
 45
215.9
 46
124.4458459657421
 47
64.06946629632628
 48
0.0
 49
0.0
140
0.0
141
0.0
142
0.0636880450381154
143
1.0
 70
  1696
 72
     0
 73
     0
 74
     0
  7

 75
     0
147
0.0235690232323232
148
0.0
149
0.0
100
AcDbLayout
  1
Model
 70
     1
 71
     0
 10
0.0
 20
0.0
 11
420.0
 21
297.0
 12
0.0
 22
0.0
 32
0.0
 14
-61.80390613132344
 24
-49.97180738881176
 34
0.0
 15
80.55033333333334
 25
81.27589796629564
 35
0.0
146
0.0
 13
0.0
 23
0.0
 33
0.0
 16
1.0
 26
0.0
 36
0.0
 17
0.0
 27
1.0
 37
0.0
 76
     0
330
1F
331
29
  0
MLINESTYLE
  5
18
102
{ACAD_REACTORS
330
17
102
}
330
17
100
AcDbMlineStyle
  2
Standard
 70
     0
  3

 62
   256
 51
90.0
 52
90.0
 71
     2
 49
0.5
 62
   256
  6
BYLAYER
 49
-0.5
 62
   256
  6
BYLAYER
  0
ACDBPLACEHOLDER
  5
F
102
{ACAD_REACTORS
330
E
102
}
330
E
  0
SCALE
  5
48
102
{ACAD_REACTORS
330
47
102
}
330
47
100
AcDbScale
 70
     0
300
1:1
140
1.0
141
1.0
290
     1
  0
SCALE
  5
49
102
{ACAD_REACTORS
330
47
102
}
330
47
100
AcDbScale
 70
     0
300
1:2
140
1.0
141
2.0
290
     0
  0
SCALE
  5
4A
102
{ACAD_REACTORS
330
47
102
}
330
47
100
AcDbScale
 70
     0
300
1:4
140
1.0
141
4.0
290
     0
  0
SCALE
  5
4B
102
{ACAD_REACTORS
330
47
102
}
330
47
100
AcDbScale
 70
     0
300
1:5
140
1.0
141
5.0
290
     0
  0
SCALE
  5
4C
102
{ACAD_REACTORS
330
47
102
}
330
47
100
AcDbScale
 70
     0
300
1:8
140
1.0
141
8.0
290
     0
  0
SCALE
  5
4D
102
{ACAD_REACTORS
330
47
102
}
330
47
100
AcDbScale
 70
     0
300
1:10
140
1.0
141
10.0
290
     0
  0
SCALE
  5
4E
102
{ACAD_REACTORS
330
47
102
}
330
47
100
AcDbScale
 70
     0
300
1:16
140
1.0
141
16.0
290
     0
  0
SCALE
  5
4F
102
{ACAD_REACTORS
330
47
102
}
330
47
100
AcDbScale
 70
     0
300
1:20
140
1.0
141
20.0
290
     0
  0
SCALE
  5
50
102
{ACAD_REACTORS
330
47
102
}
330
47
100
AcDbScale
 70
     0
300
1:30
140
1.0
141
30.0
290
     0
  0
SCALE
  5
51
102
{ACAD_REACTORS
330
47
102
}
330
47
100
AcDbScale
 70
     0
300
1:40
140
1.0
141
40.0
290
     0
  0
SCALE
  5
52
102
{ACAD_REACTORS
330
47
102
}
330
47
100
AcDbScale
 70
     0
300
1:50
140
1.0
141
50.0
290
     0
  0
SCALE
  5
53
102
{ACAD_REACTORS
330
47
102
}
330
47
100
AcDbScale
 70
     0
300
1:100
140
1.0
141
100.0
290
     0
  0
SCALE
  5
54
102
{ACAD_REACTORS
330
47
102
}
330
47
100
AcDbScale
 70
     0
300
2:1
140
2.0
141
1.0
290
     0
  0
SCALE
  5
55
102
{ACAD_REACTORS
330
47
102
}
330
47
100
AcDbScale
 70
     0
300
4:1
140
4.0
141
1.0
290
     0
  0
SCALE
  5
56
102
{ACAD_REACTORS
330
47
102
}
330
47
100
AcDbScale
 70
     0
300
8:1
140
8.0
141
1.0
290
     0
  0
SCALE
  5
57
102
{ACAD_REACTORS
330
47
102
}
330
47
100
AcDbScale
 70
     0
300
10:1
140
10.0
141
1.0
290
     0
  0
SCALE
  5
58
102
{ACAD_REACTORS
330
47
102
}
330
47
100
AcDbScale
 70
     0
300
100:1
140
100.0
141
1.0
290
     0
  0
SCALE
  5
59
102
{ACAD_REACTORS
330
47
102
}
330
47
100
AcDbScale
 70
     0
300
1/128" = 1'-0"
140
0.0078125
141
12.0
290
     0
  0
SCALE
  5
5A
102
{ACAD_REACTORS
330
47
102
}
330
47
100
AcDbScale
 70
     0
300
1/64" = 1'-0"
140
0.015625
141
12.0
290
     0
  0
SCALE
  5
5B
102
{ACAD_REACTORS
330
47
102
}
330
47
100
AcDbScale
 70
     0
300
1/32" = 1'-0"
140
0.03125
141
12.0
290
     0
  0
SCALE
  5
5C
102
{ACAD_REACTORS
330
47
102
}
330
47
100
AcDbScale
 70
     0
300
1/16" = 1'-0"
140
0.0625
141
12.0
290
     0
  0
SCALE
  5
5D
102
{ACAD_REACTORS
330
47
102
}
330
47
100
AcDbScale
 70
     0
300
3/32" = 1'-0"
140
0.09375
141
12.0
290
     0
  0
SCALE
  5
5E
102
{ACAD_REACTORS
330
47
102
}
330
47
100
AcDbScale
 70
     0
300
1/8" = 1'-0"
140
0.125
141
12.0
290
     0
  0
SCALE
  5
5F
102
{ACAD_REACTORS
330
47
102
}
330
47
100
AcDbScale
 70
     0
300
3/16" = 1'-0"
140
0.1875
141
12.0
290
     0
  0
SCALE
  5
60
102
{ACAD_REACTORS
330
47
102
}
330
47
100
AcDbScale
 70
     0
300
1/4" = 1'-0"
140
0.25
141
12.0
290
     0
  0
SCALE
  5
61
102
{ACAD_REACTORS
330
47
102
}
330
47
100
AcDbScale
 70
     0
300
3/8" = 1'-0"
140
0.375
141
12.0
290
     0
  0
SCALE
  5
62
102
{ACAD_REACTORS
330
47
102
}
330
47
100
AcDbScale
 70
     0
300
1/2" = 1'-0"
140
0.5
141
12.0
290
     0
  0
SCALE
  5
63
102
{ACAD_REACTORS
330
47
102
}
330
47
100
AcDbScale
 70
     0
300
3/4" = 1'-0"
140
0.75
141
12.0
290
     0
  0
SCALE
  5
64
102
{ACAD_REACTORS
330
47
102
}
330
47
100
AcDbScale
 70
     0
300
1" = 1'-0"
140
1.0
141
12.0
290
     0
  0
SCALE
  5
65
102
{ACAD_REACTORS
330
47
102
}
330
47
100
AcDbScale
 70
     0
300
1-1/2" = 1'-0"
140
1.5
141
12.0
290
     0
  0
SCALE
  5
66
102
{ACAD_REACTORS
330
47
102
}
330
47
100
AcDbScale
 70
     0
300
3" = 1'-0"
140
3.0
141
12.0
290
     0
  0
SCALE
  5
67
102
{ACAD_REACTORS
330
47
102
}
330
47
100
AcDbScale
 70
     0
300
6" = 1'-0"
140
6.0
141
12.0
290
     0
  0
SCALE
  5
68
102
{ACAD_REACTORS
330
47
102
}
330
47
100
AcDbScale
 70
     0
300
1'-0" = 1'-0"
140
12.0
141
12.0
290
     0
  0
ENDSEC
  0
EOF
