  0
SECTION
  2
HEADER
  9
$ACADVER
  1
AC1015
  9
$ACADMAINTVER
 70
     6
  9
$DWGCODEPAGE
  3
ANSI_949
  9
$INSBASE
 10
0.0
 20
0.0
 30
0.0
  9
$EXTMIN
 10
-61.80390613132232
 20
-49.97180738881174
 30
0.0
  9
$EXTMAX
 10
50.55033333333444
 20
81.27589796629566
 30
0.0
  9
$LIMMIN
 10
0.0
 20
0.0
  9
$LIMMAX
 10
420.0
 20
297.0
  9
$ORTHOMODE
 70
     0
  9
$REGENMODE
 70
     1
  9
$FILLMODE
 70
     1
  9
$QTEXTMODE
 70
     0
  9
$MIRRTEXT
 70
     1
  9
$LTSCALE
 40
1.0
  9
$ATTMODE
 70
     1
  9
$TEXTSIZE
 40
3.5
  9
$TRACEWID
 40
1.0
  9
$TEXTSTYLE
  7
Standard
  9
$CLAYER
  8
0
  9
$CELTYPE
  6
ByLayer
  9
$CECOLOR
 62
   256
  9
$CELTSCALE
 40
1.0
  9
$DISPSILH
 70
     0
  9
$DIMSCALE
 40
1.0
  9
$DIMASZ
 40
3.302
  9
$DIMEXO
 40
1.0
  9
$DIMDLI
 40
3.75
  9
$DIMRND
 40
0.0
  9
$DIMDLE
 40
0.0
  9
$DIMEXE
 40
1.0
  9
$DIMTP
 40
0.0
  9
$DIMTM
 40
0.0
  9
$DIMTXT
 40
3.5
  9
$DIMCEN
 40
2.5
  9
$DIMTSZ
 40
0.0
  9
$DIMTOL
 70
     0
  9
$DIMLIM
 70
     0
  9
$DIMTIH
 70
     1
  9
$DIMTOH
 70
     1
  9
$DIMSE1
 70
     0
  9
$DIMSE2
 70
     0
  9
$DIMTAD
 70
     1
  9
$DIMZIN
 70
     0
  9
$DIMBLK
  1

  9
$DIMASO
 70
     1
  9
$DIMSHO
 70
     1
  9
$DIMPOST
  1

  9
$DIMAPOST
  1

  9
$DIMALT
 70
     0
  9
$DIMALTD
 70
     3
  9
$DIMALTF
 40
0.0393700787401575
  9
$DIMLFAC
 40
1.0
  9
$DIMTOFL
 70
     1
  9
$DIMTVP
 40
0.0
  9
$DIMTIX
 70
     0
  9
$DIMSOXD
 70
     0
  9
$DIMSAH
 70
     0
  9
$DIMBLK1
  1

  9
$DIMBLK2
  1

  9
$DIMSTYLE
  2
ISO-25
  9
$DIMCLRD
 70
     0
  9
$DIMCLRE
 70
     0
  9
$DIMCLRT
 70
     0
  9
$DIMTFAC
 40
1.0
  9
$DIMGAP
 40
1.524
  9
$DIMJUST
 70
     0
  9
$DIMSD1
 70
     0
  9
$DIMSD2
 70
     0
  9
$DIMTOLJ
 70
     0
  9
$DIMTZIN
 70
     0
  9
$DIMALTZ
 70
     0
  9
$DIMALTTZ
 70
     0
  9
$DIMUPT
 70
     0
  9
$DIMDEC
 70
     2
  9
$DIMTDEC
 70
     2
  9
$DIMALTU
 70
     2
  9
$DIMALTTD
 70
     3
  9
$DIMTXSTY
  7
Standard
  9
$DIMAUNIT
 70
     0
  9
$DIMADEC
 70
     2
  9
$DIMALTRND
 40
0.0
  9
$DIMAZIN
 70
     0
  9
$DIMDSEP
 70
    44
  9
$DIMATFIT
 70
     3
  9
$DIMFRAC
 70
     0
  9
$DIMLDRBLK
  1

  9
$DIMLUNIT
 70
     2
  9
$DIMLWD
 70
    -2
  9
$DIMLWE
 70
    -2
  9
$DIMTMOVE
 70
     0
  9
$LUNITS
 70
     2
  9
$LUPREC
 70
     2
  9
$SKETCHINC
 40
1.0
  9
$FILLETRAD
 40
10.0
  9
$AUNITS
 70
     0
  9
$AUPREC
 70
     2
  9
$MENU
  1
.
  9
$ELEVATION
 40
0.0
  9
$PELEVATION
 40
0.0
  9
$THICKNESS
 40
0.0
  9
$LIMCHECK
 70
     0
  9
$CHAMFERA
 40
0.0
  9
$CHAMFERB
 40
0.0
  9
$CHAMFERC
 40
0.0
  9
$CHAMFERD
 40
0.0
  9
$SKPOLY
 70
     0
  9
$TDCREATE
 40
2458268.772464051
  9
$TDUCREATE
 40
2458268.397464051
  9
$TDUPDATE
 40
2458268.796963229
  9
$TDUUPDATE
 40
2458268.421963229
  9
$TDINDWG
 40
0.0016752199
  9
$TDUSRTIMER
 40
0.0016752083
  9
$USRTIMER
 70
     1
  9
$ANGBASE
 50
0.0
  9
$ANGDIR
 70
     0
  9
$PDMODE
 70
     0
  9
$PDSIZE
 40
-1.0
  9
$PLINEWID
 40
0.0
  9
$SPLFRAME
 70
     0
  9
$SPLINETYPE
 70
     6
  9
$SPLINESEGS
 70
     8
  9
$HANDSEED
  5
154
  9
$SURFTAB1
 70
     6
  9
$SURFTAB2
 70
     6
  9
$SURFTYPE
 70
     6
  9
$SURFU
 70
     6
  9
$SURFV
 70
     6
  9
$UCSBASE
  2

  9
$UCSNAME
  2

  9
$UCSORG
 10
0.0
 20
0.0
 30
0.0
  9
$UCSXDIR
 10
1.0
 20
0.0
 30
0.0
  9
$UCSYDIR
 10
0.0
 20
1.0
 30
0.0
  9
$UCSORTHOREF
  2

  9
$UCSORTHOVIEW
 70
     0
  9
$UCSORGTOP
 10
0.0
 20
0.0
 30
0.0
  9
$UCSORGBOTTOM
 10
0.0
 20
0.0
 30
0.0
  9
$UCSORGLEFT
 10
0.0
 20
0.0
 30
0.0
  9
$UCSORGRIGHT
 10
0.0
 20
0.0
 30
0.0
  9
$UCSORGFRONT
 10
0.0
 20
0.0
 30
0.0
  9
$UCSORGBACK
 10
0.0
 20
0.0
 30
0.0
  9
$PUCSBASE
  2

  9
$PUCSNAME
  2

  9
$PUCSORG
 10
0.0
 20
0.0
 30
0.0
  9
$PUCSXDIR
 10
1.0
 20
0.0
 30
0.0
  9
$PUCSYDIR
 10
0.0
 20
1.0
 30
0.0
  9
$PUCSORTHOREF
  2

  9
$PUCSORTHOVIEW
 70
     0
  9
$PUCSORGTOP
 10
0.0
 20
0.0
 30
0.0
  9
$PUCSORGBOTTOM
 10
0.0
 20
0.0
 30
0.0
  9
$PUCSORGLEFT
 10
0.0
 20
0.0
 30
0.0
  9
$PUCSORGRIGHT
 10
0.0
 20
0.0
 30
0.0
  9
$PUCSORGFRONT
 10
0.0
 20
0.0
 30
0.0
  9
$PUCSORGBACK
 10
0.0
 20
0.0
 30
0.0
  9
$USERI1
 70
     0
  9
$USERI2
 70
     0
  9
$USERI3
 70
     0
  9
$USERI4
 70
     0
  9
$USERI5
 70
     0
  9
$USERR1
 40
0.0
  9
$USERR2
 40
0.0
  9
$USERR3
 40
0.0
  9
$USERR4
 40
0.0
  9
$USERR5
 40
0.0
  9
$WORLDVIEW
 70
     1
  9
$SHADEDGE
 70
     3
  9
$SHADEDIF
 70
    70
  9
$TILEMODE
 70
     1
  9
$MAXACTVP
 70
    64
  9
$PINSBASE
 10
0.0
 20
0.0
 30
0.0
  9
$PLIMCHECK
 70
     0
  9
$PEXTMIN
 10
1.000000000000000E+20
 20
1.000000000000000E+20
 30
1.000000000000000E+20
  9
$PEXTMAX
 10
-1.000000000000000E+20
 20
-1.000000000000000E+20
 30
-1.000000000000000E+20
  9
$PLIMMIN
 10
0.0
 20
0.0
  9
$PLIMMAX
 10
0.0
 20
0.0
  9
$UNITMODE
 70
     0
  9
$VISRETAIN
 70
     1
  9
$PLINEGEN
 70
     0
  9
$PSLTSCALE
 70
     1
  9
$TREEDEPTH
 70
  3020
  9
$CMLSTYLE
  2
Standard
  9
$CMLJUST
 70
     0
  9
$CMLSCALE
 40
20.0
  9
$PROXYGRAPHICS
 70
     1
  9
$MEASUREMENT
 70
     1
  9
$CELWEIGHT
370
    -1
  9
$ENDCAPS
280
     0
  9
$JOINSTYLE
280
     0
  9
$LWDISPLAY
290
     1
  9
$INSUNITS
 70
     4
  9
$HYPERLINKBASE
  1

  9
$STYLESHEET
  1

  9
$XEDIT
290
     1
  9
$CEPSNTYPE
380
     0
  9
$PSTYLEMODE
290
     1
  9
$FINGERPRINTGUID
  2
{6B095E3C-F468-412A-9A23-932D555AE334}
  9
$VERSIONGUID
  2
{FAEB1C32-E019-11D5-929B-00C0DF256EC4}
  9
$EXTNAMES
290
     1
  9
$PSVPSCALE
 40
0.0
  9
$OLESTARTUP
290
     0
  0
ENDSEC
  0
SECTION
  2
CLASSES
  0
CLASS
  1
ACDBDICTIONARYWDFLT
  2
AcDbDictionaryWithDefault
  3
ObjectDBX Classes
 90
        0
280
     0
281
     0
  0
CLASS
  1
VISUALSTYLE
  2
AcDbVisualStyle
  3
ObjectDBX Classes
 90
     4095
280
     0
281
     0
  0
CLASS
  1
MATERIAL
  2
AcDbMaterial
  3
ObjectDBX Classes
 90
     1153
280
     0
281
     0
  0
CLASS
  1
SCALE
  2
AcDbScale
  3
ObjectDBX Classes
 90
     1153
280
     0
281
     0
  0
CLASS
  1
SUN
  2
AcDbSun
  3
SCENEOE
 90
     1153
280
     0
281
     0
  0
CLASS
  1
ACDBPLACEHOLDER
  2
AcDbPlaceHolder
  3
ObjectDBX Classes
 90
        0
280
     0
281
     0
  0
CLASS
  1
LAYOUT
  2
AcDbLayout
  3
ObjectDBX Classes
 90
        0
280
     0
281
     0
  0
CLASS
  1
TABLESTYLE
  2
AcDbTableStyle
  3
ObjectDBX Classes
 90
     4095
280
     0
281
     0
  0
CLASS
  1
MLEADERSTYLE
  2
AcDbMLeaderStyle
  3
ACDB_MLEADERSTYLE_CLASS
 90
     4095
280
     0
281
     0
  0
ENDSEC
  0
SECTION
  2
TABLES
  0
TABLE
  2
VPORT
  5
8
330
0
100
AcDbSymbolTable
 70
     1
  0
VPORT
  5
29
330
8
100
AcDbSymbolTableRecord
100
AcDbViewportTableRecord
  2
*Active
 70
     0
 10
0.0
 20
0.0
 11
1.0
 21
1.0
 12
131.3412366827652
 22
13.28486793593519
 13
0.0
 23
0.0
 14
10.0
 24
10.0
 15
10.0
 25
10.0
 16
0.0
 26
0.0
 36
1.0
 17
0.0
 27
0.0
 37
0.0
 40
212.7659417094175
 41
2.727272727272727
 42
50.0
 43
0.0
 44
0.0
 50
0.0
 51
0.0
 71
    16
 72
  2000
 73
     1
 74
     3
 75
     0
 76
     0
 77
     0
 78
     0
281
     0
 65
     1
110
0.0
120
0.0
130
0.0
111
1.0
121
0.0
131
0.0
112
0.0
122
1.0
132
0.0
 79
     0
146
0.0
  0
ENDTAB
  0
TABLE
  2
LTYPE
  5
5
330
0
100
AcDbSymbolTable
 70
     6
  0
LTYPE
  5
14
330
5
100
AcDbSymbolTableRecord
100
AcDbLinetypeTableRecord
  2
ByBlock
 70
     0
  3

 72
    65
 73
     0
 40
0.0
  0
LTYPE
  5
15
330
5
100
AcDbSymbolTableRecord
100
AcDbLinetypeTableRecord
  2
ByLayer
 70
     0
  3

 72
    65
 73
     0
 40
0.0
  0
LTYPE
  5
16
330
5
100
AcDbSymbolTableRecord
100
AcDbLinetypeTableRecord
  2
Continuous
 70
     0
  3
Solid line
 72
    65
 73
     0
 40
0.0
  0
LTYPE
  5
6A
330
5
100
AcDbSymbolTableRecord
100
AcDbLinetypeTableRecord
  2
HIDDEN
 70
     0
  3
Hidden __ __ __ __ __ __ __ __ __ __ __ __ __ __
 72
    65
 73
     2
 40
1.905
 49
1.27
 74
     0
 49
-0.635
 74
     0
  0
LTYPE
  5
6B
330
5
100
AcDbSymbolTableRecord
100
AcDbLinetypeTableRecord
  2
PHANTOM
 70
     0
  3
Phantom ______  __  __  ______  __  __  ______
 72
    65
 73
     6
 40
12.7
 49
6.35
 74
     0
 49
-1.27
 74
     0
 49
1.27
 74
     0
 49
-1.27
 74
     0
 49
1.27
 74
     0
 49
-1.27
 74
     0
  0
LTYPE
  5
6C
330
5
100
AcDbSymbolTableRecord
100
AcDbLinetypeTableRecord
  2
CENTER
 70
     0
  3
Center ____ _ ____ _ ____ _ ____ _ ____ _ ____
 72
    65
 73
     4
 40
10.16
 49
6.35
 74
     0
 49
-1.27
 74
     0
 49
1.27
 74
     0
 49
-1.27
 74
     0
  0
LTYPE
  5
6D
330
5
100
AcDbSymbolTableRecord
100
AcDbLinetypeTableRecord
  2
CENTERX2
 70
     0
  3
Center (2x) ________  __  ________  __  _____
 72
    65
 73
     4
 40
20.32
 49
12.7
 74
     0
 49
-2.54
 74
     0
 49
2.54
 74
     0
 49
-2.54
 74
     0
  0
LTYPE
  5
6E
330
5
100
AcDbSymbolTableRecord
100
AcDbLinetypeTableRecord
  2
DOT2
 70
     0
  3
Dot (.5x) ........................................
 72
    65
 73
     2
 40
0.635
 49
0.0
 74
     0
 49
-0.635
 74
     0
  0
ENDTAB
  0
TABLE
  2
LAYER
  5
2
330
0
100
AcDbSymbolTable
 70
    17
  0
LAYER
  5
10
330
2
100
AcDbSymbolTableRecord
100
AcDbLayerTableRecord
  2
0
 70
     0
 62
     7
  6
Continuous
370
    -3
390
F
  0
LAYER
  5
6F
330
2
100
AcDbSymbolTableRecord
100
AcDbLayerTableRecord
  2
FORMAT
 70
     0
 62
     2
  6
Continuous
370
    -3
390
F
  0
LAYER
  5
70
330
2
100
AcDbSymbolTableRecord
100
AcDbLayerTableRecord
  2
외형선
 70
     0
 62
   100
  6
Continuous
370
    30
390
F
  0
LAYER
  5
71
330
2
100
AcDbSymbolTableRecord
100
AcDbLayerTableRecord
  2
숨은선
 70
     0
 62
     2
  6
HIDDEN
370
    15
390
F
  0
LAYER
  5
72
330
2
100
AcDbSymbolTableRecord
100
AcDbLayerTableRecord
  2
중심선
 70
     0
 62
     1
  6
CENTERX2
370
    -3
390
F
  0
LAYER
  5
73
330
2
100
AcDbSymbolTableRecord
100
AcDbLayerTableRecord
  2
파단선
 70
     0
 62
     4
  6
Continuous
370
    -3
390
F
  0
LAYER
  5
74
330
2
100
AcDbSymbolTableRecord
100
AcDbLayerTableRecord
  2
해칭선
 70
     0
 62
     4
  6
Continuous
370
    -3
390
F
  0
LAYER
  5
75
330
2
100
AcDbSymbolTableRecord
100
AcDbLayerTableRecord
  2
가는실선
 70
     0
 62
     4
  6
Continuous
370
    -3
390
F
  0
LAYER
  5
76
330
2
100
AcDbSymbolTableRecord
100
AcDbLayerTableRecord
  2
치수_보조선
 70
     0
 62
     4
  6
Continuous
370
    -3
390
F
  0
LAYER
  5
77
330
2
100
AcDbSymbolTableRecord
100
AcDbLayerTableRecord
  2
치수문자_일반주서
 70
     0
 62
     7
  6
Continuous
370
    15
390
F
  0
LAYER
  5
78
330
2
100
AcDbSymbolTableRecord
100
AcDbLayerTableRecord
  2
개별주서
 70
     0
 62
   100
  6
Continuous
370
    30
390
F
  0
LAYER
  5
79
330
2
100
AcDbSymbolTableRecord
100
AcDbLayerTableRecord
  2
중간선
 70
     0
 62
     2
  6
Continuous
370
    15
390
F
  0
LAYER
  5
7A
330
2
100
AcDbSymbolTableRecord
100
AcDbLayerTableRecord
  2
윤곽선
 70
     0
 62
     3
  6
Continuous
370
    40
390
F
  0
LAYER
  5
7B
330
2
100
AcDbSymbolTableRecord
100
AcDbLayerTableRecord
  2
중심마크
 70
     0
 62
   100
  6
Continuous
370
    30
390
F
  0
LAYER
  5
7C
330
2
100
AcDbSymbolTableRecord
100
AcDbLayerTableRecord
  2
가상선
 70
     0
 62
     4
  6
PHANTOM
370
    -3
390
F
  0
LAYER
  5
7D
330
2
100
AcDbSymbolTableRecord
100
AcDbLayerTableRecord
  2
특수지정선
 70
     0
 62
     5
  6
CENTERX2
370
    60
390
F
  0
LAYER
  5
139
330
2
100
AcDbSymbolTableRecord
100
AcDbLayerTableRecord
  2
Defpoints
 70
     0
 62
     7
  6
Continuous
290
     0
370
    -3
390
F
  0
ENDTAB
  0
TABLE
  2
STYLE
  5
3
330
0
100
AcDbSymbolTable
 70
     2
  0
STYLE
  5
11
330
3
100
AcDbSymbolTableRecord
100
AcDbTextStyleTableRecord
  2
Standard
 70
     0
 40
0.0
 41
1.0
 50
0.0
 71
     0
 42
3.5
  3
txt
  4

  0
STYLE
  5
93
330
3
100
AcDbSymbolTableRecord
100
AcDbTextStyleTableRecord
  2
SLDTEXTSTYLE0
 70
     0
 40
0.0
 41
0.75
 50
0.0
 71
     0
 42
3.5
  3
TXT
  4

  0
ENDTAB
  0
TABLE
  2
VIEW
  5
6
330
0
100
AcDbSymbolTable
 70
     0
  0
ENDTAB
  0
TABLE
  2
UCS
  5
7
330
0
100
AcDbSymbolTable
 70
     0
  0
ENDTAB
  0
TABLE
  2
APPID
  5
9
330
0
100
AcDbSymbolTable
 70
     2
  0
APPID
  5
12
330
9
100
AcDbSymbolTableRecord
100
AcDbRegAppTableRecord
  2
ACAD
 70
     0
  0
APPID
  5
13A
330
9
100
AcDbSymbolTableRecord
100
AcDbRegAppTableRecord
  2
PE_URL
 70
     0
  0
ENDTAB
  0
TABLE
  2
DIMSTYLE
  5
A
330
0
100
AcDbSymbolTable
 70
     3
100
AcDbDimStyleTable
  0
DIMSTYLE
105
27
330
A
100
AcDbSymbolTableRecord
100
AcDbDimStyleTableRecord
  2
ISO-25
 70
     0
 41
2.5
 42
0.625
 43
3.75
 44
1.25
 73
     0
 74
     0
 77
     1
 78
     8
140
2.5
141
2.5
143
0.03937007874016
147
0.625
171
     3
172
     1
178
     0
271
     2
272
     2
274
     3
278
    44
283
     0
284
     8
340
11
  0
DIMSTYLE
105
E0
102
{ACAD_REACTORS
330
DF
330
ED
102
}
330
A
100
AcDbSymbolTableRecord
100
AcDbDimStyleTableRecord
  2
SLDDIMSTYLE0
 70
     0
 41
3.302
 44
0.0
 45
0.000000001
 73
     0
 74
     0
 77
     1
 78
    12
 79
     3
140
3.5
147
0.875
172
     1
173
     1
178
     0
271
     2
272
     2
276
     2
284
    12
289
     0
340
93
  0
DIMSTYLE
105
FB
102
{ACAD_REACTORS
330
FA
330
105
102
}
330
A
100
AcDbSymbolTableRecord
100
AcDbDimStyleTableRecord
  2
SLDDIMSTYLE1
 70
     0
 41
3.302
 44
0.0
 45
0.000000001
 73
     0
 74
     0
 77
     1
 78
    12
 79
     3
140
3.5
147
0.875
173
     1
178
     0
271
     2
272
     2
276
     2
284
    12
340
93
  0
ENDTAB
  0
TABLE
  2
BLOCK_RECORD
  5
1
330
0
100
AcDbSymbolTable
 70
     7
  0
BLOCK_RECORD
  5
1F
330
1
100
AcDbSymbolTableRecord
100
AcDbBlockTableRecord
  2
*Model_Space
340
22
  0
BLOCK_RECORD
  5
1B
330
1
100
AcDbSymbolTableRecord
100
AcDbBlockTableRecord
  2
*Paper_Space
340
1E
  0
BLOCK_RECORD
  5
23
330
1
100
AcDbSymbolTableRecord
100
AcDbBlockTableRecord
  2
*Paper_Space0
340
26
  0
BLOCK_RECORD
  5
7E
330
1
100
AcDbSymbolTableRecord
100
AcDbBlockTableRecord
  2
블럭10
340
0
102
{BLKREFS
331
D8
102
}
  0
BLOCK_RECORD
  5
E1
330
1
100
AcDbSymbolTableRecord
100
AcDbBlockTableRecord
  2
_D
340
0
  0
BLOCK_RECORD
  5
EE
330
1
100
AcDbSymbolTableRecord
100
AcDbBlockTableRecord
  2
_D_1
340
0
  0
BLOCK_RECORD
  5
FC
330
1
100
AcDbSymbolTableRecord
100
AcDbBlockTableRecord
  2
_D_2
340
0
  0
BLOCK_RECORD
  5
106
330
1
100
AcDbSymbolTableRecord
100
AcDbBlockTableRecord
  2
_D_3
340
0
  0
BLOCK_RECORD
  5
10F
330
1
100
AcDbSymbolTableRecord
100
AcDbBlockTableRecord
  2
SW_DOWELSYMBOL_0
340
0
102
{BLKREFS
331
115
102
}
  0
ENDTAB
  0
ENDSEC
  0
SECTION
  2
BLOCKS
  0
BLOCK
  5
20
330
1F
100
AcDbEntity
  8
0
100
AcDbBlockBegin
  2
*Model_Space
 70
     0
 10
0.0
 20
0.0
 30
0.0
  3
*Model_Space
  1

  0
ENDBLK
  5
21
330
1F
100
AcDbEntity
  8
0
100
AcDbBlockEnd
  0
BLOCK
  5
1C
330
1B
100
AcDbEntity
 67
     1
  8
0
100
AcDbBlockBegin
  2
*Paper_Space
 70
     0
 10
0.0
 20
0.0
 30
0.0
  3
*Paper_Space
  1

  0
ENDBLK
  5
1D
330
1B
100
AcDbEntity
 67
     1
  8
0
100
AcDbBlockEnd
  0
BLOCK
  5
24
330
23
100
AcDbEntity
  8
0
100
AcDbBlockBegin
  2
*Paper_Space0
 70
     0
 10
0.0
 20
0.0
 30
0.0
  3
*Paper_Space0
  1

  0
ENDBLK
  5
25
330
23
100
AcDbEntity
  8
0
100
AcDbBlockEnd
  0
BLOCK
  5
7F
330
7E
100
AcDbEntity
  8
0
100
AcDbBlockBegin
  2
블럭10
 70
     2
 10
0.0
 20
0.0
 30
0.0
  3
블럭10
  1

  0
ELLIPSE
  5
81
330
7E
100
AcDbEntity
  8
중심선
100
AcDbEllipse
 10
20.54032771741204
 20
12.0471743016438
 30
0.0
 11
6.600054785286829
 21
-1.261213355974178E-13
 31
0.0
210
0.0
220
0.0
230
1.0
 40
0.636358354079598
 41
0.9219305317359503
 42
6.513795318482858
  0
ELLIPSE
  5
82
330
7E
100
AcDbEntity
  8
중심선
100
AcDbEllipse
 10
20.54032771746488
 20
12.04717430159265
 30
0.0
 11
3.960054785062283
 21
1.540847449632565E-10
 31
0.0
210
0.0
220
0.0
230
1.0
 40
0.3939339440162632
 41
1.131841032648279
 42
5.62031148352944
  0
LINE
  5
83
330
7E
100
AcDbEntity
  8
중심선
100
AcDbLine
 10
2.268634060543552
 20
16.24717430164393
 30
0.0
 11
5.714909304380834
 21
16.24717430164393
 31
0.0
  0
LINE
  5
84
330
7E
100
AcDbEntity
  8
중심선
100
AcDbLine
 10
5.245725140726316
 20
7.84717430164391
 30
0.0
 11
8.692000384563599
 21
7.84717430164391
 31
0.0
  0
LINE
  5
85
330
7E
100
AcDbEntity
  8
중심선
100
AcDbLine
 10
15.74043728645272
 20
16.24717430164393
 30
0.0
 11
8.692000384563599
 21
7.84717430164391
 31
0.0
  0
LINE
  5
86
330
7E
100
AcDbEntity
  8
중심선
100
AcDbLine
 10
0.1404042013395286
 20
13.71084872107135
 30
0.0
 11
3.58671253028996
 21
13.71088815037384
 31
0.0
  0
LINE
  5
87
330
7E
100
AcDbEntity
  8
중심선
100
AcDbLine
 10
2.750260043222114
 20
10.84717430164391
 30
0.0
 11
6.196535287059397
 21
10.84717430164391
 31
0.0
  0
LINE
  5
88
330
7E
100
AcDbEntity
  8
중심선
100
AcDbLine
 10
12.29416204261559
 20
16.24717430164393
 30
0.0
 11
5.245725140726316
 21
7.84717430164391
 31
0.0
  0
LINE
  5
89
330
7E
100
AcDbEntity
  8
중심선
100
AcDbLine
 10
10.72767329541681
 20
16.24717430164393
 30
0.0
 11
6.196535287059397
 21
10.84717430164391
 31
0.0
  0
LINE
  5
8A
330
7E
100
AcDbEntity
  8
중심선
100
AcDbLine
 10
7.28139805157953
 20
16.24717430164393
 30
0.0
 11
2.750260043222114
 21
10.84717430164391
 31
0.0
  0
LINE
  5
8B
330
7E
100
AcDbEntity
  8
중심선
100
AcDbLine
 10
5.714909304380834
 20
16.24717430164393
 30
0.0
 11
3.58671253028996
 21
13.71088815037384
 31
0.0
  0
LINE
  5
8C
330
7E
100
AcDbEntity
  8
중심선
100
AcDbLine
 10
2.268634060543552
 20
16.24717430164393
 30
0.0
 11
0.1404042013395286
 21
13.71084872107135
 31
0.0
  0
LINE
  5
8D
330
7E
100
AcDbEntity
  8
중심선
100
AcDbLine
 10
7.28139805157953
 20
16.24717430164393
 30
0.0
 11
10.72767329541681
 21
16.24717430164393
 31
0.0
  0
LINE
  5
8E
330
7E
100
AcDbEntity
  8
중심선
100
AcDbLine
 10
12.29416204261559
 20
16.24717430164393
 30
0.0
 11
15.74043728645272
 21
16.24717430164393
 31
0.0
  0
LINE
  5
8F
330
7E
100
AcDbEntity
  8
중심선
100
AcDbLine
 10
19.22036997980202
 20
11.08717430171403
 30
0.0
 11
23.66174974927406
 21
11.08717430171406
 31
0.0
  0
LINE
  5
90
330
7E
100
AcDbEntity
  8
중심선
100
AcDbLine
 10
19.22039502424796
 20
13.00717430171391
 30
0.0
 11
19.22036997980202
 21
11.08717430171403
 31
0.0
  0
LINE
  5
91
330
7E
100
AcDbEntity
  8
중심선
100
AcDbLine
 10
19.22039502424796
 20
13.00717430171391
 30
0.0
 11
26.96566020931264
 21
13.00717430171391
 31
0.0
  0
LINE
  5
92
330
7E
100
AcDbEntity
  8
중심선
100
AcDbLine
 10
22.22332737316547
 20
13.45928029700563
 30
0.0
 11
24.52862924686651
 21
15.39360700705356
 31
0.0
  0
ATTDEF
  5
94
330
7E
100
AcDbEntity
  8
FORMAT
 62
     2
100
AcDbText
 10
-12.95993919485777
 20
2.075366912832191
 30
0.0
 40
4.233333333333333
  1
SEME75120E [ 6 FLUTE ]
 41
0.75
  7
SLDTEXTSTYLE0
 11
-12.95993919485777
 21
-0.0412997538344756
 31
0.0
100
AcDbAttributeDefinition
  3

  2
AUTOATTR0
 70
     0
 74
     1
  0
ENDBLK
  5
80
330
7E
100
AcDbEntity
  8
0
100
AcDbBlockEnd
  0
BLOCK
  5
E2
330
E1
100
AcDbEntity
  8
0
100
AcDbBlockBegin
  2
_D
 70
     0
 10
0.0
 20
0.0
 30
0.0
  3
_D
  1

  0
LINE
  5
E4
330
E1
100
AcDbEntity
  8
치수문자_일반주서
 62
     0
370
    -2
100
AcDbLine
 10
-38.86249999999887
 20
6.00000000000001
 30
0.0
 11
-57.42890613132234
 21
5.99999999999994
 31
0.0
  0
LINE
  5
E5
330
E1
100
AcDbEntity
  8
치수문자_일반주서
 62
     0
370
    -2
100
AcDbLine
 10
-38.86249999999887
 20
-6.000000000000001
 30
0.0
 11
-57.42890613132229
 21
-6.00000000000007
 31
0.0
  0
LINE
  5
E6
330
E1
100
AcDbEntity
  8
치수문자_일반주서
 62
     0
370
    -2
100
AcDbLine
 10
-57.42890613132232
 20
2.697999999999941
 30
0.0
 11
-57.42890613132231
 21
-2.698000000000071
 31
0.0
  0
SOLID
  5
E7
330
E1
100
AcDbEntity
  8
치수문자_일반주서
 62
     0
100
AcDbTrace
 10
-56.87857279798899
 20
2.697999999999943
 30
0.0
 11
-57.97923946465566
 21
2.697999999999939
 31
0.0
 12
-57.42890613132234
 22
5.99999999999994
 32
0.0
 13
-57.42890613132234
 23
5.99999999999994
 33
0.0
  0
SOLID
  5
E8
330
E1
100
AcDbEntity
  8
치수문자_일반주서
 62
     0
100
AcDbTrace
 10
-57.97923946465564
 20
-2.698000000000072
 30
0.0
 11
-56.87857279798897
 21
-2.698000000000069
 31
0.0
 12
-57.42890613132229
 22
-6.00000000000007
 32
0.0
 13
-57.42890613132229
 23
-6.00000000000007
 33
0.0
  0
MTEXT
  5
E9
330
E1
100
AcDbEntity
  8
치수문자_일반주서
 62
     0
100
AcDbMText
 10
-61.80390613132231
 20
-0.0000000000000093
 30
0.0
 40
3.5
 41
0.0
 71
     2
 72
     1
  1
\A1;%%c12
  7
SLDTEXTSTYLE0
 11
-3.552713678800498E-15
 21
1.0
 31
0.0
 73
     1
 44
1.0
  0
POINT
  5
EA
330
E1
100
AcDbEntity
  8
Defpoints
 62
     0
100
AcDbPoint
 10
-38.79999999999887
 20
6.00000000000001
 30
0.0
  0
POINT
  5
EB
330
E1
100
AcDbEntity
  8
Defpoints
 62
     0
100
AcDbPoint
 10
-38.79999999999887
 20
-6.000000000000001
 30
0.0
  0
POINT
  5
EC
330
E1
100
AcDbEntity
  8
Defpoints
 62
     0
100
AcDbPoint
 10
-57.42890613132231
 20
-6.00000000000007
 30
0.0
  0
ENDBLK
  5
E3
330
E1
100
AcDbEntity
  8
0
100
AcDbBlockEnd
  0
BLOCK
  5
EF
330
EE
100
AcDbEntity
  8
0
100
AcDbBlockBegin
  2
_D_1
 70
     0
 10
0.0
 20
0.0
 30
0.0
  3
_D_1
  1

  0
LINE
  5
F1
330
EE
100
AcDbEntity
  8
치수문자_일반주서
 62
     0
370
    -2
100
AcDbLine
 10
40.06250000000111
 20
6.000000000000006
 30
0.0
 11
50.00000000000107
 21
6.000000000000044
 31
0.0
  0
LINE
  5
F2
330
EE
100
AcDbEntity
  8
치수문자_일반주서
 62
     0
370
    -2
100
AcDbLine
 10
40.06250000000111
 20
-5.999999999999997
 30
0.0
 11
50.00000000000111
 21
-5.99999999999996
 31
0.0
  0
LINE
  5
F3
330
EE
100
AcDbEntity
  8
치수문자_일반주서
 62
     0
370
    -2
100
AcDbLine
 10
50.00000000000108
 20
2.698000000000044
 30
0.0
 11
50.00000000000109
 21
-2.69799999999996
 31
0.0
  0
SOLID
  5
F4
330
EE
100
AcDbEntity
  8
치수문자_일반주서
 62
     0
100
AcDbTrace
 10
50.55033333333441
 20
2.698000000000046
 30
0.0
 11
49.44966666666775
 21
2.698000000000042
 31
0.0
 12
50.00000000000107
 22
6.000000000000044
 32
0.0
 13
50.00000000000107
 23
6.000000000000044
 33
0.0
  0
SOLID
  5
F5
330
EE
100
AcDbEntity
  8
치수문자_일반주서
 62
     0
100
AcDbTrace
 10
49.44966666666776
 20
-2.697999999999962
 30
0.0
 11
50.55033333333443
 21
-2.697999999999959
 31
0.0
 12
50.00000000000111
 22
-5.99999999999996
 32
0.0
 13
50.00000000000111
 23
-5.99999999999996
 33
0.0
  0
MTEXT
  5
F6
330
EE
100
AcDbEntity
  8
치수문자_일반주서
 62
     0
100
AcDbMText
 10
45.62500000000109
 20
0.7913169001151804
 30
0.0
 40
3.5
 41
0.0
 71
     2
 72
     1
  1
\A1;%%c12
  7
SLDTEXTSTYLE0
 11
-3.552713678800500E-15
 21
1.0
 31
0.0
 73
     1
 44
1.0
  0
POINT
  5
F7
330
EE
100
AcDbEntity
  8
Defpoints
 62
     0
100
AcDbPoint
 10
40.00000000000111
 20
6.000000000000006
 30
0.0
  0
POINT
  5
F8
330
EE
100
AcDbEntity
  8
Defpoints
 62
     0
100
AcDbPoint
 10
40.00000000000111
 20
-5.999999999999997
 30
0.0
  0
POINT
  5
F9
330
EE
100
AcDbEntity
  8
Defpoints
 62
     0
100
AcDbPoint
 10
50.00000000000111
 20
-5.99999999999996
 30
0.0
  0
ENDBLK
  5
F0
330
EE
100
AcDbEntity
  8
0
100
AcDbBlockEnd
  0
BLOCK
  5
FD
330
FC
100
AcDbEntity
  8
0
100
AcDbBlockBegin
  2
_D_2
 70
     0
 10
0.0
 20
0.0
 30
0.0
  3
_D_2
  1

  0
LINE
  5
FF
330
FC
100
AcDbEntity
  8
치수문자_일반주서
 62
     0
370
    -2
100
AcDbLine
 10
10.00000000000112
 20
6.022870292188071
 30
0.0
 11
10.00000000000112
 21
49.45521091082988
 31
0.0
  0
LINE
  5
100
330
FC
100
AcDbEntity
  8
치수문자_일반주서
 62
     0
370
    -2
100
AcDbLine
 10
40.00000000000111
 20
6.018715305426031
 30
0.0
 11
40.00000000000111
 21
49.45521091082988
 31
0.0
  0
LINE
  5
101
330
FC
100
AcDbEntity
  8
치수문자_일반주서
 62
     0
370
    -2
100
AcDbLine
 10
13.30200000000112
 20
49.45521091082988
 30
0.0
 11
36.69800000000111
 21
49.45521091082988
 31
0.0
  0
SOLID
  5
102
330
FC
100
AcDbEntity
  8
치수문자_일반주서
 62
     0
100
AcDbTrace
 10
13.30200000000112
 20
50.00554424416321
 30
0.0
 11
13.30200000000112
 21
48.90487757749654
 31
0.0
 12
10.00000000000112
 22
49.45521091082988
 32
0.0
 13
10.00000000000112
 23
49.45521091082988
 33
0.0
  0
SOLID
  5
103
330
FC
100
AcDbEntity
  8
치수문자_일반주서
 62
     0
100
AcDbTrace
 10
36.69800000000111
 20
48.90487757749654
 30
0.0
 11
36.69800000000111
 21
50.00554424416321
 31
0.0
 12
40.00000000000111
 22
49.45521091082988
 32
0.0
 13
40.00000000000111
 23
49.45521091082988
 33
0.0
  0
MTEXT
  5
104
330
FC
100
AcDbEntity
  8
치수문자_일반주서
 62
     0
100
AcDbMText
 10
22.2774963292404
 20
53.83021091082988
 30
0.0
 40
3.5
 41
0.0
 71
     2
 72
     1
  1
\A1;30
  7
SLDTEXTSTYLE0
 73
     1
 44
1.0
  0
POINT
  5
14D
330
FC
100
AcDbEntity
  8
Defpoints
 62
     0
100
AcDbPoint
 10
10.00000000000112
 20
5.960370292188071
 30
0.0
  0
POINT
  5
14E
330
FC
100
AcDbEntity
  8
Defpoints
 62
     0
100
AcDbPoint
 10
40.00000000000111
 20
5.956215305426031
 30
0.0
  0
POINT
  5
14F
330
FC
100
AcDbEntity
  8
Defpoints
 62
     0
100
AcDbPoint
 10
40.00000000000111
 20
49.45521091082988
 30
0.0
  0
ENDBLK
  5
FE
330
FC
100
AcDbEntity
  8
0
100
AcDbBlockEnd
  0
BLOCK
  5
107
330
106
100
AcDbEntity
  8
0
100
AcDbBlockBegin
  2
_D_3
 70
     0
 10
0.0
 20
0.0
 30
0.0
  3
_D_3
  1

  0
LINE
  5
109
330
106
100
AcDbEntity
  8
치수문자_일반주서
 62
     0
370
    -2
100
AcDbLine
 10
40.00000000000111
 20
6.018715305426031
 30
0.0
 11
40.00000000000111
 21
76.90089796629566
 31
0.0
  0
LINE
  5
10A
330
106
100
AcDbEntity
  8
치수문자_일반주서
 62
     0
370
    -2
100
AcDbLine
 10
-39.99999999999888
 20
4.862500000000008
 30
0.0
 11
-39.99999999999888
 21
76.90089796629566
 31
0.0
  0
LINE
  5
10B
330
106
100
AcDbEntity
  8
치수문자_일반주서
 62
     0
370
    -2
100
AcDbLine
 10
36.69800000000111
 20
76.90089796629566
 30
0.0
 11
-36.69799999999888
 21
76.90089796629566
 31
0.0
  0
SOLID
  5
10C
330
106
100
AcDbEntity
  8
치수문자_일반주서
 62
     0
100
AcDbTrace
 10
36.69800000000111
 20
76.35056463296233
 30
0.0
 11
36.69800000000111
 21
77.45123129962899
 31
0.0
 12
40.00000000000111
 22
76.90089796629566
 32
0.0
 13
40.00000000000111
 23
76.90089796629566
 33
0.0
  0
SOLID
  5
10D
330
106
100
AcDbEntity
  8
치수문자_일반주서
 62
     0
100
AcDbTrace
 10
-36.69799999999888
 20
77.45123129962899
 30
0.0
 11
-36.69799999999888
 21
76.35056463296233
 31
0.0
 12
-39.99999999999888
 22
76.90089796629566
 32
0.0
 13
-39.99999999999888
 23
76.90089796629566
 33
0.0
  0
MTEXT
  5
10E
330
106
100
AcDbEntity
  8
치수문자_일반주서
 62
     0
100
AcDbMText
 10
2.478530558742854
 20
81.27589796629566
 30
0.0
 40
3.5
 41
0.0
 71
     2
 72
     1
  1
\A1;80
  7
SLDTEXTSTYLE0
 73
     1
 44
1.0
  0
POINT
  5
150
330
106
100
AcDbEntity
  8
Defpoints
 62
     0
100
AcDbPoint
 10
40.00000000000111
 20
5.956215305426031
 30
0.0
  0
POINT
  5
151
330
106
100
AcDbEntity
  8
Defpoints
 62
     0
100
AcDbPoint
 10
-39.99999999999888
 20
4.800000000000008
 30
0.0
  0
POINT
  5
152
330
106
100
AcDbEntity
  8
Defpoints
 62
     0
100
AcDbPoint
 10
-39.99999999999888
 20
76.90089796629566
 30
0.0
  0
ENDBLK
  5
108
330
106
100
AcDbEntity
  8
0
100
AcDbBlockEnd
  0
BLOCK
  5
110
330
10F
100
AcDbEntity
  8
0
100
AcDbBlockBegin
  2
SW_DOWELSYMBOL_0
 70
     0
 10
0.0
 20
0.0
 30
0.0
  3
SW_DOWELSYMBOL_0
  1

  0
CIRCLE
  5
112
330
10F
100
AcDbEntity
  8
외형선
 62
     0
100
AcDbCircle
 10
0.0
 20
0.0
 30
0.0
 40
3.000000000000001
  0
HATCH
  5
113
330
10F
100
AcDbEntity
  8
0
  6
Continuous
 62
     0
370
    30
100
AcDbHatch
 10
0.0
 20
0.0
 30
0.0
210
0.0
220
0.0
230
1.0
  2
SOLID
 70
     1
 71
     0
 91
        1
 92
        0
 93
        3
 72
     2
 10
-0.0000000000000139
 20
0.0
 40
3.000000000000001
 50
0.0
 51
90.0
 73
     1
 72
     1
 10
-0.0000000000000139
 20
3.000000000000001
 11
-0.0000000000000139
 21
0.0
 72
     1
 10
-0.0000000000000139
 20
0.0
 11
2.999999999999988
 21
0.0
 97
        0
 75
     0
 76
     1
 98
        1
 10
0.0
 20
0.0
  0
HATCH
  5
114
330
10F
100
AcDbEntity
  8
0
  6
Continuous
 62
     0
370
    30
100
AcDbHatch
 10
0.0
 20
0.0
 30
0.0
210
0.0
220
0.0
230
1.0
  2
SOLID
 70
     1
 71
     0
 91
        1
 92
        0
 93
        3
 72
     2
 10
-0.0000000000000139
 20
0.0
 40
3.000000000000001
 50
180.0
 51
270.0000000000008
 73
     1
 72
     1
 10
-0.0000000000000139
 20
-3.000000000000001
 11
-0.0000000000000139
 21
0.0
 72
     1
 10
-0.0000000000000139
 20
0.0
 11
-3.000000000000015
 21
0.0
 97
        0
 75
     0
 76
     1
 98
        1
 10
0.0
 20
0.0
  0
ENDBLK
  5
111
330
10F
100
AcDbEntity
  8
0
100
AcDbBlockEnd
  0
ENDSEC
  0
SECTION
  2
ENTITIES
  0
LINE
  5
95
330
1F
100
AcDbEntity
  8
0
  6
Continuous
 62
     1
370
    15
100
AcDbLine
 10
16.13136284800242
 20
1.14662237561479
 30
0.0
 11
16.07624681629008
 21
1.200018105979848
 31
0.0
1001
PE_URL
1000

  0
LINE
  5
96
330
1F
100
AcDbEntity
  8
0
  6
Continuous
 62
     1
370
    15
100
AcDbLine
 10
26.17142078807678
 20
-1.148416428248627
 30
0.0
 11
26.22414528192796
 21
-1.199532245937341
 31
0.0
1001
PE_URL
1000

  0
LINE
  5
97
330
1F
100
AcDbEntity
  8
0
  6
Continuous
 62
     1
370
    15
100
AcDbLine
 10
28.80508022473777
 20
1.042328001384059
 30
0.0
 11
28.64278222079541
 21
1.199856705041968
 31
0.0
1001
PE_URL
1000

  0
LINE
  5
98
330
1F
100
AcDbEntity
  8
0
  6
Continuous
 62
     1
370
    15
100
AcDbLine
 10
34.97959796520957
 20
1.147768597621327
 30
0.0
 11
34.92604206603407
 21
1.199783699593514
 31
0.0
1001
PE_URL
1000

  0
LINE
  5
99
330
1F
100
AcDbEntity
  8
0
  6
Continuous
 62
     1
370
    15
100
AcDbLine
 10
32.35848295610587
 20
-1.055809862444182
 30
0.0
 11
32.50781997999184
 21
-1.200011575316933
 31
0.0
1001
PE_URL
1000

  0
LINE
  5
9A
330
1F
100
AcDbEntity
  8
0
  6
Continuous
 62
     1
370
    15
100
AcDbLine
 10
32.99217012356007
 20
-5.999999999999997
 30
0.0
 11
34.44208317498634
 21
-5.999999999999997
 31
0.0
1001
PE_URL
1000

  0
LINE
  5
9B
330
1F
100
AcDbEntity
  8
0
  6
Continuous
 62
     1
370
    15
100
AcDbLine
 10
15.5925933872913
 20
6.000000000000006
 30
0.0
 11
14.14268448290511
 21
6.000000000000006
 31
0.0
1001
PE_URL
1000

  0
LINE
  5
9C
330
1F
100
AcDbEntity
  8
0
  6
Continuous
 62
     1
370
    15
100
AcDbLine
 10
20.42435801240958
 20
-5.999999999999997
 30
0.0
 11
21.87637943629337
 21
-5.999999999999997
 31
0.0
1001
PE_URL
1000

  0
LINE
  5
9D
330
1F
100
AcDbEntity
  8
0
  6
Continuous
 62
     1
370
    15
100
AcDbLine
 10
40.00000000000111
 20
6.000000000000006
 30
0.0
 11
39.27397985488765
 21
6.000000000000006
 31
0.0
1001
PE_URL
1000

  0
LINE
  5
9E
330
1F
100
AcDbEntity
  8
0
  6
Continuous
 62
     1
370
    15
100
AcDbLine
 10
39.27397985488765
 20
-5.999999999999997
 30
0.0
 11
40.00000000000111
 21
-5.999999999999997
 31
0.0
1001
PE_URL
1000

  0
LINE
  5
9F
330
1F
100
AcDbEntity
  8
0
  6
Continuous
 62
     1
370
    15
100
AcDbLine
 10
21.87637943629341
 20
6.000000000000006
 30
0.0
 11
20.42435801240957
 21
6.000000000000006
 31
0.0
1001
PE_URL
1000

  0
LINE
  5
A0
330
1F
100
AcDbEntity
  8
0
  6
Continuous
 62
     1
370
    15
100
AcDbLine
 10
28.15819097593274
 20
6.000000000000006
 30
0.0
 11
26.70854237203284
 21
6.000000000000006
 31
0.0
1001
PE_URL
1000

  0
LINE
  5
A1
330
1F
100
AcDbEntity
  8
0
  6
Continuous
 62
     1
370
    15
100
AcDbLine
 10
26.7085423720328
 20
-5.999999999999997
 30
0.0
 11
28.15819097593269
 21
-5.999999999999997
 31
0.0
1001
PE_URL
1000

  0
LINE
  5
A2
330
1F
100
AcDbEntity
  8
0
  6
Continuous
 62
     1
370
    15
100
AcDbLine
 10
14.14268448290515
 20
-5.999999999999997
 30
0.0
 11
15.59259338729129
 21
-5.999999999999997
 31
0.0
1001
PE_URL
1000

  0
LINE
  5
A3
330
1F
100
AcDbEntity
  8
0
  6
Continuous
 62
     1
370
    15
100
AcDbLine
 10
34.44208317498632
 20
6.000000000000006
 30
0.0
 11
32.99217012356011
 21
6.000000000000006
 31
0.0
1001
PE_URL
1000

  0
LINE
  5
A4
330
1F
100
AcDbEntity
  8
0
  6
Continuous
 62
   131
370
    15
100
AcDbLine
 10
-38.79999999999888
 20
-5.999999999999996
 30
0.0
 11
9.308813140143581
 21
-5.999999999999996
 31
0.0
  0
LINE
  5
A5
330
1F
100
AcDbEntity
  8
0
  6
Continuous
 62
   131
370
    15
100
AcDbLine
 10
9.308813140143538
 20
6.000000000000004
 30
0.0
 11
-38.79999999999888
 21
6.000000000000004
 31
0.0
  0
LINE
  5
A6
330
1F
100
AcDbEntity
  8
0
  6
Continuous
 62
   131
370
    15
100
AcDbLine
 10
-38.79999999999888
 20
6.000000000000006
 30
0.0
 11
-39.99999999999888
 21
4.800000000000008
 31
0.0
  0
LINE
  5
A7
330
1F
100
AcDbEntity
  8
0
  6
Continuous
 62
   131
370
    15
100
AcDbLine
 10
-39.99999999999888
 20
-4.8
 30
0.0
 11
-38.79999999999888
 21
-5.999999999999997
 31
0.0
  0
LINE
  5
A8
330
1F
100
AcDbEntity
  8
0
  6
Continuous
 62
     1
370
    15
100
AcDbLine
 10
40.00000000000111
 20
3.585945346590655
 30
0.0
 11
40.00000000000111
 21
5.956215305426031
 31
0.0
1001
PE_URL
1000

  0
SPLINE
  5
A9
330
1F
100
AcDbEntity
  8
0
  6
Continuous
 62
     1
370
    15
100
AcDbSpline
210
0.0
220
0.0
230
1.0
 70
     8
 71
     3
 72
    15
 73
    11
 74
     0
 42
0.000000001
 43
0.00000001
 40
0.0
 40
0.0
 40
0.0
 40
0.0
 40
0.1404643229447851
 40
0.2808015178248633
 40
0.4213192188284587
 40
0.5619564100321931
 40
0.7023221054306881
 40
0.8427066492677981
 40
0.9811115476649919
 40
1.0
 40
1.0
 40
1.0
 40
1.0
 10
10.00000000000001
 20
-3.576414535675262
 30
0.0
 10
10.3750759796295
 20
-3.865398643010631
 30
0.0
 10
11.12488847415889
 20
-4.443105310909017
 30
0.0
 10
12.24887298209179
 20
-5.121116905940468
 30
0.0
 10
13.37444328415221
 20
-5.628396091264629
 30
0.0
 10
14.50098504472187
 20
-5.934463786464051
 30
0.0
 10
15.6253324147512
 20
-6.038317071873195
 30
0.0
 10
16.74365931292817
 20
-5.912255126515961
 30
0.0
 10
17.53966725839714
 20
-5.725886169871965
 30
0.0
 10
17.95957369350082
 20
-5.532193330590869
 30
0.0
 10
18.00999783824502
 20
-5.508933873370569
 30
0.0
  0
SPLINE
  5
AA
330
1F
100
AcDbEntity
  8
0
  6
Continuous
 62
     1
370
    15
100
AcDbSpline
210
0.0
220
0.0
230
1.0
 70
     8
 71
     3
 72
    13
 73
     9
 74
     0
 42
0.000000001
 43
0.00000001
 40
0.0
 40
0.0
 40
0.0
 40
0.0
 40
0.0039956383333136
 40
0.2030592523182567
 40
0.402535226084036
 40
0.6016767596422995
 40
0.8006651840855892
 40
1.0
 40
1.0
 40
1.0
 40
1.0
 10
34.44208317498632
 20
5.99799765464597
 30
0.0
 10
34.44948237010229
 20
5.998663526958569
 30
0.0
 10
34.82551115516035
 20
6.032503309906001
 30
0.0
 10
35.57064621919216
 20
5.912074178436137
 30
0.0
 10
36.67940534804515
 20
5.624413114662707
 30
0.0
 10
37.78617941423697
 20
5.118733578255336
 30
0.0
 10
38.89211594003521
 20
4.454109820436946
 30
0.0
 10
39.63049127702783
 20
3.888004141420309
 30
0.0
 10
40.00000000000111
 20
3.604705152354172
 30
0.0
1001
PE_URL
1000

  0
SPLINE
  5
AB
330
1F
100
AcDbEntity
  8
0
  6
Continuous
 62
     1
370
    15
100
AcDbSpline
210
0.0
220
0.0
230
1.0
 70
     8
 71
     3
 72
    10
 73
     6
 74
     0
 42
0.000000001
 43
0.00000001
 40
0.0
 40
0.0
 40
0.0
 40
0.0
 40
0.352749789956721
 40
0.7048865935762461
 40
1.0
 40
1.0
 40
1.0
 40
1.0
 10
40.00000000000111
 20
5.956215305426032
 30
0.0
 10
39.63048302967155
 20
5.980156198460745
 30
0.0
 10
38.89209121229813
 20
6.027996381556195
 30
0.0
 10
37.8462017096832
 20
5.868102051245741
 30
0.0
 10
37.16859201529841
 20
5.620242626568356
 30
0.0
 10
36.85963621731993
 20
5.507231247049633
 30
0.0
1001
PE_URL
1000

  0
SPLINE
  5
AC
330
1F
100
AcDbEntity
  8
0
  6
Continuous
 62
     1
370
    15
100
AcDbSpline
210
0.0
220
0.0
230
1.0
 70
     8
 71
     3
 72
    17
 73
    13
 74
     0
 42
0.000000001
 43
0.00000001
 40
0.0
 40
0.0
 40
0.0
 40
0.0
 40
0.033895847117862
 40
0.139981830916535
 40
0.2461659051491946
 40
0.3525088908723574
 40
0.4603729311910699
 40
0.5682224893688912
 40
0.6762806505287944
 40
0.7842470017542627
 40
0.8920746616448246
 40
1.0
 40
1.0
 40
1.0
 40
1.0
 10
20.42435801240958
 20
-5.977821220215678
 30
0.0
 10
20.30652866779382
 20
-5.984053762126789
 30
0.0
 10
19.81992134573289
 20
-6.0097926859822
 30
0.0
 10
18.96540421329922
 20
-5.84720581552669
 30
0.0
 10
17.85841174772658
 20
-5.492320129774789
 30
0.0
 10
16.74374003865064
 20
-4.934220381951749
 30
0.0
 10
15.62531065931147
 20
-4.205198170635408
 30
0.0
 10
14.50099088633474
 20
-3.323543516092595
 30
0.0
 10
13.37444171957462
 20
-2.326731600727524
 30
0.0
 10
12.24887339855211
 20
-1.24824424845915
 30
0.0
 10
11.12488836998981
 20
-0.1228269504421162
 30
0.0
 10
10.37507594489615
 20
0.6231944597188666
 30
0.0
 10
10.00000000000022
 20
0.9963740389899967
 30
0.0
  0
SPLINE
  5
AD
330
1F
100
AcDbEntity
  8
0
  6
Continuous
 62
   131
370
    15
100
AcDbSpline
210
0.0
220
0.0
230
1.0
 70
    24
 71
     3
 72
    23
 73
    19
 74
     0
 42
0.000000001
 43
0.00000001
 40
0.0
 40
0.0
 40
0.0
 40
0.0
 40
0.0472367217605181
 40
0.1123975393868797
 40
0.1775583570132415
 40
0.2427191746395377
 40
0.3078799922658339
 40
0.3730408098921305
 40
0.438201627518427
 40
0.5033624451447243
 40
0.5685232627710216
 40
0.6336840803973007
 40
0.69884489802358
 40
0.7640057156498933
 40
0.8291665332762067
 40
0.8943273509025027
 40
0.9594881685287987
 40
1.0
 40
1.0
 40
1.0
 40
1.0
 10
10.00000000000112
 20
0.9599308998130334
 30
0.0
 10
10.00000000000112
 20
0.9540801461308756
 30
0.0
 10
10.00000000000109
 20
0.9401585551964489
 30
0.0
 10
10.00000000000112
 20
0.8089176722974898
 30
0.0
 10
10.00000000000114
 20
0.6220392018434523
 30
0.0
 10
10.00000000000109
 20
0.3714024808788005
 30
0.0
 10
10.00000000000115
 20
0.0728259216673686
 30
0.0
 10
10.00000000000111
 20
-0.2688515488293312
 30
0.0
 10
10.0000000000011
 20
-0.6419402769890301
 30
0.0
 10
10.00000000000112
 20
-1.037080907883597
 30
0.0
 10
10.00000000000114
 20
-1.442366743616453
 30
0.0
 10
10.00000000000113
 20
-1.846486022181777
 30
0.0
 10
10.00000000000109
 20
-2.238269815488043
 30
0.0
 10
10.0000000000011
 20
-2.60576674834022
 30
0.0
 10
10.00000000000107
 20
-2.940042536034025
 30
0.0
 10
10.00000000000112
 20
-3.228865491887854
 30
0.0
 10
10.00000000000117
 20
-3.439820148805068
 30
0.0
 10
10.00000000000114
 20
-3.538560388920595
 30
0.0
 10
10.00000000000112
 20
-3.576414535676161
 30
0.0
  0
SPLINE
  5
AE
330
1F
100
AcDbEntity
  8
0
  6
Continuous
 62
     1
370
    15
100
AcDbSpline
210
0.0
220
0.0
230
1.0
 70
     8
 71
     3
 72
    26
 73
    22
 74
     0
 42
0.000000001
 43
0.00000001
 40
0.0
 40
0.0
 40
0.0
 40
0.0
 40
0.0546816347047624
 40
0.1093137794732244
 40
0.1640161938283061
 40
0.218765124760251
 40
0.2734083645520206
 40
0.3280589418898196
 40
0.3819388591302998
 40
0.435738262005881
 40
0.489487966216061
 40
0.5433229316034949
 40
0.5971768763064246
 40
0.6509298210759673
 40
0.7047157793794228
 40
0.7586001617432154
 40
0.8123766503280755
 40
0.8661337808312887
 40
0.9200003148005168
 40
0.9738205620214258
 40
0.9999999999999999
 40
0.9999999999999999
 40
0.9999999999999999
 40
0.9999999999999999
 10
10.00000000000001
 20
5.9603702921882
 30
0.0
 10
10.37507594625736
 20
5.897129863950237
 30
0.0
 10
11.12488837407268
 20
5.770706243597227
 30
0.0
 10
12.24887338222822
 20
5.322366838586784
 30
0.0
 10
13.37444178090035
 20
4.702525211838276
 30
0.0
 10
14.50099065736434
 20
3.914427618132896
 30
0.0
 10
15.62531151204678
 20
2.989040664449455
 30
0.0
 10
16.74373687449133
 20
1.963875911080065
 30
0.0
 10
17.85842336397331
 20
0.8787312966139912
 30
0.0
 10
18.96536092942118
 20
-0.2317597872177027
 30
0.0
 10
20.0712610309149
 20
-1.334785217584945
 30
0.0
 10
21.17893878794828
 20
-2.391482942723908
 30
0.0
 10
22.28702401336024
 20
-3.36674732652308
 30
0.0
 10
23.39299821258129
 20
-4.228911819753239
 30
0.0
 10
24.49965667544381
 20
-4.947049900098377
 30
0.0
 10
25.60839359196413
 20
-5.496595600231627
 30
0.0
 10
26.7148591804715
 20
-5.859733664351976
 30
0.0
 10
27.8209243570273
 20
-6.026328284867146
 30
0.0
 10
28.92927643720346
 20
-5.978264752520439
 30
0.0
 10
29.84754281599417
 20
-5.801240929636652
 30
0.0
 10
30.39587127587474
 20
-5.571686012396017
 30
0.0
 10
30.57530861830345
 20
-5.496565482814023
 30
0.0
  0
SPLINE
  5
AF
330
1F
100
AcDbEntity
  8
0
  6
Continuous
 62
     1
370
    15
100
AcDbSpline
210
0.0
220
0.0
230
1.0
 70
     8
 71
     3
 72
    27
 73
    23
 74
     0
 42
0.000000001
 43
0.00000001
 40
0.0
 40
0.0
 40
0.0
 40
0.0
 40
0.0349013264637353
 40
0.086964998715628
 40
0.1389673978345679
 40
0.1910391259449135
 40
0.2431556370337493
 40
0.2951662989704375
 40
0.3471956900809272
 40
0.3993294697033899
 40
0.4513680228790397
 40
0.5033746350687115
 40
0.5554789658929496
 40
0.6075649340041341
 40
0.6595684109141519
 40
0.711619971872941
 40
0.7637494314355909
 40
0.8166245137912447
 40
0.8694924969840075
 40
0.9224627376095961
 40
0.9753879728948511
 40
1.0
 40
1.0
 40
1.0
 40
1.0
 10
32.99217012356009
 20
-5.977396987948884
 30
0.0
 10
32.74459242176405
 20
-5.977502363149441
 30
0.0
 10
32.12769338954297
 20
-5.977764930653593
 30
0.0
 10
31.14250240134653
 20
-5.745248748478213
 30
0.0
 10
30.03664907664704
 20
-5.317918300198827
 30
0.0
 10
28.92927821238627
 20
-4.702400452158054
 30
0.0
 10
27.82092388227913
 20
-3.930060913452861
 30
0.0
 10
26.71485930761392
 20
-3.022500677815613
 30
0.0
 10
25.60839355781182
 20
-2.012445212530803
 30
0.0
 10
24.49965668458861
 20
-0.9358307668781963
 30
0.0
 10
23.39299821011816
 20
0.1742261435679229
 30
0.0
 10
22.28702401408308
 20
1.278630347092608
 30
0.0
 10
21.17893878752411
 20
2.338232640597666
 30
0.0
 10
20.07126103188721
 20
3.318865949055213
 30
0.0
 10
18.96536092596027
 20
4.187651987698692
 30
0.0
 10
17.85842337686794
 20
4.913748700685666
 30
0.0
 10
16.74373682600945
 20
5.475617631189086
 30
0.0
 10
15.62531169584386
 20
5.85130060309242
 30
0.0
 10
14.50098997129431
 20
6.026352888771592
 30
0.0
 10
13.37444434586461
 20
5.979309791645716
 30
0.0
 10
12.44912666258715
 20
5.801283787544306
 30
0.0
 10
11.8997981760809
 20
5.569470622000147
 30
0.0
 10
11.72542927030952
 20
5.495888040699089
 30
0.0
  0
SPLINE
  5
B0
330
1F
100
AcDbEntity
  8
0
  6
Continuous
 62
     1
370
    15
100
AcDbSpline
210
0.0
220
0.0
230
1.0
 70
     8
 71
     3
 72
    20
 73
    16
 74
     0
 42
0.000000001
 43
0.00000001
 40
0.0
 40
0.0
 40
0.0
 40
0.0
 40
0.0787263659636595
 40
0.1573814801650455
 40
0.2361377630535456
 40
0.3149610168925903
 40
0.3936321048458585
 40
0.4723137568273806
 40
0.5498858723222435
 40
0.6273420694947921
 40
0.7047267143931374
 40
0.7822341117051446
 40
0.8597688339598958
 40
0.937158144363647
 40
1.0
 40
1.0
 40
1.0
 40
1.0
 10
10.00000000000001
 20
2.383955756512943
 30
0.0
 10
10.37507594627423
 20
2.031736125029387
 30
0.0
 10
11.12488837412325
 20
1.327615640519064
 30
0.0
 10
12.24887338202605
 20
0.2011911319441262
 30
0.0
 10
13.37444178165981
 20
-0.9256499740964748
 30
0.0
 10
14.50099065452878
 20
-2.020860955368876
 30
0.0
 10
15.6253115226071
 20
-3.046204720658854
 30
0.0
 10
16.74373683530616
 20
-3.959777014593235
 30
0.0
 10
17.85842350782972
 20
-4.730614446574674
 30
0.0
 10
18.96536039339053
 20
-5.337830601744595
 30
0.0
 10
20.07126303085846
 20
-5.763415334641941
 30
0.0
 10
21.17893130948569
 20
-5.994437964353499
 30
0.0
 10
22.287051910784
 20
-6.016612346311839
 30
0.0
 10
23.32343443297932
 20
-5.865161721408621
 30
0.0
 10
23.99141797221078
 20
-5.616905835954128
 30
0.0
 10
24.29076173669064
 20
-5.505654814122471
 30
0.0
  0
SPLINE
  5
B1
330
1F
100
AcDbEntity
  8
0
  6
Continuous
 62
     1
370
    15
100
AcDbSpline
210
0.0
220
0.0
230
1.0
 70
     8
 71
     3
 72
    22
 73
    18
 74
     0
 42
0.000000001
 43
0.00000001
 40
0.0
 40
0.0
 40
0.0
 40
0.0
 40
0.0658385367063977
 40
0.1321932727269687
 40
0.1984268066059299
 40
0.2646196866955793
 40
0.3309369409289776
 40
0.3972308235022714
 40
0.4634197130764566
 40
0.5296698029776872
 40
0.5960190405204853
 40
0.6633172904686563
 40
0.7306065047573563
 40
0.7980258700730956
 40
0.8653879535746447
 40
0.9326635051412266
 40
1.0
 40
1.0
 40
1.0
 40
1.0
 10
26.7085423720328
 20
-5.999414134089762
 30
0.0
 10
26.3420757625389
 20
-5.980142005758661
 30
0.0
 10
25.60626930514167
 20
-5.941446648237831
 30
0.0
 10
24.4996530468267
 20
-5.627900215654316
 30
0.0
 10
23.39299918339135
 20
-5.137121696882261
 30
0.0
 10
22.28702375275196
 20
-4.467556610474378
 30
0.0
 10
21.17893885780953
 20
-3.648348468942297
 30
0.0
 10
20.07126101223214
 20
-2.704844665218541
 30
0.0
 10
18.96536093442857
 20
-1.668641645244818
 30
0.0
 10
17.85842336262946
 20
-0.5760986839482479
 30
0.0
 10
16.74373687485738
 20
0.5405966114448236
 30
0.0
 10
15.62531151194815
 20
1.646800692539367
 30
0.0
 10
14.5009906573909
 20
2.700822503824999
 30
0.0
 10
13.37444178089337
 20
3.659839687156784
 30
0.0
 10
12.24887338223025
 20
4.48749643661322
 30
0.0
 10
11.12488837407239
 20
5.17222997737588
 30
0.0
 10
10.37507594625741
 20
5.472159529220518
 30
0.0
 10
10.00000000000021
 20
5.62219219911964
 30
0.0
  0
SPLINE
  5
B2
330
1F
100
AcDbEntity
  8
0
  6
Continuous
 62
   131
370
    15
100
AcDbSpline
210
0.0
220
0.0
230
1.0
 70
    24
 71
     3
 72
    17
 73
    13
 74
     0
 42
0.000000001
 43
0.00000001
 40
0.0
 40
0.0
 40
0.0
 40
0.0
 40
0.09108680958982
 40
0.1838856410434083
 40
0.29604213960222
 40
0.4114511842171131
 40
0.5236076827757412
 40
0.6390167273905892
 40
0.7511732259492171
 40
0.8665822705640664
 40
0.9787387691226975
 40
1.0
 40
1.0
 40
1.0
 40
1.0
 10
10.00000000000112
 20
5.622192199121143
 30
0.0
 10
10.00000000000113
 20
5.528356404396402
 30
0.0
 10
10.00000000000114
 20
5.338921124541075
 30
0.0
 10
10.00000000000109
 20
5.007618160883337
 30
0.0
 10
10.00000000000109
 20
4.634563054181793
 30
0.0
 10
10.00000000000115
 20
4.230269373897825
 30
0.0
 10
10.00000000000107
 20
3.825790209045191
 30
0.0
 10
10.00000000000114
 20
3.440133264699052
 30
0.0
 10
10.00000000000114
 20
3.075597651249505
 30
0.0
 10
10.00000000000108
 20
2.755473657886075
 30
0.0
 10
10.00000000000118
 20
2.540411434012887
 30
0.0
 10
10.00000000000115
 20
2.453670930576657
 30
0.0
 10
10.00000000000114
 20
2.439848105995785
 30
0.0
  0
SPLINE
  5
B3
330
1F
100
AcDbEntity
  8
0
  6
Continuous
 62
     1
370
    15
100
AcDbSpline
210
0.0
220
0.0
230
1.0
 70
     8
 71
     3
 72
    28
 73
    24
 74
     0
 42
0.000000001
 43
0.00000001
 40
0.0
 40
0.0
 40
0.0
 40
0.0
 40
0.0015371855545347
 40
0.0544114920430553
 40
0.106540186679532
 40
0.1585909838551989
 40
0.2105936976876606
 40
0.2626789015108471
 40
0.3147824677776407
 40
0.3667883168437502
 40
0.4188261064271498
 40
0.4709591210600478
 40
0.5229877487127275
 40
0.5749976474664296
 40
0.6271133938190916
 40
0.6791843578503911
 40
0.7311859939075899
 40
0.7832489021986448
 40
0.8353705320393181
 40
0.8873835645902707
 40
0.9394072463364108
 40
0.9915386950097844
 40
1.0
 40
1.0
 40
1.0
 40
1.0
 10
15.5925933872913
 20
5.997031528345111
 30
0.0
 10
15.60348608940663
 20
5.998017341964537
 30
0.0
 10
15.98905318813891
 20
6.032912016684245
 30
0.0
 10
16.74369383142343
 20
5.90844628829017
 30
0.0
 10
17.85843480925948
 20
5.613405740418752
 30
0.0
 10
18.9653578678995
 20
5.104923255909014
 30
0.0
 10
20.07126185244462
 20
4.429167635481859
 30
0.0
 10
21.17893856728953
 20
3.601952076913635
 30
0.0
 10
22.28702407342607
 20
2.653336874345424
 30
0.0
 10
23.39299819255449
 20
1.613238167790862
 30
0.0
 10
24.49965669553112
 20
0.5185812996231417
 30
0.0
 10
25.60839353161775
 20
-0.5919472953857182
 30
0.0
 10
26.71485940121715
 20
-1.684237077936649
 30
0.0
 10
27.82092353381591
 20
-2.71940646812065
 30
0.0
 10
28.92927951508086
 20
-3.660779500380958
 30
0.0
 10
30.03664422270639
 20
-4.478712653631006
 30
0.0
 10
31.14252049906946
 20
-5.144897452184893
 30
0.0
 10
32.24971220943473
 20
-5.636281221072551
 30
0.0
 10
33.35819160590463
 20
-5.934886165108503
 30
0.0
 10
34.46435036389584
 20
-6.037007742947051
 30
0.0
 10
35.57061335487115
 20
-5.916676346858723
 30
0.0
 10
36.37022971803954
 20
-5.731654209661303
 30
0.0
 10
36.79966845097378
 20
-5.534730153999978
 30
0.0
 10
36.85963621731993
 20
-5.507231247049624
 30
0.0
1001
PE_URL
1000

  0
SPLINE
  5
B4
330
1F
100
AcDbEntity
  8
0
  6
Continuous
 62
     1
370
    15
100
AcDbSpline
210
0.0
220
0.0
230
1.0
 70
     8
 71
     3
 72
    27
 73
    23
 74
     0
 42
0.000000001
 43
0.00000001
 40
0.0
 40
0.0
 40
0.0
 40
0.0
 40
0.0179692826313085
 40
0.0699785182120669
 40
0.1220277716383498
 40
0.1741644370816321
 40
0.2261933248134959
 40
0.2782115622845114
 40
0.3303384079125273
 40
0.3824065261146875
 40
0.4344133659515073
 40
0.4864895407000463
 40
0.5386105022512945
 40
0.5906256056114617
 40
0.6426594397447984
 40
0.6947976713043112
 40
0.7468406682851978
 40
0.7988517215525227
 40
0.8509605017990459
 40
0.9030509177644411
 40
0.9550588354843763
 40
1.0
 40
1.0
 40
1.0
 40
1.0
 10
39.27397985488765
 20
-5.976926872518371
 30
0.0
 10
39.14655002605762
 20
-5.98320464090481
 30
0.0
 10
38.65029478980208
 20
-6.007652413160122
 30
0.0
 10
37.78622110438701
 20
-5.840595017064584
 30
0.0
 10
36.67938310240524
 20
-5.48016645409651
 30
0.0
 10
35.57069345803868
 20
-4.92065160951605
 30
0.0
 10
34.46432892540825
 20
-4.196846238500451
 30
0.0
 10
33.35819736341321
 20
-3.32925228286937
 30
0.0
 10
32.24971066724731
 20
-2.350431830553847
 30
0.0
 10
31.14252091149858
 20
-1.290798100330471
 30
0.0
 10
30.03664411224559
 20
-0.1867407390504688
 30
0.0
 10
28.92927954414417
 20
0.9229275932921723
 30
0.0
 10
27.82092352821422
 20
2.000444993372446
 30
0.0
 10
26.71485939463506
 20
3.011646237608834
 30
0.0
 10
25.60839356358994
 20
3.920303505182242
 30
0.0
 10
24.49965657405419
 20
4.6945446108341
 30
0.0
 10
23.39299864537123
 20
5.310740814582279
 30
0.0
 10
22.28702238306826
 20
5.746143933332811
 30
0.0
 10
21.17894488823932
 20
5.987363061499086
 30
0.0
 10
20.07123828879985
 20
6.020629637116998
 30
0.0
 10
19.0158287835504
 20
5.874783076701522
 30
0.0
 10
18.32857656386486
 20
5.624809979102059
 30
0.0
 10
18.00999783824502
 20
5.508933873370577
 30
0.0
1001
PE_URL
1000

  0
LINE
  5
B5
330
1F
100
AcDbEntity
  8
0
  6
Continuous
 62
     1
370
    15
100
AcDbLine
 10
40.00000000000111
 20
-5.956215305426016
 30
0.0
 11
40.00000000000111
 21
-3.604705152354135
 31
0.0
1001
PE_URL
1000

  0
SPLINE
  5
B6
330
1F
100
AcDbEntity
  8
0
  6
Continuous
 62
     1
370
    15
100
AcDbSpline
210
0.0
220
0.0
230
1.0
 70
     8
 71
     3
 72
    24
 73
    20
 74
     0
 42
0.000000001
 43
0.00000001
 40
0.0
 40
0.0
 40
0.0
 40
0.0
 40
0.0226697940806042
 40
0.0836938745201135
 40
0.14475543421881
 40
0.2059287317543999
 40
0.2669795407701004
 40
0.3280083731455139
 40
0.3891614079425638
 40
0.4502618948045225
 40
0.511281031665583
 40
0.5723720658573226
 40
0.6335320043863969
 40
0.6945645139846408
 40
0.7556095194339363
 40
0.8167809794600593
 40
0.8778498797873927
 40
0.9388718275523226
 40
1.0
 40
1.0
 40
1.0
 40
1.0
 10
21.87637943629341
 20
5.976169567608872
 30
0.0
 10
22.01341255956149
 20
5.98241653468834
 30
0.0
 10
22.51932068484575
 20
6.005479509015379
 30
0.0
 10
23.39296483271886
 20
5.833834163114884
 30
0.0
 10
24.49966565554667
 20
5.467894684878929
 30
0.0
 10
25.60839113375928
 20
4.903930571520698
 30
0.0
 10
26.71486004478315
 20
4.176105922161793
 30
0.0
 10
27.82092335388852
 20
3.305200161629085
 30
0.0
 10
28.92927958989966
 20
2.323773977996748
 30
0.0
 10
30.03664410355646
 20
1.262678117071047
 30
0.0
 10
31.14252090060224
 20
0.1579830490176253
 30
0.0
 10
32.24971071963039
 20
-0.9514943281084691
 30
0.0
 10
33.35819716472963
 20
-2.027577493800429
 30
0.0
 10
34.46432966605255
 20
-3.036605471030449
 30
0.0
 10
35.57069069045793
 20
-3.942007825537363
 30
0.0
 10
36.67939344768065
 20
-4.71329915728921
 30
0.0
 10
37.78618258251246
 20
-5.321856459042059
 30
0.0
 10
38.89211514661187
 20
-5.764139621140904
 30
0.0
 10
39.63049101240008
 20
-5.892152969501987
 30
0.0
 10
40.00000000000111
 20
-5.956215305426016
 30
0.0
1001
PE_URL
1000

  0
SPLINE
  5
B7
330
1F
100
AcDbEntity
  8
0
  6
Continuous
 62
     1
370
    15
100
AcDbSpline
210
0.0
220
0.0
230
1.0
 70
     8
 71
     3
 72
    22
 73
    18
 74
     0
 42
0.000000001
 43
0.00000001
 40
0.0
 40
0.0
 40
0.0
 40
0.0
 40
0.0705254646816233
 40
0.1409283746587362
 40
0.2113854552604408
 40
0.2819608621612153
 40
0.3523903745024984
 40
0.4228054699936324
 40
0.4933675841866317
 40
0.5638502013128207
 40
0.6342498682631338
 40
0.7047433912275475
 40
0.7752975403712175
 40
0.8457083933365492
 40
0.9161446014320331
 40
0.9867221283243582
 40
1.0
 40
1.0
 40
1.0
 40
1.0
 10
40.00000000000109
 20
-3.604705152354136
 30
0.0
 10
39.63049101240335
 20
-3.297826274138989
 30
0.0
 10
38.89211514662178
 20
-2.684601792468529
 30
0.0
 10
37.78618258247277
 20
-1.639491550973957
 30
0.0
 10
36.67939344782991
 20
-0.547735818325281
 30
0.0
 10
35.57069068990005
 20
0.5633411606558679
 30
0.0
 10
34.46432966812963
 20
1.65654759544526
 30
0.0
 10
33.35819715697222
 20
2.693674523902865
 30
0.0
 10
32.24971074863523
 20
3.637750511956057
 30
0.0
 10
31.14252079255172
 20
4.459384092764534
 30
0.0
 10
30.03664450651831
 20
5.129805224839842
 30
0.0
 10
28.92927808318323
 20
5.625880158796716
 30
0.0
 10
27.8209289773497
 20
5.929672124257498
 30
0.0
 10
26.71483910266147
 20
6.036924681886051
 30
0.0
 10
25.60846939358258
 20
5.922456280647769
 30
0.0
 10
24.79922726409985
 20
5.737392430157072
 30
0.0
 10
24.3602676846269
 20
5.537332758460293
 30
0.0
 10
24.29076173669069
 20
5.505654814122483
 30
0.0
1001
PE_URL
1000

  0
LINE
  5
B8
330
1F
100
AcDbEntity
  8
0
  6
Continuous
 62
     1
370
    15
100
AcDbLine
 10
40.00000000000111
 20
-2.351510153071791
 30
0.0
 11
40.00000000000111
 21
2.351510153071912
 31
0.0
  0
SPLINE
  5
B9
330
1F
100
AcDbEntity
  8
0
  6
Continuous
 62
     1
370
    15
100
AcDbSpline
210
0.0
220
0.0
230
1.0
 70
     8
 71
     3
 72
     9
 73
     5
 74
     0
 42
0.000000001
 43
0.00000001
 40
0.0
 40
0.0
 40
0.0
 40
0.0
 40
0.6519396313323577
 40
1.0
 40
1.0
 40
1.0
 40
1.0
 10
10.00000000000001
 20
-5.960370292188196
 30
0.0
 10
10.37507327522071
 20
-5.904590473956817
 30
0.0
 10
10.95039230353961
 20
-5.81903068352441
 30
0.0
 10
11.5253197955005
 20
-5.579321357194532
 30
0.0
 10
11.72542927030957
 20
-5.495888040699081
 30
0.0
  0
SPLINE
  5
BA
330
1F
100
AcDbEntity
  8
0
  6
Continuous
 62
     1
370
    15
100
AcDbSpline
210
0.0
220
0.0
230
1.0
 70
     8
 71
     3
 72
    18
 73
    14
 74
     0
 42
0.000000001
 43
0.00000001
 40
0.0
 40
0.0
 40
0.0
 40
0.0
 40
0.0650950354452234
 40
0.1586109809776692
 40
0.2520024181363889
 40
0.3455038961017374
 40
0.4391108340165575
 40
0.5325227385107484
 40
0.6259537682425003
 40
0.7195783401197614
 40
0.8130459416077767
 40
0.9064416809307938
 40
1.0
 40
1.0
 40
1.0
 40
1.0
 10
28.15819097593274
 20
5.97836662726269
 30
0.0
 10
28.41528734183287
 20
5.977420803068814
 30
0.0
 10
29.04172999636569
 20
5.975116201770156
 30
0.0
 10
30.03666446665937
 20
5.736689214902809
 30
0.0
 10
31.14251544042216
 20
5.304191951053389
 30
0.0
 10
32.24971218534791
 20
4.684244999501066
 30
0.0
 10
33.35819677272053
 20
3.908162494499865
 30
0.0
 10
34.46432977101539
 20
2.997534810419757
 30
0.0
 10
35.57069066226502
 20
1.985298779456482
 30
0.0
 10
36.67939345522499
 20
0.9070378101208191
 30
0.0
 10
37.78618258050393
 20
-0.2020376739059741
 30
0.0
 10
38.89211514711486
 20
-1.310301566363581
 30
0.0
 10
39.63049101256783
 20
-2.004239469138286
 30
0.0
 10
40.00000000000109
 20
-2.351510153071791
 30
0.0
1001
PE_URL
1000

  0
SPLINE
  5
BB
330
1F
100
AcDbEntity
  8
0
  6
Continuous
 62
     1
370
    15
100
AcDbSpline
210
0.0
220
0.0
230
1.0
 70
     8
 71
     3
 72
    16
 73
    12
 74
     0
 42
0.000000001
 43
0.00000001
 40
0.0
 40
0.0
 40
0.0
 40
0.0
 40
0.1175502473333114
 40
0.234896223260655
 40
0.3523324895582598
 40
0.4699659794514054
 40
0.5873562955968811
 40
0.7047225820630284
 40
0.8223339159718955
 40
0.9398127459701825
 40
1.0
 40
1.0
 40
1.0
 40
1.0
 10
40.00000000000111
 20
2.351510153071912
 30
0.0
 10
39.63049101205888
 20
2.683338868655912
 30
0.0
 10
38.89211514558885
 20
3.346419668810279
 30
0.0
 10
37.78618258659736
 20
4.20736979738074
 30
0.0
 10
36.67939343233733
 20
4.930719068409547
 30
0.0
 10
35.57069074779545
 20
5.484557918791976
 30
0.0
 10
34.46432945258395
 20
5.852843357275021
 30
0.0
 10
33.3581979619797
 20
6.024565600868732
 30
0.0
 10
32.24970773872166
 20
5.982167085062138
 30
0.0
 10
31.32208151365508
 20
5.806552314516769
 30
0.0
 10
30.76427468588991
 20
5.575005652449352
 30
0.0
 10
30.57530861830348
 20
5.496565482814029
 30
0.0
1001
PE_URL
1000

  0
SPLINE
  5
BC
330
1F
100
AcDbEntity
  8
0
  6
Continuous
 62
     1
370
    15
100
AcDbSpline
210
0.0
220
0.0
230
1.0
 70
     8
 71
     3
 72
    11
 73
     7
 74
     0
 42
0.000000001
 43
0.00000001
 40
0.0
 40
0.0
 40
0.0
 40
0.0
 40
0.1853802324095414
 40
0.4570708931208932
 40
0.7284125456460098
 40
1.0
 40
1.0
 40
1.0
 40
1.0
 10
14.14268448290515
 20
-5.977103642447791
 30
0.0
 10
13.88653490447861
 20
-5.976802080592093
 30
0.0
 10
13.25497610739334
 20
-5.97605855392302
 30
0.0
 10
12.24885477624745
 20
-5.73078223916532
 30
0.0
 10
11.12489302799043
 20
-5.296297184838596
 30
0.0
 10
10.37507749803157
 20
-4.849378613268558
 30
0.0
 10
10.00000000000021
 20
-4.62581816012959
 30
0.0
  0
SPLINE
  5
BD
330
1F
100
AcDbEntity
  8
0
  6
Continuous
 62
   131
370
    15
100
AcDbSpline
210
0.0
220
0.0
230
1.0
 70
    24
 71
     3
 72
    11
 73
     7
 74
     0
 42
0.000000001
 43
0.00000001
 40
0.0
 40
0.0
 40
0.0
 40
0.0
 40
0.1973200634363609
 40
0.4991129551242473
 40
0.8096578611159867
 40
1.0
 40
1.0
 40
1.0
 40
1.0
 10
10.00000000000109
 20
-4.681710509605425
 30
0.0
 10
10.00000000000109
 20
-4.7593045259255
 30
0.0
 10
10.00000000000107
 20
-4.955575387139579
 30
0.0
 10
10.00000000000118
 20
-5.303541244320292
 30
0.0
 10
10.00000000000117
 20
-5.656172576426467
 30
0.0
 10
10.00000000000114
 20
-5.876604089570937
 30
0.0
 10
10.00000000000113
 20
-5.960370292188069
 30
0.0
  0
LINE
  5
BE
330
1F
100
AcDbEntity
  8
0
  6
Continuous
 62
     1
370
    15
100
AcDbLine
 10
40.00000000000111
 20
5.956215305426031
 30
0.0
 11
40.00000000000111
 21
6.000000000000005
 31
0.0
1001
PE_URL
1000

  0
LINE
  5
BF
330
1F
100
AcDbEntity
  8
0
  6
Continuous
 62
   131
370
    15
100
AcDbLine
 10
10.00000000000112
 20
0.996374038989028
 30
0.0
 11
10.00000000000112
 21
2.383955756511914
 31
0.0
  0
LINE
  5
C0
330
1F
100
AcDbEntity
  8
0
  6
Continuous
 62
     1
370
    15
100
AcDbLine
 10
40.00000000000111
 20
-5.999999999999997
 30
0.0
 11
40.00000000000111
 21
-5.956215305426016
 31
0.0
1001
PE_URL
1000

  0
LINE
  5
C1
330
1F
100
AcDbEntity
  8
0
  6
Continuous
 62
     1
370
    15
100
AcDbLine
 10
40.00000000000111
 20
-3.604705152354135
 30
0.0
 11
40.00000000000111
 21
-2.351510153071791
 31
0.0
1001
PE_URL
1000

  0
LINE
  5
C2
330
1F
100
AcDbEntity
  8
0
  6
Continuous
 62
   131
370
    15
100
AcDbLine
 10
10.00000000000112
 20
5.622192199121143
 30
0.0
 11
10.00000000000112
 21
5.960370292188071
 31
0.0
  0
LINE
  5
C3
330
1F
100
AcDbEntity
  8
0
  6
Continuous
 62
     1
370
    15
100
AcDbLine
 10
40.00000000000111
 20
2.351510153071912
 30
0.0
 11
40.00000000000111
 21
3.604705152354172
 31
0.0
1001
PE_URL
1000

  0
LINE
  5
C4
330
1F
100
AcDbEntity
  8
0
  6
Continuous
 62
   131
370
    15
100
AcDbLine
 10
10.00000000000112
 20
-4.625818160132061
 30
0.0
 11
10.00000000000112
 21
-3.576414535676161
 31
0.0
  0
LINE
  5
C5
330
1F
100
AcDbEntity
  8
0
  6
Continuous
 62
   131
370
    15
100
AcDbLine
 10
8.999644950435714
 20
-5.992050949022626
 30
0.0
 11
8.999644950435714
 21
-3.928620814621675
 31
0.0
  0
SPLINE
  5
C6
330
1F
100
AcDbEntity
  8
0
  6
Continuous
 62
   131
370
    15
100
AcDbSpline
210
0.0
220
0.0
230
1.0
 70
     8
 71
     3
 72
     8
 73
     4
 74
     0
 42
0.000000001
 43
0.00000001
 40
0.0
 40
0.0
 40
0.0
 40
0.0
 40
1.0
 40
1.0
 40
1.0
 40
1.0
 10
10.00000000000001
 20
-5.960370292188196
 30
0.0
 10
9.668605910341643
 20
-5.998497313907823
 30
0.0
 10
9.332846427884869
 20
-6.009180374976678
 30
0.0
 10
8.999644950435714
 20
-5.992049977931843
 30
0.0
  0
LINE
  5
C7
330
1F
100
AcDbEntity
  8
0
  6
Continuous
 62
   131
370
    15
100
AcDbLine
 10
9.308813140143538
 20
5.982259103085824
 30
0.0
 11
10.00000000000001
 21
5.9603702921882
 31
0.0
  0
SPLINE
  5
C8
330
1F
100
AcDbEntity
  8
0
  6
Continuous
 62
   131
370
    15
100
AcDbSpline
210
0.0
220
0.0
230
1.0
 70
     8
 71
     3
 72
     8
 73
     4
 74
     0
 42
0.000000001
 43
0.00000001
 40
0.0
 40
0.0
 40
0.0
 40
0.0
 40
1.0
 40
1.0
 40
1.0
 40
1.0
 10
10.00000000000001
 20
5.62219219911971
 30
0.0
 10
9.668605910341658
 20
5.738238050980582
 30
0.0
 10
9.332846427884869
 20
5.828746142433284
 30
0.0
 10
8.999644950435702
 20
5.891705672438212
 30
0.0
  0
LINE
  5
C9
330
1F
100
AcDbEntity
  8
0
  6
Continuous
 62
   131
370
    15
100
AcDbLine
 10
8.999644950435714
 20
3.263409221657121
 30
0.0
 11
8.999644950435714
 21
5.89170825718433
 31
0.0
  0
SPLINE
  5
CA
330
1F
100
AcDbEntity
  8
0
  6
Continuous
 62
   131
370
    15
100
AcDbSpline
210
0.0
220
0.0
230
1.0
 70
     8
 71
     3
 72
     8
 73
     4
 74
     0
 42
0.000000001
 43
0.00000001
 40
0.0
 40
0.0
 40
0.0
 40
0.0
 40
1.0
 40
1.0
 40
1.0
 40
1.0
 10
10.00000000000001
 20
2.383955756512943
 30
0.0
 10
9.668605910341643
 20
2.688879673902209
 30
0.0
 10
9.332846427884869
 20
2.984089631944469
 30
0.0
 10
8.999644950435714
 20
3.263425057169351
 30
0.0
  0
SPLINE
  5
CB
330
1F
100
AcDbEntity
  8
0
  6
Continuous
 62
   131
370
    15
100
AcDbSpline
210
0.0
220
0.0
230
1.0
 70
     8
 71
     3
 72
     8
 73
     4
 74
     0
 42
0.000000001
 43
0.00000001
 40
0.0
 40
0.0
 40
0.0
 40
0.0
 40
1.0
 40
1.0
 40
1.0
 40
1.0
 10
10.00000000000001
 20
0.9963740389901946
 30
0.0
 10
9.668605910341658
 20
1.324038290684143
 30
0.0
 10
9.332846427884869
 20
1.64851539267091
 30
0.0
 10
8.999644950435702
 20
1.963074528552707
 30
0.0
  0
SPLINE
  5
CC
330
1F
100
AcDbEntity
  8
0
  6
Continuous
 62
   131
370
    15
100
AcDbSpline
210
0.0
220
0.0
230
1.0
 70
     8
 71
     3
 72
     8
 73
     4
 74
     0
 42
0.000000001
 43
0.00000001
 40
0.0
 40
0.0
 40
0.0
 40
0.0
 40
1.0
 40
1.0
 40
1.0
 40
1.0
 10
10.00000000000001
 20
-3.576414535675262
 30
0.0
 10
9.668605910341643
 20
-3.309617640005627
 30
0.0
 10
9.332846427884869
 20
-3.025090743032224
 30
0.0
 10
8.999644950435714
 20
-2.728624920762511
 30
0.0
  0
SPLINE
  5
CD
330
1F
100
AcDbEntity
  8
0
  6
Continuous
 62
   131
370
    15
100
AcDbSpline
210
0.0
220
0.0
230
1.0
 70
     8
 71
     3
 72
     8
 73
     4
 74
     0
 42
0.000000001
 43
0.00000001
 40
0.0
 40
0.0
 40
0.0
 40
0.0
 40
1.0
 40
1.0
 40
1.0
 40
1.0
 10
10.00000000000001
 20
-4.625818160129461
 30
0.0
 10
9.668605910341658
 20
-4.414199760296382
 30
0.0
 10
9.332846427884869
 20
-4.180230749762316
 30
0.0
 10
8.999644950435702
 20
-3.928631143885445
 30
0.0
  0
LINE
  5
CE
330
1F
100
AcDbEntity
  8
0
  6
Continuous
 62
   131
370
    15
100
AcDbLine
 10
-38.79999999999888
 20
0.0000000000000038
 30
0.0
 11
-38.79999999999888
 21
6.000000000000004
 31
0.0
  0
LINE
  5
CF
330
1F
100
AcDbEntity
  8
0
  6
Continuous
 62
   131
370
    15
100
AcDbLine
 10
-38.79999999999888
 20
-5.999999999999996
 30
0.0
 11
-38.79999999999888
 21
0.0000000000000038
 31
0.0
  0
LINE
  5
D0
330
1F
100
AcDbEntity
  8
0
  6
Continuous
 62
   131
370
    15
100
AcDbLine
 10
8.999644950435714
 20
-2.728641727365523
 30
0.0
 11
8.999644950435714
 21
1.963087442562595
 31
0.0
  0
LINE
  5
D1
330
1F
100
AcDbEntity
  8
0
  6
Continuous
 62
   131
370
    15
100
AcDbLine
 10
-39.99999999999888
 20
0.0000000000000038
 30
0.0
 11
-39.99999999999888
 21
4.800000000000008
 31
0.0
  0
LINE
  5
D2
330
1F
100
AcDbEntity
  8
0
  6
Continuous
 62
   131
370
    15
100
AcDbLine
 10
-39.99999999999888
 20
-4.8
 30
0.0
 11
-39.99999999999888
 21
0.0000000000000038
 31
0.0
  0
SPLINE
  5
D3
330
1F
100
AcDbEntity
  8
0
  6
Continuous
 62
   131
370
    15
100
AcDbSpline
210
0.0
220
0.0
230
1.0
 70
    24
 71
     3
 72
    23
 73
    19
 74
     0
 42
0.000000001
 43
0.00000001
 40
0.0
 40
0.0
 40
0.0
 40
0.0
 40
0.0532679536137811
 40
0.1183003839845676
 40
0.183332814355354
 40
0.2483652447261415
 40
0.3133976750969288
 40
0.3784301054677173
 40
0.4434625358385058
 40
0.5084949662092947
 40
0.5735273965800836
 40
0.6385598269508708
 40
0.7035922573216581
 40
0.768624687692439
 40
0.8336571180632198
 40
0.8986895484340165
 40
0.9637219788048134
 40
0.9999999999999999
 40
0.9999999999999999
 40
0.9999999999999999
 40
0.9999999999999999
 10
10.00000000000112
 20
-3.576414535676161
 30
0.0
 10
10.00000000000113
 20
-3.525603987621011
 30
0.0
 10
10.00000000000112
 20
-3.412761144267713
 30
0.0
 10
10.00000000000112
 20
-3.175375479935915
 30
0.0
 10
10.00000000000107
 20
-2.877329997258845
 30
0.0
 10
10.00000000000111
 20
-2.535510215097894
 30
0.0
 10
10.00000000000112
 20
-2.162459657060856
 30
0.0
 10
10.00000000000111
 20
-1.767308657339905
 30
0.0
 10
10.00000000000108
 20
-1.362026126789883
 30
0.0
 10
10.00000000000112
 20
-0.9579039963193776
 30
0.0
 10
10.00000000000114
 20
-0.5661283054506302
 30
0.0
 10
10.00000000000113
 20
-0.1986018147533921
 30
0.0
 10
10.00000000000112
 20
0.1355638439974616
 30
0.0
 10
10.00000000000111
 20
0.4247977577776291
 30
0.0
 10
10.00000000000109
 20
0.6646566496350296
 30
0.0
 10
10.00000000000113
 20
0.8393385366705971
 30
0.0
 10
10.00000000000113
 20
0.9519979931134599
 30
0.0
 10
10.00000000000114
 20
0.962956387758367
 30
0.0
 10
10.00000000000114
 20
0.9668804535092161
 30
0.0
  0
SPLINE
  5
D4
330
1F
100
AcDbEntity
  8
0
  6
Continuous
 62
   131
370
    15
100
AcDbSpline
210
0.0
220
0.0
230
1.0
 70
    24
 71
     3
 72
    16
 73
    12
 74
     0
 42
0.000000001
 43
0.00000001
 40
0.0
 40
0.0
 40
0.0
 40
0.0
 40
0.0431327232616795
 40
0.1568246554966931
 40
0.2705165877317037
 40
0.3842085199667145
 40
0.497900452201714
 40
0.6115923844367138
 40
0.7252843166717408
 40
0.838976248906768
 40
1.0
 40
1.0
 40
1.0
 40
1.0
 10
10.00000000000111
 20
2.439848105995785
 30
0.0
 10
10.00000000000112
 20
2.468972309224068
 30
0.0
 10
10.00000000000114
 20
2.574863910600161
 30
0.0
 10
10.00000000000114
 20
2.812382859906762
 30
0.0
 10
10.00000000000112
 20
3.143256020086461
 30
0.0
 10
10.00000000000114
 20
3.511257232411313
 30
0.0
 10
10.00000000000112
 20
3.902592673863522
 30
0.0
 10
10.00000000000109
 20
4.306852419367665
 30
0.0
 10
10.00000000000113
 20
4.711584136385087
 30
0.0
 10
10.00000000000114
 20
5.164253654557143
 30
0.0
 10
10.00000000000114
 20
5.452964958266651
 30
0.0
 10
10.00000000000114
 20
5.622192199111039
 30
0.0
  0
SPLINE
  5
D5
330
1F
100
AcDbEntity
  8
0
  6
Continuous
 62
   131
370
    15
100
AcDbSpline
210
0.0
220
0.0
230
1.0
 70
    24
 71
     3
 72
    12
 73
     8
 74
     0
 42
0.000000001
 43
0.00000001
 40
0.0
 40
0.0
 40
0.0
 40
0.0
 40
0.2513581456858169
 40
0.4022155276128854
 40
0.7090557527242446
 40
0.8654056102787111
 40
1.0
 40
1.0
 40
1.0
 40
1.0
 10
10.00000000000112
 20
-5.960370292188067
 30
0.0
 10
10.00000000000112
 20
-5.849906349958339
 30
0.0
 10
10.00000000000111
 20
-5.673145367397365
 30
0.0
 10
10.00000000000112
 20
-5.362643584961881
 30
0.0
 10
10.00000000000111
 20
-5.09821548597303
 30
0.0
 10
10.00000000000109
 20
-4.850351146589727
 30
0.0
 10
10.0000000000011
 20
-4.735050163502162
 30
0.0
 10
10.00000000000111
 20
-4.681710509605425
 30
0.0
  0
LINE
  5
D6
330
1F
100
AcDbEntity
  8
중심선
 62
     1
100
AcDbLine
 10
-40.20259277488843
 20
0.0000000000000003
 30
0.0
 11
43.00000000000111
 21
-0.0000000000000003
 31
0.0
  0
CIRCLE
  5
D7
330
1F
100
AcDbEntity
  8
외형선
100
AcDbCircle
 10
0.0
 20
0.0
 30
0.0
 40
3.000000000000001
  0
INSERT
  5
D8
330
1F
100
AcDbEntity
  8
0
  6
Continuous
 62
     7
100
AcDbBlockReference
 66
     1
  2
블럭10
 10
-18.94078629968031
 20
-52.04717430164393
 30
0.0
  0
ATTRIB
  5
D9
330
D8
100
AcDbEntity
  8
FORMAT
 62
     2
100
AcDbText
 10
-31.90072549453808
 20
-49.97180738881174
 30
0.0
 40
4.233333333333333
  1
SEME75120E [ 6 FLUTE ]
 41
0.75
  7
SLDTEXTSTYLE0
 11
-31.90072549453808
 21
-52.08847405547841
 31
0.0
100
AcDbAttribute
  2
AUTOATTR0
 70
     0
 74
     1
  0
SEQEND
  5
DA
330
D8
100
AcDbEntity
  8
0
  6
Continuous
 62
     7
  0
HATCH
  5
DB
330
1F
100
AcDbEntity
  8
중심선
100
AcDbHatch
 10
0.0
 20
0.0
 30
0.0
210
0.0
220
0.0
230
1.0
  2
SOLID
 70
     1
 71
     0
 91
        1
 92
        0
 93
        4
 72
     1
 10
-13.22587699529946
 20
-35.79999999999999
 11
-16.67215223913674
 21
-35.79999999999999
 72
     1
 10
-16.67215223913674
 20
-35.79999999999999
 11
-18.80038209834077
 21
-38.33632558057259
 72
     1
 10
-18.80038209834077
 20
-38.33632558057259
 11
-15.35407376939033
 21
-38.3362861512701
 72
     1
 10
-15.35407376939033
 20
-38.3362861512701
 11
-13.22587699529946
 21
-35.79999999999999
 97
        0
 75
     0
 76
     1
 98
        1
 10
3.99865738838558
 20
-0.0010749287238894
  0
HATCH
  5
DC
330
1F
100
AcDbEntity
  8
중심선
100
AcDbHatch
 10
0.0
 20
0.0
 30
0.0
210
0.0
220
0.0
230
1.0
  2
SOLID
 70
     1
 71
     0
 91
        1
 92
        0
 93
        4
 72
     1
 10
-8.213113004263509
 20
-35.79999999999999
 11
-11.65938824810079
 21
-35.79999999999999
 72
     1
 10
-11.65938824810079
 20
-35.79999999999999
 11
-16.19052625645818
 21
-41.20000000000001
 72
     1
 10
-16.19052625645818
 20
-41.20000000000001
 11
-12.7442510126209
 21
-41.20000000000001
 72
     1
 10
-12.7442510126209
 20
-41.20000000000001
 11
-8.213113004263509
 21
-35.79999999999999
 97
        0
 75
     0
 76
     1
 98
        1
 10
3.99865738838558
 20
-0.0010749287238894
  0
HATCH
  5
DD
330
1F
100
AcDbEntity
  8
중심선
100
AcDbHatch
 10
0.0
 20
0.0
 30
0.0
210
0.0
220
0.0
230
1.0
  2
SOLID
 70
     1
 71
     0
 91
        1
 92
        0
 93
        4
 72
     1
 10
-3.200349013227615
 20
-35.80000000000002
 11
-6.64662425706473
 21
-35.79999999999999
 72
     1
 10
-6.64662425706473
 20
-35.79999999999999
 11
-13.69506115895398
 21
-44.20000000000001
 72
     1
 10
-13.69506115895398
 20
-44.20000000000001
 11
-10.2487859151167
 21
-44.20000000000001
 72
     1
 10
-10.2487859151167
 20
-44.20000000000001
 11
-3.200349013227616
 21
-35.80000000000002
 97
        0
 75
     0
 76
     1
 98
        1
 10
3.99865738838558
 20
-0.0010749287238894
  0
HATCH
  5
DE
330
1F
100
AcDbEntity
  8
중심선
100
AcDbHatch
 10
0.0
 20
0.0
 30
0.0
210
0.0
220
0.0
230
1.0
  2
SOLID
 70
     1
 71
     0
 91
        1
 92
        0
 93
        6
 72
     3
 10
1.599541417784585
 20
-40.00000000005127
 11
3.960054785062284
 21
1.540882976769353E-10
 40
0.3939339440162627
 50
17.09539180608438
 51
320.0019657685079
 73
     0
 72
     1
 10
3.28254107348518
 20
-38.58789400463829
 11
5.587842947186218
 21
-36.65356729459037
 72
     3
 10
1.599541417731738
 20
-40.00000000000014
 11
6.600054785286831
 21
-1.278976924368180E-13
 40
0.6363583540795978
 50
39.99873849337411
 51
368.4976242363725
 73
     1
 72
     1
 10
8.024873909632348
 20
-39.03999999993002
 11
0.2796087245676606
 21
-39.03999999992999
 72
     1
 10
0.2796087245676606
 20
-39.03999999992999
 11
0.2795836801217266
 21
-40.95999999992991
 72
     1
 10
0.2795836801217266
 20
-40.95999999992991
 11
4.720963449593763
 21
-40.95999999992988
 97
        0
 75
     0
 76
     1
 98
        1
 10
3.99865738838558
 20
-0.0010749287238894
  0
DIMENSION
  5
DF
330
1F
100
AcDbEntity
  8
치수문자_일반주서
100
AcDbDimension
  2
_D
 10
-57.42890613132229
 20
-6.00000000000007
 30
0.0
 11
-57.42890613132231
 21
0.0000000000000061
 31
0.0
 70
   160
  1
%%c<>
 71
     2
 42
12.00000000000001
 52
-270.0
  3
SLDDIMSTYLE0
100
AcDbAlignedDimension
 13
-38.79999999999887
 23
6.00000000000001
 33
0.0
 14
-38.79999999999887
 24
-6.000000000000001
 34
0.0
 50
90.0000000000002
100
AcDbRotatedDimension
  0
DIMENSION
  5
ED
330
1F
100
AcDbEntity
  8
치수문자_일반주서
100
AcDbDimension
  2
_D_1
 10
50.00000000000111
 20
-5.99999999999996
 30
0.0
 11
50.00000000000109
 21
0.7913169001151958
 31
0.0
 70
   160
  1
%%c<>
 71
     2
 42
12.0
 52
-270.0
  3
SLDDIMSTYLE0
100
AcDbAlignedDimension
 13
40.00000000000111
 23
6.000000000000006
 33
0.0
 14
40.00000000000111
 24
-5.999999999999997
 34
0.0
 50
90.0000000000002
100
AcDbRotatedDimension
  0
DIMENSION
  5
FA
330
1F
100
AcDbEntity
  8
치수문자_일반주서
100
AcDbDimension
  2
_D_2
 10
40.00000000000111
 20
49.45521091082988
 30
0.0
 11
22.2774963292404
 21
49.45521091082988
 31
0.0
 70
   160
  1
<>
 71
     2
 42
29.99999999999999
  3
SLDDIMSTYLE1
100
AcDbAlignedDimension
 13
10.00000000000112
 23
5.960370292188071
 33
0.0
 14
40.00000000000111
 24
5.956215305426031
 34
0.0
100
AcDbRotatedDimension
  0
DIMENSION
  5
105
330
1F
100
AcDbEntity
  8
치수문자_일반주서
100
AcDbDimension
  2
_D_3
 10
-39.99999999999888
 20
76.90089796629566
 30
0.0
 11
2.478530558742854
 21
76.90089796629566
 31
0.0
 70
   160
  1
<>
 71
     2
 42
79.99999999999999
  3
SLDDIMSTYLE1
100
AcDbAlignedDimension
 13
40.00000000000111
 23
5.956215305426031
 33
0.0
 14
-39.99999999999888
 24
4.800000000000008
 34
0.0
100
AcDbRotatedDimension
  0
INSERT
  5
115
330
1F
100
AcDbEntity
  8
외형선
100
AcDbBlockReference
  2
SW_DOWELSYMBOL_0
 10
0.0
 20
0.0
 30
0.0
  0
ENDSEC
  0
SECTION
  2
OBJECTS
  0
DICTIONARY
  5
C
330
0
100
AcDbDictionary
281
     1
  3
ACAD_GROUP
350
D
  3
ACAD_LAYOUT
350
1A
  3
ACAD_MLINESTYLE
350
17
  3
ACAD_PLOTSETTINGS
350
19
  3
ACAD_PLOTSTYLENAME
350
E
  3
ACAD_SCALELIST
350
47
  3
APPDATA
350
137
  3
DWGPROPS
350
153
  0
DICTIONARY
  5
D
102
{ACAD_REACTORS
330
C
102
}
330
C
100
AcDbDictionary
281
     1
  0
DICTIONARY
  5
1A
102
{ACAD_REACTORS
330
C
102
}
330
C
100
AcDbDictionary
281
     1
  3
Layout1
350
1E
  3
Layout2
350
26
  3
Model
350
22
  0
DICTIONARY
  5
17
102
{ACAD_REACTORS
330
C
102
}
330
C
100
AcDbDictionary
281
     1
  3
Standard
350
18
  0
DICTIONARY
  5
19
102
{ACAD_REACTORS
330
C
102
}
330
C
100
AcDbDictionary
281
     1
  0
ACDBDICTIONARYWDFLT
  5
E
102
{ACAD_REACTORS
330
C
102
}
330
C
100
AcDbDictionary
281
     1
  3
Normal
350
F
100
AcDbDictionaryWithDefault
340
F
  0
DICTIONARY
  5
47
102
{ACAD_REACTORS
330
C
102
}
330
C
100
AcDbDictionary
281
     1
  3
A0
350
48
  3
A1
350
49
  3
A2
350
4A
  3
A3
350
4B
  3
A4
350
4C
  3
A5
350
4D
  3
A6
350
4E
  3
A7
350
4F
  3
A8
350
50
  3
A9
350
51
  3
B0
350
52
  3
B1
350
53
  3
B2
350
54
  3
B3
350
55
  3
B4
350
56
  3
B5
350
57
  3
B6
350
58
  3
B7
350
59
  3
B8
350
5A
  3
B9
350
5B
  3
C0
350
5C
  3
C1
350
5D
  3
C2
350
5E
  3
C3
350
5F
  3
C4
350
60
  3
C5
350
61
  3
C6
350
62
  3
C7
350
63
  3
C8
350
64
  3
C9
350
65
  3
D0
350
66
  3
D1
350
67
  3
D2
350
68
  0
DICTIONARY
  5
137
102
{ACAD_REACTORS
330
C
102
}
330
C
100
AcDbDictionary
281
     1
  0
XRECORD
  5
153
102
{ACAD_REACTORS
330
C
102
}
330
C
100
AcDbXrecord
280
     1
  1
DWGPROPS COOKIE
  2

  3

  4

  6

  7

  8
12011908
  9

300
=
301
=
302
=
303
=
304
=
305
=
306
=
307
=
308
=
309
=
 40
0.0
 41
2458268.397464051
 42
2458268.421963229
  1

 90
        0
  0
LAYOUT
  5
1E
102
{ACAD_REACTORS
330
1A
102
}
330
1A
100
AcDbPlotSettings
  1

  2
none_device
  4

  6

 40
0.0
 41
0.0
 42
0.0
 43
0.0
 44
0.0
 45
0.0
 46
0.0
 47
0.0
 48
0.0
 49
0.0
140
0.0
141
0.0
142
1.0
143
1.0
 70
   688
 72
     1
 73
     0
 74
     5
  7

 75
    16
147
1.0
148
0.0
149
0.0
100
AcDbLayout
  1
Layout1
 70
     1
 71
     1
 10
0.0
 20
0.0
 11
420.0
 21
297.0
 12
0.0
 22
0.0
 32
0.0
 14
1.000000000000000E+20
 24
1.000000000000000E+20
 34
1.000000000000000E+20
 15
-1.000000000000000E+20
 25
-1.000000000000000E+20
 35
-1.000000000000000E+20
146
0.0
 13
0.0
 23
0.0
 33
0.0
 16
1.0
 26
0.0
 36
0.0
 17
0.0
 27
1.0
 37
0.0
 76
     0
330
1B
  0
LAYOUT
  5
26
102
{ACAD_REACTORS
330
1A
102
}
330
1A
100
AcDbPlotSettings
  1

  2
none_device
  4

  6

 40
0.0
 41
0.0
 42
0.0
 43
0.0
 44
0.0
 45
0.0
 46
0.0
 47
0.0
 48
0.0
 49
0.0
140
0.0
141
0.0
142
1.0
143
1.0
 70
   688
 72
     1
 73
     0
 74
     5
  7

 75
    16
147
1.0
148
0.0
149
0.0
100
AcDbLayout
  1
Layout2
 70
     1
 71
     2
 10
0.0
 20
0.0
 11
0.0
 21
0.0
 12
0.0
 22
0.0
 32
0.0
 14
0.0
 24
0.0
 34
0.0
 15
0.0
 25
0.0
 35
0.0
146
0.0
 13
0.0
 23
0.0
 33
0.0
 16
1.0
 26
0.0
 36
0.0
 17
0.0
 27
1.0
 37
0.0
 76
     0
330
23
  0
LAYOUT
  5
22
102
{ACAD_REACTORS
330
1A
102
}
330
1A
100
AcDbPlotSettings
  1

  2
none_device
  4
ANSI_A_(11.00_x_8.50_Inches)
  6

 40
6.35
 41
19.05
 42
6.35000508
 43
19.05000254
 44
279.4
 45
215.9
 46
148.7109911252641
 47
64.06946629632628
 48
0.0
 49
0.0
140
0.0
141
0.0
142
0.0636880450381154
143
1.0
 70
  1696
 72
     0
 73
     0
 74
     0
  7

 75
     0
147
0.0235690232323232
148
0.0
149
0.0
100
AcDbLayout
  1
Model
 70
     1
 71
     0
 10
0.0
 20
0.0
 11
420.0
 21
297.0
 12
0.0
 22
0.0
 32
0.0
 14
-61.80390613132232
 24
-49.97180738881174
 34
0.0
 15
50.55033333333444
 25
81.27589796629566
 35
0.0
146
0.0
 13
0.0
 23
0.0
 33
0.0
 16
1.0
 26
0.0
 36
0.0
 17
0.0
 27
1.0
 37
0.0
 76
     0
330
1F
331
29
  0
MLINESTYLE
  5
18
102
{ACAD_REACTORS
330
17
102
}
330
17
100
AcDbMlineStyle
  2
Standard
 70
     0
  3

 62
   256
 51
90.0
 52
90.0
 71
     2
 49
0.5
 62
   256
  6
BYLAYER
 49
-0.5
 62
   256
  6
BYLAYER
  0
ACDBPLACEHOLDER
  5
F
102
{ACAD_REACTORS
330
E
102
}
330
E
  0
SCALE
  5
48
102
{ACAD_REACTORS
330
47
102
}
330
47
100
AcDbScale
 70
     0
300
1:1
140
1.0
141
1.0
290
     1
  0
SCALE
  5
49
102
{ACAD_REACTORS
330
47
102
}
330
47
100
AcDbScale
 70
     0
300
1:2
140
1.0
141
2.0
290
     0
  0
SCALE
  5
4A
102
{ACAD_REACTORS
330
47
102
}
330
47
100
AcDbScale
 70
     0
300
1:4
140
1.0
141
4.0
290
     0
  0
SCALE
  5
4B
102
{ACAD_REACTORS
330
47
102
}
330
47
100
AcDbScale
 70
     0
300
1:5
140
1.0
141
5.0
290
     0
  0
SCALE
  5
4C
102
{ACAD_REACTORS
330
47
102
}
330
47
100
AcDbScale
 70
     0
300
1:8
140
1.0
141
8.0
290
     0
  0
SCALE
  5
4D
102
{ACAD_REACTORS
330
47
102
}
330
47
100
AcDbScale
 70
     0
300
1:10
140
1.0
141
10.0
290
     0
  0
SCALE
  5
4E
102
{ACAD_REACTORS
330
47
102
}
330
47
100
AcDbScale
 70
     0
300
1:16
140
1.0
141
16.0
290
     0
  0
SCALE
  5
4F
102
{ACAD_REACTORS
330
47
102
}
330
47
100
AcDbScale
 70
     0
300
1:20
140
1.0
141
20.0
290
     0
  0
SCALE
  5
50
102
{ACAD_REACTORS
330
47
102
}
330
47
100
AcDbScale
 70
     0
300
1:30
140
1.0
141
30.0
290
     0
  0
SCALE
  5
51
102
{ACAD_REACTORS
330
47
102
}
330
47
100
AcDbScale
 70
     0
300
1:40
140
1.0
141
40.0
290
     0
  0
SCALE
  5
52
102
{ACAD_REACTORS
330
47
102
}
330
47
100
AcDbScale
 70
     0
300
1:50
140
1.0
141
50.0
290
     0
  0
SCALE
  5
53
102
{ACAD_REACTORS
330
47
102
}
330
47
100
AcDbScale
 70
     0
300
1:100
140
1.0
141
100.0
290
     0
  0
SCALE
  5
54
102
{ACAD_REACTORS
330
47
102
}
330
47
100
AcDbScale
 70
     0
300
2:1
140
2.0
141
1.0
290
     0
  0
SCALE
  5
55
102
{ACAD_REACTORS
330
47
102
}
330
47
100
AcDbScale
 70
     0
300
4:1
140
4.0
141
1.0
290
     0
  0
SCALE
  5
56
102
{ACAD_REACTORS
330
47
102
}
330
47
100
AcDbScale
 70
     0
300
8:1
140
8.0
141
1.0
290
     0
  0
SCALE
  5
57
102
{ACAD_REACTORS
330
47
102
}
330
47
100
AcDbScale
 70
     0
300
10:1
140
10.0
141
1.0
290
     0
  0
SCALE
  5
58
102
{ACAD_REACTORS
330
47
102
}
330
47
100
AcDbScale
 70
     0
300
100:1
140
100.0
141
1.0
290
     0
  0
SCALE
  5
59
102
{ACAD_REACTORS
330
47
102
}
330
47
100
AcDbScale
 70
     0
300
1/128" = 1'-0"
140
0.0078125
141
12.0
290
     0
  0
SCALE
  5
5A
102
{ACAD_REACTORS
330
47
102
}
330
47
100
AcDbScale
 70
     0
300
1/64" = 1'-0"
140
0.015625
141
12.0
290
     0
  0
SCALE
  5
5B
102
{ACAD_REACTORS
330
47
102
}
330
47
100
AcDbScale
 70
     0
300
1/32" = 1'-0"
140
0.03125
141
12.0
290
     0
  0
SCALE
  5
5C
102
{ACAD_REACTORS
330
47
102
}
330
47
100
AcDbScale
 70
     0
300
1/16" = 1'-0"
140
0.0625
141
12.0
290
     0
  0
SCALE
  5
5D
102
{ACAD_REACTORS
330
47
102
}
330
47
100
AcDbScale
 70
     0
300
3/32" = 1'-0"
140
0.09375
141
12.0
290
     0
  0
SCALE
  5
5E
102
{ACAD_REACTORS
330
47
102
}
330
47
100
AcDbScale
 70
     0
300
1/8" = 1'-0"
140
0.125
141
12.0
290
     0
  0
SCALE
  5
5F
102
{ACAD_REACTORS
330
47
102
}
330
47
100
AcDbScale
 70
     0
300
3/16" = 1'-0"
140
0.1875
141
12.0
290
     0
  0
SCALE
  5
60
102
{ACAD_REACTORS
330
47
102
}
330
47
100
AcDbScale
 70
     0
300
1/4" = 1'-0"
140
0.25
141
12.0
290
     0
  0
SCALE
  5
61
102
{ACAD_REACTORS
330
47
102
}
330
47
100
AcDbScale
 70
     0
300
3/8" = 1'-0"
140
0.375
141
12.0
290
     0
  0
SCALE
  5
62
102
{ACAD_REACTORS
330
47
102
}
330
47
100
AcDbScale
 70
     0
300
1/2" = 1'-0"
140
0.5
141
12.0
290
     0
  0
SCALE
  5
63
102
{ACAD_REACTORS
330
47
102
}
330
47
100
AcDbScale
 70
     0
300
3/4" = 1'-0"
140
0.75
141
12.0
290
     0
  0
SCALE
  5
64
102
{ACAD_REACTORS
330
47
102
}
330
47
100
AcDbScale
 70
     0
300
1" = 1'-0"
140
1.0
141
12.0
290
     0
  0
SCALE
  5
65
102
{ACAD_REACTORS
330
47
102
}
330
47
100
AcDbScale
 70
     0
300
1-1/2" = 1'-0"
140
1.5
141
12.0
290
     0
  0
SCALE
  5
66
102
{ACAD_REACTORS
330
47
102
}
330
47
100
AcDbScale
 70
     0
300
3" = 1'-0"
140
3.0
141
12.0
290
     0
  0
SCALE
  5
67
102
{ACAD_REACTORS
330
47
102
}
330
47
100
AcDbScale
 70
     0
300
6" = 1'-0"
140
6.0
141
12.0
290
     0
  0
SCALE
  5
68
102
{ACAD_REACTORS
330
47
102
}
330
47
100
AcDbScale
 70
     0
300
1'-0" = 1'-0"
140
12.0
141
12.0
290
     0
  0
ENDSEC
  0
EOF
