  0
SECTION
  2
HEADER
  9
$ACADVER
  1
AC1015
  9
$ACADMAINTVER
 70
     6
  9
$DWGCODEPAGE
  3
ANSI_949
  9
$INSBASE
 10
0.0
 20
0.0
 30
0.0
  9
$EXTMIN
 10
-149.4039061313235
 20
-49.97073246008785
 30
0.0
  9
$EXTMAX
 10
132.5503333333333
 20
83.26237799682828
 30
0.0
  9
$LIMMIN
 10
0.0
 20
0.0
  9
$LIMMAX
 10
420.0
 20
297.0
  9
$ORTHOMODE
 70
     1
  9
$REGENMODE
 70
     1
  9
$FILLMODE
 70
     1
  9
$QTEXTMODE
 70
     0
  9
$MIRRTEXT
 70
     1
  9
$LTSCALE
 40
1.0
  9
$ATTMODE
 70
     1
  9
$TEXTSIZE
 40
3.5
  9
$TRACEWID
 40
1.0
  9
$TEXTSTYLE
  7
Standard
  9
$CLAYER
  8
0
  9
$CELTYPE
  6
ByLayer
  9
$CECOLOR
 62
   256
  9
$CELTSCALE
 40
1.0
  9
$DISPSILH
 70
     0
  9
$DIMSCALE
 40
1.0
  9
$DIMASZ
 40
3.302
  9
$DIMEXO
 40
1.0
  9
$DIMDLI
 40
3.75
  9
$DIMRND
 40
0.0
  9
$DIMDLE
 40
0.0
  9
$DIMEXE
 40
1.0
  9
$DIMTP
 40
0.0
  9
$DIMTM
 40
0.0
  9
$DIMTXT
 40
3.5
  9
$DIMCEN
 40
2.5
  9
$DIMTSZ
 40
0.0
  9
$DIMTOL
 70
     0
  9
$DIMLIM
 70
     0
  9
$DIMTIH
 70
     1
  9
$DIMTOH
 70
     1
  9
$DIMSE1
 70
     0
  9
$DIMSE2
 70
     0
  9
$DIMTAD
 70
     1
  9
$DIMZIN
 70
     0
  9
$DIMBLK
  1

  9
$DIMASO
 70
     1
  9
$DIMSHO
 70
     1
  9
$DIMPOST
  1

  9
$DIMAPOST
  1

  9
$DIMALT
 70
     0
  9
$DIMALTD
 70
     3
  9
$DIMALTF
 40
0.0393700787401575
  9
$DIMLFAC
 40
1.0
  9
$DIMTOFL
 70
     1
  9
$DIMTVP
 40
0.0
  9
$DIMTIX
 70
     0
  9
$DIMSOXD
 70
     0
  9
$DIMSAH
 70
     0
  9
$DIMBLK1
  1

  9
$DIMBLK2
  1

  9
$DIMSTYLE
  2
ISO-25
  9
$DIMCLRD
 70
     0
  9
$DIMCLRE
 70
     0
  9
$DIMCLRT
 70
     0
  9
$DIMTFAC
 40
1.0
  9
$DIMGAP
 40
1.524
  9
$DIMJUST
 70
     0
  9
$DIMSD1
 70
     0
  9
$DIMSD2
 70
     0
  9
$DIMTOLJ
 70
     0
  9
$DIMTZIN
 70
     0
  9
$DIMALTZ
 70
     0
  9
$DIMALTTZ
 70
     0
  9
$DIMUPT
 70
     0
  9
$DIMDEC
 70
     2
  9
$DIMTDEC
 70
     2
  9
$DIMALTU
 70
     2
  9
$DIMALTTD
 70
     3
  9
$DIMTXSTY
  7
Standard
  9
$DIMAUNIT
 70
     0
  9
$DIMADEC
 70
     2
  9
$DIMALTRND
 40
0.0
  9
$DIMAZIN
 70
     0
  9
$DIMDSEP
 70
    44
  9
$DIMATFIT
 70
     3
  9
$DIMFRAC
 70
     0
  9
$DIMLDRBLK
  1

  9
$DIMLUNIT
 70
     2
  9
$DIMLWD
 70
    -2
  9
$DIMLWE
 70
    -2
  9
$DIMTMOVE
 70
     0
  9
$LUNITS
 70
     2
  9
$LUPREC
 70
     2
  9
$SKETCHINC
 40
1.0
  9
$FILLETRAD
 40
10.0
  9
$AUNITS
 70
     0
  9
$AUPREC
 70
     2
  9
$MENU
  1
.
  9
$ELEVATION
 40
0.0
  9
$PELEVATION
 40
0.0
  9
$THICKNESS
 40
0.0
  9
$LIMCHECK
 70
     0
  9
$CHAMFERA
 40
0.0
  9
$CHAMFERB
 40
0.0
  9
$CHAMFERC
 40
0.0
  9
$CHAMFERD
 40
0.0
  9
$SKPOLY
 70
     0
  9
$TDCREATE
 40
2458268.772651898
  9
$TDUCREATE
 40
2458268.397651898
  9
$TDUPDATE
 40
2458270.369598021
  9
$TDUUPDATE
 40
2458269.994598021
  9
$TDINDWG
 40
0.0010529051
  9
$TDUSRTIMER
 40
2458269.993545289
  9
$USRTIMER
 70
     1
  9
$ANGBASE
 50
0.0
  9
$ANGDIR
 70
     0
  9
$PDMODE
 70
     0
  9
$PDSIZE
 40
-1.0
  9
$PLINEWID
 40
0.0
  9
$SPLFRAME
 70
     0
  9
$SPLINETYPE
 70
     6
  9
$SPLINESEGS
 70
     8
  9
$HANDSEED
  5
175
  9
$SURFTAB1
 70
     6
  9
$SURFTAB2
 70
     6
  9
$SURFTYPE
 70
     6
  9
$SURFU
 70
     6
  9
$SURFV
 70
     6
  9
$UCSBASE
  2

  9
$UCSNAME
  2

  9
$UCSORG
 10
0.0
 20
0.0
 30
0.0
  9
$UCSXDIR
 10
1.0
 20
0.0
 30
0.0
  9
$UCSYDIR
 10
0.0
 20
1.0
 30
0.0
  9
$UCSORTHOREF
  2

  9
$UCSORTHOVIEW
 70
     0
  9
$UCSORGTOP
 10
0.0
 20
0.0
 30
0.0
  9
$UCSORGBOTTOM
 10
0.0
 20
0.0
 30
0.0
  9
$UCSORGLEFT
 10
0.0
 20
0.0
 30
0.0
  9
$UCSORGRIGHT
 10
0.0
 20
0.0
 30
0.0
  9
$UCSORGFRONT
 10
0.0
 20
0.0
 30
0.0
  9
$UCSORGBACK
 10
0.0
 20
0.0
 30
0.0
  9
$PUCSBASE
  2

  9
$PUCSNAME
  2

  9
$PUCSORG
 10
0.0
 20
0.0
 30
0.0
  9
$PUCSXDIR
 10
1.0
 20
0.0
 30
0.0
  9
$PUCSYDIR
 10
0.0
 20
1.0
 30
0.0
  9
$PUCSORTHOREF
  2

  9
$PUCSORTHOVIEW
 70
     0
  9
$PUCSORGTOP
 10
0.0
 20
0.0
 30
0.0
  9
$PUCSORGBOTTOM
 10
0.0
 20
0.0
 30
0.0
  9
$PUCSORGLEFT
 10
0.0
 20
0.0
 30
0.0
  9
$PUCSORGRIGHT
 10
0.0
 20
0.0
 30
0.0
  9
$PUCSORGFRONT
 10
0.0
 20
0.0
 30
0.0
  9
$PUCSORGBACK
 10
0.0
 20
0.0
 30
0.0
  9
$USERI1
 70
     0
  9
$USERI2
 70
     0
  9
$USERI3
 70
     0
  9
$USERI4
 70
     0
  9
$USERI5
 70
     0
  9
$USERR1
 40
0.0
  9
$USERR2
 40
0.0
  9
$USERR3
 40
0.0
  9
$USERR4
 40
0.0
  9
$USERR5
 40
0.0
  9
$WORLDVIEW
 70
     1
  9
$SHADEDGE
 70
     3
  9
$SHADEDIF
 70
    70
  9
$TILEMODE
 70
     1
  9
$MAXACTVP
 70
    64
  9
$PINSBASE
 10
0.0
 20
0.0
 30
0.0
  9
$PLIMCHECK
 70
     0
  9
$PEXTMIN
 10
1.000000000000000E+20
 20
1.000000000000000E+20
 30
1.000000000000000E+20
  9
$PEXTMAX
 10
-1.000000000000000E+20
 20
-1.000000000000000E+20
 30
-1.000000000000000E+20
  9
$PLIMMIN
 10
0.0
 20
0.0
  9
$PLIMMAX
 10
0.0
 20
0.0
  9
$UNITMODE
 70
     0
  9
$VISRETAIN
 70
     1
  9
$PLINEGEN
 70
     0
  9
$PSLTSCALE
 70
     1
  9
$TREEDEPTH
 70
  3020
  9
$CMLSTYLE
  2
Standard
  9
$CMLJUST
 70
     0
  9
$CMLSCALE
 40
20.0
  9
$PROXYGRAPHICS
 70
     1
  9
$MEASUREMENT
 70
     1
  9
$CELWEIGHT
370
    -1
  9
$ENDCAPS
280
     0
  9
$JOINSTYLE
280
     0
  9
$LWDISPLAY
290
     1
  9
$INSUNITS
 70
     4
  9
$HYPERLINKBASE
  1

  9
$STYLESHEET
  1

  9
$XEDIT
290
     1
  9
$CEPSNTYPE
380
     0
  9
$PSTYLEMODE
290
     1
  9
$FINGERPRINTGUID
  2
{BEEA2BC0-2715-4DDC-AF6E-1B4832B7C54D}
  9
$VERSIONGUID
  2
{FAEB1C32-E019-11D5-929B-00C0DF256EC4}
  9
$EXTNAMES
290
     1
  9
$PSVPSCALE
 40
0.0
  9
$OLESTARTUP
290
     0
  0
ENDSEC
  0
SECTION
  2
CLASSES
  0
CLASS
  1
ACDBDICTIONARYWDFLT
  2
AcDbDictionaryWithDefault
  3
ObjectDBX Classes
 90
        0
280
     0
281
     0
  0
CLASS
  1
VISUALSTYLE
  2
AcDbVisualStyle
  3
ObjectDBX Classes
 90
     4095
280
     0
281
     0
  0
CLASS
  1
MATERIAL
  2
AcDbMaterial
  3
ObjectDBX Classes
 90
     1153
280
     0
281
     0
  0
CLASS
  1
SCALE
  2
AcDbScale
  3
ObjectDBX Classes
 90
     1153
280
     0
281
     0
  0
CLASS
  1
SUN
  2
AcDbSun
  3
SCENEOE
 90
     1153
280
     0
281
     0
  0
CLASS
  1
ACDBPLACEHOLDER
  2
AcDbPlaceHolder
  3
ObjectDBX Classes
 90
        0
280
     0
281
     0
  0
CLASS
  1
LAYOUT
  2
AcDbLayout
  3
ObjectDBX Classes
 90
        0
280
     0
281
     0
  0
CLASS
  1
TABLESTYLE
  2
AcDbTableStyle
  3
ObjectDBX Classes
 90
     4095
280
     0
281
     0
  0
CLASS
  1
MLEADERSTYLE
  2
AcDbMLeaderStyle
  3
ACDB_MLEADERSTYLE_CLASS
 90
     4095
280
     0
281
     0
  0
CLASS
  1
RASTERVARIABLES
  2
AcDbRasterVariables
  3
ISM
 90
        0
280
     0
281
     0
  0
ENDSEC
  0
SECTION
  2
TABLES
  0
TABLE
  2
VPORT
  5
8
330
0
100
AcDbSymbolTable
 70
     1
  0
VPORT
  5
29
330
8
100
AcDbSymbolTableRecord
100
AcDbViewportTableRecord
  2
*Active
 70
     0
 10
0.0
 20
0.0
 11
1.0
 21
1.0
 12
89.11915401107497
 22
-15.01245350491661
 13
0.0
 23
0.0
 14
10.0
 24
10.0
 15
10.0
 25
10.0
 16
0.0
 26
0.0
 36
1.0
 17
0.0
 27
0.0
 37
0.0
 40
90.68470260408719
 41
1.627413127413127
 42
50.0
 43
0.0
 44
0.0
 50
0.0
 51
0.0
 71
    16
 72
  2000
 73
     1
 74
     3
 75
     0
 76
     0
 77
     0
 78
     0
281
     0
 65
     1
110
0.0
120
0.0
130
0.0
111
1.0
121
0.0
131
0.0
112
0.0
122
1.0
132
0.0
 79
     0
146
0.0
  0
ENDTAB
  0
TABLE
  2
LTYPE
  5
5
330
0
100
AcDbSymbolTable
 70
     6
  0
LTYPE
  5
14
330
5
100
AcDbSymbolTableRecord
100
AcDbLinetypeTableRecord
  2
ByBlock
 70
     0
  3

 72
    65
 73
     0
 40
0.0
  0
LTYPE
  5
15
330
5
100
AcDbSymbolTableRecord
100
AcDbLinetypeTableRecord
  2
ByLayer
 70
     0
  3

 72
    65
 73
     0
 40
0.0
  0
LTYPE
  5
16
330
5
100
AcDbSymbolTableRecord
100
AcDbLinetypeTableRecord
  2
Continuous
 70
     0
  3
Solid line
 72
    65
 73
     0
 40
0.0
  0
LTYPE
  5
6A
330
5
100
AcDbSymbolTableRecord
100
AcDbLinetypeTableRecord
  2
HIDDEN
 70
     0
  3
Hidden __ __ __ __ __ __ __ __ __ __ __ __ __ __
 72
    65
 73
     2
 40
1.905
 49
1.27
 74
     0
 49
-0.635
 74
     0
  0
LTYPE
  5
6B
330
5
100
AcDbSymbolTableRecord
100
AcDbLinetypeTableRecord
  2
PHANTOM
 70
     0
  3
Phantom ______  __  __  ______  __  __  ______
 72
    65
 73
     6
 40
12.7
 49
6.35
 74
     0
 49
-1.27
 74
     0
 49
1.27
 74
     0
 49
-1.27
 74
     0
 49
1.27
 74
     0
 49
-1.27
 74
     0
  0
LTYPE
  5
6C
330
5
100
AcDbSymbolTableRecord
100
AcDbLinetypeTableRecord
  2
CENTER
 70
     0
  3
Center ____ _ ____ _ ____ _ ____ _ ____ _ ____
 72
    65
 73
     4
 40
10.16
 49
6.35
 74
     0
 49
-1.27
 74
     0
 49
1.27
 74
     0
 49
-1.27
 74
     0
  0
LTYPE
  5
6D
330
5
100
AcDbSymbolTableRecord
100
AcDbLinetypeTableRecord
  2
CENTERX2
 70
     0
  3
Center (2x) ________  __  ________  __  _____
 72
    65
 73
     4
 40
20.32
 49
12.7
 74
     0
 49
-2.54
 74
     0
 49
2.54
 74
     0
 49
-2.54
 74
     0
  0
LTYPE
  5
6E
330
5
100
AcDbSymbolTableRecord
100
AcDbLinetypeTableRecord
  2
DOT2
 70
     0
  3
Dot (.5x) ........................................
 72
    65
 73
     2
 40
0.635
 49
0.0
 74
     0
 49
-0.635
 74
     0
  0
ENDTAB
  0
TABLE
  2
LAYER
  5
2
330
0
100
AcDbSymbolTable
 70
    17
  0
LAYER
  5
10
330
2
100
AcDbSymbolTableRecord
100
AcDbLayerTableRecord
  2
0
 70
     0
 62
     7
  6
Continuous
370
    -3
390
F
  0
LAYER
  5
6F
330
2
100
AcDbSymbolTableRecord
100
AcDbLayerTableRecord
  2
FORMAT
 70
     0
 62
     2
  6
Continuous
370
    -3
390
F
  0
LAYER
  5
70
330
2
100
AcDbSymbolTableRecord
100
AcDbLayerTableRecord
  2
외형선
 70
     0
 62
   100
  6
Continuous
370
    30
390
F
  0
LAYER
  5
71
330
2
100
AcDbSymbolTableRecord
100
AcDbLayerTableRecord
  2
숨은선
 70
     0
 62
     2
  6
HIDDEN
370
    15
390
F
  0
LAYER
  5
72
330
2
100
AcDbSymbolTableRecord
100
AcDbLayerTableRecord
  2
중심선
 70
     0
 62
     1
  6
CENTERX2
370
    -3
390
F
  0
LAYER
  5
73
330
2
100
AcDbSymbolTableRecord
100
AcDbLayerTableRecord
  2
파단선
 70
     0
 62
     4
  6
Continuous
370
    -3
390
F
  0
LAYER
  5
74
330
2
100
AcDbSymbolTableRecord
100
AcDbLayerTableRecord
  2
해칭선
 70
     0
 62
     4
  6
Continuous
370
    -3
390
F
  0
LAYER
  5
75
330
2
100
AcDbSymbolTableRecord
100
AcDbLayerTableRecord
  2
가는실선
 70
     0
 62
     4
  6
Continuous
370
    -3
390
F
  0
LAYER
  5
76
330
2
100
AcDbSymbolTableRecord
100
AcDbLayerTableRecord
  2
치수_보조선
 70
     0
 62
     4
  6
Continuous
370
    -3
390
F
  0
LAYER
  5
77
330
2
100
AcDbSymbolTableRecord
100
AcDbLayerTableRecord
  2
치수문자_일반주서
 70
     0
 62
     7
  6
Continuous
370
    15
390
F
  0
LAYER
  5
78
330
2
100
AcDbSymbolTableRecord
100
AcDbLayerTableRecord
  2
개별주서
 70
     0
 62
   100
  6
Continuous
370
    30
390
F
  0
LAYER
  5
79
330
2
100
AcDbSymbolTableRecord
100
AcDbLayerTableRecord
  2
중간선
 70
     0
 62
     2
  6
Continuous
370
    15
390
F
  0
LAYER
  5
7A
330
2
100
AcDbSymbolTableRecord
100
AcDbLayerTableRecord
  2
윤곽선
 70
     0
 62
     3
  6
Continuous
370
    40
390
F
  0
LAYER
  5
7B
330
2
100
AcDbSymbolTableRecord
100
AcDbLayerTableRecord
  2
중심마크
 70
     0
 62
   100
  6
Continuous
370
    30
390
F
  0
LAYER
  5
7C
330
2
100
AcDbSymbolTableRecord
100
AcDbLayerTableRecord
  2
가상선
 70
     0
 62
     4
  6
PHANTOM
370
    -3
390
F
  0
LAYER
  5
7D
330
2
100
AcDbSymbolTableRecord
100
AcDbLayerTableRecord
  2
특수지정선
 70
     0
 62
     5
  6
CENTERX2
370
    60
390
F
  0
LAYER
  5
16B
330
2
100
AcDbSymbolTableRecord
100
AcDbLayerTableRecord
  2
Defpoints
 70
     0
 62
     7
  6
Continuous
290
     0
370
    -3
390
F
  0
ENDTAB
  0
TABLE
  2
STYLE
  5
3
330
0
100
AcDbSymbolTable
 70
     2
  0
STYLE
  5
11
330
3
100
AcDbSymbolTableRecord
100
AcDbTextStyleTableRecord
  2
Standard
 70
     0
 40
0.0
 41
1.0
 50
0.0
 71
     0
 42
3.5
  3
txt
  4

  0
STYLE
  5
93
330
3
100
AcDbSymbolTableRecord
100
AcDbTextStyleTableRecord
  2
SLDTEXTSTYLE0
 70
     0
 40
0.0
 41
0.75
 50
0.0
 71
     0
 42
3.5
  3
TXT
  4

  0
ENDTAB
  0
TABLE
  2
VIEW
  5
6
330
0
100
AcDbSymbolTable
 70
     0
  0
ENDTAB
  0
TABLE
  2
UCS
  5
7
330
0
100
AcDbSymbolTable
 70
     0
  0
ENDTAB
  0
TABLE
  2
APPID
  5
9
330
0
100
AcDbSymbolTable
 70
     1
  0
APPID
  5
12
330
9
100
AcDbSymbolTableRecord
100
AcDbRegAppTableRecord
  2
ACAD
 70
     0
  0
ENDTAB
  0
TABLE
  2
DIMSTYLE
  5
A
330
0
100
AcDbSymbolTable
 70
     3
100
AcDbDimStyleTable
  0
DIMSTYLE
105
27
330
A
100
AcDbSymbolTableRecord
100
AcDbDimStyleTableRecord
  2
ISO-25
 70
     0
 41
2.5
 42
0.625
 43
3.75
 44
1.25
 73
     0
 74
     0
 77
     1
 78
     8
140
2.5
141
2.5
143
0.03937007874016
147
0.625
171
     3
172
     1
178
     0
271
     2
272
     2
274
     3
278
    44
283
     0
284
     8
340
11
  0
DIMSTYLE
105
111
102
{ACAD_REACTORS
330
110
330
11E
102
}
330
A
100
AcDbSymbolTableRecord
100
AcDbDimStyleTableRecord
  2
SLDDIMSTYLE0
 70
     0
 41
3.302
 44
0.0
 45
0.000000001
 73
     0
 74
     0
 77
     1
 78
    12
 79
     3
140
3.5
147
0.875
172
     1
173
     1
178
     0
271
     2
272
     2
276
     2
284
    12
289
     0
340
93
  0
DIMSTYLE
105
12C
102
{ACAD_REACTORS
330
12B
330
136
102
}
330
A
100
AcDbSymbolTableRecord
100
AcDbDimStyleTableRecord
  2
SLDDIMSTYLE1
 70
     0
 41
3.302
 44
0.0
 45
0.000000001
 73
     0
 74
     0
 77
     1
 78
    12
 79
     3
140
3.5
147
0.875
173
     1
178
     0
271
     2
272
     2
276
     2
284
    12
340
93
  0
ENDTAB
  0
TABLE
  2
BLOCK_RECORD
  5
1
330
0
100
AcDbSymbolTable
 70
     7
  0
BLOCK_RECORD
  5
1F
330
1
100
AcDbSymbolTableRecord
100
AcDbBlockTableRecord
  2
*Model_Space
340
22
  0
BLOCK_RECORD
  5
1B
330
1
100
AcDbSymbolTableRecord
100
AcDbBlockTableRecord
  2
*Paper_Space
340
1E
  0
BLOCK_RECORD
  5
23
330
1
100
AcDbSymbolTableRecord
100
AcDbBlockTableRecord
  2
*Paper_Space0
340
26
  0
BLOCK_RECORD
  5
7E
330
1
100
AcDbSymbolTableRecord
100
AcDbBlockTableRecord
  2
블럭10
340
0
102
{BLKREFS
331
109
102
}
  0
BLOCK_RECORD
  5
112
330
1
100
AcDbSymbolTableRecord
100
AcDbBlockTableRecord
  2
_D
340
0
  0
BLOCK_RECORD
  5
11F
330
1
100
AcDbSymbolTableRecord
100
AcDbBlockTableRecord
  2
_D_1
340
0
  0
BLOCK_RECORD
  5
12D
330
1
100
AcDbSymbolTableRecord
100
AcDbBlockTableRecord
  2
_D_2
340
0
  0
BLOCK_RECORD
  5
137
330
1
100
AcDbSymbolTableRecord
100
AcDbBlockTableRecord
  2
_D_3
340
0
  0
BLOCK_RECORD
  5
140
330
1
100
AcDbSymbolTableRecord
100
AcDbBlockTableRecord
  2
SW_DOWELSYMBOL_0
340
0
102
{BLKREFS
331
146
102
}
  0
ENDTAB
  0
ENDSEC
  0
SECTION
  2
BLOCKS
  0
BLOCK
  5
20
330
1F
100
AcDbEntity
  8
0
100
AcDbBlockBegin
  2
*Model_Space
 70
     0
 10
0.0
 20
0.0
 30
0.0
  3
*Model_Space
  1
*Model_Space
  0
ENDBLK
  5
21
330
1F
100
AcDbEntity
  8
0
100
AcDbBlockEnd
  0
BLOCK
  5
1C
330
1B
100
AcDbEntity
 67
     1
  8
0
100
AcDbBlockBegin
  2
*Paper_Space
 70
     0
 10
0.0
 20
0.0
 30
0.0
  3
*Paper_Space
  1
*Paper_Space
  0
ENDBLK
  5
1D
330
1B
100
AcDbEntity
 67
     1
  8
0
100
AcDbBlockEnd
  0
BLOCK
  5
24
330
23
100
AcDbEntity
  8
0
100
AcDbBlockBegin
  2
*Paper_Space0
 70
     0
 10
0.0
 20
0.0
 30
0.0
  3
*Paper_Space0
  1
*Paper_Space0
  0
ENDBLK
  5
25
330
23
100
AcDbEntity
  8
0
100
AcDbBlockEnd
  0
BLOCK
  5
7F
330
7E
100
AcDbEntity
  8
0
100
AcDbBlockBegin
  2
블럭10
 70
     2
 10
0.0
 20
0.0
 30
0.0
  3
블럭10
  1
블럭10
  0
ELLIPSE
  5
81
330
7E
100
AcDbEntity
  8
중심선
100
AcDbEllipse
 10
20.54032771741204
 20
12.0471743016438
 30
0.0
 11
6.600054785286829
 21
-1.261213355974178E-13
 31
0.0
210
0.0
220
0.0
230
1.0
 40
0.636358354079598
 41
0.9219305317359503
 42
6.513795318482858
  0
ELLIPSE
  5
82
330
7E
100
AcDbEntity
  8
중심선
100
AcDbEllipse
 10
20.54032771746488
 20
12.04717430159265
 30
0.0
 11
3.960054785062283
 21
1.540847449632565E-10
 31
0.0
210
0.0
220
0.0
230
1.0
 40
0.3939339440162632
 41
1.131841032648279
 42
5.62031148352944
  0
LINE
  5
83
330
7E
100
AcDbEntity
  8
중심선
100
AcDbLine
 10
2.268634060543552
 20
16.24717430164393
 30
0.0
 11
5.714909304380834
 21
16.24717430164393
 31
0.0
  0
LINE
  5
84
330
7E
100
AcDbEntity
  8
중심선
100
AcDbLine
 10
5.245725140726316
 20
7.84717430164391
 30
0.0
 11
8.692000384563599
 21
7.84717430164391
 31
0.0
  0
LINE
  5
85
330
7E
100
AcDbEntity
  8
중심선
100
AcDbLine
 10
15.74043728645272
 20
16.24717430164393
 30
0.0
 11
8.692000384563599
 21
7.84717430164391
 31
0.0
  0
LINE
  5
86
330
7E
100
AcDbEntity
  8
중심선
100
AcDbLine
 10
0.1404042013395286
 20
13.71084872107135
 30
0.0
 11
3.58671253028996
 21
13.71088815037384
 31
0.0
  0
LINE
  5
87
330
7E
100
AcDbEntity
  8
중심선
100
AcDbLine
 10
2.750260043222114
 20
10.84717430164391
 30
0.0
 11
6.196535287059397
 21
10.84717430164391
 31
0.0
  0
LINE
  5
88
330
7E
100
AcDbEntity
  8
중심선
100
AcDbLine
 10
12.29416204261559
 20
16.24717430164393
 30
0.0
 11
5.245725140726316
 21
7.84717430164391
 31
0.0
  0
LINE
  5
89
330
7E
100
AcDbEntity
  8
중심선
100
AcDbLine
 10
10.72767329541681
 20
16.24717430164393
 30
0.0
 11
6.196535287059397
 21
10.84717430164391
 31
0.0
  0
LINE
  5
8A
330
7E
100
AcDbEntity
  8
중심선
100
AcDbLine
 10
7.28139805157953
 20
16.24717430164393
 30
0.0
 11
2.750260043222114
 21
10.84717430164391
 31
0.0
  0
LINE
  5
8B
330
7E
100
AcDbEntity
  8
중심선
100
AcDbLine
 10
5.714909304380834
 20
16.24717430164393
 30
0.0
 11
3.58671253028996
 21
13.71088815037384
 31
0.0
  0
LINE
  5
8C
330
7E
100
AcDbEntity
  8
중심선
100
AcDbLine
 10
2.268634060543552
 20
16.24717430164393
 30
0.0
 11
0.1404042013395286
 21
13.71084872107135
 31
0.0
  0
LINE
  5
8D
330
7E
100
AcDbEntity
  8
중심선
100
AcDbLine
 10
7.28139805157953
 20
16.24717430164393
 30
0.0
 11
10.72767329541681
 21
16.24717430164393
 31
0.0
  0
LINE
  5
8E
330
7E
100
AcDbEntity
  8
중심선
100
AcDbLine
 10
12.29416204261559
 20
16.24717430164393
 30
0.0
 11
15.74043728645272
 21
16.24717430164393
 31
0.0
  0
LINE
  5
8F
330
7E
100
AcDbEntity
  8
중심선
100
AcDbLine
 10
19.22036997980202
 20
11.08717430171403
 30
0.0
 11
23.66174974927406
 21
11.08717430171406
 31
0.0
  0
LINE
  5
90
330
7E
100
AcDbEntity
  8
중심선
100
AcDbLine
 10
19.22039502424796
 20
13.00717430171391
 30
0.0
 11
19.22036997980202
 21
11.08717430171403
 31
0.0
  0
LINE
  5
91
330
7E
100
AcDbEntity
  8
중심선
100
AcDbLine
 10
19.22039502424796
 20
13.00717430171391
 30
0.0
 11
26.96566020931264
 21
13.00717430171391
 31
0.0
  0
LINE
  5
92
330
7E
100
AcDbEntity
  8
중심선
100
AcDbLine
 10
22.22332737316547
 20
13.45928029700563
 30
0.0
 11
24.52862924686651
 21
15.39360700705356
 31
0.0
  0
ATTDEF
  5
94
330
7E
100
AcDbEntity
  8
FORMAT
 62
     2
100
AcDbText
 10
-22.43790845388143
 20
2.075366912832191
 30
0.0
 40
4.233333333333333
  1
SEME75160110250E [ 6 FLUTE ]
 41
0.75
  7
SLDTEXTSTYLE0
 11
-22.43790845388143
 21
-0.0412997538344756
 31
0.0
100
AcDbAttributeDefinition
  3

  2
AUTOATTR0
 70
     0
 74
     1
  0
ENDBLK
  5
80
330
7E
100
AcDbEntity
  8
0
100
AcDbBlockEnd
  0
BLOCK
  5
113
330
112
100
AcDbEntity
  8
0
100
AcDbBlockBegin
  2
_D
 70
     0
 10
0.0
 20
0.0
 30
0.0
  3
_D
  1
_D
  0
LINE
  5
115
330
112
100
AcDbEntity
  8
치수문자_일반주서
 62
     0
370
    -2
100
AcDbLine
 10
-126.4625000000001
 20
8.001074928723963
 30
0.0
 11
-145.0289061313235
 21
8.001074928723893
 31
0.0
  0
LINE
  5
116
330
112
100
AcDbEntity
  8
치수문자_일반주서
 62
     0
370
    -2
100
AcDbLine
 10
-126.4625000000001
 20
-7.998925071276052
 30
0.0
 11
-145.0289061313235
 21
-7.998925071276121
 31
0.0
  0
LINE
  5
117
330
112
100
AcDbEntity
  8
치수문자_일반주서
 62
     0
370
    -2
100
AcDbLine
 10
-145.0289061313235
 20
4.699074928723894
 30
0.0
 11
-145.0289061313235
 21
-4.696925071276121
 31
0.0
  0
SOLID
  5
118
330
112
100
AcDbEntity
  8
치수문자_일반주서
 62
     0
100
AcDbTrace
 10
-144.4785727979902
 20
4.699074928723896
 30
0.0
 11
-145.5792394646568
 21
4.699074928723892
 31
0.0
 12
-145.0289061313235
 22
8.001074928723893
 32
0.0
 13
-145.0289061313235
 23
8.001074928723893
 33
0.0
  0
SOLID
  5
119
330
112
100
AcDbEntity
  8
치수문자_일반주서
 62
     0
100
AcDbTrace
 10
-145.5792394646568
 20
-4.696925071276123
 30
0.0
 11
-144.4785727979901
 21
-4.696925071276119
 31
0.0
 12
-145.0289061313235
 22
-7.998925071276121
 32
0.0
 13
-145.0289061313235
 23
-7.998925071276121
 33
0.0
  0
MTEXT
  5
11A
330
112
100
AcDbEntity
  8
치수문자_일반주서
 62
     0
100
AcDbMText
 10
-149.4039061313235
 20
0.0010749287239422
 30
0.0
 40
3.5
 41
0.0
 71
     2
 72
     1
  1
\A1;%%c16
  7
SLDTEXTSTYLE0
 11
-3.552713678800498E-15
 21
1.0
 31
0.0
 73
     1
 44
1.0
  0
POINT
  5
11B
330
112
100
AcDbEntity
  8
Defpoints
 62
     0
100
AcDbPoint
 10
-126.4000000000001
 20
8.001074928723963
 30
0.0
  0
POINT
  5
11C
330
112
100
AcDbEntity
  8
Defpoints
 62
     0
100
AcDbPoint
 10
-126.4000000000001
 20
-7.998925071276052
 30
0.0
  0
POINT
  5
11D
330
112
100
AcDbEntity
  8
Defpoints
 62
     0
100
AcDbPoint
 10
-145.0289061313235
 20
-7.998925071276121
 30
0.0
  0
ENDBLK
  5
114
330
112
100
AcDbEntity
  8
0
100
AcDbBlockEnd
  0
BLOCK
  5
120
330
11F
100
AcDbEntity
  8
0
100
AcDbBlockBegin
  2
_D_1
 70
     0
 10
0.0
 20
0.0
 30
0.0
  3
_D_1
  1
_D_1
  0
LINE
  5
122
330
11F
100
AcDbEntity
  8
치수문자_일반주서
 62
     0
370
    -2
100
AcDbLine
 10
122.0625
 20
8.00107492872396
 30
0.0
 11
131.9999999999999
 21
8.001074928723998
 31
0.0
  0
LINE
  5
123
330
11F
100
AcDbEntity
  8
치수문자_일반주서
 62
     0
370
    -2
100
AcDbLine
 10
122.0625
 20
-7.99892507127605
 30
0.0
 11
132.0
 21
-7.998925071276012
 31
0.0
  0
LINE
  5
124
330
11F
100
AcDbEntity
  8
치수문자_일반주서
 62
     0
370
    -2
100
AcDbLine
 10
131.9999999999999
 20
4.699074928723999
 30
0.0
 11
132.0
 21
-4.696925071276013
 31
0.0
  0
SOLID
  5
125
330
11F
100
AcDbEntity
  8
치수문자_일반주서
 62
     0
100
AcDbTrace
 10
132.5503333333332
 20
4.699074928724
 30
0.0
 11
131.4496666666666
 21
4.699074928723997
 31
0.0
 12
131.9999999999999
 22
8.001074928723998
 32
0.0
 13
131.9999999999999
 23
8.001074928723998
 33
0.0
  0
SOLID
  5
126
330
11F
100
AcDbEntity
  8
치수문자_일반주서
 62
     0
100
AcDbTrace
 10
131.4496666666666
 20
-4.696925071276015
 30
0.0
 11
132.5503333333333
 21
-4.696925071276011
 31
0.0
 12
132.0
 22
-7.998925071276012
 32
0.0
 13
132.0
 23
-7.998925071276012
 33
0.0
  0
MTEXT
  5
127
330
11F
100
AcDbEntity
  8
치수문자_일반주서
 62
     0
100
AcDbMText
 10
127.6249999999999
 20
1.056164128877529
 30
0.0
 40
3.5
 41
0.0
 71
     2
 72
     1
  1
\A1;%%c16
  7
SLDTEXTSTYLE0
 11
-3.552713678800499E-15
 21
1.0
 31
0.0
 73
     1
 44
1.0
  0
POINT
  5
128
330
11F
100
AcDbEntity
  8
Defpoints
 62
     0
100
AcDbPoint
 10
122.0
 20
8.00107492872396
 30
0.0
  0
POINT
  5
129
330
11F
100
AcDbEntity
  8
Defpoints
 62
     0
100
AcDbPoint
 10
122.0
 20
-7.99892507127605
 30
0.0
  0
POINT
  5
12A
330
11F
100
AcDbEntity
  8
Defpoints
 62
     0
100
AcDbPoint
 10
132.0
 20
-7.998925071276012
 30
0.0
  0
ENDBLK
  5
121
330
11F
100
AcDbEntity
  8
0
100
AcDbBlockEnd
  0
BLOCK
  5
12E
330
12D
100
AcDbEntity
  8
0
100
AcDbBlockBegin
  2
_D_2
 70
     0
 10
0.0
 20
0.0
 30
0.0
  3
_D_2
  1
_D_2
  0
LINE
  5
130
330
12D
100
AcDbEntity
  8
치수문자_일반주서
 62
     0
370
    -2
100
AcDbLine
 10
11.99999999999997
 20
8.062618555112522
 30
0.0
 11
11.99999999999997
 21
51.49495917375433
 31
0.0
  0
LINE
  5
131
330
12D
100
AcDbEntity
  8
치수문자_일반주서
 62
     0
370
    -2
100
AcDbLine
 10
122.0
 20
8.00519533595866
 30
0.0
 11
122.0
 21
51.49495917375433
 31
0.0
  0
LINE
  5
132
330
12D
100
AcDbEntity
  8
치수문자_일반주서
 62
     0
370
    -2
100
AcDbLine
 10
15.30199999999997
 20
51.49495917375433
 30
0.0
 11
118.698
 21
51.49495917375433
 31
0.0
  0
SOLID
  5
133
330
12D
100
AcDbEntity
  8
치수문자_일반주서
 62
     0
100
AcDbTrace
 10
15.30199999999997
 20
52.04529250708767
 30
0.0
 11
15.30199999999997
 21
50.944625840421
 31
0.0
 12
11.99999999999997
 22
51.49495917375433
 32
0.0
 13
11.99999999999997
 23
51.49495917375433
 33
0.0
  0
SOLID
  5
134
330
12D
100
AcDbEntity
  8
치수문자_일반주서
 62
     0
100
AcDbTrace
 10
118.698
 20
50.944625840421
 30
0.0
 11
118.698
 21
52.04529250708767
 31
0.0
 12
122.0
 22
51.49495917375433
 32
0.0
 13
122.0
 23
51.49495917375433
 33
0.0
  0
MTEXT
  5
135
330
12D
100
AcDbEntity
  8
치수문자_일반주서
 62
     0
100
AcDbMText
 10
57.017486540544
 20
55.86995917375433
 30
0.0
 40
3.5
 41
0.0
 71
     2
 72
     1
  1
\A1;110
  7
SLDTEXTSTYLE0
 73
     1
 44
1.0
  0
POINT
  5
16E
330
12D
100
AcDbEntity
  8
Defpoints
 62
     0
100
AcDbPoint
 10
11.99999999999997
 20
8.000118555112522
 30
0.0
  0
POINT
  5
16F
330
12D
100
AcDbEntity
  8
Defpoints
 62
     0
100
AcDbPoint
 10
122.0
 20
7.942695335958661
 30
0.0
  0
POINT
  5
170
330
12D
100
AcDbEntity
  8
Defpoints
 62
     0
100
AcDbPoint
 10
122.0
 20
51.49495917375432
 30
0.0
  0
ENDBLK
  5
12F
330
12D
100
AcDbEntity
  8
0
100
AcDbBlockEnd
  0
BLOCK
  5
138
330
137
100
AcDbEntity
  8
0
100
AcDbBlockBegin
  2
_D_3
 70
     0
 10
0.0
 20
0.0
 30
0.0
  3
_D_3
  1
_D_3
  0
LINE
  5
13A
330
137
100
AcDbEntity
  8
치수문자_일반주서
 62
     0
370
    -2
100
AcDbLine
 10
122.0
 20
8.00519533595866
 30
0.0
 11
121.9999999999999
 21
78.88737799682828
 31
0.0
  0
LINE
  5
13B
330
137
100
AcDbEntity
  8
치수문자_일반주서
 62
     0
370
    -2
100
AcDbLine
 10
-128.0000000000001
 20
6.463574928723963
 30
0.0
 11
-128.0000000000001
 21
78.88737799682828
 31
0.0
  0
LINE
  5
13C
330
137
100
AcDbEntity
  8
치수문자_일반주서
 62
     0
370
    -2
100
AcDbLine
 10
118.698
 20
78.88737799682828
 30
0.0
 11
-124.6980000000001
 21
78.88737799682828
 31
0.0
  0
SOLID
  5
13D
330
137
100
AcDbEntity
  8
치수문자_일반주서
 62
     0
100
AcDbTrace
 10
118.698
 20
78.33704466349495
 30
0.0
 11
118.698
 21
79.4377113301616
 31
0.0
 12
121.9999999999999
 22
78.88737799682828
 32
0.0
 13
121.9999999999999
 23
78.88737799682828
 33
0.0
  0
SOLID
  5
13E
330
137
100
AcDbEntity
  8
치수문자_일반주서
 62
     0
100
AcDbTrace
 10
-124.6980000000001
 20
79.4377113301616
 30
0.0
 11
-124.6980000000001
 21
78.33704466349495
 31
0.0
 12
-128.0000000000001
 22
78.88737799682828
 32
0.0
 13
-128.0000000000001
 23
78.88737799682828
 33
0.0
  0
MTEXT
  5
13F
330
137
100
AcDbEntity
  8
치수문자_일반주서
 62
     0
100
AcDbMText
 10
4.745407996067911
 20
83.26237799682828
 30
0.0
 40
3.5
 41
0.0
 71
     2
 72
     1
  1
\A1;250
  7
SLDTEXTSTYLE0
 73
     1
 44
1.0
  0
POINT
  5
171
330
137
100
AcDbEntity
  8
Defpoints
 62
     0
100
AcDbPoint
 10
122.0
 20
7.942695335958661
 30
0.0
  0
POINT
  5
172
330
137
100
AcDbEntity
  8
Defpoints
 62
     0
100
AcDbPoint
 10
-128.0000000000001
 20
6.401074928723963
 30
0.0
  0
POINT
  5
173
330
137
100
AcDbEntity
  8
Defpoints
 62
     0
100
AcDbPoint
 10
-128.0000000000001
 20
78.88737799682826
 30
0.0
  0
ENDBLK
  5
139
330
137
100
AcDbEntity
  8
0
100
AcDbBlockEnd
  0
BLOCK
  5
141
330
140
100
AcDbEntity
  8
0
100
AcDbBlockBegin
  2
SW_DOWELSYMBOL_0
 70
     0
 10
0.0
 20
0.0
 30
0.0
  3
SW_DOWELSYMBOL_0
  1
SW_DOWELSYMBOL_0
  0
CIRCLE
  5
143
330
140
100
AcDbEntity
  8
외형선
 62
     0
100
AcDbCircle
 10
0.0
 20
0.0
 30
0.0
 40
3.000000000000008
  0
HATCH
  5
144
330
140
100
AcDbEntity
  8
0
  6
Continuous
 62
     0
370
    30
100
AcDbHatch
 10
0.0
 20
0.0
 30
0.0
210
0.0
220
0.0
230
1.0
  2
SOLID
 70
     1
 71
     0
 91
        1
 92
        0
 93
        3
 72
     2
 10
0.0
 20
0.0
 40
3.000000000000008
 50
0.0
 51
90.0
 73
     1
 72
     1
 10
0.0
 20
3.000000000000008
 11
0.0
 21
0.0
 72
     1
 10
0.0
 20
0.0
 11
3.000000000000003
 21
0.0
 97
        0
 75
     0
 76
     1
 98
        1
 10
0.0
 20
0.0
  0
HATCH
  5
145
330
140
100
AcDbEntity
  8
0
  6
Continuous
 62
     0
370
    30
100
AcDbHatch
 10
0.0
 20
0.0
 30
0.0
210
0.0
220
0.0
230
1.0
  2
SOLID
 70
     1
 71
     0
 91
        1
 92
        0
 93
        3
 72
     2
 10
0.0
 20
0.0
 40
3.000000000000008
 50
180.0
 51
270.0000000000008
 73
     1
 72
     1
 10
0.0
 20
-3.000000000000008
 11
0.0
 21
0.0
 72
     1
 10
0.0
 20
0.0
 11
-3.000000000000003
 21
0.0
 97
        0
 75
     0
 76
     1
 98
        1
 10
0.0
 20
0.0
  0
ENDBLK
  5
142
330
140
100
AcDbEntity
  8
0
100
AcDbBlockEnd
  0
ENDSEC
  0
SECTION
  2
ENTITIES
  0
LINE
  5
95
330
1F
100
AcDbEntity
  8
0
  6
Continuous
 62
     1
370
    15
100
AcDbLine
 10
98.71774391528162
 20
1.373455884668154
 30
0.0
 11
98.4800199561215
 21
1.600069537821148
 31
0.0
  0
LINE
  5
96
330
1F
100
AcDbEntity
  8
0
  6
Continuous
 62
     1
370
    15
100
AcDbLine
 10
95.11710666691833
 20
-1.465923154016857
 30
0.0
 11
95.25542739892471
 21
-1.598831464472502
 31
0.0
  0
LINE
  5
97
330
1F
100
AcDbEntity
  8
0
  6
Continuous
 62
     1
370
    15
100
AcDbLine
 10
44.81628499808541
 20
-1.432568932577585
 30
0.0
 11
44.98919029977351
 21
-1.598091457018113
 31
0.0
  0
LINE
  5
98
330
1F
100
AcDbEntity
  8
0
  6
Continuous
 62
     1
370
    15
100
AcDbLine
 10
23.20257383850189
 20
1.48466530881408
 30
0.0
 11
23.08089849383262
 21
1.600949907235174
 31
0.0
  0
LINE
  5
99
330
1F
100
AcDbEntity
  8
0
  6
Continuous
 62
     1
370
    15
100
AcDbLine
 10
120.2521531583387
 20
-1.468379737293346
 30
0.0
 11
120.3881768702362
 21
-1.598839547112505
 31
0.0
  0
LINE
  5
9A
330
1F
100
AcDbEntity
  8
0
  6
Continuous
 62
     1
370
    15
100
AcDbLine
 10
69.96729987873151
 20
-1.449741077427998
 30
0.0
 11
70.1216239618076
 21
-1.597789849060373
 31
0.0
  0
LINE
  5
9B
330
1F
100
AcDbEntity
  8
0
  6
Continuous
 62
     1
370
    15
100
AcDbLine
 10
65.1188023873106
 20
1.457444680678171
 30
0.0
 11
64.96731614806144
 21
1.601547837439398
 31
0.0
  0
LINE
  5
9C
330
1F
100
AcDbEntity
  8
0
  6
Continuous
 62
     1
370
    15
100
AcDbLine
 10
111.8364833621086
 20
-1.430742659315113
 30
0.0
 11
112.0133745134201
 21
-1.599852789879648
 31
0.0
  0
LINE
  5
9D
330
1F
100
AcDbEntity
  8
0
  6
Continuous
 62
     1
370
    15
100
AcDbLine
 10
28.06509381807736
 20
-1.435311702124355
 30
0.0
 11
28.23530724419636
 21
-1.59848973321122
 31
0.0
  0
LINE
  5
9E
330
1F
100
AcDbEntity
  8
0
  6
Continuous
 62
     1
370
    15
100
AcDbLine
 10
31.67018863962063
 20
1.397576950925991
 30
0.0
 11
31.45584929873337
 21
1.601817584924062
 31
0.0
  0
LINE
  5
9F
330
1F
100
AcDbEntity
  8
0
  6
Continuous
 62
     1
370
    15
100
AcDbLine
 10
78.23696295808737
 20
-1.3462720192331
 30
0.0
 11
78.50172229451333
 21
-1.599401261566043
 31
0.0
  0
LINE
  5
A0
330
1F
100
AcDbEntity
  8
0
  6
Continuous
 62
     1
370
    15
100
AcDbLine
 10
39.9707270640358
 20
1.471660506764018
 30
0.0
 11
39.83565545105954
 21
1.600491709672351
 31
0.0
  0
LINE
  5
A1
330
1F
100
AcDbEntity
  8
0
  6
Continuous
 62
     1
370
    15
100
AcDbLine
 10
86.74846091963146
 20
-1.473696801815928
 30
0.0
 11
86.87980269330153
 21
-1.599038322525454
 31
0.0
  0
LINE
  5
A2
330
1F
100
AcDbEntity
  8
0
  6
Continuous
 62
     1
370
    15
100
AcDbLine
 10
36.50942259596449
 20
-1.498426613258352
 30
0.0
 11
36.61518924833281
 21
-1.599890464837019
 31
0.0
  0
LINE
  5
A3
330
1F
100
AcDbEntity
  8
0
  6
Continuous
 62
     1
370
    15
100
AcDbLine
 10
56.98337914711563
 20
1.225964242634166
 30
0.0
 11
56.58886960099532
 21
1.601543929327159
 31
0.0
  0
LINE
  5
A4
330
1F
100
AcDbEntity
  8
0
  6
Continuous
 62
     1
370
    15
100
AcDbLine
 10
106.9930498578494
 20
1.468633390173002
 30
0.0
 11
106.8539953525605
 21
1.601893709884778
 31
0.0
  0
LINE
  5
A5
330
1F
100
AcDbEntity
  8
0
  6
Continuous
 62
     1
370
    15
100
AcDbLine
 10
103.5533470352551
 20
-1.52139764088215
 30
0.0
 11
103.6334571158608
 21
-1.598417585048561
 31
0.0
  0
LINE
  5
A6
330
1F
100
AcDbEntity
  8
0
  6
Continuous
 62
     1
370
    15
100
AcDbLine
 10
53.22632113897954
 20
-1.462568940712123
 30
0.0
 11
53.3689779559691
 21
-1.599398222017871
 31
0.0
  0
LINE
  5
A7
330
1F
100
AcDbEntity
  8
0
  6
Continuous
 62
     1
370
    15
100
AcDbLine
 10
95.9023957937166
 20
-7.99892507127605
 30
0.0
 11
97.83492984998522
 21
-7.99892507127605
 31
0.0
  0
LINE
  5
A8
330
1F
100
AcDbEntity
  8
0
  6
Continuous
 62
     1
370
    15
100
AcDbLine
 10
45.63516283778422
 20
-7.99892507127605
 30
0.0
 11
47.57108467762301
 21
-7.99892507127605
 31
0.0
  0
LINE
  5
A9
330
1F
100
AcDbEntity
  8
0
  6
Continuous
 62
     1
370
    15
100
AcDbLine
 10
22.43709576942832
 20
8.00107492872396
 30
0.0
 11
20.50026514658647
 21
8.00107492872396
 31
0.0
  0
LINE
  5
AA
330
1F
100
AcDbEntity
  8
0
  6
Continuous
 62
     1
370
    15
100
AcDbLine
 10
72.7036059851868
 20
8.00107492872396
 30
0.0
 11
70.76953939725347
 21
8.00107492872396
 31
0.0
  0
LINE
  5
AB
330
1F
100
AcDbEntity
  8
0
  6
Continuous
 62
     1
370
    15
100
AcDbLine
 10
122.0
 20
8.00107492872396
 30
0.0
 11
121.0323588774423
 21
8.00107492872396
 31
0.0
  0
LINE
  5
AC
330
1F
100
AcDbEntity
  8
0
  6
Continuous
 62
     1
370
    15
100
AcDbLine
 10
121.0323588774423
 20
-7.99892507127605
 30
0.0
 11
122.0
 21
-7.99892507127605
 31
0.0
  0
LINE
  5
AD
330
1F
100
AcDbEntity
  8
0
  6
Continuous
 62
     1
370
    15
100
AcDbLine
 10
70.76953939725347
 20
-7.99892507127605
 30
0.0
 11
72.70360598518685
 21
-7.99892507127605
 31
0.0
  0
LINE
  5
AE
330
1F
100
AcDbEntity
  8
0
  6
Continuous
 62
     1
370
    15
100
AcDbLine
 10
20.5002651465865
 20
-7.99892507127605
 30
0.0
 11
22.43709576942838
 21
-7.99892507127605
 31
0.0
  0
LINE
  5
AF
330
1F
100
AcDbEntity
  8
0
  6
Continuous
 62
     1
370
    15
100
AcDbLine
 10
47.57108467762312
 20
8.00107492872396
 30
0.0
 11
45.63516283778419
 21
8.00107492872396
 31
0.0
  0
LINE
  5
B0
330
1F
100
AcDbEntity
  8
0
  6
Continuous
 62
     1
370
    15
100
AcDbLine
 10
97.83492984998524
 20
8.00107492872396
 30
0.0
 11
95.9023957937166
 21
8.00107492872396
 31
0.0
  0
LINE
  5
B1
330
1F
100
AcDbEntity
  8
0
  6
Continuous
 62
     1
370
    15
100
AcDbLine
 10
79.14426021160703
 20
-7.99892507127605
 30
0.0
 11
81.07793499051236
 21
-7.99892507127605
 31
0.0
  0
LINE
  5
B2
330
1F
100
AcDbEntity
  8
0
  6
Continuous
 62
     1
370
    15
100
AcDbLine
 10
28.88049121505038
 20
-7.99892507127605
 30
0.0
 11
30.81348848935055
 21
-7.99892507127605
 31
0.0
  0
LINE
  5
B3
330
1F
100
AcDbEntity
  8
0
  6
Continuous
 62
     1
370
    15
100
AcDbLine
 10
55.94550170591414
 20
8.00107492872396
 30
0.0
 11
54.01231627924365
 21
8.00107492872396
 31
0.0
  0
LINE
  5
B4
330
1F
100
AcDbEntity
  8
0
  6
Continuous
 62
     1
370
    15
100
AcDbLine
 10
106.2110097495395
 20
8.00107492872396
 30
0.0
 11
104.2765713424101
 21
8.00107492872396
 31
0.0
  0
LINE
  5
B5
330
1F
100
AcDbEntity
  8
0
  6
Continuous
 62
     1
370
    15
100
AcDbLine
 10
87.52103263447431
 20
-7.99892507127605
 30
0.0
 11
89.45682096215121
 21
-7.99892507127605
 31
0.0
  0
LINE
  5
B6
330
1F
100
AcDbEntity
  8
0
  6
Continuous
 62
     1
370
    15
100
AcDbLine
 10
37.25679052206463
 20
-7.99892507127605
 30
0.0
 11
39.18995309094757
 21
-7.99892507127605
 31
0.0
  0
LINE
  5
B7
330
1F
100
AcDbEntity
  8
0
  6
Continuous
 62
     1
370
    15
100
AcDbLine
 10
14.05738293430623
 20
8.00107492872396
 30
0.0
 11
12.12317910171885
 21
8.00107492872396
 31
0.0
  0
LINE
  5
B8
330
1F
100
AcDbEntity
  8
0
  6
Continuous
 62
     1
370
    15
100
AcDbLine
 10
64.32253869444538
 20
8.00107492872396
 30
0.0
 11
62.38870624074507
 21
8.00107492872396
 31
0.0
  0
LINE
  5
B9
330
1F
100
AcDbEntity
  8
0
  6
Continuous
 62
     1
370
    15
100
AcDbLine
 10
114.5905283237528
 20
8.00107492872396
 30
0.0
 11
112.6550578837448
 21
8.00107492872396
 31
0.0
  0
LINE
  5
BA
330
1F
100
AcDbEntity
  8
0
  6
Continuous
 62
     1
370
    15
100
AcDbLine
 10
104.27657134241
 20
-7.99892507127605
 30
0.0
 11
106.2110097495394
 21
-7.99892507127605
 31
0.0
  0
LINE
  5
BB
330
1F
100
AcDbEntity
  8
0
  6
Continuous
 62
     1
370
    15
100
AcDbLine
 10
54.01231627924354
 20
-7.99892507127605
 30
0.0
 11
55.94550170591405
 21
-7.99892507127605
 31
0.0
  0
LINE
  5
BC
330
1F
100
AcDbEntity
  8
0
  6
Continuous
 62
     1
370
    15
100
AcDbLine
 10
30.81348848935055
 20
8.00107492872396
 30
0.0
 11
28.88049121505033
 21
8.00107492872396
 31
0.0
  0
LINE
  5
BD
330
1F
100
AcDbEntity
  8
0
  6
Continuous
 62
     1
370
    15
100
AcDbLine
 10
81.0779349905123
 20
8.00107492872396
 30
0.0
 11
79.14426021160698
 21
8.00107492872396
 31
0.0
  0
LINE
  5
BE
330
1F
100
AcDbEntity
  8
0
  6
Continuous
 62
     1
370
    15
100
AcDbLine
 10
112.6550578837447
 20
-7.99892507127605
 30
0.0
 11
114.5905283237528
 21
-7.99892507127605
 31
0.0
  0
LINE
  5
BF
330
1F
100
AcDbEntity
  8
0
  6
Continuous
 62
     1
370
    15
100
AcDbLine
 10
62.38870624074504
 20
-7.99892507127605
 30
0.0
 11
64.32253869444538
 21
-7.99892507127605
 31
0.0
  0
LINE
  5
C0
330
1F
100
AcDbEntity
  8
0
  6
Continuous
 62
     1
370
    15
100
AcDbLine
 10
12.1231791017188
 20
-7.99892507127605
 30
0.0
 11
14.0573829343062
 21
-7.99892507127605
 31
0.0
  0
LINE
  5
C1
330
1F
100
AcDbEntity
  8
0
  6
Continuous
 62
     1
370
    15
100
AcDbLine
 10
39.18995309094757
 20
8.00107492872396
 30
0.0
 11
37.25679052206456
 21
8.00107492872396
 31
0.0
  0
LINE
  5
C2
330
1F
100
AcDbEntity
  8
0
  6
Continuous
 62
     1
370
    15
100
AcDbLine
 10
89.45682096215121
 20
8.00107492872396
 30
0.0
 11
87.52103263447425
 21
8.00107492872396
 31
0.0
  0
LINE
  5
C3
330
1F
100
AcDbEntity
  8
0
  6
Continuous
 62
   131
370
    15
100
AcDbLine
 10
-126.4
 20
-7.998925071276043
 30
0.0
 11
11.00016726970448
 21
-7.998925071276043
 31
0.0
  0
LINE
  5
C4
330
1F
100
AcDbEntity
  8
0
  6
Continuous
 62
   131
370
    15
100
AcDbLine
 10
11.00016726970448
 20
8.001074928723954
 30
0.0
 11
-126.4
 21
8.001074928723954
 31
0.0
  0
LINE
  5
C5
330
1F
100
AcDbEntity
  8
0
  6
Continuous
 62
   131
370
    15
100
AcDbLine
 10
-126.4
 20
8.001074928723959
 30
0.0
 11
-128.0000000000001
 21
6.401074928723963
 31
0.0
  0
LINE
  5
C6
330
1F
100
AcDbEntity
  8
0
  6
Continuous
 62
   131
370
    15
100
AcDbLine
 10
-128.0000000000001
 20
-6.398925071276053
 30
0.0
 11
-126.4
 21
-7.998925071276048
 31
0.0
  0
SPLINE
  5
C7
330
1F
100
AcDbEntity
  8
0
  6
Continuous
 62
     1
370
    15
100
AcDbSpline
210
0.0
220
0.0
230
1.0
 70
     8
 71
     3
 72
    20
 73
    16
 74
     0
 42
0.000000001
 43
0.00000001
 40
0.0
 40
0.0
 40
0.0
 40
0.0
 40
0.0351890289821185
 40
0.1167846725652308
 40
0.1983732084853012
 40
0.2799245370937162
 40
0.3614448176799921
 40
0.4430135157542365
 40
0.524608230445894
 40
0.6061987978818666
 40
0.6877550973035385
 40
0.7692737221781134
 40
0.8508382529611521
 40
0.9324317485074723
 40
1.0
 40
1.0
 40
1.0
 40
1.0
 10
30.81348848935052
 20
7.919234144188235
 30
0.0
 10
31.14605058984512
 20
7.938359405105283
 30
0.0
 10
32.24975129251597
 20
8.001831953184318
 30
0.0
 10
34.12496319709147
 20
7.403847736783072
 30
0.0
 10
36.4382286429729
 20
6.196802168892234
 30
0.0
 10
38.75024662785825
 20
4.43696266772825
 30
0.0
 10
41.06125890537014
 20
2.318921726332549
 30
0.0
 10
43.37384793415131
 20
0.0064120446747687
 30
0.0
 10
45.68737204442546
 20
-2.306084554666512
 30
0.0
 10
48.00074284589884
 20
-4.427572486442274
 30
0.0
 10
50.31291529689607
 20
-6.180140144887245
 30
0.0
 10
52.62387880804972
 20
-7.424871633189048
 30
0.0
 10
54.93631930507432
 20
-8.035649214530801
 30
0.0
 10
57.11726051173135
 20
-8.044240478435402
 30
0.0
 10
58.52714133276923
 20
-7.542568550797816
 30
0.0
 10
59.16579825239869
 20
-7.315317961110571
 30
0.0
  0
SPLINE
  5
C8
330
1F
100
AcDbEntity
  8
0
  6
Continuous
 62
     1
370
    15
100
AcDbSpline
210
0.0
220
0.0
230
1.0
 70
     8
 71
     3
 72
    20
 73
    16
 74
     0
 42
0.000000001
 43
0.00000001
 40
0.0
 40
0.0
 40
0.0
 40
0.0
 40
0.0567863240480538
 40
0.1383464880318135
 40
0.219857916185357
 40
0.3013988981317338
 40
0.3829776664169768
 40
0.4645641293840812
 40
0.5461281153909017
 40
0.6276426155324923
 40
0.7091782846255853
 40
0.7907546745332565
 40
0.8723417183033617
 40
0.9539092382527713
 40
1.0
 40
1.0
 40
1.0
 40
1.0
 10
81.0779349905123
 20
7.930514992885637
 30
0.0
 10
81.61476294013458
 20
7.927307011387661
 30
0.0
 10
82.92261765255977
 20
7.919491520926605
 30
0.0
 10
85.00081170670477
 20
7.14319355304672
 30
0.0
 10
87.31184324333402
 20
5.776952313769687
 30
0.0
 10
89.62381916551747
 20
3.907508509622697
 30
0.0
 10
91.93709921040791
 20
1.720381100670917
 30
0.0
 10
94.25066423222391
 20
-0.6113521175639748
 30
0.0
 10
96.56341163907861
 20
-2.891274330211889
 30
0.0
 10
98.87453916351625
 20
-4.932446913995312
 30
0.0
 10
101.1863423305639
 20
-6.561786598790737
 30
0.0
 10
103.499538412746
 20
-7.654256582517447
 30
0.0
 10
105.8131135543375
 20
-8.083062958941241
 30
0.0
 10
107.7911275593591
 20
-7.966926512070153
 30
0.0
 10
108.9973655495819
 20
-7.464823168566666
 30
0.0
 10
109.4328753111024
 20
-7.28353978240218
 30
0.0
  0
SPLINE
  5
C9
330
1F
100
AcDbEntity
  8
0
  6
Continuous
 62
     1
370
    15
100
AcDbSpline
210
0.0
220
0.0
230
1.0
 70
     8
 71
     3
 72
    20
 73
    16
 74
     0
 42
0.000000001
 43
0.00000001
 40
0.0
 40
0.0
 40
0.0
 40
0.0
 40
0.0782246621915337
 40
0.1597374914931003
 40
0.2412990835986568
 40
0.3228801981060357
 40
0.4044506595252398
 40
0.485980403089216
 40
0.5674889792401199
 40
0.6490470376599153
 40
0.7306275714065024
 40
0.812200411030432
 40
0.8937354670615828
 40
0.9752409714476958
 40
1.0
 40
1.0
 40
1.0
 40
1.0
 10
112.6550578837447
 20
-7.986029011121188
 30
0.0
 10
111.9157449521274
 20
-7.931774518996281
 30
0.0
 10
110.4060421318608
 20
-7.820984951723431
 30
0.0
 10
108.1260052318961
 20
-6.835745191989498
 30
0.0
 10
105.8131205700237
 20
-5.322494554235695
 30
0.0
 10
103.4995365363014
 20
-3.353187291660637
 30
0.0
 10
101.1863428205469
 20
-1.109500612428202
 30
0.0
 10
98.87453907893253
 20
1.227406099006085
 30
0.0
 10
96.563411487707
 20
3.462458351603947
 30
0.0
 10
94.25066492292534
 20
5.410644327411616
 30
0.0
 10
91.93709659845693
 20
6.907130077835883
 30
0.0
 10
89.62382891940975
 20
7.842154736619595
 30
0.0
 10
87.31180686316175
 20
8.082887944335793
 30
0.0
 10
85.53753181343227
 20
7.878012426162863
 30
0.0
 10
84.53301832861074
 20
7.406164309431482
 30
0.0
 10
84.29897243047189
 20
7.29622639626836
 30
0.0
  0
SPLINE
  5
CA
330
1F
100
AcDbEntity
  8
0
  6
Continuous
 62
     1
370
    15
100
AcDbSpline
210
0.0
220
0.0
230
1.0
 70
     8
 71
     3
 72
    21
 73
    17
 74
     0
 42
0.000000001
 43
0.00000001
 40
0.0
 40
0.0
 40
0.0
 40
0.0
 40
0.018094822051056
 40
0.0996485446011148
 40
0.1812335896571089
 40
0.2628198210404819
 40
0.3443770902392687
 40
0.4258884576165363
 40
0.5074374961867816
 40
0.5890207997204924
 40
0.6706082501406638
 40
0.7521696862596475
 40
0.8336827092012103
 40
0.915226777400745
 40
0.996808049599417
 40
1.0
 40
1.0
 40
1.0
 40
1.0
 10
62.38870624074504
 20
-7.941425179430317
 30
0.0
 10
62.21773847419728
 20
-7.959049262358602
 30
0.0
 10
61.27621558648302
 20
-8.056105437256461
 30
0.0
 10
59.56322559188168
 20
-7.574726545803908
 30
0.0
 10
57.24980678880227
 20
-6.502863007056527
 30
0.0
 10
54.93632364241064
 20
-4.835848900726128
 30
0.0
 10
52.62387764596745
 20
-2.782654657216768
 30
0.0
 10
50.31291561140814
 20
-0.4938153002560287
 30
0.0
 10
48.00074275017265
 20
1.834444149438147
 30
0.0
 10
45.68737211263714
 20
4.010769374049781
 30
0.0
 10
43.37384775707494
 20
5.855619784039467
 30
0.0
 10
41.06125954508562
 20
7.209671338737824
 30
0.0
 10
38.75024424712934
 20
7.983867456433996
 30
0.0
 10
36.43823753214821
 20
8.028283672544347
 30
0.0
 10
34.86602065237348
 20
7.776377249465559
 30
0.0
 10
34.06464802044836
 20
7.36506961020995
 30
0.0
 10
34.03447408562484
 20
7.349582720085563
 30
0.0
  0
LINE
  5
CB
330
1F
100
AcDbEntity
  8
0
  6
Continuous
 62
     1
370
    15
100
AcDbLine
 10
12.1231791017188
 20
-7.984699664458134
 30
0.0
 11
12.00000000000003
 21
-7.997968697664615
 31
0.0
  0
LINE
  5
CC
330
1F
100
AcDbEntity
  8
0
  6
Continuous
 62
     1
370
    15
100
AcDbLine
 10
122.0
 20
-3.134271942038438
 30
0.0
 11
122.0
 21
3.1364217994865
 31
0.0
  0
SPLINE
  5
CD
330
1F
100
AcDbEntity
  8
0
  6
Continuous
 62
     1
370
    15
100
AcDbSpline
210
0.0
220
0.0
230
1.0
 70
     8
 71
     3
 72
    17
 73
    13
 74
     0
 42
0.000000001
 43
0.00000001
 40
0.0
 40
0.0
 40
0.0
 40
0.0
 40
0.0898282358959602
 40
0.1796575281446898
 40
0.269487811129925
 40
0.3744402286585521
 40
0.4794185224778967
 40
0.5843838640632876
 40
0.6892975595131091
 40
0.7941817237576464
 40
0.899129520488692
 40
1.0
 40
1.0
 40
1.0
 40
1.0
 10
11.99999999999994
 20
5.632014279673022
 30
0.0
 10
12.65951407267409
 20
5.130212156199373
 30
0.0
 10
13.97854997370756
 20
4.126602008211522
 30
0.0
 10
15.95723615196644
 20
2.278223271140351
 30
0.0
 10
18.04653186319031
 20
0.205942968389759
 30
0.0
 10
20.2489684996779
 20
-2.008578586630097
 30
0.0
 10
22.56249006991658
 20
-4.165258588856789
 30
0.0
 10
24.87571761806788
 20
-5.97589388696772
 30
0.0
 10
27.18755225257357
 20
-7.293890015984602
 30
0.0
 10
29.49865760431638
 20
-7.993795434791557
 30
0.0
 10
31.78121007916516
 20
-8.077411869416112
 30
0.0
 10
33.29337152958685
 20
-7.587524261704386
 30
0.0
 10
34.03447408562492
 20
-7.347432862637656
 30
0.0
  0
SPLINE
  5
CE
330
1F
100
AcDbEntity
  8
0
  6
Continuous
 62
     1
370
    15
100
AcDbSpline
210
0.0
220
0.0
230
1.0
 70
     8
 71
     3
 72
    20
 73
    16
 74
     0
 42
0.000000001
 43
0.00000001
 40
0.0
 40
0.0
 40
0.0
 40
0.0
 40
0.0459948423220281
 40
0.1275835059006862
 40
0.2091408455841701
 40
0.2906553545790289
 40
0.3722117867395033
 40
0.4538001274884901
 40
0.5353902426666818
 40
0.6169519796673469
 40
0.6984671970660836
 40
0.7800188881175968
 40
0.8616054296892522
 40
0.9431967063216099
 40
1.0
 40
1.0
 40
1.0
 40
1.0
 10
55.94550170591414
 20
7.91899637835318
 30
0.0
 10
56.38027026244625
 20
7.930478067371628
 30
0.0
 10
57.58625975816814
 20
7.962326728323204
 30
0.0
 10
59.56324336269979
 20
7.279164463222179
 30
0.0
 10
61.87556519106188
 20
5.991328218822633
 30
0.0
 10
64.18651356093112
 20
4.175023791446817
 30
0.0
 10
66.4988111414563
 20
2.021240931671596
 30
0.0
 10
68.81223424566686
 20
-0.3026785397186639
 30
0.0
 10
71.125722787443
 20
-2.600712746145
 30
0.0
 10
73.43819909018485
 20
-4.6831427595365
 30
0.0
 10
75.74916657329335
 20
-6.375802885582334
 30
0.0
 10
78.06131415562065
 20
-7.544908241352579
 30
0.0
 10
80.37464680382611
 20
-8.065494983494315
 30
0.0
 10
82.45418194082028
 20
-8.007375098781289
 30
0.0
 10
83.7621316381741
 20
-7.501649033487109
 30
0.0
 10
84.29897243047195
 20
-7.294076538820452
 30
0.0
  0
SPLINE
  5
CF
330
1F
100
AcDbEntity
  8
0
  6
Continuous
 62
     1
370
    15
100
AcDbSpline
210
0.0
220
0.0
230
1.0
 70
     8
 71
     3
 72
    14
 73
    10
 74
     0
 42
0.000000001
 43
0.00000001
 40
0.0
 40
0.0
 40
0.0
 40
0.0
 40
0.1212930760593408
 40
0.2676866698982288
 40
0.4141005877957054
 40
0.5605928957560049
 40
0.7071096484734495
 40
0.8535966466193925
 40
1.0
 40
1.0
 40
1.0
 40
1.0
 10
106.2110097495395
 20
7.953667160726273
 30
0.0
 10
106.8494791482395
 20
7.928580804197097
 30
0.0
 10
108.2585434800427
 20
7.873216693916891
 30
0.0
 10
110.4372505386211
 20
6.995803089205857
 30
0.0
 10
112.7488834427582
 20
5.554942067167965
 30
0.0
 10
115.0619762368089
 20
3.633316913782057
 30
0.0
 10
117.3755765223517
 20
1.420087306105371
 30
0.0
 10
119.6885640609781
 20
-0.9306081893138286
 30
0.0
 10
121.2296680584832
 20
-2.399857222413988
 30
0.0
 10
122.0
 20
-3.134271942038438
 30
0.0
  0
SPLINE
  5
D0
330
1F
100
AcDbEntity
  8
0
  6
Continuous
 62
   131
370
    15
100
AcDbSpline
210
0.0
220
0.0
230
1.0
 70
    24
 71
     3
 72
    10
 73
     6
 74
     0
 42
0.000000001
 43
0.00000001
 40
0.0
 40
0.0
 40
0.0
 40
0.0
 40
0.3119030100214631
 40
0.7802771094511003
 40
1.0
 40
1.0
 40
1.0
 40
1.0
 10
12.00000000000003
 20
8.00011855511251
 30
0.0
 10
12.00000000000003
 20
7.763501176758747
 30
0.0
 10
12.00000000000003
 20
7.171563561231836
 30
0.0
 10
12.0
 20
6.383144920102329
 30
0.0
 10
12.0
 20
5.943989298891623
 30
0.0
 10
11.99999999999997
 20
5.803758279284598
 30
0.0
  0
SPLINE
  5
D1
330
1F
100
AcDbEntity
  8
0
  6
Continuous
 62
     1
370
    15
100
AcDbSpline
210
0.0
220
0.0
230
1.0
 70
     8
 71
     3
 72
    14
 73
    10
 74
     0
 42
0.000000001
 43
0.00000001
 40
0.0
 40
0.0
 40
0.0
 40
0.0
 40
0.1381097361349377
 40
0.2761817549513745
 40
0.4142257426525167
 40
0.5522514617795476
 40
0.7362245967026031
 40
0.9200992850532379
 40
1.0
 40
1.0
 40
1.0
 40
1.0
 10
122.0
 20
3.136421799486499
 30
0.0
 10
121.4215076090661
 20
3.654119738930944
 30
0.0
 10
120.2646808115836
 20
4.689374236201013
 30
0.0
 10
118.530002766087
 20
5.983900300089751
 30
0.0
 10
116.795633515574
 20
7.00702725053024
 30
0.0
 10
114.8699956732672
 20
7.78312547377451
 30
0.0
 10
112.7486440254839
 20
8.090255894800121
 30
0.0
 10
110.872860905038
 20
7.925133780619222
 30
0.0
 10
109.7676552750298
 20
7.43435299265156
 30
0.0
 10
109.4328753111024
 20
7.285689639850089
 30
0.0
  0
SPLINE
  5
D2
330
1F
100
AcDbEntity
  8
0
  6
Continuous
 62
     1
370
    15
100
AcDbSpline
210
0.0
220
0.0
230
1.0
 70
     8
 71
     3
 72
    21
 73
    17
 74
     0
 42
0.000000001
 43
0.00000001
 40
0.0
 40
0.0
 40
0.0
 40
0.0
 40
0.0073833143064132
 40
0.0888919724172504
 40
0.1704493647020898
 40
0.2520321839743876
 40
0.3336102686767975
 40
0.4151535064715034
 40
0.4966602743941146
 40
0.578213557096657
 40
0.6597952150351799
 40
0.7413750987284253
 40
0.8229230771406526
 40
0.9044291367328158
 40
0.9859780225739813
 40
1.0
 40
1.0
 40
1.0
 40
1.0
 10
87.52103263447431
 20
-7.971549435423183
 30
0.0
 10
87.45125161471238
 20
-7.980504739306581
 30
0.0
 10
86.61111773628086
 20
-8.08832279942893
 30
0.0
 10
85.00085999814074
 20
-7.667264835492691
 30
0.0
 10
82.6881853088132
 20
-6.685711371962213
 30
0.0
 10
80.37466906975867
 20
-5.079781231163864
 30
0.0
 10
78.0613081935743
 20
-3.070859401790845
 30
0.0
 10
75.74916816526787
 20
-0.8023182111698552
 30
0.0
 10
73.43819867997995
 20
1.532294565206534
 30
0.0
 10
71.12572283561185
 20
3.739198742849454
 30
0.0
 10
68.81223446353737
 20
5.637232996050265
 30
0.0
 10
66.4988102219982
 20
7.063643925636647
 30
0.0
 10
64.18651701867186
 20
7.918444406195777
 30
0.0
 10
61.8755522833131
 20
8.06236520426482
 30
0.0
 10
60.20184346413559
 20
7.828326487719108
 30
0.0
 10
59.29835620490208
 20
7.38283019699075
 30
0.0
 10
59.16579825239877
 20
7.317467818558484
 30
0.0
  0
SPLINE
  5
D3
330
1F
100
AcDbEntity
  8
0
  6
Continuous
 62
     1
370
    15
100
AcDbSpline
210
0.0
220
0.0
230
1.0
 70
     8
 71
     3
 72
    19
 73
    15
 74
     0
 42
0.000000001
 43
0.00000001
 40
0.0
 40
0.0
 40
0.0
 40
0.0
 40
0.0325581918605462
 40
0.1245856707610931
 40
0.2166211667231464
 40
0.3086306456245119
 40
0.4005843368666128
 40
0.4925639186075529
 40
0.5845887793745332
 40
0.6766249955804429
 40
0.7686385256119043
 40
0.8473942287755981
 40
0.9261490633441164
 40
1.0
 40
1.0
 40
1.0
 40
1.0
 10
37.25679052206463
 20
-7.922676373974902
 30
0.0
 10
36.98403245326372
 20
-7.943123159187594
 30
0.0
 10
35.94030904556904
 20
-8.021363881569913
 30
0.0
 10
34.12491076581152
 20
-7.469228227717806
 30
0.0
 10
31.81138732636406
 20
-6.3110192681443
 30
0.0
 10
29.49865612415438
 20
-4.58503465080544
 30
0.0
 10
27.18755264889724
 20
-2.489823603057041
 30
0.0
 10
24.87571751292482
 20
-0.1852215602362798
 30
0.0
 10
22.56249009390957
 20
2.13428610565219
 30
0.0
 10
20.24896850888756
 20
4.276123693342543
 30
0.0
 10
18.0465318057451
 20
5.981172582693728
 30
0.0
 10
15.95723633727459
 20
7.165876225140002
 30
0.0
 10
14.01961109143566
 20
7.877178217284347
 30
0.0
 10
12.74163408172683
 20
7.951084060832277
 30
0.0
 10
12.12317910171885
 20
7.98684952190604
 30
0.0
  0
LINE
  5
D4
330
1F
100
AcDbEntity
  8
0
  6
Continuous
 62
     1
370
    15
100
AcDbLine
 10
122.0
 20
-7.940545478510744
 30
0.0
 11
122.0
 21
-4.767830258282935
 31
0.0
  0
SPLINE
  5
D5
330
1F
100
AcDbEntity
  8
0
  6
Continuous
 62
     1
370
    15
100
AcDbSpline
210
0.0
220
0.0
230
1.0
 70
     8
 71
     3
 72
    14
 73
    10
 74
     0
 42
0.000000001
 43
0.00000001
 40
0.0
 40
0.0
 40
0.0
 40
0.0
 40
0.1448830280381154
 40
0.2897677598566332
 40
0.4346540896237637
 40
0.6039307530225595
 40
0.7732491520217057
 40
0.9425466604973282
 40
1.0
 40
1.0
 40
1.0
 40
1.0
 10
11.99999999999994
 20
-2.104775495068597
 30
0.0
 10
12.65951403705496
 20
-2.728559345955244
 30
0.0
 10
13.97854986684975
 20
-3.976134383237153
 30
0.0
 10
15.95723657940542
 20
-5.57169098137005
 30
0.0
 10
18.04653014634381
 20
-6.90576127299251
 30
0.0
 10
20.24897612261105
 20
-7.816986638293684
 30
0.0
 10
22.56246176016306
 20
-8.084062163686728
 30
0.0
 10
24.36670946403267
 20
-7.88934834892048
 30
0.0
 10
25.39924749408632
 20
-7.411275848347499
 30
0.0
 10
25.66086838114813
 20
-7.290143504511941
 30
0.0
  0
SPLINE
  5
D6
330
1F
100
AcDbEntity
  8
0
  6
Continuous
 62
     1
370
    15
100
AcDbSpline
210
0.0
220
0.0
230
1.0
 70
     8
 71
     3
 72
    21
 73
    17
 74
     0
 42
0.000000001
 43
0.00000001
 40
0.0
 40
0.0
 40
0.0
 40
0.0
 40
0.0151595069726612
 40
0.0967083530988806
 40
0.1782195281210175
 40
0.2597766048563531
 40
0.3413626437079285
 40
0.4229474962349237
 40
0.5045010263299011
 40
0.5860117277368988
 40
0.6675643503512577
 40
0.7491488800636612
 40
0.8307351841223848
 40
0.9122931113291424
 40
0.993804521106928
 40
1.0
 40
1.0
 40
1.0
 40
1.0
 10
47.57108467762309
 20
7.950685188751784
 30
0.0
 10
47.71438706508307
 20
7.966492980178296
 30
0.0
 10
48.62856837133425
 20
8.067336990326215
 30
0.0
 10
50.31289836866596
 20
7.603898104480272
 30
0.0
 10
52.62388204160068
 20
6.556226365016389
 30
0.0
 10
54.93632330983654
 20
4.906184703138108
 30
0.0
 10
57.24980371949904
 20
2.864679991286121
 30
0.0
 10
59.563238199119
 20
0.5813415603429766
 30
0.0
 10
61.87556650628743
 20
-1.748783469832524
 30
0.0
 10
64.18651345943651
 20
-3.934386059803063
 30
0.0
 10
66.49881023101649
 20
-5.793907019400696
 30
0.0
 10
68.81223799057044
 20
-7.168343294233956
 30
0.0
 10
71.12570872060694
 20
-7.964748006445838
 30
0.0
 10
73.43825158004883
 20
-8.036982648345296
 30
0.0
 10
75.03717195891862
 20
-7.788543869373117
 30
0.0
 10
75.86608356167734
 20
-7.367221388180535
 30
0.0
 10
75.92463659459112
 20
-7.337459820087505
 30
0.0
  0
SPLINE
  5
D7
330
1F
100
AcDbEntity
  8
0
  6
Continuous
 62
     1
370
    15
100
AcDbSpline
210
0.0
220
0.0
230
1.0
 70
     8
 71
     3
 72
    18
 73
    14
 74
     0
 42
0.000000001
 43
0.00000001
 40
0.0
 40
0.0
 40
0.0
 40
0.0
 40
0.0430275046673513
 40
0.1386995540136517
 40
0.2344193842124928
 40
0.3301517154046272
 40
0.4258611378016567
 40
0.5215133389051292
 40
0.6171788195578521
 40
0.7128955195423575
 40
0.8086281915018998
 40
0.9043414221035085
 40
1.0
 40
1.0
 40
1.0
 40
1.0
 10
97.83492984998527
 20
7.918547685444465
 30
0.0
 10
98.18142657941145
 20
7.937008732696802
 30
0.0
 10
99.29836194924381
 20
7.996518087011435
 30
0.0
 10
101.1863341345822
 20
7.387295805063887
 30
0.0
 10
103.4995381733485
 20
6.168965029877318
 30
0.0
 10
105.8131227111281
 20
4.400996576575176
 30
0.0
 10
108.1259950362173
 20
2.278416409414733
 30
0.0
 10
110.4372575978492
 20
-0.0365514359344857
 30
0.0
 10
112.7488815500614
 20
-2.34653221450289
 30
0.0
 10
115.0619767439943
 20
-4.465175838448735
 30
0.0
 10
117.3755763871207
 20
-6.200681040294818
 30
0.0
 10
119.6885640947606
 20
-7.468745057268054
 30
0.0
 10
121.2296680697418
 20
-7.783308616191236
 30
0.0
 10
122.0
 20
-7.940545478510744
 30
0.0
  0
SPLINE
  5
D8
330
1F
100
AcDbEntity
  8
0
  6
Continuous
 62
   131
370
    15
100
AcDbSpline
210
0.0
220
0.0
230
1.0
 70
    24
 71
     3
 72
    24
 73
    20
 74
     0
 42
0.000000001
 43
0.00000001
 40
0.0
 40
0.0
 40
0.0
 40
0.0
 40
0.1249999999999997
 40
0.1249999999999997
 40
0.1874999999999994
 40
0.1874999999999994
 40
0.2499999999999992
 40
0.2499999999999992
 40
0.3749999999999994
 40
0.3749999999999994
 40
0.4999999999999997
 40
0.4999999999999997
 40
0.6249999999999998
 40
0.6249999999999998
 40
0.7499999999999998
 40
0.7499999999999998
 40
0.8749999999999999
 40
0.8749999999999999
 40
1.0
 40
1.0
 40
1.0
 40
1.0
 10
12.00000000000003
 20
4.10772188998988
 30
0.0
 10
12.00000000000003
 20
4.007111809052207
 30
0.0
 10
12.0
 20
3.877072047134249
 30
0.0
 10
12.00000000000003
 20
3.670643456616027
 30
0.0
 10
12.00000000000003
 20
3.602449102314642
 30
0.0
 10
11.99999999999997
 20
3.446043822613395
 30
0.0
 10
12.0
 20
3.358423581769534
 30
0.0
 10
12.00000000000006
 20
3.062553051951451
 30
0.0
 10
12.0
 20
2.820542436933516
 30
0.0
 10
12.00000000000003
 20
2.231035695235648
 30
0.0
 10
11.99999999999997
 20
1.882271476334712
 30
0.0
 10
11.99999999999991
 20
1.101453609191329
 30
0.0
 10
11.99999999999997
 20
0.6692263935042349
 30
0.0
 10
12.0
 20
-0.1866205799903363
 30
0.0
 10
11.99999999999997
 20
-0.6073103704016083
 30
0.0
 10
11.99999999999997
 20
-1.315471644935207
 30
0.0
 10
12.0
 20
-1.600285017033857
 30
0.0
 10
11.99999999999994
 20
-1.98181581277471
 30
0.0
 10
11.99999999999997
 20
-2.079857357101623
 30
0.0
 10
11.99999999999997
 20
-2.104775495068634
 30
0.0
  0
SPLINE
  5
D9
330
1F
100
AcDbEntity
  8
0
  6
Continuous
 62
     1
370
    15
100
AcDbSpline
210
0.0
220
0.0
230
1.0
 70
     8
 71
     3
 72
    18
 73
    14
 74
     0
 42
0.000000001
 43
0.00000001
 40
0.0
 40
0.0
 40
0.0
 40
0.0
 40
0.0828778887068494
 40
0.1657331437325947
 40
0.2485715776440671
 40
0.3313990488175431
 40
0.441798977366433
 40
0.5521398293845802
 40
0.6624653647308383
 40
0.7728568992885243
 40
0.8832748569191273
 40
0.9936783958666096
 40
1.0
 40
1.0
 40
1.0
 40
1.0
 10
122.0
 20
-4.805198607748233
 30
0.0
 10
121.4215076275232
 20
-4.321136135690256
 30
0.0
 10
120.2646808669499
 20
-3.353143387456679
 30
0.0
 10
118.5300025447112
 20
-1.68370116347073
 30
0.0
 10
116.7956343455065
 20
0.0483387614135979
 30
0.0
 10
114.8699921394506
 20
1.97457964132819
 30
0.0
 10
112.7486621815462
 20
3.973515423579863
 30
0.0
 10
110.4373155842488
 20
5.825860844047768
 30
0.0
 10
108.1259823620875
 20
7.190311458764715
 30
0.0
 10
105.8131153793588
 20
7.975479455148442
 30
0.0
 10
103.4995801887415
 20
8.033797536679469
 30
0.0
 10
101.912858881435
 20
7.783649307960141
 30
0.0
 10
101.0977892471642
 20
7.367127441403851
 30
0.0
 10
101.0536466791363
 20
7.344569436472169
 30
0.0
  0
SPLINE
  5
DA
330
1F
100
AcDbEntity
  8
0
  6
Continuous
 62
     1
370
    15
100
AcDbSpline
210
0.0
220
0.0
230
1.0
 70
     8
 71
     3
 72
    20
 73
    16
 74
     0
 42
0.000000001
 43
0.00000001
 40
0.0
 40
0.0
 40
0.0
 40
0.0
 40
0.0382012840702331
 40
0.1197592615751517
 40
0.2012807626157019
 40
0.2828487868441688
 40
0.3644451914377082
 40
0.4460398214652585
 40
0.5276025404446099
 40
0.6091233330266747
 40
0.6906869595989906
 40
0.7722819124811
 40
0.8538780518346579
 40
0.935445225486413
 40
1.0
 40
1.0
 40
1.0
 40
1.0
 10
79.14426021160703
 20
-7.9158266811247
 30
0.0
 10
78.78318564223143
 20
-7.933525814775959
 30
0.0
 10
77.65123354024213
 20
-7.989011781496287
 30
0.0
 10
75.74917746079471
 20
-7.368540615640397
 30
0.0
 10
73.43819616970727
 20
-6.138536042662452
 30
0.0
 10
71.12572357761856
 20
-4.36307606355096
 30
0.0
 10
68.81223400724447
 20
-2.235021229540818
 30
0.0
 10
66.4988113048146
 20
0.081219552625792
 30
0.0
 10
64.18651314609689
 20
2.389715548738331
 30
0.0
 10
61.87556668665108
 20
4.501228596336825
 30
0.0
 10
59.56323779078612
 20
6.237294265200606
 30
0.0
 10
57.24980517294357
 20
7.461217159321703
 30
0.0
 10
54.93631790535649
 20
8.04726740360902
 30
0.0
 10
52.78424569450102
 20
8.03652199977846
 30
0.0
 10
51.40383304010685
 20
7.533037867856829
 30
0.0
 10
50.79398469932723
 20
7.310605132628083
 30
0.0
  0
SPLINE
  5
DB
330
1F
100
AcDbEntity
  8
0
  6
Continuous
 62
     1
370
    15
100
AcDbSpline
210
0.0
220
0.0
230
1.0
 70
     8
 71
     3
 72
    15
 73
    11
 74
     0
 42
0.000000001
 43
0.00000001
 40
0.0
 40
0.0
 40
0.0
 40
0.0
 40
0.1002927925363166
 40
0.2372316321639064
 40
0.3742378830274253
 40
0.5112610398237721
 40
0.6482504215328035
 40
0.7655016027315419
 40
0.882751490769198
 40
1.0
 40
1.0
 40
1.0
 40
1.0
 10
28.88049121505041
 20
-7.933670455741839
 30
0.0
 10
28.3162273339212
 20
-7.92512849487199
 30
0.0
 10
26.98152283416424
 20
-7.904923420630977
 30
0.0
 10
24.87572920360554
 20
-7.101352385043013
 30
0.0
 10
22.56248696333527
 20
-5.714276585201699
 30
0.0
 10
20.24896933618329
 20
-3.830749728941055
 30
0.0
 10
18.04653167479152
 20
-1.738428449843559
 30
0.0
 10
15.95723619887158
 20
0.356773981443688
 30
0.0
 10
13.97854996198149
 20
2.336793041132653
 30
0.0
 10
12.65951406876546
 20
3.517414587648978
 30
0.0
 10
12.00000000000006
 20
4.107721889989856
 30
0.0
  0
LINE
  5
DC
330
1F
100
AcDbEntity
  8
0
  6
Continuous
 62
     1
370
    15
100
AcDbLine
 10
122.0
 20
4.782770979458669
 30
0.0
 11
122.0
 21
7.942695335958661
 31
0.0
  0
SPLINE
  5
DD
330
1F
100
AcDbEntity
  8
0
  6
Continuous
 62
     1
370
    15
100
AcDbSpline
210
0.0
220
0.0
230
1.0
 70
     8
 71
     3
 72
    20
 73
    16
 74
     0
 42
0.000000001
 43
0.00000001
 40
0.0
 40
0.0
 40
0.0
 40
0.0
 40
0.0670312114827951
 40
0.1368442749111863
 40
0.2184097508108152
 40
0.2999953368900528
 40
0.3815708569303056
 40
0.463106239337474
 40
0.5446186710888156
 40
0.6261805558605538
 40
0.7077655034789797
 40
0.7893433443660718
 40
0.870883982818829
 40
0.9523935773193768
 40
0.9999999999999999
 40
0.9999999999999999
 40
0.9999999999999999
 40
0.9999999999999999
 10
14.05738293430623
 20
7.991757607266564
 30
0.0
 10
14.69066188638695
 20
7.951910562967906
 30
0.0
 10
15.98350140244195
 20
7.870562788344982
 30
0.0
 10
18.04653313674558
 20
7.104901810547711
 30
0.0
 10
20.2489681393714
 20
5.805121635690158
 30
0.0
 10
22.56249015477933
 20
3.94538703952962
 30
0.0
 10
24.87571763891546
 20
1.761949291069884
 30
0.0
 10
27.18755208448613
 20
-0.5685226258428189
 30
0.0
 10
29.49865825580807
 20
-2.851784701016427
 30
0.0
 10
31.81137935771906
 20
-4.898317653159766
 30
0.0
 10
34.12494051470864
 20
-6.536667763668687
 30
0.0
 10
36.43822996232494
 20
-7.639776418100513
 30
0.0
 10
38.75026400877731
 20
-8.081375588648351
 30
0.0
 10
40.74043219732266
 20
-7.97255625910291
 30
0.0
 10
41.96091459869012
 20
-7.469738752299584
 30
0.0
 10
42.4109191941094
 20
-7.284344691340375
 30
0.0
  0
SPLINE
  5
DE
330
1F
100
AcDbEntity
  8
0
  6
Continuous
 62
     1
370
    15
100
AcDbSpline
210
0.0
220
0.0
230
1.0
 70
     8
 71
     3
 72
    20
 73
    16
 74
     0
 42
0.000000001
 43
0.00000001
 40
0.0
 40
0.0
 40
0.0
 40
0.0
 40
0.0767366786033515
 40
0.1583098638982002
 40
0.2398848232926442
 40
0.3214314097809544
 40
0.4029314853085915
 40
0.4844680277138363
 40
0.5660394141655601
 40
0.6476155347984242
 40
0.7291662305315995
 40
0.8106681960922602
 40
0.892199712014879
 40
0.9737690098897801
 40
1.0
 40
1.0
 40
1.0
 40
1.0
 10
64.32253869444538
 20
7.98264995110318
 30
0.0
 10
65.04784989087473
 20
7.932892991348831
 30
0.0
 10
66.5441866998223
 20
7.830243024343939
 30
0.0
 10
68.81224788287192
 20
6.860453369206001
 30
0.0
 10
71.12571922512542
 20
5.356805576652746
 30
0.0
 10
73.4381997066141
 20
3.394391901886132
 30
0.0
 10
75.74916766638266
 20
1.153673849002921
 30
0.0
 10
78.06130916295017
 20
-1.183150308085728
 30
0.0
 10
80.37466568983969
 20
-3.42144159620499
 30
0.0
 10
82.68819785762302
 20
-5.376677722340776
 30
0.0
 10
85.00081321074212
 20
-6.882380931326822
 30
0.0
 10
87.3118433929156
 20
-7.828646660388867
 30
0.0
 10
89.62381706154981
 20
-8.082508322312243
 30
0.0
 10
91.4138423042488
 20
-7.882741529404183
 30
0.0
 10
92.43303833266562
 20
-7.407597255776231
 30
0.0
 10
92.68103879204715
 20
-7.291980637533219
 30
0.0
  0
SPLINE
  5
DF
330
1F
100
AcDbEntity
  8
0
  6
Continuous
 62
     1
370
    15
100
AcDbSpline
210
0.0
220
0.0
230
1.0
 70
     8
 71
     3
 72
    11
 73
     7
 74
     0
 42
0.000000001
 43
0.00000001
 40
0.0
 40
0.0
 40
0.0
 40
0.0
 40
0.0636084011977464
 40
0.3758406227601434
 40
0.6880094363109017
 40
1.0
 40
1.0
 40
1.0
 40
1.0
 10
114.5905283237528
 20
7.94703059889359
 30
0.0
 10
114.7476401890296
 20
7.963827976593323
 30
0.0
 10
115.6759612940523
 20
8.063078024960037
 30
0.0
 10
117.3755974419394
 20
7.585574038532888
 30
0.0
 10
119.6885588350074
 20
6.548272298815747
 30
0.0
 10
121.2296663168245
 20
5.387545914818172
 30
0.0
 10
122.0
 20
4.807348465196186
 30
0.0
  0
SPLINE
  5
E0
330
1F
100
AcDbEntity
  8
0
  6
Continuous
 62
     1
370
    15
100
AcDbSpline
210
0.0
220
0.0
230
1.0
 70
     8
 71
     3
 72
    10
 73
     6
 74
     0
 42
0.000000001
 43
0.00000001
 40
0.0
 40
0.0
 40
0.0
 40
0.0
 40
0.4138068032241609
 40
0.8275005971599697
 40
1.0
 40
1.0
 40
1.0
 40
1.0
 10
122.0
 20
7.942695335958663
 30
0.0
 10
121.4215119827328
 20
7.972480332001401
 30
0.0
 10
120.2646939313894
 20
8.0320421899016
 30
0.0
 10
118.8669587918834
 20
7.776478322583045
 30
0.0
 10
118.0477068876959
 20
7.422110022515572
 30
0.0
 10
117.8066251674965
 20
7.317829862862932
 30
0.0
  0
SPLINE
  5
E1
330
1F
100
AcDbEntity
  8
0
  6
Continuous
 62
     1
370
    15
100
AcDbSpline
210
0.0
220
0.0
230
1.0
 70
     8
 71
     3
 72
    20
 73
    16
 74
     0
 42
0.000000001
 43
0.00000001
 40
0.0
 40
0.0
 40
0.0
 40
0.0
 40
0.0582412279225892
 40
0.139825117676323
 40
0.2214013129908834
 40
0.3029397231583482
 40
0.3844485804650987
 40
0.4660061720649511
 40
0.5475891907144019
 40
0.6291674747823942
 40
0.7107109118575214
 40
0.7922178789714267
 40
0.8737713609789387
 40
0.9553532182917766
 40
1.0
 40
1.0
 40
1.0
 40
1.0
 10
95.9023957937166
 20
-7.930861565274346
 30
0.0
 10
95.35189501000532
 20
-7.925082780123974
 30
0.0
 10
94.03025672027623
 20
-7.911209114638234
 30
0.0
 10
91.93708135887836
 20
-7.121239054366702
 30
0.0
 10
89.62382405743053
 20
-5.744718637227082
 30
0.0
 10
87.31184151858271
 20
-3.8680995171916
 30
0.0
 10
85.00081371678074
 20
-1.676191049692477
 30
0.0
 10
82.68819770864896
 20
0.6559386406439087
 30
0.0
 10
80.37466577941053
 20
2.933516844727391
 30
0.0
 10
78.06130895371224
 20
4.968337095819678
 30
0.0
 10
75.74916841329893
 20
6.588742686534153
 30
0.0
 10
73.43819692872073
 20
7.670710826263171
 30
0.0
 10
71.12572959823727
 20
8.086659420312492
 30
0.0
 10
69.16137369566873
 20
7.96324632715511
 30
0.0
 10
67.96808419310902
 20
7.462214258592826
 30
0.0
 10
67.5460204178146
 20
7.285000358740923
 30
0.0
  0
SPLINE
  5
E2
330
1F
100
AcDbEntity
  8
0
  6
Continuous
 62
     1
370
    15
100
AcDbSpline
210
0.0
220
0.0
230
1.0
 70
     8
 71
     3
 72
    20
 73
    16
 74
     0
 42
0.000000001
 43
0.00000001
 40
0.0
 40
0.0
 40
0.0
 40
0.0
 40
0.0797369098560619
 40
0.161289779289203
 40
0.2427942406299303
 40
0.3243297439678363
 40
0.4059024473972122
 40
0.4874822571103684
 40
0.5690390054292439
 40
0.6505463038420849
 40
0.7320765514654083
 40
0.8136469341941033
 40
0.8952273823278616
 40
0.9767877215484743
 40
1.0
 40
1.0
 40
1.0
 40
1.0
 10
45.63516283778422
 20
-7.991594034720815
 30
0.0
 10
44.88131020835844
 20
-7.932741187370121
 30
0.0
 10
43.35643641482724
 20
-7.813695154900725
 30
0.0
 10
41.06125907653811
 20
-6.813354435199884
 30
0.0
 10
38.75024498181216
 20
-5.289892051201965
 30
0.0
 10
36.43823506034911
 20
-3.314308163713833
 30
0.0
 10
34.12493916186112
 20
-1.067164423426783
 30
0.0
 10
31.81137966946036
 20
1.269783291547788
 30
0.0
 10
29.49865836129921
 20
3.500634392001443
 30
0.0
 10
27.18755135145993
 20
5.442458498092448
 30
0.0
 10
24.87572046717669
 20
6.929689501993859
 30
0.0
 10
22.56247956888784
 20
7.852060340254646
 30
0.0
 10
20.24900765363969
 20
8.085769100917638
 30
0.0
 10
18.48697871532963
 20
7.858551278838871
 30
0.0
 10
17.49716270600128
 20
7.410467545037208
 30
0.0
 10
17.27786986656683
 20
7.311195000075596
 30
0.0
  0
SPLINE
  5
E3
330
1F
100
AcDbEntity
  8
0
  6
Continuous
 62
     1
370
    15
100
AcDbSpline
210
0.0
220
0.0
230
1.0
 70
     8
 71
     3
 72
    21
 73
    17
 74
     0
 42
0.000000001
 43
0.00000001
 40
0.0
 40
0.0
 40
0.0
 40
0.0
 40
0.0044244694054225
 40
0.085995570511511
 40
0.167526536158765
 40
0.2490345523934258
 40
0.3305920189696203
 40
0.4121725471431915
 40
0.4937459689703994
 40
0.5752821903785227
 40
0.6567873695160833
 40
0.7383409571723815
 40
0.8199205566265729
 40
0.9014960095933494
 40
0.9830372008938976
 40
1.0
 40
1.0
 40
1.0
 40
1.0
 10
22.43709576942832
 20
7.9840254994744
 30
0.0
 10
22.47892507307863
 20
7.989657620213251
 30
0.0
 10
23.29193438603708
 20
8.099125534158738
 30
0.0
 10
24.87571438483816
 20
7.692703647737628
 30
0.0
 10
27.18755298048887
 20
6.736809902791992
 30
0.0
 10
29.49865792398555
 20
5.147802636396943
 30
0.0
 10
31.81137978886422
 20
3.152008231325088
 30
0.0
 10
34.12493912180786
 20
0.8891414313307909
 30
0.0
 10
36.43823510113951
 20
-1.445937657003469
 30
0.0
 10
38.75024485876678
 20
-3.660947388618846
 30
0.0
 10
41.06125952788562
 20
-5.573455800612461
 30
0.0
 10
43.37384721346115
 20
-7.019233883277976
 30
0.0
 10
45.68737430496377
 20
-7.896416005226925
 30
0.0
 10
48.00073452668467
 20
-8.06716598446407
 30
0.0
 10
49.70289102215666
 20
-7.840189289191429
 30
0.0
 10
50.633696161559
 20
-7.386570353079335
 30
0.0
 10
50.79398469932717
 20
-7.308455275180178
 30
0.0
  0
SPLINE
  5
E4
330
1F
100
AcDbEntity
  8
0
  6
Continuous
 62
     1
370
    15
100
AcDbSpline
210
0.0
220
0.0
230
1.0
 70
     8
 71
     3
 72
    20
 73
    16
 74
     0
 42
0.000000001
 43
0.00000001
 40
0.0
 40
0.0
 40
0.0
 40
0.0
 40
0.0259195621006207
 40
0.1074406048857576
 40
0.1889981239302164
 40
0.2705904959853678
 40
0.3521876034396068
 40
0.4337592794531765
 40
0.5152822127575795
 40
0.5968347040262656
 40
0.678424986967273
 40
0.7600229656762285
 40
0.8415984642523288
 40
0.9231244699783829
 40
1.0
 40
1.0
 40
1.0
 40
1.0
 10
72.7036059851868
 20
7.928792122554279
 30
0.0
 10
72.94856411398986
 20
7.949101326055183
 30
0.0
 10
73.96395354951018
 20
8.033286124409962
 30
0.0
 10
75.74913242892471
 20
7.501686445333294
 30
0.0
 10
78.06131860845001
 20
6.367070211980113
 30
0.0
 10
80.37466316804354
 20
4.657069562952691
 30
0.0
 10
82.68819849667871
 20
2.573231535042572
 30
0.0
 10
85.00081317560678
 20
0.2729531003164931
 30
0.0
 10
87.31184289520793
 20
-2.049609352625775
 30
0.0
 10
89.62381908887023
 20
-4.201948848908408
 30
0.0
 10
91.93709986572146
 20
-6.004649465940783
 30
0.0
 10
94.25066168775253
 20
-7.312694469335357
 30
0.0
 10
96.56342115626036
 20
-8.000226298297257
 30
0.0
 10
98.83037277148635
 20
-8.072957337754108
 30
0.0
 10
100.3272037533247
 20
-7.581118906642662
 30
0.0
 10
101.0536466791363
 20
-7.34241957902425
 30
0.0
  0
SPLINE
  5
E5
330
1F
100
AcDbEntity
  8
0
  6
Continuous
 62
     1
370
    15
100
AcDbSpline
210
0.0
220
0.0
230
1.0
 70
     8
 71
     3
 72
    20
 73
    16
 74
     0
 42
0.000000001
 43
0.00000001
 40
0.0
 40
0.0
 40
0.0
 40
0.0
 40
0.0274048496220542
 40
0.1089904398529797
 40
0.1905353046767675
 40
0.2720589981615791
 40
0.3536321830927211
 40
0.4352278475191365
 40
0.5168158163958714
 40
0.5983659946721331
 40
0.6798866158224359
 40
0.761455978299464
 40
0.8430507714958735
 40
0.9246408294275016
 40
1.0
 40
1.0
 40
1.0
 40
1.0
 10
104.27657134241
 20
-7.924515133413223
 30
0.0
 10
104.0175306603798
 20
-7.944962589287071
 30
0.0
 10
102.9873130797813
 20
-8.026283130735019
 30
0.0
 10
101.1863421651132
 20
-7.48454796667162
 30
0.0
 10
98.87453920870921
 20
-6.338142884753459
 30
0.0
 10
96.56341162366466
 20
-4.619740095984041
 30
0.0
 10
94.25066424867408
 20
-2.530657207617993
 30
0.0
 10
91.93709916001826
 20
-0.2278538280718525
 30
0.0
 10
89.6238193505652
 20
2.092849654313203
 30
0.0
 10
87.31184255397709
 20
4.240404271211467
 30
0.0
 10
85.00081427886003
 20
6.035547110297493
 30
0.0
 10
82.68819442158126
 20
7.333286095062522
 30
0.0
 10
80.37467836890129
 20
8.008701544208149
 30
0.0
 10
78.11983020055452
 20
8.0707759651592
 30
0.0
 10
76.63674158110463
 20
7.576794752224546
 30
0.0
 10
75.92463659459106
 20
7.339609677535419
 30
0.0
  0
SPLINE
  5
E6
330
1F
100
AcDbEntity
  8
0
  6
Continuous
 62
     1
370
    15
100
AcDbSpline
210
0.0
220
0.0
230
1.0
 70
     8
 71
     3
 72
    20
 73
    16
 74
     0
 42
0.000000001
 43
0.00000001
 40
0.0
 40
0.0
 40
0.0
 40
0.0
 40
0.0489800316854432
 40
0.1304970163086228
 40
0.2120516747208395
 40
0.2936406004578455
 40
0.3752336733670891
 40
0.4568007301824047
 40
0.5383193704839704
 40
0.6198690581829501
 40
0.7014559524449308
 40
0.7830499542269395
 40
0.8646208906027814
 40
0.9461423684700133
 40
1.0
 40
1.0
 40
1.0
 40
1.0
 10
54.01231627924356
 20
-7.918901339710724
 30
0.0
 10
53.549390514671
 20
-7.92702738704713
 30
0.0
 10
52.31602195670304
 20
-7.948677534980757
 30
0.0
 10
50.31293457331479
 20
-7.240471835547394
 30
0.0
 10
48.00073766871718
 20
-5.930722513412179
 30
0.0
 10
45.68737346432378
 20
-4.099755632028649
 30
0.0
 10
43.37384743314503
 20
-1.936161169687901
 30
0.0
 10
41.0612594895607
 20
0.3898993339032787
 30
0.0
 10
38.75024479260462
 20
2.683723637019266
 30
0.0
 10
36.43823540432609
 20
4.754980193665526
 30
0.0
 10
34.12493797465306
 20
6.430176829208178
 30
0.0
 10
31.81138407396887
 20
7.578380270358896
 30
0.0
 10
29.49864193987257
 20
8.073709006812846
 30
0.0
 10
27.44916357914796
 20
7.998551138877196
 30
0.0
 10
26.16982527487184
 20
7.493297516480957
 30
0.0
 10
25.66086838114808
 20
7.292293361959854
 30
0.0
  0
SPLINE
  5
E7
330
1F
100
AcDbEntity
  8
0
  6
Continuous
 62
     1
370
    15
100
AcDbSpline
210
0.0
220
0.0
230
1.0
 70
     8
 71
     3
 72
    10
 73
     6
 74
     0
 42
0.000000001
 43
0.00000001
 40
0.0
 40
0.0
 40
0.0
 40
0.0
 40
0.3748808639400034
 40
0.7497661363650991
 40
1.0
 40
1.0
 40
1.0
 40
1.0
 10
11.99999999999994
 20
-7.735714846017671
 30
0.0
 10
12.65952005137504
 20
-7.85439793020964
 30
0.0
 10
13.97856790988065
 20
-8.091765494270595
 30
0.0
 10
15.73785901694262
 20
-7.91096207150887
 30
0.0
 10
16.8376327678473
 20
-7.481112867024233
 30
0.0
 10
17.2778698665668
 20
-7.309045142627682
 30
0.0
  0
SPLINE
  5
E8
330
1F
100
AcDbEntity
  8
0
  6
Continuous
 62
     1
370
    15
100
AcDbSpline
210
0.0
220
0.0
230
1.0
 70
     8
 71
     3
 72
    20
 73
    16
 74
     0
 42
0.000000001
 43
0.00000001
 40
0.0
 40
0.0
 40
0.0
 40
0.0
 40
0.0660012878090506
 40
0.1475561521625001
 40
0.2291370287210497
 40
0.3107137587272723
 40
0.3922562265309106
 40
0.4737610261769025
 40
0.555311723945902
 40
0.6368913815658767
 40
0.7184698529540592
 40
0.8000170043601003
 40
0.8815213304279965
 40
0.9630675744243973
 40
1.0
 40
1.0
 40
1.0
 40
1.0
 10
39.18995309094757
 20
7.949808610751891
 30
0.0
 10
39.81359560337648
 20
7.928166624196922
 30
0.0
 10
41.20784551142665
 20
7.879782594624001
 30
0.0
 10
43.3738429345545
 20
7.016888662428083
 30
0.0
 10
45.68737340949797
 20
5.585985470172901
 30
0.0
 10
48.00074238586841
 20
3.672177103675516
 30
0.0
 10
50.312915772268
 20
1.459240739584355
 30
0.0
 10
52.62387736663082
 20
-0.8768158211176366
 30
0.0
 10
54.93632459963437
 20
-3.138737457087463
 30
0.0
 10
57.24980323814334
 20
-5.14125089307363
 30
0.0
 10
59.56323883440255
 20
-6.714492879355478
 30
0.0
 10
61.87556444768269
 20
-7.739620020484408
 30
0.0
 10
64.18652105630441
 20
-8.088278798446611
 30
0.0
 10
66.07678499895049
 20
-7.929275442509327
 30
0.0
 10
67.19686627467765
 20
-7.436469140998303
 30
0.0
 10
67.5460204178146
 20
-7.282850501293013
 30
0.0
  0
SPLINE
  5
E9
330
1F
100
AcDbEntity
  8
0
  6
Continuous
 62
     1
370
    15
100
AcDbSpline
210
0.0
220
0.0
230
1.0
 70
     8
 71
     3
 72
    21
 73
    17
 74
     0
 42
0.000000001
 43
0.00000001
 40
0.0
 40
0.0
 40
0.0
 40
0.0
 40
0.0058822180223156
 40
0.0874775392585675
 40
0.1690805567379902
 40
0.2506610926963831
 40
0.3321921327484889
 40
0.4137443460474376
 40
0.4953372884235269
 40
0.5769408868237995
 40
0.6585249574418455
 40
0.7400602518167849
 40
0.8216068658680602
 40
0.9031971400050041
 40
0.9848010288802538
 40
1.0
 40
1.0
 40
1.0
 40
1.0
 10
89.45682096215121
 20
7.978835593867422
 30
0.0
 10
89.51240056749016
 20
7.986149355397048
 30
0.0
 10
90.33895393385252
 20
8.094916126521229
 30
0.0
 10
91.93714380283556
 20
7.681226154055639
 30
0.0
 10
94.2506522742823
 20
6.712340059727211
 30
0.0
 10
96.56341488685133
 20
5.115201715935213
 30
0.0
 10
98.87453812087374
 20
3.112405188666185
 30
0.0
 10
101.1863432538527
 20
0.8466697971462799
 30
0.0
 10
103.4995357613117
 20
-1.487908005307466
 30
0.0
 10
105.8131232365421
 20
-3.699219370190791
 30
0.0
 10
108.125995346009
 20
-5.604103610148318
 30
0.0
 10
110.4372558347865
 20
-7.04049130302347
 30
0.0
 10
112.7488882954936
 20
-7.906540857542524
 30
0.0
 10
115.0619515092918
 20
-8.063610876457187
 30
0.0
 10
116.7481558640112
 20
-7.834170767145408
 30
0.0
 10
117.6629878339396
 20
-7.386040695369475
 30
0.0
 10
117.8066251674964
 20
-7.31568000541502
 30
0.0
  0
SPLINE
  5
EA
330
1F
100
AcDbEntity
  8
0
  6
Continuous
 62
   131
370
    15
100
AcDbSpline
210
0.0
220
0.0
230
1.0
 70
    24
 71
     3
 72
    12
 73
     8
 74
     0
 42
0.000000001
 43
0.00000001
 40
0.0
 40
0.0
 40
0.0
 40
0.0
 40
0.069653460864808
 40
0.3388592513483527
 40
0.6080650418318757
 40
0.8772708323154045
 40
1.0
 40
1.0
 40
1.0
 40
1.0
 10
12.00000000000009
 20
-4.063065736010331
 30
0.0
 10
12.00000000000006
 20
-4.120432251691633
 30
0.0
 10
12.00000000000006
 20
-4.399516367755295
 30
0.0
 10
11.99999999999994
 20
-5.155502406843785
 30
0.0
 10
11.99999999999994
 20
-6.209512370675221
 30
0.0
 10
12.00000000000009
 20
-7.107789929450751
 30
0.0
 10
12.0
 20
-7.585976990768885
 30
0.0
 10
11.99999999999997
 20
-7.735714846017672
 30
0.0
  0
SPLINE
  5
EB
330
1F
100
AcDbEntity
  8
0
  6
Continuous
 62
     1
370
    15
100
AcDbSpline
210
0.0
220
0.0
230
1.0
 70
     8
 71
     3
 72
    21
 73
    17
 74
     0
 42
0.000000001
 43
0.00000001
 40
0.0
 40
0.0
 40
0.0
 40
0.0
 40
0.0270914200203464
 40
0.0883099347140689
 40
0.1495160209428622
 40
0.2107140072323468
 40
0.2922842063217838
 40
0.3738107560679873
 40
0.4553259889230314
 40
0.536889986019925
 40
0.6184735060942945
 40
0.7000463727663635
 40
0.7815785203825649
 40
0.8630894999615346
 40
0.9446499632684701
 40
1.0
 40
1.0
 40
1.0
 40
1.0
 10
121.0323588774423
 20
-7.952576033478985
 30
0.0
 10
120.7764281851957
 20
-7.963145967066777
 30
0.0
 10
119.9421705971235
 20
-7.997600792408861
 30
0.0
 10
118.5300094952573
 20
-7.657200146951235
 30
0.0
 10
116.7956324912023
 20
-6.961036938993683
 30
0.0
 10
114.869992865427
 20
-5.802237545465645
 30
0.0
 10
112.7486617410791
 20
-4.138266764710251
 30
0.0
 10
110.4373165140703
 20
-1.977271812799683
 30
0.0
 10
108.1259790826447
 20
0.3475642743482252
 30
0.0
 10
105.8131275765957
 20
2.64319185619299
 30
0.0
 10
103.4995346730433
 20
4.720345180465928
 30
0.0
 10
101.1863432669154
 20
6.404048389052774
 30
0.0
 10
98.87453915551829
 20
7.562759782518618
 30
0.0
 10
96.5634107352519
 20
8.07081957403495
 30
0.0
 10
94.49865016735102
 20
8.004114780356122
 30
0.0
 10
93.20431235653884
 20
7.498528427778581
 30
0.0
 10
92.68103879204715
 20
7.294130494981132
 30
0.0
  0
SPLINE
  5
EC
330
1F
100
AcDbEntity
  8
0
  6
Continuous
 62
     1
370
    15
100
AcDbSpline
210
0.0
220
0.0
230
1.0
 70
     8
 71
     3
 72
    20
 73
    16
 74
     0
 42
0.000000001
 43
0.00000001
 40
0.0
 40
0.0
 40
0.0
 40
0.0
 40
0.0690099078724456
 40
0.1505836970011171
 40
0.2321255832323089
 40
0.3136255537750538
 40
0.3951683473673929
 40
0.4767424592681601
 40
0.558317757337327
 40
0.6398640971031102
 40
0.7213645411986452
 40
0.8029026514388677
 40
0.8844750220507319
 40
0.9660515389933351
 40
1.0
 40
1.0
 40
1.0
 40
1.0
 10
70.76953939725347
 20
-7.955540208073039
 30
0.0
 10
70.11710266605196
 20
-7.926880771038706
 30
0.0
 10
68.69344716392835
 20
-7.864344185848976
 30
0.0
 10
66.49880711318552
 20
-6.972537630760995
 30
0.0
 10
64.18651430080898
 20
-5.521481762132595
 30
0.0
 10
61.87556625620179
 20
-3.593543387234798
 30
0.0
 10
59.56323835791018
 20
-1.372810393872668
 30
0.0
 10
57.24980333442885
 20
0.9635580787209688
 30
0.0
 10
54.93632469106824
 20
3.219536925180931
 30
0.0
 10
52.62387690494468
 20
5.208969791074181
 30
0.0
 10
50.31291752689295
 20
6.764157081912503
 30
0.0
 10
48.00073582418692
 20
7.767505679325796
 30
0.0
 10
45.68739791198989
 20
8.09009665605521
 30
0.0
 10
43.82383148927975
 20
7.918933836079996
 30
0.0
 10
42.73182034078452
 20
7.430134386298382
 30
0.0
 10
42.4109191941094
 20
7.286494548788284
 30
0.0
  0
SPLINE
  5
ED
330
1F
100
AcDbEntity
  8
0
  6
Continuous
 62
     1
370
    15
100
AcDbSpline
210
0.0
220
0.0
230
1.0
 70
     8
 71
     3
 72
    12
 73
     8
 74
     0
 42
0.000000001
 43
0.00000001
 40
0.0
 40
0.0
 40
0.0
 40
0.0
 40
0.0295731878070324
 40
0.3015755854637419
 40
0.5343863479933423
 40
0.7671945428574017
 40
1.0
 40
1.0
 40
1.0
 40
1.0
 10
20.50026514658647
 20
-7.96669102867282
 30
0.0
 10
20.41642987556837
 20
-7.977176134899254
 30
0.0
 10
19.56151118689787
 20
-8.084099070279752
 30
0.0
 10
18.04652762113824
 20
-7.682043421986712
 30
0.0
 10
15.95723720809954
 20
-6.817971952308802
 30
0.0
 10
13.97854970967914
 20
-5.548621067470521
 30
0.0
 10
12.65951398466504
 20
-4.443752681282656
 30
0.0
 10
12.00000000000003
 20
-3.891321736398779
 30
0.0
  0
LINE
  5
EE
330
1F
100
AcDbEntity
  8
0
  6
Continuous
 62
   131
370
    15
100
AcDbLine
 10
122.0
 20
8.00107492872396
 30
0.0
 11
122.0
 21
8.00107492872396
 31
0.0
  0
LINE
  5
EF
330
1F
100
AcDbEntity
  8
0
  6
Continuous
 62
   131
370
    15
100
AcDbLine
 10
122.0
 20
-7.99892507127605
 30
0.0
 11
122.0
 21
-7.940545478510744
 31
0.0
  0
LINE
  5
F0
330
1F
100
AcDbEntity
  8
0
  6
Continuous
 62
   131
370
    15
100
AcDbLine
 10
12.00000000000003
 20
-3.891321736398755
 30
0.0
 11
11.99999999999994
 21
-2.104775495068597
 31
0.0
  0
LINE
  5
F1
330
1F
100
AcDbEntity
  8
0
  6
Continuous
 62
     1
370
    15
100
AcDbLine
 10
122.0
 20
-4.805198607748232
 30
0.0
 11
122.0
 21
-3.134271942038438
 31
0.0
  0
LINE
  5
F2
330
1F
100
AcDbEntity
  8
0
  6
Continuous
 62
   131
370
    15
100
AcDbLine
 10
12.00000000000003
 20
4.107721889989865
 30
0.0
 11
11.99999999999994
 21
5.632014279673022
 31
0.0
  0
LINE
  5
F3
330
1F
100
AcDbEntity
  8
0
  6
Continuous
 62
     1
370
    15
100
AcDbLine
 10
122.0
 20
3.1364217994865
 30
0.0
 11
122.0
 21
4.807348465196185
 31
0.0
  0
LINE
  5
F4
330
1F
100
AcDbEntity
  8
0
  6
Continuous
 62
   131
370
    15
100
AcDbLine
 10
12.00000000000003
 20
-7.997968697664601
 30
0.0
 11
11.99999999999994
 21
-7.735714846017671
 31
0.0
  0
LINE
  5
F5
330
1F
100
AcDbEntity
  8
0
  6
Continuous
 62
   131
370
    15
100
AcDbLine
 10
11.00016726970448
 20
6.297125337132139
 30
0.0
 11
11.00016726970448
 21
8.001074928723954
 31
0.0
  0
SPLINE
  5
F6
330
1F
100
AcDbEntity
  8
0
  6
Continuous
 62
   131
370
    15
100
AcDbSpline
210
0.0
220
0.0
230
1.0
 70
     8
 71
     3
 72
     8
 73
     4
 74
     0
 42
0.000000001
 43
0.00000001
 40
0.0
 40
0.0
 40
0.0
 40
0.0
 40
1.0
 40
1.0
 40
1.0
 40
1.0
 10
11.99999999999991
 20
5.632014279672995
 30
0.0
 10
11.66727655292159
 20
5.868875682250129
 30
0.0
 10
11.33509910857748
 20
6.090948521258266
 30
0.0
 10
11.00016726970451
 20
6.297123893563746
 30
0.0
  0
SPLINE
  5
F7
330
1F
100
AcDbEntity
  8
0
  6
Continuous
 62
   131
370
    15
100
AcDbSpline
210
0.0
220
0.0
230
1.0
 70
     8
 71
     3
 72
     8
 73
     4
 74
     0
 42
0.000000001
 43
0.00000001
 40
0.0
 40
0.0
 40
0.0
 40
0.0
 40
1.0
 40
1.0
 40
1.0
 40
1.0
 10
11.99999999999997
 20
4.107721889989912
 30
0.0
 10
11.66727655292168
 20
4.393887305904333
 30
0.0
 10
11.33509910857748
 20
4.669206483640632
 30
0.0
 10
11.00016726970448
 20
4.932354224729288
 30
0.0
  0
SPLINE
  5
F8
330
1F
100
AcDbEntity
  8
0
  6
Continuous
 62
   131
370
    15
100
AcDbSpline
210
0.0
220
0.0
230
1.0
 70
     8
 71
     3
 72
     8
 73
     4
 74
     0
 42
0.000000001
 43
0.00000001
 40
0.0
 40
0.0
 40
0.0
 40
0.0
 40
1.0
 40
1.0
 40
1.0
 40
1.0
 10
11.99999999999991
 20
-2.104775495068628
 30
0.0
 10
11.66727655292159
 20
-1.783083448410879
 30
0.0
 10
11.33509910857748
 20
-1.456081197827568
 30
0.0
 10
11.00016726970451
 20
-1.125222239627769
 30
0.0
  0
SPLINE
  5
F9
330
1F
100
AcDbEntity
  8
0
  6
Continuous
 62
   131
370
    15
100
AcDbSpline
210
0.0
220
0.0
230
1.0
 70
     8
 71
     3
 72
     8
 73
     4
 74
     0
 42
0.000000001
 43
0.00000001
 40
0.0
 40
0.0
 40
0.0
 40
0.0
 40
1.0
 40
1.0
 40
1.0
 40
1.0
 10
11.99999999999997
 20
-3.891321736398716
 30
0.0
 10
11.66727655292168
 20
-3.60000042484822
 30
0.0
 10
11.33509910857748
 20
-3.298700949825894
 30
0.0
 10
11.00016726970448
 20
-2.988728886328659
 30
0.0
  0
LINE
  5
FA
330
1F
100
AcDbEntity
  8
0
  6
Continuous
 62
   131
370
    15
100
AcDbLine
 10
11.00016726970448
 20
-7.421270331475903
 30
0.0
 11
11.00016726970448
 21
-2.988726322217309
 31
0.0
  0
SPLINE
  5
FB
330
1F
100
AcDbEntity
  8
0
  6
Continuous
 62
   131
370
    15
100
AcDbSpline
210
0.0
220
0.0
230
1.0
 70
     8
 71
     3
 72
     8
 73
     4
 74
     0
 42
0.000000001
 43
0.00000001
 40
0.0
 40
0.0
 40
0.0
 40
0.0
 40
1.0
 40
1.0
 40
1.0
 40
1.0
 10
11.99999999999991
 20
-7.735714846017673
 30
0.0
 10
11.66727655292159
 20
-7.65088420193706
 30
0.0
 10
11.33509910857748
 20
-7.545954790361891
 30
0.0
 10
11.00016726970451
 20
-7.421271204467575
 30
0.0
  0
SPLINE
  5
FC
330
1F
100
AcDbEntity
  8
0
  6
Continuous
 62
   131
370
    15
100
AcDbSpline
210
0.0
220
0.0
230
1.0
 70
     8
 71
     3
 72
     8
 73
     4
 74
     0
 42
0.000000001
 43
0.00000001
 40
0.0
 40
0.0
 40
0.0
 40
0.0
 40
1.0
 40
1.0
 40
1.0
 40
1.0
 10
11.99999999999997
 20
-7.99796869766461
 30
0.0
 10
11.66727655292168
 20
-7.992812802028536
 30
0.0
 10
11.33509910857748
 20
-7.966832504742507
 30
0.0
 10
11.00016726970448
 20
-7.920008182333929
 30
0.0
  0
LINE
  5
FD
330
1F
100
AcDbEntity
  8
0
  6
Continuous
 62
   131
370
    15
100
AcDbLine
 10
11.00016726970448
 20
-7.998925071276043
 30
0.0
 11
11.00016726970448
 21
-7.920007794999299
 31
0.0
  0
SPLINE
  5
FE
330
1F
100
AcDbEntity
  8
0
  6
Continuous
 62
   131
370
    15
100
AcDbSpline
210
0.0
220
0.0
230
1.0
 70
     8
 71
     3
 72
     8
 73
     4
 74
     0
 42
0.000000001
 43
0.00000001
 40
0.0
 40
0.0
 40
0.0
 40
0.0
 40
1.0
 40
1.0
 40
1.0
 40
1.0
 10
11.99999999999997
 20
8.000118555112516
 30
0.0
 10
11.66727655292168
 20
7.994962659476442
 30
0.0
 10
11.33509910857748
 20
7.968982362190412
 30
0.0
 10
11.00016726970448
 20
7.922158039781831
 30
0.0
  0
LINE
  5
FF
330
1F
100
AcDbEntity
  8
0
  6
Continuous
 62
   131
370
    15
100
AcDbLine
 10
-126.4
 20
0.0010749287239553
 30
0.0
 11
-126.4
 21
8.001074928723954
 31
0.0
  0
LINE
  5
100
330
1F
100
AcDbEntity
  8
0
  6
Continuous
 62
   131
370
    15
100
AcDbLine
 10
-126.4
 20
-7.998925071276043
 30
0.0
 11
-126.4
 21
0.0010749287239553
 31
0.0
  0
LINE
  5
101
330
1F
100
AcDbEntity
  8
0
  6
Continuous
 62
   131
370
    15
100
AcDbLine
 10
11.00016726970448
 20
-1.125219923067704
 30
0.0
 11
11.00016726970448
 21
4.932356401506007
 31
0.0
  0
LINE
  5
102
330
1F
100
AcDbEntity
  8
0
  6
Continuous
 62
   131
370
    15
100
AcDbLine
 10
-128.0000000000001
 20
0.0010749287239553
 30
0.0
 11
-128.0000000000001
 21
6.401074928723963
 31
0.0
  0
LINE
  5
103
330
1F
100
AcDbEntity
  8
0
  6
Continuous
 62
   131
370
    15
100
AcDbLine
 10
-128.0000000000001
 20
-6.398925071276053
 30
0.0
 11
-128.0000000000001
 21
0.0010749287239553
 31
0.0
  0
SPLINE
  5
104
330
1F
100
AcDbEntity
  8
0
  6
Continuous
 62
   131
370
    15
100
AcDbSpline
210
0.0
220
0.0
230
1.0
 70
    24
 71
     3
 72
    24
 73
    20
 74
     0
 42
0.000000001
 43
0.00000001
 40
0.0
 40
0.0
 40
0.0
 40
0.0
 40
0.125
 40
0.125
 40
0.25
 40
0.25
 40
0.375
 40
0.375
 40
0.5
 40
0.5
 40
0.625
 40
0.625
 40
0.75
 40
0.75
 40
0.8125
 40
0.8125
 40
0.875
 40
0.875
 40
1.0
 40
1.0
 40
1.0
 40
1.0
 10
11.99999999999994
 20
-2.104775495068595
 30
0.0
 10
11.99999999999991
 20
-2.079857357101544
 30
0.0
 10
11.99999999999997
 20
-1.981815812774585
 30
0.0
 10
11.99999999999997
 20
-1.600285017033653
 30
0.0
 10
11.99999999999997
 20
-1.31547164493497
 30
0.0
 10
12.0
 20
-0.6073103704013385
 30
0.0
 10
11.99999999999997
 20
-0.1866205799900653
 30
0.0
 10
11.99999999999997
 20
0.6692263935044803
 30
0.0
 10
11.99999999999997
 20
1.101453609191551
 30
0.0
 10
12.00000000000003
 20
1.882271476334883
 30
0.0
 10
11.99999999999997
 20
2.231035695235788
 30
0.0
 10
11.99999999999997
 20
2.820542436933611
 30
0.0
 10
11.99999999999991
 20
3.062553051951527
 30
0.0
 10
11.99999999999991
 20
3.358423581769588
 30
0.0
 10
11.99999999999994
 20
3.446043822613444
 30
0.0
 10
11.99999999999994
 20
3.602449102314681
 30
0.0
 10
11.99999999999997
 20
3.670643456616062
 30
0.0
 10
11.99999999999997
 20
3.877072047134278
 30
0.0
 10
12.0
 20
4.00711180905223
 30
0.0
 10
12.0
 20
4.107721889989898
 30
0.0
  0
SPLINE
  5
105
330
1F
100
AcDbEntity
  8
0
  6
Continuous
 62
   131
370
    15
100
AcDbSpline
210
0.0
220
0.0
230
1.0
 70
    24
 71
     3
 72
    12
 73
     8
 74
     0
 42
0.000000001
 43
0.00000001
 40
0.0
 40
0.0
 40
0.0
 40
0.0
 40
0.1671641840531319
 40
0.437927967633529
 40
0.708691751213932
 40
0.979455534794323
 40
1.0
 40
1.0
 40
1.0
 40
1.0
 10
11.99999999999997
 20
-7.735714846017681
 30
0.0
 10
12.0
 20
-7.531327740162922
 30
0.0
 10
12.00000000000011
 20
-6.995885112996899
 30
0.0
 10
11.99999999999989
 20
-6.030661777223447
 30
0.0
 10
12.0
 20
-4.99732786485644
 30
0.0
 10
11.9999999999998
 20
-4.306436944408999
 30
0.0
 10
11.99999999999991
 20
-4.079108066832002
 30
0.0
 10
11.99999999999991
 20
-4.063075736010309
 30
0.0
  0
SPLINE
  5
106
330
1F
100
AcDbEntity
  8
0
  6
Continuous
 62
   131
370
    15
100
AcDbSpline
210
0.0
220
0.0
230
1.0
 70
    24
 71
     3
 72
    13
 73
     9
 74
     0
 42
0.000000001
 43
0.00000001
 40
0.0
 40
0.0
 40
0.0
 40
0.0
 40
0.0485026770799425
 40
0.2885321962862123
 40
0.5217970198079598
 40
0.7618265390143182
 40
0.8804844700322851
 40
1.0
 40
1.0
 40
1.0
 40
1.0
 10
12.0
 20
5.803758279284598
 30
0.0
 10
12.0
 20
5.834429721721022
 30
0.0
 10
12.0
 20
6.016887663884932
 30
0.0
 10
11.99999999999991
 20
6.391594020913855
 30
0.0
 10
12.00000000000003
 20
6.917205696839144
 30
0.0
 10
11.99999999999977
 20
7.368731271294308
 30
0.0
 10
11.99999999999994
 20
7.731812276232382
 30
0.0
 10
11.99999999999997
 20
7.910468697484662
 30
0.0
 10
12.0
 20
8.000118555112524
 30
0.0
  0
LINE
  5
107
330
1F
100
AcDbEntity
  8
중심선
 62
     1
100
AcDbLine
 10
-135.2025927748896
 20
0.0010749287239496
 30
0.0
 11
129.0
 21
0.0010749287240328
 31
0.0
  0
CIRCLE
  5
108
330
1F
100
AcDbEntity
  8
외형선
100
AcDbCircle
 10
0.0
 20
0.0
 30
0.0
 40
3.000000000000004
  0
INSERT
  5
109
330
1F
100
AcDbEntity
  8
0
  6
Continuous
 62
     7
100
AcDbBlockReference
 66
     1
  2
블럭10
 10
-22.93944368806589
 20
-52.04609937292004
 30
0.0
  0
ATTRIB
  5
10A
330
109
100
AcDbEntity
  8
FORMAT
 62
     2
100
AcDbText
 10
-45.37735214194733
 20
-49.97073246008785
 30
0.0
 40
4.233333333333333
  1
SEME75160110250E [ 6 FLUTE ]
 41
0.75
  7
SLDTEXTSTYLE0
 11
-45.37735214194733
 21
-52.08739912675452
 31
0.0
100
AcDbAttribute
  2
AUTOATTR0
 70
     0
 74
     1
  0
SEQEND
  5
10B
330
109
100
AcDbEntity
  8
0
  6
Continuous
 62
     7
  0
HATCH
  5
10C
330
1F
100
AcDbEntity
  8
중심선
100
AcDbHatch
 10
0.0
 20
0.0
 30
0.0
210
0.0
220
0.0
230
1.0
  2
SOLID
 70
     1
 71
     0
 91
        1
 92
        0
 93
        4
 72
     1
 10
-17.22453438368504
 20
-35.7989250712761
 11
-20.67080962752232
 21
-35.7989250712761
 72
     1
 10
-20.67080962752232
 20
-35.7989250712761
 11
-22.79903948672635
 21
-38.3352506518487
 72
     1
 10
-22.79903948672635
 20
-38.3352506518487
 11
-19.35273115777591
 21
-38.33521122254621
 72
     1
 10
-19.35273115777591
 20
-38.33521122254621
 11
-17.22453438368504
 21
-35.7989250712761
 97
        0
 75
     0
 76
     1
 98
        1
 10
0.0
 20
0.0
  0
HATCH
  5
10D
330
1F
100
AcDbEntity
  8
중심선
100
AcDbHatch
 10
0.0
 20
0.0
 30
0.0
210
0.0
220
0.0
230
1.0
  2
SOLID
 70
     1
 71
     0
 91
        1
 92
        0
 93
        4
 72
     1
 10
-12.21177039264909
 20
-35.7989250712761
 11
-15.65804563648637
 21
-35.7989250712761
 72
     1
 10
-15.65804563648637
 20
-35.7989250712761
 11
-20.18918364484376
 21
-41.19892507127612
 72
     1
 10
-20.18918364484376
 20
-41.19892507127612
 11
-16.74290840100648
 21
-41.19892507127612
 72
     1
 10
-16.74290840100648
 20
-41.19892507127612
 11
-12.21177039264909
 21
-35.7989250712761
 97
        0
 75
     0
 76
     1
 98
        1
 10
0.0
 20
0.0
  0
HATCH
  5
10E
330
1F
100
AcDbEntity
  8
중심선
100
AcDbHatch
 10
0.0
 20
0.0
 30
0.0
210
0.0
220
0.0
230
1.0
  2
SOLID
 70
     1
 71
     0
 91
        1
 92
        0
 93
        4
 72
     1
 10
-7.199006401613195
 20
-35.79892507127613
 11
-10.64528164545031
 21
-35.7989250712761
 72
     1
 10
-10.64528164545031
 20
-35.7989250712761
 11
-17.69371854733956
 21
-44.19892507127612
 72
     1
 10
-17.69371854733956
 20
-44.19892507127612
 11
-14.24744330350228
 21
-44.19892507127612
 72
     1
 10
-14.24744330350228
 20
-44.19892507127612
 11
-7.199006401613195
 21
-35.79892507127613
 97
        0
 75
     0
 76
     1
 98
        1
 10
0.0
 20
0.0
  0
HATCH
  5
10F
330
1F
100
AcDbEntity
  8
중심선
100
AcDbHatch
 10
0.0
 20
0.0
 30
0.0
210
0.0
220
0.0
230
1.0
  2
SOLID
 70
     1
 71
     0
 91
        1
 92
        0
 93
        6
 72
     3
 10
-2.399115970600996
 20
-39.99892507132738
 11
3.960054785062284
 21
1.540850780301639E-10
 40
0.3939339440162633
 50
17.09539180608433
 51
320.0019657685079
 73
     0
 72
     1
 10
-0.7161163149004002
 20
-38.58681907591441
 11
1.589185558800638
 21
-36.65249236586649
 72
     3
 10
-2.399115970653842
 20
-39.99892507127625
 11
6.600054785286829
 21
-1.249000902703301E-13
 40
0.6363583540795982
 50
39.99873849337408
 51
368.4976242363725
 73
     1
 72
     1
 10
4.026216521246767
 20
-39.03892507120613
 11
-3.71904866381792
 21
-39.0389250712061
 72
     1
 10
-3.71904866381792
 20
-39.0389250712061
 11
-3.719073708263854
 21
-40.95892507120602
 72
     1
 10
-3.719073708263854
 20
-40.95892507120602
 11
0.7223060612081831
 21
-40.95892507120599
 97
        0
 75
     0
 76
     1
 98
        1
 10
0.0
 20
0.0
  0
DIMENSION
  5
110
330
1F
100
AcDbEntity
  8
치수문자_일반주서
100
AcDbDimension
  2
_D
 10
-145.0289061313235
 20
-7.998925071276121
 30
0.0
 11
-145.0289061313235
 21
0.0010749287239576
 31
0.0
 70
   160
  1
%%c<>
 71
     2
 42
16.00000000000001
 52
-270.0
  3
SLDDIMSTYLE0
100
AcDbAlignedDimension
 13
-126.4000000000001
 23
8.001074928723963
 33
0.0
 14
-126.4000000000001
 24
-7.998925071276052
 34
0.0
 50
90.0000000000002
100
AcDbRotatedDimension
  0
DIMENSION
  5
11E
330
1F
100
AcDbEntity
  8
치수문자_일반주서
100
AcDbDimension
  2
_D_1
 10
132.0
 20
-7.998925071276012
 30
0.0
 11
131.9999999999999
 21
1.056164128877544
 31
0.0
 70
   160
  1
%%c<>
 71
     2
 42
16.00000000000001
 52
-270.0
  3
SLDDIMSTYLE0
100
AcDbAlignedDimension
 13
122.0
 23
8.00107492872396
 33
0.0
 14
122.0
 24
-7.99892507127605
 34
0.0
 50
90.0000000000002
100
AcDbRotatedDimension
  0
DIMENSION
  5
12B
330
1F
100
AcDbEntity
  8
치수문자_일반주서
100
AcDbDimension
  2
_D_2
 10
122.0
 20
51.49495917375433
 30
0.0
 11
57.017486540544
 21
51.49495917375433
 31
0.0
 70
   160
  1
<>
 71
     2
 42
110.0
  3
SLDDIMSTYLE1
100
AcDbAlignedDimension
 13
11.99999999999997
 23
8.000118555112522
 33
0.0
 14
122.0
 24
7.942695335958661
 34
0.0
 50
-0.0000000000000037
100
AcDbRotatedDimension
  0
DIMENSION
  5
136
330
1F
100
AcDbEntity
  8
치수문자_일반주서
100
AcDbDimension
  2
_D_3
 10
-128.0000000000001
 20
78.88737799682828
 30
0.0
 11
4.745407996067911
 21
78.88737799682828
 31
0.0
 70
   160
  1
<>
 71
     2
 42
250.0
  3
SLDDIMSTYLE1
100
AcDbAlignedDimension
 13
122.0
 23
7.942695335958661
 33
0.0
 14
-128.0000000000001
 24
6.401074928723963
 34
0.0
 50
0.0000000000000065
100
AcDbRotatedDimension
  0
INSERT
  5
146
330
1F
100
AcDbEntity
  8
외형선
100
AcDbBlockReference
  2
SW_DOWELSYMBOL_0
 10
0.0
 20
0.0
 30
0.0
  0
ENDSEC
  0
SECTION
  2
OBJECTS
  0
DICTIONARY
  5
C
330
0
100
AcDbDictionary
281
     1
  3
ACAD_GROUP
350
D
  3
ACAD_IMAGE_VARS
350
16A
  3
ACAD_LAYOUT
350
1A
  3
ACAD_MLINESTYLE
350
17
  3
ACAD_PLOTSETTINGS
350
19
  3
ACAD_PLOTSTYLENAME
350
E
  3
ACAD_SCALELIST
350
47
  3
APPDATA
350
168
  3
DWGPROPS
350
174
  0
DICTIONARY
  5
D
102
{ACAD_REACTORS
330
C
102
}
330
C
100
AcDbDictionary
281
     1
  0
RASTERVARIABLES
  5
16A
102
{ACAD_REACTORS
330
C
102
}
330
C
100
AcDbRasterVariables
 90
        0
 70
     1
 71
     1
 72
     1
  0
DICTIONARY
  5
1A
102
{ACAD_REACTORS
330
C
102
}
330
C
100
AcDbDictionary
281
     1
  3
Layout1
350
1E
  3
Layout2
350
26
  3
Model
350
22
  0
DICTIONARY
  5
17
102
{ACAD_REACTORS
330
C
102
}
330
C
100
AcDbDictionary
281
     1
  3
Standard
350
18
  0
DICTIONARY
  5
19
102
{ACAD_REACTORS
330
C
102
}
330
C
100
AcDbDictionary
281
     1
  0
ACDBDICTIONARYWDFLT
  5
E
102
{ACAD_REACTORS
330
C
102
}
330
C
100
AcDbDictionary
281
     1
  3
Normal
350
F
100
AcDbDictionaryWithDefault
340
F
  0
DICTIONARY
  5
47
102
{ACAD_REACTORS
330
C
102
}
330
C
100
AcDbDictionary
281
     1
  3
A0
350
48
  3
A1
350
49
  3
A2
350
4A
  3
A3
350
4B
  3
A4
350
4C
  3
A5
350
4D
  3
A6
350
4E
  3
A7
350
4F
  3
A8
350
50
  3
A9
350
51
  3
B0
350
52
  3
B1
350
53
  3
B2
350
54
  3
B3
350
55
  3
B4
350
56
  3
B5
350
57
  3
B6
350
58
  3
B7
350
59
  3
B8
350
5A
  3
B9
350
5B
  3
C0
350
5C
  3
C1
350
5D
  3
C2
350
5E
  3
C3
350
5F
  3
C4
350
60
  3
C5
350
61
  3
C6
350
62
  3
C7
350
63
  3
C8
350
64
  3
C9
350
65
  3
D0
350
66
  3
D1
350
67
  3
D2
350
68
  0
DICTIONARY
  5
168
102
{ACAD_REACTORS
330
C
102
}
330
C
100
AcDbDictionary
281
     1
  0
XRECORD
  5
174
102
{ACAD_REACTORS
330
C
102
}
330
C
100
AcDbXrecord
280
     1
  1
DWGPROPS COOKIE
  2

  3

  4

  6

  7

  8
12016016
  9

300
=
301
=
302
=
303
=
304
=
305
=
306
=
307
=
308
=
309
=
 40
0.0
 41
2458268.397651898
 42
2458269.994598021
  1

 90
        0
  0
LAYOUT
  5
1E
102
{ACAD_REACTORS
330
1A
102
}
330
1A
100
AcDbPlotSettings
  1

  2
none_device
  4

  6

 40
0.0
 41
0.0
 42
0.0
 43
0.0
 44
0.0
 45
0.0
 46
0.0
 47
0.0
 48
0.0
 49
0.0
140
0.0
141
0.0
142
1.0
143
1.0
 70
   688
 72
     1
 73
     0
 74
     5
  7

 75
    16
147
1.0
148
0.0
149
0.0
100
AcDbLayout
  1
Layout1
 70
     1
 71
     1
 10
0.0
 20
0.0
 11
420.0
 21
297.0
 12
0.0
 22
0.0
 32
0.0
 14
1.000000000000000E+20
 24
1.000000000000000E+20
 34
1.000000000000000E+20
 15
-1.000000000000000E+20
 25
-1.000000000000000E+20
 35
-1.000000000000000E+20
146
0.0
 13
0.0
 23
0.0
 33
0.0
 16
1.0
 26
0.0
 36
0.0
 17
0.0
 27
1.0
 37
0.0
 76
     0
330
1B
  0
LAYOUT
  5
26
102
{ACAD_REACTORS
330
1A
102
}
330
1A
100
AcDbPlotSettings
  1

  2
none_device
  4

  6

 40
0.0
 41
0.0
 42
0.0
 43
0.0
 44
0.0
 45
0.0
 46
0.0
 47
0.0
 48
0.0
 49
0.0
140
0.0
141
0.0
142
1.0
143
1.0
 70
   688
 72
     1
 73
     0
 74
     5
  7

 75
    16
147
1.0
148
0.0
149
0.0
100
AcDbLayout
  1
Layout2
 70
     1
 71
     2
 10
0.0
 20
0.0
 11
0.0
 21
0.0
 12
0.0
 22
0.0
 32
0.0
 14
0.0
 24
0.0
 34
0.0
 15
0.0
 25
0.0
 35
0.0
146
0.0
 13
0.0
 23
0.0
 33
0.0
 16
1.0
 26
0.0
 36
0.0
 17
0.0
 27
1.0
 37
0.0
 76
     0
330
23
  0
LAYOUT
  5
22
102
{ACAD_REACTORS
330
1A
102
}
330
1A
100
AcDbPlotSettings
  1

  2
none_device
  4
ANSI_A_(11.00_x_8.50_Inches)
  6

 40
6.35
 41
19.05
 42
6.35000508
 43
19.05000254
 44
279.4
 45
215.9
 46
59.24987190282008
 47
72.90407865089196
 48
0.0
 49
0.0
140
0.0
141
0.0
142
0.0385358342819493
143
1.0
 70
  1696
 72
     0
 73
     0
 74
     0
  7

 75
     0
147
0.0235690232323232
148
0.0
149
0.0
100
AcDbLayout
  1
Model
 70
     1
 71
     0
 10
0.0
 20
0.0
 11
420.0
 21
297.0
 12
0.0
 22
0.0
 32
0.0
 14
-149.4039061313235
 24
-49.97073246008785
 34
0.0
 15
132.5503333333333
 25
83.26237799682828
 35
0.0
146
0.0
 13
0.0
 23
0.0
 33
0.0
 16
1.0
 26
0.0
 36
0.0
 17
0.0
 27
1.0
 37
0.0
 76
     0
330
1F
331
29
  0
MLINESTYLE
  5
18
102
{ACAD_REACTORS
330
17
102
}
330
17
100
AcDbMlineStyle
  2
Standard
 70
     0
  3

 62
   256
 51
90.0
 52
90.0
 71
     2
 49
0.5
 62
   256
  6
BYLAYER
 49
-0.5
 62
   256
  6
BYLAYER
  0
ACDBPLACEHOLDER
  5
F
102
{ACAD_REACTORS
330
E
102
}
330
E
  0
SCALE
  5
48
102
{ACAD_REACTORS
330
47
102
}
330
47
100
AcDbScale
 70
     0
300
1:1
140
1.0
141
1.0
290
     1
  0
SCALE
  5
49
102
{ACAD_REACTORS
330
47
102
}
330
47
100
AcDbScale
 70
     0
300
1:2
140
1.0
141
2.0
290
     0
  0
SCALE
  5
4A
102
{ACAD_REACTORS
330
47
102
}
330
47
100
AcDbScale
 70
     0
300
1:4
140
1.0
141
4.0
290
     0
  0
SCALE
  5
4B
102
{ACAD_REACTORS
330
47
102
}
330
47
100
AcDbScale
 70
     0
300
1:5
140
1.0
141
5.0
290
     0
  0
SCALE
  5
4C
102
{ACAD_REACTORS
330
47
102
}
330
47
100
AcDbScale
 70
     0
300
1:8
140
1.0
141
8.0
290
     0
  0
SCALE
  5
4D
102
{ACAD_REACTORS
330
47
102
}
330
47
100
AcDbScale
 70
     0
300
1:10
140
1.0
141
10.0
290
     0
  0
SCALE
  5
4E
102
{ACAD_REACTORS
330
47
102
}
330
47
100
AcDbScale
 70
     0
300
1:16
140
1.0
141
16.0
290
     0
  0
SCALE
  5
4F
102
{ACAD_REACTORS
330
47
102
}
330
47
100
AcDbScale
 70
     0
300
1:20
140
1.0
141
20.0
290
     0
  0
SCALE
  5
50
102
{ACAD_REACTORS
330
47
102
}
330
47
100
AcDbScale
 70
     0
300
1:30
140
1.0
141
30.0
290
     0
  0
SCALE
  5
51
102
{ACAD_REACTORS
330
47
102
}
330
47
100
AcDbScale
 70
     0
300
1:40
140
1.0
141
40.0
290
     0
  0
SCALE
  5
52
102
{ACAD_REACTORS
330
47
102
}
330
47
100
AcDbScale
 70
     0
300
1:50
140
1.0
141
50.0
290
     0
  0
SCALE
  5
53
102
{ACAD_REACTORS
330
47
102
}
330
47
100
AcDbScale
 70
     0
300
1:100
140
1.0
141
100.0
290
     0
  0
SCALE
  5
54
102
{ACAD_REACTORS
330
47
102
}
330
47
100
AcDbScale
 70
     0
300
2:1
140
2.0
141
1.0
290
     0
  0
SCALE
  5
55
102
{ACAD_REACTORS
330
47
102
}
330
47
100
AcDbScale
 70
     0
300
4:1
140
4.0
141
1.0
290
     0
  0
SCALE
  5
56
102
{ACAD_REACTORS
330
47
102
}
330
47
100
AcDbScale
 70
     0
300
8:1
140
8.0
141
1.0
290
     0
  0
SCALE
  5
57
102
{ACAD_REACTORS
330
47
102
}
330
47
100
AcDbScale
 70
     0
300
10:1
140
10.0
141
1.0
290
     0
  0
SCALE
  5
58
102
{ACAD_REACTORS
330
47
102
}
330
47
100
AcDbScale
 70
     0
300
100:1
140
100.0
141
1.0
290
     0
  0
SCALE
  5
59
102
{ACAD_REACTORS
330
47
102
}
330
47
100
AcDbScale
 70
     0
300
1/128" = 1'-0"
140
0.0078125
141
12.0
290
     0
  0
SCALE
  5
5A
102
{ACAD_REACTORS
330
47
102
}
330
47
100
AcDbScale
 70
     0
300
1/64" = 1'-0"
140
0.015625
141
12.0
290
     0
  0
SCALE
  5
5B
102
{ACAD_REACTORS
330
47
102
}
330
47
100
AcDbScale
 70
     0
300
1/32" = 1'-0"
140
0.03125
141
12.0
290
     0
  0
SCALE
  5
5C
102
{ACAD_REACTORS
330
47
102
}
330
47
100
AcDbScale
 70
     0
300
1/16" = 1'-0"
140
0.0625
141
12.0
290
     0
  0
SCALE
  5
5D
102
{ACAD_REACTORS
330
47
102
}
330
47
100
AcDbScale
 70
     0
300
3/32" = 1'-0"
140
0.09375
141
12.0
290
     0
  0
SCALE
  5
5E
102
{ACAD_REACTORS
330
47
102
}
330
47
100
AcDbScale
 70
     0
300
1/8" = 1'-0"
140
0.125
141
12.0
290
     0
  0
SCALE
  5
5F
102
{ACAD_REACTORS
330
47
102
}
330
47
100
AcDbScale
 70
     0
300
3/16" = 1'-0"
140
0.1875
141
12.0
290
     0
  0
SCALE
  5
60
102
{ACAD_REACTORS
330
47
102
}
330
47
100
AcDbScale
 70
     0
300
1/4" = 1'-0"
140
0.25
141
12.0
290
     0
  0
SCALE
  5
61
102
{ACAD_REACTORS
330
47
102
}
330
47
100
AcDbScale
 70
     0
300
3/8" = 1'-0"
140
0.375
141
12.0
290
     0
  0
SCALE
  5
62
102
{ACAD_REACTORS
330
47
102
}
330
47
100
AcDbScale
 70
     0
300
1/2" = 1'-0"
140
0.5
141
12.0
290
     0
  0
SCALE
  5
63
102
{ACAD_REACTORS
330
47
102
}
330
47
100
AcDbScale
 70
     0
300
3/4" = 1'-0"
140
0.75
141
12.0
290
     0
  0
SCALE
  5
64
102
{ACAD_REACTORS
330
47
102
}
330
47
100
AcDbScale
 70
     0
300
1" = 1'-0"
140
1.0
141
12.0
290
     0
  0
SCALE
  5
65
102
{ACAD_REACTORS
330
47
102
}
330
47
100
AcDbScale
 70
     0
300
1-1/2" = 1'-0"
140
1.5
141
12.0
290
     0
  0
SCALE
  5
66
102
{ACAD_REACTORS
330
47
102
}
330
47
100
AcDbScale
 70
     0
300
3" = 1'-0"
140
3.0
141
12.0
290
     0
  0
SCALE
  5
67
102
{ACAD_REACTORS
330
47
102
}
330
47
100
AcDbScale
 70
     0
300
6" = 1'-0"
140
6.0
141
12.0
290
     0
  0
SCALE
  5
68
102
{ACAD_REACTORS
330
47
102
}
330
47
100
AcDbScale
 70
     0
300
1'-0" = 1'-0"
140
12.0
141
12.0
290
     0
  0
ENDSEC
  0
EOF
