  0
SECTION
  2
HEADER
  9
$ACADVER
  1
AC1015
  9
$ACADMAINTVER
 70
     6
  9
$DWGCODEPAGE
  3
ANSI_949
  9
$INSBASE
 10
0.0
 20
0.0
 30
0.0
  9
$EXTMIN
 10
-99.40390613132347
 20
-49.97073246008785
 30
0.0
  9
$EXTMAX
 10
132.5503333333334
 20
83.26130306810431
 30
0.0
  9
$LIMMIN
 10
0.0
 20
0.0
  9
$LIMMAX
 10
420.0
 20
297.0
  9
$ORTHOMODE
 70
     1
  9
$REGENMODE
 70
     1
  9
$FILLMODE
 70
     1
  9
$QTEXTMODE
 70
     0
  9
$MIRRTEXT
 70
     1
  9
$LTSCALE
 40
1.0
  9
$ATTMODE
 70
     1
  9
$TEXTSIZE
 40
3.5
  9
$TRACEWID
 40
1.0
  9
$TEXTSTYLE
  7
Standard
  9
$CLAYER
  8
0
  9
$CELTYPE
  6
ByLayer
  9
$CECOLOR
 62
   256
  9
$CELTSCALE
 40
1.0
  9
$DISPSILH
 70
     0
  9
$DIMSCALE
 40
1.0
  9
$DIMASZ
 40
3.302
  9
$DIMEXO
 40
1.0
  9
$DIMDLI
 40
3.75
  9
$DIMRND
 40
0.0
  9
$DIMDLE
 40
0.0
  9
$DIMEXE
 40
1.0
  9
$DIMTP
 40
0.0
  9
$DIMTM
 40
0.0
  9
$DIMTXT
 40
3.5
  9
$DIMCEN
 40
2.5
  9
$DIMTSZ
 40
0.0
  9
$DIMTOL
 70
     0
  9
$DIMLIM
 70
     0
  9
$DIMTIH
 70
     1
  9
$DIMTOH
 70
     1
  9
$DIMSE1
 70
     0
  9
$DIMSE2
 70
     0
  9
$DIMTAD
 70
     1
  9
$DIMZIN
 70
     0
  9
$DIMBLK
  1

  9
$DIMASO
 70
     1
  9
$DIMSHO
 70
     1
  9
$DIMPOST
  1

  9
$DIMAPOST
  1

  9
$DIMALT
 70
     0
  9
$DIMALTD
 70
     3
  9
$DIMALTF
 40
0.0393700787401575
  9
$DIMLFAC
 40
1.0
  9
$DIMTOFL
 70
     1
  9
$DIMTVP
 40
0.0
  9
$DIMTIX
 70
     0
  9
$DIMSOXD
 70
     0
  9
$DIMSAH
 70
     0
  9
$DIMBLK1
  1

  9
$DIMBLK2
  1

  9
$DIMSTYLE
  2
ISO-25
  9
$DIMCLRD
 70
     0
  9
$DIMCLRE
 70
     0
  9
$DIMCLRT
 70
     0
  9
$DIMTFAC
 40
1.0
  9
$DIMGAP
 40
1.524
  9
$DIMJUST
 70
     0
  9
$DIMSD1
 70
     0
  9
$DIMSD2
 70
     0
  9
$DIMTOLJ
 70
     0
  9
$DIMTZIN
 70
     0
  9
$DIMALTZ
 70
     0
  9
$DIMALTTZ
 70
     0
  9
$DIMUPT
 70
     0
  9
$DIMDEC
 70
     2
  9
$DIMTDEC
 70
     2
  9
$DIMALTU
 70
     2
  9
$DIMALTTD
 70
     3
  9
$DIMTXSTY
  7
Standard
  9
$DIMAUNIT
 70
     0
  9
$DIMADEC
 70
     2
  9
$DIMALTRND
 40
0.0
  9
$DIMAZIN
 70
     0
  9
$DIMDSEP
 70
    44
  9
$DIMATFIT
 70
     3
  9
$DIMFRAC
 70
     0
  9
$DIMLDRBLK
  1

  9
$DIMLUNIT
 70
     2
  9
$DIMLWD
 70
    -2
  9
$DIMLWE
 70
    -2
  9
$DIMTMOVE
 70
     0
  9
$LUNITS
 70
     2
  9
$LUPREC
 70
     2
  9
$SKETCHINC
 40
1.0
  9
$FILLETRAD
 40
10.0
  9
$AUNITS
 70
     0
  9
$AUPREC
 70
     2
  9
$MENU
  1
.
  9
$ELEVATION
 40
0.0
  9
$PELEVATION
 40
0.0
  9
$THICKNESS
 40
0.0
  9
$LIMCHECK
 70
     0
  9
$CHAMFERA
 40
0.0
  9
$CHAMFERB
 40
0.0
  9
$CHAMFERC
 40
0.0
  9
$CHAMFERD
 40
0.0
  9
$SKPOLY
 70
     0
  9
$TDCREATE
 40
2458268.772839746
  9
$TDUCREATE
 40
2458268.397839746
  9
$TDUPDATE
 40
2458270.373710937
  9
$TDUUPDATE
 40
2458269.998710937
  9
$TDINDWG
 40
0.000808831
  9
$TDUSRTIMER
 40
2458269.997902234
  9
$USRTIMER
 70
     1
  9
$ANGBASE
 50
0.0
  9
$ANGDIR
 70
     0
  9
$PDMODE
 70
     0
  9
$PDSIZE
 40
-1.0
  9
$PLINEWID
 40
0.0
  9
$SPLFRAME
 70
     0
  9
$SPLINETYPE
 70
     6
  9
$SPLINESEGS
 70
     8
  9
$HANDSEED
  5
164
  9
$SURFTAB1
 70
     6
  9
$SURFTAB2
 70
     6
  9
$SURFTYPE
 70
     6
  9
$SURFU
 70
     6
  9
$SURFV
 70
     6
  9
$UCSBASE
  2

  9
$UCSNAME
  2

  9
$UCSORG
 10
0.0
 20
0.0
 30
0.0
  9
$UCSXDIR
 10
1.0
 20
0.0
 30
0.0
  9
$UCSYDIR
 10
0.0
 20
1.0
 30
0.0
  9
$UCSORTHOREF
  2

  9
$UCSORTHOVIEW
 70
     0
  9
$UCSORGTOP
 10
0.0
 20
0.0
 30
0.0
  9
$UCSORGBOTTOM
 10
0.0
 20
0.0
 30
0.0
  9
$UCSORGLEFT
 10
0.0
 20
0.0
 30
0.0
  9
$UCSORGRIGHT
 10
0.0
 20
0.0
 30
0.0
  9
$UCSORGFRONT
 10
0.0
 20
0.0
 30
0.0
  9
$UCSORGBACK
 10
0.0
 20
0.0
 30
0.0
  9
$PUCSBASE
  2

  9
$PUCSNAME
  2

  9
$PUCSORG
 10
0.0
 20
0.0
 30
0.0
  9
$PUCSXDIR
 10
1.0
 20
0.0
 30
0.0
  9
$PUCSYDIR
 10
0.0
 20
1.0
 30
0.0
  9
$PUCSORTHOREF
  2

  9
$PUCSORTHOVIEW
 70
     0
  9
$PUCSORGTOP
 10
0.0
 20
0.0
 30
0.0
  9
$PUCSORGBOTTOM
 10
0.0
 20
0.0
 30
0.0
  9
$PUCSORGLEFT
 10
0.0
 20
0.0
 30
0.0
  9
$PUCSORGRIGHT
 10
0.0
 20
0.0
 30
0.0
  9
$PUCSORGFRONT
 10
0.0
 20
0.0
 30
0.0
  9
$PUCSORGBACK
 10
0.0
 20
0.0
 30
0.0
  9
$USERI1
 70
     0
  9
$USERI2
 70
     0
  9
$USERI3
 70
     0
  9
$USERI4
 70
     0
  9
$USERI5
 70
     0
  9
$USERR1
 40
0.0
  9
$USERR2
 40
0.0
  9
$USERR3
 40
0.0
  9
$USERR4
 40
0.0
  9
$USERR5
 40
0.0
  9
$WORLDVIEW
 70
     1
  9
$SHADEDGE
 70
     3
  9
$SHADEDIF
 70
    70
  9
$TILEMODE
 70
     1
  9
$MAXACTVP
 70
    64
  9
$PINSBASE
 10
0.0
 20
0.0
 30
0.0
  9
$PLIMCHECK
 70
     0
  9
$PEXTMIN
 10
1.000000000000000E+20
 20
1.000000000000000E+20
 30
1.000000000000000E+20
  9
$PEXTMAX
 10
-1.000000000000000E+20
 20
-1.000000000000000E+20
 30
-1.000000000000000E+20
  9
$PLIMMIN
 10
0.0
 20
0.0
  9
$PLIMMAX
 10
0.0
 20
0.0
  9
$UNITMODE
 70
     0
  9
$VISRETAIN
 70
     1
  9
$PLINEGEN
 70
     0
  9
$PSLTSCALE
 70
     1
  9
$TREEDEPTH
 70
  3020
  9
$CMLSTYLE
  2
Standard
  9
$CMLJUST
 70
     0
  9
$CMLSCALE
 40
20.0
  9
$PROXYGRAPHICS
 70
     1
  9
$MEASUREMENT
 70
     1
  9
$CELWEIGHT
370
    -1
  9
$ENDCAPS
280
     0
  9
$JOINSTYLE
280
     0
  9
$LWDISPLAY
290
     1
  9
$INSUNITS
 70
     4
  9
$HYPERLINKBASE
  1

  9
$STYLESHEET
  1

  9
$XEDIT
290
     1
  9
$CEPSNTYPE
380
     0
  9
$PSTYLEMODE
290
     1
  9
$FINGERPRINTGUID
  2
{6B8166D8-30A5-492A-954E-E0DCB50737B9}
  9
$VERSIONGUID
  2
{FAEB1C32-E019-11D5-929B-00C0DF256EC4}
  9
$EXTNAMES
290
     1
  9
$PSVPSCALE
 40
0.0
  9
$OLESTARTUP
290
     0
  0
ENDSEC
  0
SECTION
  2
CLASSES
  0
CLASS
  1
ACDBDICTIONARYWDFLT
  2
AcDbDictionaryWithDefault
  3
ObjectDBX Classes
 90
        0
280
     0
281
     0
  0
CLASS
  1
VISUALSTYLE
  2
AcDbVisualStyle
  3
ObjectDBX Classes
 90
     4095
280
     0
281
     0
  0
CLASS
  1
MATERIAL
  2
AcDbMaterial
  3
ObjectDBX Classes
 90
     1153
280
     0
281
     0
  0
CLASS
  1
SCALE
  2
AcDbScale
  3
ObjectDBX Classes
 90
     1153
280
     0
281
     0
  0
CLASS
  1
SUN
  2
AcDbSun
  3
SCENEOE
 90
     1153
280
     0
281
     0
  0
CLASS
  1
ACDBPLACEHOLDER
  2
AcDbPlaceHolder
  3
ObjectDBX Classes
 90
        0
280
     0
281
     0
  0
CLASS
  1
LAYOUT
  2
AcDbLayout
  3
ObjectDBX Classes
 90
        0
280
     0
281
     0
  0
CLASS
  1
TABLESTYLE
  2
AcDbTableStyle
  3
ObjectDBX Classes
 90
     4095
280
     0
281
     0
  0
CLASS
  1
MLEADERSTYLE
  2
AcDbMLeaderStyle
  3
ACDB_MLEADERSTYLE_CLASS
 90
     4095
280
     0
281
     0
  0
CLASS
  1
RASTERVARIABLES
  2
AcDbRasterVariables
  3
ISM
 90
        0
280
     0
281
     0
  0
ENDSEC
  0
SECTION
  2
TABLES
  0
TABLE
  2
VPORT
  5
8
330
0
100
AcDbSymbolTable
 70
     1
  0
VPORT
  5
29
330
8
100
AcDbSymbolTableRecord
100
AcDbViewportTableRecord
  2
*Active
 70
     0
 10
0.0
 20
0.0
 11
1.0
 21
1.0
 12
34.95216451535018
 22
5.386094166858777
 13
0.0
 23
0.0
 14
10.0
 24
10.0
 15
10.0
 25
10.0
 16
0.0
 26
0.0
 36
1.0
 17
0.0
 27
0.0
 37
0.0
 40
15.65306000898586
 41
1.627413127413127
 42
50.0
 43
0.0
 44
0.0
 50
0.0
 51
0.0
 71
    16
 72
  2000
 73
     1
 74
     3
 75
     0
 76
     0
 77
     0
 78
     0
281
     0
 65
     1
110
0.0
120
0.0
130
0.0
111
1.0
121
0.0
131
0.0
112
0.0
122
1.0
132
0.0
 79
     0
146
0.0
  0
ENDTAB
  0
TABLE
  2
LTYPE
  5
5
330
0
100
AcDbSymbolTable
 70
     6
  0
LTYPE
  5
14
330
5
100
AcDbSymbolTableRecord
100
AcDbLinetypeTableRecord
  2
ByBlock
 70
     0
  3

 72
    65
 73
     0
 40
0.0
  0
LTYPE
  5
15
330
5
100
AcDbSymbolTableRecord
100
AcDbLinetypeTableRecord
  2
ByLayer
 70
     0
  3

 72
    65
 73
     0
 40
0.0
  0
LTYPE
  5
16
330
5
100
AcDbSymbolTableRecord
100
AcDbLinetypeTableRecord
  2
Continuous
 70
     0
  3
Solid line
 72
    65
 73
     0
 40
0.0
  0
LTYPE
  5
6A
330
5
100
AcDbSymbolTableRecord
100
AcDbLinetypeTableRecord
  2
HIDDEN
 70
     0
  3
Hidden __ __ __ __ __ __ __ __ __ __ __ __ __ __
 72
    65
 73
     2
 40
1.905
 49
1.27
 74
     0
 49
-0.635
 74
     0
  0
LTYPE
  5
6B
330
5
100
AcDbSymbolTableRecord
100
AcDbLinetypeTableRecord
  2
PHANTOM
 70
     0
  3
Phantom ______  __  __  ______  __  __  ______
 72
    65
 73
     6
 40
12.7
 49
6.35
 74
     0
 49
-1.27
 74
     0
 49
1.27
 74
     0
 49
-1.27
 74
     0
 49
1.27
 74
     0
 49
-1.27
 74
     0
  0
LTYPE
  5
6C
330
5
100
AcDbSymbolTableRecord
100
AcDbLinetypeTableRecord
  2
CENTER
 70
     0
  3
Center ____ _ ____ _ ____ _ ____ _ ____ _ ____
 72
    65
 73
     4
 40
10.16
 49
6.35
 74
     0
 49
-1.27
 74
     0
 49
1.27
 74
     0
 49
-1.27
 74
     0
  0
LTYPE
  5
6D
330
5
100
AcDbSymbolTableRecord
100
AcDbLinetypeTableRecord
  2
CENTERX2
 70
     0
  3
Center (2x) ________  __  ________  __  _____
 72
    65
 73
     4
 40
20.32
 49
12.7
 74
     0
 49
-2.54
 74
     0
 49
2.54
 74
     0
 49
-2.54
 74
     0
  0
LTYPE
  5
6E
330
5
100
AcDbSymbolTableRecord
100
AcDbLinetypeTableRecord
  2
DOT2
 70
     0
  3
Dot (.5x) ........................................
 72
    65
 73
     2
 40
0.635
 49
0.0
 74
     0
 49
-0.635
 74
     0
  0
ENDTAB
  0
TABLE
  2
LAYER
  5
2
330
0
100
AcDbSymbolTable
 70
    17
  0
LAYER
  5
10
330
2
100
AcDbSymbolTableRecord
100
AcDbLayerTableRecord
  2
0
 70
     0
 62
     7
  6
Continuous
370
    -3
390
F
  0
LAYER
  5
6F
330
2
100
AcDbSymbolTableRecord
100
AcDbLayerTableRecord
  2
FORMAT
 70
     0
 62
     2
  6
Continuous
370
    -3
390
F
  0
LAYER
  5
70
330
2
100
AcDbSymbolTableRecord
100
AcDbLayerTableRecord
  2
외형선
 70
     0
 62
   100
  6
Continuous
370
    30
390
F
  0
LAYER
  5
71
330
2
100
AcDbSymbolTableRecord
100
AcDbLayerTableRecord
  2
숨은선
 70
     0
 62
     2
  6
HIDDEN
370
    15
390
F
  0
LAYER
  5
72
330
2
100
AcDbSymbolTableRecord
100
AcDbLayerTableRecord
  2
중심선
 70
     0
 62
     1
  6
CENTERX2
370
    -3
390
F
  0
LAYER
  5
73
330
2
100
AcDbSymbolTableRecord
100
AcDbLayerTableRecord
  2
파단선
 70
     0
 62
     4
  6
Continuous
370
    -3
390
F
  0
LAYER
  5
74
330
2
100
AcDbSymbolTableRecord
100
AcDbLayerTableRecord
  2
해칭선
 70
     0
 62
     4
  6
Continuous
370
    -3
390
F
  0
LAYER
  5
75
330
2
100
AcDbSymbolTableRecord
100
AcDbLayerTableRecord
  2
가는실선
 70
     0
 62
     4
  6
Continuous
370
    -3
390
F
  0
LAYER
  5
76
330
2
100
AcDbSymbolTableRecord
100
AcDbLayerTableRecord
  2
치수_보조선
 70
     0
 62
     4
  6
Continuous
370
    -3
390
F
  0
LAYER
  5
77
330
2
100
AcDbSymbolTableRecord
100
AcDbLayerTableRecord
  2
치수문자_일반주서
 70
     0
 62
     7
  6
Continuous
370
    15
390
F
  0
LAYER
  5
78
330
2
100
AcDbSymbolTableRecord
100
AcDbLayerTableRecord
  2
개별주서
 70
     0
 62
   100
  6
Continuous
370
    30
390
F
  0
LAYER
  5
79
330
2
100
AcDbSymbolTableRecord
100
AcDbLayerTableRecord
  2
중간선
 70
     0
 62
     2
  6
Continuous
370
    15
390
F
  0
LAYER
  5
7A
330
2
100
AcDbSymbolTableRecord
100
AcDbLayerTableRecord
  2
윤곽선
 70
     0
 62
     3
  6
Continuous
370
    40
390
F
  0
LAYER
  5
7B
330
2
100
AcDbSymbolTableRecord
100
AcDbLayerTableRecord
  2
중심마크
 70
     0
 62
   100
  6
Continuous
370
    30
390
F
  0
LAYER
  5
7C
330
2
100
AcDbSymbolTableRecord
100
AcDbLayerTableRecord
  2
가상선
 70
     0
 62
     4
  6
PHANTOM
370
    -3
390
F
  0
LAYER
  5
7D
330
2
100
AcDbSymbolTableRecord
100
AcDbLayerTableRecord
  2
특수지정선
 70
     0
 62
     5
  6
CENTERX2
370
    60
390
F
  0
LAYER
  5
15A
330
2
100
AcDbSymbolTableRecord
100
AcDbLayerTableRecord
  2
Defpoints
 70
     0
 62
     7
  6
Continuous
290
     0
370
    -3
390
F
  0
ENDTAB
  0
TABLE
  2
STYLE
  5
3
330
0
100
AcDbSymbolTable
 70
     2
  0
STYLE
  5
11
330
3
100
AcDbSymbolTableRecord
100
AcDbTextStyleTableRecord
  2
Standard
 70
     0
 40
0.0
 41
1.0
 50
0.0
 71
     0
 42
3.5
  3
txt
  4

  0
STYLE
  5
93
330
3
100
AcDbSymbolTableRecord
100
AcDbTextStyleTableRecord
  2
SLDTEXTSTYLE0
 70
     0
 40
0.0
 41
0.75
 50
0.0
 71
     0
 42
3.5
  3
TXT
  4

  0
ENDTAB
  0
TABLE
  2
VIEW
  5
6
330
0
100
AcDbSymbolTable
 70
     0
  0
ENDTAB
  0
TABLE
  2
UCS
  5
7
330
0
100
AcDbSymbolTable
 70
     0
  0
ENDTAB
  0
TABLE
  2
APPID
  5
9
330
0
100
AcDbSymbolTable
 70
     1
  0
APPID
  5
12
330
9
100
AcDbSymbolTableRecord
100
AcDbRegAppTableRecord
  2
ACAD
 70
     0
  0
ENDTAB
  0
TABLE
  2
DIMSTYLE
  5
A
330
0
100
AcDbSymbolTable
 70
     3
100
AcDbDimStyleTable
  0
DIMSTYLE
105
27
330
A
100
AcDbSymbolTableRecord
100
AcDbDimStyleTableRecord
  2
ISO-25
 70
     0
 41
2.5
 42
0.625
 43
3.75
 44
1.25
 73
     0
 74
     0
 77
     1
 78
     8
140
2.5
141
2.5
143
0.03937007874016
147
0.625
171
     3
172
     1
178
     0
271
     2
272
     2
274
     3
278
    44
283
     0
284
     8
340
11
  0
DIMSTYLE
105
100
102
{ACAD_REACTORS
330
FF
330
10D
102
}
330
A
100
AcDbSymbolTableRecord
100
AcDbDimStyleTableRecord
  2
SLDDIMSTYLE0
 70
     0
 41
3.302
 44
0.0
 45
0.000000001
 73
     0
 74
     0
 77
     1
 78
    12
 79
     3
140
3.5
147
0.875
172
     1
173
     1
178
     0
271
     2
272
     2
276
     2
284
    12
289
     0
340
93
  0
DIMSTYLE
105
11B
102
{ACAD_REACTORS
330
11A
330
125
102
}
330
A
100
AcDbSymbolTableRecord
100
AcDbDimStyleTableRecord
  2
SLDDIMSTYLE1
 70
     0
 41
3.302
 44
0.0
 45
0.000000001
 73
     0
 74
     0
 77
     1
 78
    12
 79
     3
140
3.5
147
0.875
173
     1
178
     0
271
     2
272
     2
276
     2
284
    12
340
93
  0
ENDTAB
  0
TABLE
  2
BLOCK_RECORD
  5
1
330
0
100
AcDbSymbolTable
 70
     7
  0
BLOCK_RECORD
  5
1F
330
1
100
AcDbSymbolTableRecord
100
AcDbBlockTableRecord
  2
*Model_Space
340
22
  0
BLOCK_RECORD
  5
1B
330
1
100
AcDbSymbolTableRecord
100
AcDbBlockTableRecord
  2
*Paper_Space
340
1E
  0
BLOCK_RECORD
  5
23
330
1
100
AcDbSymbolTableRecord
100
AcDbBlockTableRecord
  2
*Paper_Space0
340
26
  0
BLOCK_RECORD
  5
7E
330
1
100
AcDbSymbolTableRecord
100
AcDbBlockTableRecord
  2
블럭10
340
0
102
{BLKREFS
331
F8
102
}
  0
BLOCK_RECORD
  5
101
330
1
100
AcDbSymbolTableRecord
100
AcDbBlockTableRecord
  2
_D
340
0
  0
BLOCK_RECORD
  5
10E
330
1
100
AcDbSymbolTableRecord
100
AcDbBlockTableRecord
  2
_D_1
340
0
  0
BLOCK_RECORD
  5
11C
330
1
100
AcDbSymbolTableRecord
100
AcDbBlockTableRecord
  2
_D_2
340
0
  0
BLOCK_RECORD
  5
126
330
1
100
AcDbSymbolTableRecord
100
AcDbBlockTableRecord
  2
_D_3
340
0
  0
BLOCK_RECORD
  5
12F
330
1
100
AcDbSymbolTableRecord
100
AcDbBlockTableRecord
  2
SW_DOWELSYMBOL_0
340
0
102
{BLKREFS
331
135
102
}
  0
ENDTAB
  0
ENDSEC
  0
SECTION
  2
BLOCKS
  0
BLOCK
  5
20
330
1F
100
AcDbEntity
  8
0
100
AcDbBlockBegin
  2
*Model_Space
 70
     0
 10
0.0
 20
0.0
 30
0.0
  3
*Model_Space
  1
*Model_Space
  0
ENDBLK
  5
21
330
1F
100
AcDbEntity
  8
0
100
AcDbBlockEnd
  0
BLOCK
  5
1C
330
1B
100
AcDbEntity
 67
     1
  8
0
100
AcDbBlockBegin
  2
*Paper_Space
 70
     0
 10
0.0
 20
0.0
 30
0.0
  3
*Paper_Space
  1
*Paper_Space
  0
ENDBLK
  5
1D
330
1B
100
AcDbEntity
 67
     1
  8
0
100
AcDbBlockEnd
  0
BLOCK
  5
24
330
23
100
AcDbEntity
  8
0
100
AcDbBlockBegin
  2
*Paper_Space0
 70
     0
 10
0.0
 20
0.0
 30
0.0
  3
*Paper_Space0
  1
*Paper_Space0
  0
ENDBLK
  5
25
330
23
100
AcDbEntity
  8
0
100
AcDbBlockEnd
  0
BLOCK
  5
7F
330
7E
100
AcDbEntity
  8
0
100
AcDbBlockBegin
  2
블럭10
 70
     2
 10
0.0
 20
0.0
 30
0.0
  3
블럭10
  1
블럭10
  0
ELLIPSE
  5
81
330
7E
100
AcDbEntity
  8
중심선
100
AcDbEllipse
 10
20.54032771741204
 20
12.0471743016438
 30
0.0
 11
6.600054785286829
 21
-1.261213355974178E-13
 31
0.0
210
0.0
220
0.0
230
1.0
 40
0.636358354079598
 41
0.9219305317359503
 42
6.513795318482858
  0
ELLIPSE
  5
82
330
7E
100
AcDbEntity
  8
중심선
100
AcDbEllipse
 10
20.54032771746488
 20
12.04717430159265
 30
0.0
 11
3.960054785062283
 21
1.540847449632565E-10
 31
0.0
210
0.0
220
0.0
230
1.0
 40
0.3939339440162632
 41
1.131841032648279
 42
5.62031148352944
  0
LINE
  5
83
330
7E
100
AcDbEntity
  8
중심선
100
AcDbLine
 10
2.268634060543552
 20
16.24717430164393
 30
0.0
 11
5.714909304380834
 21
16.24717430164393
 31
0.0
  0
LINE
  5
84
330
7E
100
AcDbEntity
  8
중심선
100
AcDbLine
 10
5.245725140726316
 20
7.84717430164391
 30
0.0
 11
8.692000384563599
 21
7.84717430164391
 31
0.0
  0
LINE
  5
85
330
7E
100
AcDbEntity
  8
중심선
100
AcDbLine
 10
15.74043728645272
 20
16.24717430164393
 30
0.0
 11
8.692000384563599
 21
7.84717430164391
 31
0.0
  0
LINE
  5
86
330
7E
100
AcDbEntity
  8
중심선
100
AcDbLine
 10
0.1404042013395286
 20
13.71084872107135
 30
0.0
 11
3.58671253028996
 21
13.71088815037384
 31
0.0
  0
LINE
  5
87
330
7E
100
AcDbEntity
  8
중심선
100
AcDbLine
 10
2.750260043222114
 20
10.84717430164391
 30
0.0
 11
6.196535287059397
 21
10.84717430164391
 31
0.0
  0
LINE
  5
88
330
7E
100
AcDbEntity
  8
중심선
100
AcDbLine
 10
12.29416204261559
 20
16.24717430164393
 30
0.0
 11
5.245725140726316
 21
7.84717430164391
 31
0.0
  0
LINE
  5
89
330
7E
100
AcDbEntity
  8
중심선
100
AcDbLine
 10
10.72767329541681
 20
16.24717430164393
 30
0.0
 11
6.196535287059397
 21
10.84717430164391
 31
0.0
  0
LINE
  5
8A
330
7E
100
AcDbEntity
  8
중심선
100
AcDbLine
 10
7.28139805157953
 20
16.24717430164393
 30
0.0
 11
2.750260043222114
 21
10.84717430164391
 31
0.0
  0
LINE
  5
8B
330
7E
100
AcDbEntity
  8
중심선
100
AcDbLine
 10
5.714909304380834
 20
16.24717430164393
 30
0.0
 11
3.58671253028996
 21
13.71088815037384
 31
0.0
  0
LINE
  5
8C
330
7E
100
AcDbEntity
  8
중심선
100
AcDbLine
 10
2.268634060543552
 20
16.24717430164393
 30
0.0
 11
0.1404042013395286
 21
13.71084872107135
 31
0.0
  0
LINE
  5
8D
330
7E
100
AcDbEntity
  8
중심선
100
AcDbLine
 10
7.28139805157953
 20
16.24717430164393
 30
0.0
 11
10.72767329541681
 21
16.24717430164393
 31
0.0
  0
LINE
  5
8E
330
7E
100
AcDbEntity
  8
중심선
100
AcDbLine
 10
12.29416204261559
 20
16.24717430164393
 30
0.0
 11
15.74043728645272
 21
16.24717430164393
 31
0.0
  0
LINE
  5
8F
330
7E
100
AcDbEntity
  8
중심선
100
AcDbLine
 10
19.22036997980202
 20
11.08717430171403
 30
0.0
 11
23.66174974927406
 21
11.08717430171406
 31
0.0
  0
LINE
  5
90
330
7E
100
AcDbEntity
  8
중심선
100
AcDbLine
 10
19.22039502424796
 20
13.00717430171391
 30
0.0
 11
19.22036997980202
 21
11.08717430171403
 31
0.0
  0
LINE
  5
91
330
7E
100
AcDbEntity
  8
중심선
100
AcDbLine
 10
19.22039502424796
 20
13.00717430171391
 30
0.0
 11
26.96566020931264
 21
13.00717430171391
 31
0.0
  0
LINE
  5
92
330
7E
100
AcDbEntity
  8
중심선
100
AcDbLine
 10
22.22332737316547
 20
13.45928029700563
 30
0.0
 11
24.52862924686651
 21
15.39360700705356
 31
0.0
  0
ATTDEF
  5
94
330
7E
100
AcDbEntity
  8
FORMAT
 62
     2
100
AcDbText
 10
-17.69892196172445
 20
2.075366912832191
 30
0.0
 40
4.233333333333333
  1
SEME75160110E [ 6 FLUTE ]
 41
0.75
  7
SLDTEXTSTYLE0
 11
-17.69892196172445
 21
-0.0412997538344756
 31
0.0
100
AcDbAttributeDefinition
  3

  2
AUTOATTR0
 70
     0
 74
     1
  0
ENDBLK
  5
80
330
7E
100
AcDbEntity
  8
0
100
AcDbBlockEnd
  0
BLOCK
  5
102
330
101
100
AcDbEntity
  8
0
100
AcDbBlockBegin
  2
_D
 70
     0
 10
0.0
 20
0.0
 30
0.0
  3
_D
  1
_D
  0
LINE
  5
104
330
101
100
AcDbEntity
  8
치수문자_일반주서
 62
     0
370
    -2
100
AcDbLine
 10
-76.4625
 20
7.999999999999979
 30
0.0
 11
-95.02890613132348
 21
7.999999999999909
 31
0.0
  0
LINE
  5
105
330
101
100
AcDbEntity
  8
치수문자_일반주서
 62
     0
370
    -2
100
AcDbLine
 10
-76.4625
 20
-8.000000000000036
 30
0.0
 11
-95.02890613132342
 21
-8.000000000000105
 31
0.0
  0
LINE
  5
106
330
101
100
AcDbEntity
  8
치수문자_일반주서
 62
     0
370
    -2
100
AcDbLine
 10
-95.02890613132347
 20
4.69799999999991
 30
0.0
 11
-95.02890613132344
 21
-4.698000000000105
 31
0.0
  0
SOLID
  5
107
330
101
100
AcDbEntity
  8
치수문자_일반주서
 62
     0
100
AcDbTrace
 10
-94.47857279799014
 20
4.697999999999912
 30
0.0
 11
-95.5792394646568
 21
4.697999999999908
 31
0.0
 12
-95.02890613132348
 22
7.999999999999909
 32
0.0
 13
-95.02890613132348
 23
7.999999999999909
 33
0.0
  0
SOLID
  5
108
330
101
100
AcDbEntity
  8
치수문자_일반주서
 62
     0
100
AcDbTrace
 10
-95.57923946465677
 20
-4.698000000000107
 30
0.0
 11
-94.47857279799011
 21
-4.698000000000103
 31
0.0
 12
-95.02890613132342
 22
-8.000000000000105
 32
0.0
 13
-95.02890613132342
 23
-8.000000000000105
 33
0.0
  0
MTEXT
  5
109
330
101
100
AcDbEntity
  8
치수문자_일반주서
 62
     0
100
AcDbMText
 10
-99.40390613132345
 20
-0.0000000000000418
 30
0.0
 40
3.5
 41
0.0
 71
     2
 72
     1
  1
\A1;%%c16
  7
SLDTEXTSTYLE0
 11
-3.552713678800498E-15
 21
1.0
 31
0.0
 73
     1
 44
1.0
  0
POINT
  5
10A
330
101
100
AcDbEntity
  8
Defpoints
 62
     0
100
AcDbPoint
 10
-76.4
 20
7.999999999999979
 30
0.0
  0
POINT
  5
10B
330
101
100
AcDbEntity
  8
Defpoints
 62
     0
100
AcDbPoint
 10
-76.4
 20
-8.000000000000036
 30
0.0
  0
POINT
  5
10C
330
101
100
AcDbEntity
  8
Defpoints
 62
     0
100
AcDbPoint
 10
-95.02890613132345
 20
-8.000000000000105
 30
0.0
  0
ENDBLK
  5
103
330
101
100
AcDbEntity
  8
0
100
AcDbBlockEnd
  0
BLOCK
  5
10F
330
10E
100
AcDbEntity
  8
0
100
AcDbBlockBegin
  2
_D_1
 70
     0
 10
0.0
 20
0.0
 30
0.0
  3
_D_1
  1
_D_1
  0
LINE
  5
111
330
10E
100
AcDbEntity
  8
치수문자_일반주서
 62
     0
370
    -2
100
AcDbLine
 10
122.0625
 20
7.99999999999998
 30
0.0
 11
132.0
 21
8.000000000000018
 31
0.0
  0
LINE
  5
112
330
10E
100
AcDbEntity
  8
치수문자_일반주서
 62
     0
370
    -2
100
AcDbLine
 10
122.0625
 20
-8.000000000000037
 30
0.0
 11
132.0
 21
-8.0
 31
0.0
  0
LINE
  5
113
330
10E
100
AcDbEntity
  8
치수문자_일반주서
 62
     0
370
    -2
100
AcDbLine
 10
132.0
 20
4.698000000000018
 30
0.0
 11
132.0
 21
-4.698
 31
0.0
  0
SOLID
  5
114
330
10E
100
AcDbEntity
  8
치수문자_일반주서
 62
     0
100
AcDbTrace
 10
132.5503333333333
 20
4.69800000000002
 30
0.0
 11
131.4496666666666
 21
4.698000000000016
 31
0.0
 12
132.0
 22
8.000000000000018
 32
0.0
 13
132.0
 23
8.000000000000018
 33
0.0
  0
SOLID
  5
115
330
10E
100
AcDbEntity
  8
치수문자_일반주서
 62
     0
100
AcDbTrace
 10
131.4496666666667
 20
-4.698000000000002
 30
0.0
 11
132.5503333333334
 21
-4.697999999999999
 31
0.0
 12
132.0
 22
-8.0
 32
0.0
 13
132.0
 23
-8.0
 33
0.0
  0
MTEXT
  5
116
330
10E
100
AcDbEntity
  8
치수문자_일반주서
 62
     0
100
AcDbMText
 10
127.625
 20
1.055089200153545
 30
0.0
 40
3.5
 41
0.0
 71
     2
 72
     1
  1
\A1;%%c16
  7
SLDTEXTSTYLE0
 11
-3.552713678800497E-15
 21
1.0
 31
0.0
 73
     1
 44
1.0
  0
POINT
  5
117
330
10E
100
AcDbEntity
  8
Defpoints
 62
     0
100
AcDbPoint
 10
122.0
 20
7.99999999999998
 30
0.0
  0
POINT
  5
118
330
10E
100
AcDbEntity
  8
Defpoints
 62
     0
100
AcDbPoint
 10
122.0
 20
-8.000000000000037
 30
0.0
  0
POINT
  5
119
330
10E
100
AcDbEntity
  8
Defpoints
 62
     0
100
AcDbPoint
 10
132.0
 20
-8.0
 30
0.0
  0
ENDBLK
  5
110
330
10E
100
AcDbEntity
  8
0
100
AcDbBlockEnd
  0
BLOCK
  5
11D
330
11C
100
AcDbEntity
  8
0
100
AcDbBlockBegin
  2
_D_2
 70
     0
 10
0.0
 20
0.0
 30
0.0
  3
_D_2
  1
_D_2
  0
LINE
  5
11F
330
11C
100
AcDbEntity
  8
치수문자_일반주서
 62
     0
370
    -2
100
AcDbLine
 10
11.99999999999999
 20
8.061543626388534
 30
0.0
 11
12.0
 21
51.49388424503034
 31
0.0
  0
LINE
  5
120
330
11C
100
AcDbEntity
  8
치수문자_일반주서
 62
     0
370
    -2
100
AcDbLine
 10
122.0
 20
8.00412040723468
 30
0.0
 11
122.0
 21
51.49388424503034
 31
0.0
  0
LINE
  5
121
330
11C
100
AcDbEntity
  8
치수문자_일반주서
 62
     0
370
    -2
100
AcDbLine
 10
15.302
 20
51.49388424503034
 30
0.0
 11
118.698
 21
51.49388424503034
 31
0.0
  0
SOLID
  5
122
330
11C
100
AcDbEntity
  8
치수문자_일반주서
 62
     0
100
AcDbTrace
 10
15.302
 20
52.04421757836367
 30
0.0
 11
15.302
 21
50.943550911697
 31
0.0
 12
12.0
 22
51.49388424503034
 32
0.0
 13
12.0
 23
51.49388424503034
 33
0.0
  0
SOLID
  5
123
330
11C
100
AcDbEntity
  8
치수문자_일반주서
 62
     0
100
AcDbTrace
 10
118.698
 20
50.943550911697
 30
0.0
 11
118.698
 21
52.04421757836367
 31
0.0
 12
122.0
 22
51.49388424503034
 32
0.0
 13
122.0
 23
51.49388424503034
 33
0.0
  0
MTEXT
  5
124
330
11C
100
AcDbEntity
  8
치수문자_일반주서
 62
     0
100
AcDbMText
 10
57.01748654054401
 20
55.86888424503034
 30
0.0
 40
3.5
 41
0.0
 71
     2
 72
     1
  1
\A1;110
  7
SLDTEXTSTYLE0
 73
     1
 44
1.0
  0
POINT
  5
15D
330
11C
100
AcDbEntity
  8
Defpoints
 62
     0
100
AcDbPoint
 10
11.99999999999999
 20
7.999043626388534
 30
0.0
  0
POINT
  5
15E
330
11C
100
AcDbEntity
  8
Defpoints
 62
     0
100
AcDbPoint
 10
122.0
 20
7.941620407234681
 30
0.0
  0
POINT
  5
15F
330
11C
100
AcDbEntity
  8
Defpoints
 62
     0
100
AcDbPoint
 10
122.0
 20
51.49388424503033
 30
0.0
  0
ENDBLK
  5
11E
330
11C
100
AcDbEntity
  8
0
100
AcDbBlockEnd
  0
BLOCK
  5
127
330
126
100
AcDbEntity
  8
0
100
AcDbBlockBegin
  2
_D_3
 70
     0
 10
0.0
 20
0.0
 30
0.0
  3
_D_3
  1
_D_3
  0
LINE
  5
129
330
126
100
AcDbEntity
  8
치수문자_일반주서
 62
     0
370
    -2
100
AcDbLine
 10
122.0
 20
8.00412040723468
 30
0.0
 11
122.0
 21
78.88630306810431
 31
0.0
  0
LINE
  5
12A
330
126
100
AcDbEntity
  8
치수문자_일반주서
 62
     0
370
    -2
100
AcDbLine
 10
-78.0
 20
6.462499999999979
 30
0.0
 11
-78.0
 21
78.88630306810431
 31
0.0
  0
LINE
  5
12B
330
126
100
AcDbEntity
  8
치수문자_일반주서
 62
     0
370
    -2
100
AcDbLine
 10
118.698
 20
78.88630306810431
 30
0.0
 11
-74.69800000000001
 21
78.88630306810431
 31
0.0
  0
SOLID
  5
12C
330
126
100
AcDbEntity
  8
치수문자_일반주서
 62
     0
100
AcDbTrace
 10
118.698
 20
78.33596973477098
 30
0.0
 11
118.698
 21
79.43663640143764
 31
0.0
 12
122.0
 22
78.88630306810431
 32
0.0
 13
122.0
 23
78.88630306810431
 33
0.0
  0
SOLID
  5
12D
330
126
100
AcDbEntity
  8
치수문자_일반주서
 62
     0
100
AcDbTrace
 10
-74.69800000000001
 20
79.43663640143764
 30
0.0
 11
-74.69800000000001
 21
78.33596973477098
 31
0.0
 12
-78.0
 22
78.88630306810431
 32
0.0
 13
-78.0
 23
78.88630306810431
 33
0.0
  0
MTEXT
  5
12E
330
126
100
AcDbEntity
  8
치수문자_일반주서
 62
     0
100
AcDbMText
 10
28.19632639685437
 20
83.26130306810431
 30
0.0
 40
3.5
 41
0.0
 71
     2
 72
     1
  1
\A1;200
  7
SLDTEXTSTYLE0
 73
     1
 44
1.0
  0
POINT
  5
160
330
126
100
AcDbEntity
  8
Defpoints
 62
     0
100
AcDbPoint
 10
122.0
 20
7.941620407234681
 30
0.0
  0
POINT
  5
161
330
126
100
AcDbEntity
  8
Defpoints
 62
     0
100
AcDbPoint
 10
-78.0
 20
6.399999999999979
 30
0.0
  0
POINT
  5
162
330
126
100
AcDbEntity
  8
Defpoints
 62
     0
100
AcDbPoint
 10
-78.0
 20
78.88630306810431
 30
0.0
  0
ENDBLK
  5
128
330
126
100
AcDbEntity
  8
0
100
AcDbBlockEnd
  0
BLOCK
  5
130
330
12F
100
AcDbEntity
  8
0
100
AcDbBlockBegin
  2
SW_DOWELSYMBOL_0
 70
     0
 10
0.0
 20
0.0
 30
0.0
  3
SW_DOWELSYMBOL_0
  1
SW_DOWELSYMBOL_0
  0
CIRCLE
  5
132
330
12F
100
AcDbEntity
  8
외형선
 62
     0
100
AcDbCircle
 10
0.0
 20
0.0
 30
0.0
 40
3.000000000000008
  0
HATCH
  5
133
330
12F
100
AcDbEntity
  8
0
  6
Continuous
 62
     0
370
    30
100
AcDbHatch
 10
0.0
 20
0.0
 30
0.0
210
0.0
220
0.0
230
1.0
  2
SOLID
 70
     1
 71
     0
 91
        1
 92
        0
 93
        3
 72
     2
 10
0.0
 20
0.0
 40
3.000000000000008
 50
0.0
 51
90.0
 73
     1
 72
     1
 10
0.0
 20
3.000000000000008
 11
0.0
 21
0.0
 72
     1
 10
0.0
 20
0.0
 11
3.00000000000001
 21
0.0
 97
        0
 75
     0
 76
     1
 98
        1
 10
0.0
 20
0.0
  0
HATCH
  5
134
330
12F
100
AcDbEntity
  8
0
  6
Continuous
 62
     0
370
    30
100
AcDbHatch
 10
0.0
 20
0.0
 30
0.0
210
0.0
220
0.0
230
1.0
  2
SOLID
 70
     1
 71
     0
 91
        1
 92
        0
 93
        3
 72
     2
 10
0.0
 20
0.0
 40
3.000000000000008
 50
180.0
 51
270.0000000000008
 73
     1
 72
     1
 10
0.0
 20
-3.000000000000008
 11
0.0
 21
0.0
 72
     1
 10
0.0
 20
0.0
 11
-3.00000000000001
 21
0.0
 97
        0
 75
     0
 76
     1
 98
        1
 10
0.0
 20
0.0
  0
ENDBLK
  5
131
330
12F
100
AcDbEntity
  8
0
100
AcDbBlockEnd
  0
ENDSEC
  0
SECTION
  2
ENTITIES
  0
LINE
  5
95
330
1F
100
AcDbEntity
  8
0
  6
Continuous
 62
     1
370
    15
100
AcDbLine
 10
44.88738468472475
 20
-1.501738345331096
 30
0.0
 11
44.98919029977358
 21
-1.599166385742147
 31
0.0
  0
LINE
  5
96
330
1F
100
AcDbEntity
  8
0
  6
Continuous
 62
     1
370
    15
100
AcDbLine
 10
95.90070208231322
 20
-8.000000000000036
 30
0.0
 11
97.8336508393879
 21
-8.000000000000036
 31
0.0
  0
LINE
  5
97
330
1F
100
AcDbEntity
  8
0
  6
Continuous
 62
     1
370
    15
100
AcDbLine
 10
45.63504065251762
 20
-8.000000000000036
 30
0.0
 11
47.56801828540307
 21
-8.000000000000036
 31
0.0
  0
LINE
  5
98
330
1F
100
AcDbEntity
  8
0
  6
Continuous
 62
     1
370
    15
100
AcDbLine
 10
22.43699695182405
 20
7.999999999999979
 30
0.0
 11
20.50175770550585
 21
7.999999999999979
 31
0.0
  0
LINE
  5
99
330
1F
100
AcDbEntity
  8
0
  6
Continuous
 62
     1
370
    15
100
AcDbLine
 10
72.70232791181209
 20
7.999999999999979
 30
0.0
 11
70.7670566890679
 21
7.999999999999979
 31
0.0
  0
LINE
  5
9A
330
1F
100
AcDbEntity
  8
0
  6
Continuous
 62
     1
370
    15
100
AcDbLine
 10
122.0
 20
7.999999999999979
 30
0.0
 11
121.0323588774425
 21
7.999999999999979
 31
0.0
  0
LINE
  5
9B
330
1F
100
AcDbEntity
  8
0
  6
Continuous
 62
     1
370
    15
100
AcDbLine
 10
121.0323588774425
 20
-8.000000000000036
 30
0.0
 11
122.0
 21
-8.000000000000036
 31
0.0
  0
LINE
  5
9C
330
1F
100
AcDbEntity
  8
0
  6
Continuous
 62
     1
370
    15
100
AcDbLine
 10
70.7670566890679
 20
-8.000000000000036
 30
0.0
 11
72.70232791181215
 21
-8.000000000000036
 31
0.0
  0
LINE
  5
9D
330
1F
100
AcDbEntity
  8
0
  6
Continuous
 62
     1
370
    15
100
AcDbLine
 10
20.50175770550577
 20
-8.000000000000036
 30
0.0
 11
22.43699695182404
 21
-8.000000000000036
 31
0.0
  0
LINE
  5
9E
330
1F
100
AcDbEntity
  8
0
  6
Continuous
 62
     1
370
    15
100
AcDbLine
 10
47.56801828540314
 20
7.999999999999979
 30
0.0
 11
45.63504065251762
 21
7.999999999999979
 31
0.0
  0
LINE
  5
9F
330
1F
100
AcDbEntity
  8
0
  6
Continuous
 62
     1
370
    15
100
AcDbLine
 10
97.8336508393879
 20
7.999999999999979
 30
0.0
 11
95.90070208231319
 21
7.999999999999979
 31
0.0
  0
LINE
  5
A0
330
1F
100
AcDbEntity
  8
0
  6
Continuous
 62
     1
370
    15
100
AcDbLine
 10
79.1446422902355
 20
-8.000000000000036
 30
0.0
 11
81.07853016988577
 21
-8.000000000000036
 31
0.0
  0
LINE
  5
A1
330
1F
100
AcDbEntity
  8
0
  6
Continuous
 62
     1
370
    15
100
AcDbLine
 10
28.87910932025662
 20
-8.000000000000036
 30
0.0
 11
30.813027964003
 21
-8.000000000000036
 31
0.0
  0
LINE
  5
A2
330
1F
100
AcDbEntity
  8
0
  6
Continuous
 62
     1
370
    15
100
AcDbLine
 10
55.94742966468465
 20
7.999999999999979
 30
0.0
 11
54.01270838988712
 21
7.999999999999979
 31
0.0
  0
LINE
  5
A3
330
1F
100
AcDbEntity
  8
0
  6
Continuous
 62
     1
370
    15
100
AcDbLine
 10
106.2128696017921
 20
7.999999999999979
 30
0.0
 11
104.2780631495171
 21
7.999999999999979
 31
0.0
  0
LINE
  5
A4
330
1F
100
AcDbEntity
  8
0
  6
Continuous
 62
     1
370
    15
100
AcDbLine
 10
87.52171255867893
 20
-8.000000000000036
 30
0.0
 11
89.45657335799558
 21
-8.000000000000036
 31
0.0
  0
LINE
  5
A5
330
1F
100
AcDbEntity
  8
0
  6
Continuous
 62
     1
370
    15
100
AcDbLine
 10
37.25631534038504
 20
-8.000000000000036
 30
0.0
 11
39.19120128881406
 21
-8.000000000000036
 31
0.0
  0
LINE
  5
A6
330
1F
100
AcDbEntity
  8
0
  6
Continuous
 62
     1
370
    15
100
AcDbLine
 10
14.05738293430446
 20
7.999999999999979
 30
0.0
 11
12.1231791017196
 21
7.999999999999979
 31
0.0
  0
LINE
  5
A7
330
1F
100
AcDbEntity
  8
0
  6
Continuous
 62
     1
370
    15
100
AcDbLine
 10
64.32427920621268
 20
7.999999999999979
 30
0.0
 11
62.3904496400463
 21
7.999999999999979
 31
0.0
  0
LINE
  5
A8
330
1F
100
AcDbEntity
  8
0
  6
Continuous
 62
     1
370
    15
100
AcDbLine
 10
114.5898204944395
 20
7.999999999999979
 30
0.0
 11
112.6559623076979
 21
7.999999999999979
 31
0.0
  0
LINE
  5
A9
330
1F
100
AcDbEntity
  8
0
  6
Continuous
 62
     1
370
    15
100
AcDbLine
 10
104.2780631495171
 20
-8.000000000000036
 30
0.0
 11
106.2128696017921
 21
-8.000000000000036
 31
0.0
  0
LINE
  5
AA
330
1F
100
AcDbEntity
  8
0
  6
Continuous
 62
     1
370
    15
100
AcDbLine
 10
54.01270838988704
 20
-8.000000000000036
 30
0.0
 11
55.94742966468459
 21
-8.000000000000036
 31
0.0
  0
LINE
  5
AB
330
1F
100
AcDbEntity
  8
0
  6
Continuous
 62
     1
370
    15
100
AcDbLine
 10
30.81302796400297
 20
7.999999999999979
 30
0.0
 11
28.87910932025657
 21
7.999999999999979
 31
0.0
  0
LINE
  5
AC
330
1F
100
AcDbEntity
  8
0
  6
Continuous
 62
     1
370
    15
100
AcDbLine
 10
81.07853016988565
 20
7.999999999999979
 30
0.0
 11
79.14464229023545
 21
7.999999999999979
 31
0.0
  0
LINE
  5
AD
330
1F
100
AcDbEntity
  8
0
  6
Continuous
 62
     1
370
    15
100
AcDbLine
 10
112.6559623076979
 20
-8.000000000000036
 30
0.0
 11
114.5898204944395
 21
-8.000000000000036
 31
0.0
  0
LINE
  5
AE
330
1F
100
AcDbEntity
  8
0
  6
Continuous
 62
     1
370
    15
100
AcDbLine
 10
62.39044964004621
 20
-8.000000000000036
 30
0.0
 11
64.32427920621271
 21
-8.000000000000036
 31
0.0
  0
LINE
  5
AF
330
1F
100
AcDbEntity
  8
0
  6
Continuous
 62
     1
370
    15
100
AcDbLine
 10
12.1231791017195
 20
-8.000000000000036
 30
0.0
 11
14.05738293430446
 21
-8.000000000000036
 31
0.0
  0
LINE
  5
B0
330
1F
100
AcDbEntity
  8
0
  6
Continuous
 62
     1
370
    15
100
AcDbLine
 10
39.19120128881413
 20
7.999999999999979
 30
0.0
 11
37.25631534038494
 21
7.999999999999979
 31
0.0
  0
LINE
  5
B1
330
1F
100
AcDbEntity
  8
0
  6
Continuous
 62
     1
370
    15
100
AcDbLine
 10
89.45657335799558
 20
7.999999999999979
 30
0.0
 11
87.52171255867887
 21
7.999999999999979
 31
0.0
  0
LINE
  5
B2
330
1F
100
AcDbEntity
  8
0
  6
Continuous
 62
   131
370
    15
100
AcDbLine
 10
-76.4
 20
-8.000000000000028
 30
0.0
 11
11.00016726667799
 21
-8.000000000000028
 31
0.0
  0
LINE
  5
B3
330
1F
100
AcDbEntity
  8
0
  6
Continuous
 62
   131
370
    15
100
AcDbLine
 10
11.00016726667799
 20
7.999999999999972
 30
0.0
 11
-76.4
 21
7.999999999999972
 31
0.0
  0
LINE
  5
B4
330
1F
100
AcDbEntity
  8
0
  6
Continuous
 62
   131
370
    15
100
AcDbLine
 10
-76.4
 20
7.999999999999975
 30
0.0
 11
-78.0
 21
6.399999999999979
 31
0.0
  0
LINE
  5
B5
330
1F
100
AcDbEntity
  8
0
  6
Continuous
 62
   131
370
    15
100
AcDbLine
 10
-78.0
 20
-6.400000000000037
 30
0.0
 11
-76.4
 21
-8.000000000000032
 31
0.0
  0
SPLINE
  5
B6
330
1F
100
AcDbEntity
  8
0
  6
Continuous
 62
     1
370
    15
100
AcDbSpline
210
0.0
220
0.0
230
1.0
 70
     8
 71
     3
 72
    24
 73
    20
 74
     0
 42
0.000000001
 43
0.00000001
 40
0.0
 40
0.0
 40
0.0
 40
0.0
 40
0.0352081287467124
 40
0.0963683385727714
 40
0.1575392326348589
 40
0.218725117654537
 40
0.2799227651784681
 40
0.3411053760631771
 40
0.402273836821567
 40
0.4634324608027274
 40
0.5245855881882739
 40
0.5857375741814671
 40
0.6468927771074117
 40
0.708055546494751
 40
0.7692302112094777
 40
0.8304210677109366
 40
0.8916161982524515
 40
0.9527944081349918
 40
1.0
 40
1.0
 40
1.0
 40
1.0
 10
30.81302796400297
 20
7.954136182678195
 30
0.0
 10
31.14574908084127
 20
7.960018118205721
 30
0.0
 10
32.05644165040249
 20
7.976117592235077
 30
0.0
 10
33.54529212044386
 20
7.586376132568054
 30
0.0
 10
35.27979244735009
 20
6.841181113778751
 30
0.0
 10
37.01485886339243
 20
5.758415619882544
 30
0.0
 10
38.75031906069751
 20
4.410721904766898
 30
0.0
 10
40.48526905508925
 20
2.855116821875527
 30
0.0
 10
42.21967212164171
 20
1.166325553028992
 30
0.0
 10
43.95365077881294
 20
-0.5770211030969253
 30
0.0
 10
45.68739717285159
 20
-2.293250261928443
 30
0.0
 10
47.42109482911722
 20
-3.902144660446262
 30
0.0
 10
49.15492850052426
 20
-5.328369210253167
 30
0.0
 10
50.88908755051581
 20
-6.505454406911512
 30
0.0
 10
52.62373912996451
 20
-7.377269310544976
 30
0.0
 10
54.35897583369341
 20
-7.906596036722439
 30
0.0
 10
56.0943496894092
 20
-8.05464566278202
 30
0.0
 10
57.69720433827767
 20
-7.880998121200895
 30
0.0
 10
58.72153079668942
 20
-7.496887818104561
 30
0.0
 10
59.16766699003813
 20
-7.329592023836853
 30
0.0
  0
SPLINE
  5
B7
330
1F
100
AcDbEntity
  8
0
  6
Continuous
 62
     1
370
    15
100
AcDbSpline
210
0.0
220
0.0
230
1.0
 70
     8
 71
     3
 72
    24
 73
    20
 74
     0
 42
0.000000001
 43
0.00000001
 40
0.0
 40
0.0
 40
0.0
 40
0.0
 40
0.0363245540824741
 40
0.097483354269638
 40
0.1586521519169369
 40
0.2198352591437913
 40
0.2810329061213058
 40
0.3422180463876732
 40
0.4033883549692068
 40
0.4645481398700204
 40
0.5257017377891079
 40
0.586853502330026
 40
0.6480077921105519
 40
0.7091689588426163
 40
0.7703413354531529
 40
0.8315292243160942
 40
0.8927260322782975
 40
0.9539065810723694
 40
1.0
 40
1.0
 40
1.0
 40
1.0
 10
81.07853016988565
 20
7.954720269811605
 30
0.0
 10
81.42180085391588
 20
7.959650848896293
 30
0.0
 10
82.34302834168415
 20
7.972882928403059
 30
0.0
 10
83.84238114927015
 20
7.575996714470032
 30
0.0
 10
85.57680111780473
 20
6.824186136754137
 30
0.0
 10
87.31177329495247
 20
5.736134001596408
 30
0.0
 10
89.04723718845696
 20
4.384055148834373
 30
0.0
 10
90.78228093865039
 20
2.825355872637529
 30
0.0
 10
92.51676417079322
 20
1.134818383080891
 30
0.0
 10
94.25079778990676
 20
-0.608784921937068
 30
0.0
 10
95.98456875602716
 20
-2.323775075994544
 30
0.0
 10
97.71826166602875
 20
-3.929991914325162
 30
0.0
 10
99.45206171273676
 20
-5.352226040061421
 30
0.0
 10
101.1861555148552
 20
-6.524208860192373
 30
0.0
 10
102.9207213973653
 20
-7.390016621391217
 30
0.0
 10
104.6558614276769
 20
-7.912874278079817
 30
0.0
 10
106.3912938972619
 20
-8.053747279853226
 30
0.0
 10
107.9837100127396
 20
-7.876065174674656
 30
0.0
 10
108.9975632426465
 20
-7.492672523488916
 30
0.0
 10
109.4331951359169
 20
-7.327936581860238
 30
0.0
  0
SPLINE
  5
B8
330
1F
100
AcDbEntity
  8
0
  6
Continuous
 62
     1
370
    15
100
AcDbSpline
210
0.0
220
0.0
230
1.0
 70
     8
 71
     3
 72
    24
 73
    20
 74
     0
 42
0.000000001
 43
0.00000001
 40
0.0
 40
0.0
 40
0.0
 40
0.0
 40
0.0374409725726528
 40
0.098598461388182
 40
0.1597652602010567
 40
0.2209456862340668
 40
0.282142371402581
 40
0.343330137489731
 40
0.4045023913556024
 40
0.4656634353654929
 40
0.5268176024376452
 40
0.5879692442752588
 40
0.6491227194873598
 40
0.7102823816687742
 40
0.7714525675097913
 40
0.8326375850058825
 40
0.893835109188026
 40
0.9550180936486835
 40
1.0
 40
1.0
 40
1.0
 40
1.0
 10
112.6559623076979
 20
-7.955429782443795
 30
0.0
 10
112.3021417882621
 20
-7.959333156261048
 30
0.0
 10
111.3703775624199
 20
-7.969612447266567
 30
0.0
 10
109.8605186832343
 20
-7.565489660629215
 30
0.0
 10
108.1261763435005
 20
-6.807083503531601
 30
0.0
 10
106.3912968809615
 20
-5.713768612019832
 30
0.0
 10
104.6558606282357
 20
-4.357313140889001
 30
0.0
 10
102.9207216114807
 20
-2.795557035533956
 30
0.0
 10
101.1861554575826
 20
-1.103296988789862
 30
0.0
 10
99.4520617277748
 20
0.6405369695708626
 30
0.0
 10
97.71826166313767
 20
2.354263034998478
 30
0.0
 10
95.98456875255536
 20
3.957778659694182
 30
0.0
 10
94.25079780668656
 20
5.376001264552409
 30
0.0
 10
92.51676410713426
 20
6.542864188163924
 30
0.0
 10
90.7822811765726
 20
7.402651034339359
 30
0.0
 10
89.04723630013468
 20
7.919029015643019
 30
0.0
 10
87.31177661062932
 20
8.052718339920872
 30
0.0
 10
85.72979322592482
 20
7.87109567020874
 30
0.0
 10
84.72640596255086
 20
7.488500981392574
 30
0.0
 10
84.30127227127122
 20
7.326396180726223
 30
0.0
  0
SPLINE
  5
B9
330
1F
100
AcDbEntity
  8
0
  6
Continuous
 62
     1
370
    15
100
AcDbSpline
210
0.0
220
0.0
230
1.0
 70
     8
 71
     3
 72
    24
 73
    20
 74
     0
 42
0.000000001
 43
0.00000001
 40
0.0
 40
0.0
 40
0.0
 40
0.0
 40
0.0385573625050906
 40
0.0997136415046757
 40
0.1608785423998025
 40
0.2220563872215969
 40
0.2832511526013963
 40
0.3444416439666433
 40
0.4056159436417784
 40
0.4667783480605066
 40
0.5279331860629907
 40
0.5890848071519195
 40
0.6502375696263908
 40
0.7113958286636761
 40
0.7725639244194942
 40
0.833746170217195
 40
0.8949434525643915
 40
0.9561289724775245
 40
1.0
 40
1.0
 40
1.0
 40
1.0
 10
62.39044964004621
 20
-7.956264651194923
 30
0.0
 10
62.0260792083664
 20
-7.959064678699924
 30
0.0
 10
61.08377661713943
 20
-7.966305862243012
 30
0.0
 10
59.56340811573214
 20
-7.554855485389007
 30
0.0
 10
57.82914066660931
 20
-6.789873469605657
 30
0.0
 10
56.09435238722003
 20
-5.691320067177003
 30
0.0
 10
54.35897511078873
 20
-4.330496446386073
 30
0.0
 10
52.62373932358027
 20
-2.76572103859082
 30
0.0
 10
50.88908749874491
 20
-1.071762107336763
 30
0.0
 10
49.15492851405213
 20
0.6722765061722233
 30
0.0
 10
47.42109482676567
 20
2.384713429501922
 30
0.0
 10
45.68739716873188
 20
3.985504243420952
 30
0.0
 10
43.95365079764437
 20
5.399694308283777
 30
0.0
 10
42.21967205042394
 20
6.561419926852088
 30
0.0
 10
40.48526932119867
 20
7.415172167099714
 30
0.0
 10
38.75031806714378
 20
7.92506024751695
 30
0.0
 10
37.01486257208654
 20
8.051558603725152
 30
0.0
 10
35.44330649351893
 20
7.866089855852723
 30
0.0
 10
34.4503781962857
 20
7.484373348039328
 30
0.0
 10
34.03573688435355
 20
7.32497066606628
 30
0.0
  0
LINE
  5
BA
330
1F
100
AcDbEntity
  8
0
  6
Continuous
 62
     1
370
    15
100
AcDbLine
 10
12.12317910171949
 20
-7.985774593189215
 30
0.0
 11
12.00000000000001
 21
-7.999043626388603
 31
0.0
  0
LINE
  5
BB
330
1F
100
AcDbEntity
  8
0
  6
Continuous
 62
     1
370
    15
100
AcDbLine
 10
122.0
 20
-3.135346870762423
 30
0.0
 11
122.0
 21
3.135346870762517
 31
0.0
  0
SPLINE
  5
BC
330
1F
100
AcDbEntity
  8
0
  6
Continuous
 62
     1
370
    15
100
AcDbSpline
210
0.0
220
0.0
230
1.0
 70
     8
 71
     3
 72
    20
 73
    16
 74
     0
 42
0.000000001
 43
0.00000001
 40
0.0
 40
0.0
 40
0.0
 40
0.0
 40
0.0897710612354213
 40
0.1795431781512121
 40
0.2693162851728808
 40
0.3480459171195503
 40
0.4267960763613479
 40
0.5055335567225326
 40
0.5842512801568613
 40
0.6629547848097853
 40
0.7416496475845801
 40
0.8203414689920202
 40
0.8990358578603795
 40
0.9777384159961545
 40
1.0
 40
1.0
 40
1.0
 40
1.0
 10
11.99999999999996
 20
5.63093935094903
 30
0.0
 10
12.65952301504376
 20
5.129131215692563
 30
0.0
 10
13.97857680092133
 20
4.125509044068617
 30
0.0
 10
15.95712883550166
 20
2.277220490281368
 30
0.0
 10
17.85478378283761
 20
0.3951764330857751
 30
0.0
 10
19.67075727214633
 20
-1.427972137631704
 30
0.0
 10
21.4062477537654
 20
-3.101292253951216
 30
0.0
 10
23.14135229866421
 20
-4.629896782328247
 30
0.0
 10
24.87590209515149
 20
-5.941379908034514
 30
0.0
 10
26.60998023924829
 20
-6.975110004411406
 30
0.0
 10
28.3437740844966
 20
-7.680425944579818
 30
0.0
 10
30.0774636742856
 20
-8.033124572336904
 30
0.0
 10
31.81125161166497
 20
-7.9840844879602
 30
0.0
 10
33.13065783677514
 20
-7.735459590116776
 30
0.0
 10
33.87222806295436
 20
-7.399128343617839
 30
0.0
 10
34.03573688435361
 20
-7.324970666066336
 30
0.0
  0
SPLINE
  5
BD
330
1F
100
AcDbEntity
  8
0
  6
Continuous
 62
     1
370
    15
100
AcDbSpline
210
0.0
220
0.0
230
1.0
 70
     8
 71
     3
 72
    25
 73
    21
 74
     0
 42
0.000000001
 43
0.00000001
 40
0.0
 40
0.0
 40
0.0
 40
0.0
 40
0.0051841110230336
 40
0.0663611710565319
 40
0.1275252873294077
 40
0.1886807818173442
 40
0.2498320000292314
 40
0.310983299164508
 40
0.3721390362012705
 40
0.4333035559856911
 40
0.494481179393284
 40
0.5556756632359797
 40
0.6168646921638619
 40
0.6780376884131073
 40
0.7391989497733936
 40
0.8003528060073999
 40
0.8615036071012571
 40
0.9226557113953807
 40
0.9838134736658223
 40
1.0
 40
1.0
 40
1.0
 40
1.0
 10
55.94742966468465
 20
7.985459700034379
 30
0.0
 10
55.99643818709377
 20
7.990227033097654
 30
0.0
 10
56.62379028745777
 20
8.051253080473929
 30
0.0
 10
57.82912810245683
 20
7.815974131553352
 30
0.0
 10
59.5634120687269
 20
7.259803600879647
 30
0.0
 10
61.29730202444659
 20
6.324088274935233
 30
0.0
 10
63.03101723573094
 20
5.103034492589697
 30
0.0
 10
64.76473447741034
 20
3.6402693240873
 30
0.0
 10
66.49863898858841
 20
2.007812687445892
 30
0.0
 10
68.23292457396525
 20
0.2810432857538355
 30
0.0
 10
69.96773380545758
 20
-1.459041869063626
 30
0.0
 10
71.70312774675313
 20
-3.130697193963579
 30
0.0
 10
73.43834073896048
 20
-4.655873403362552
 30
0.0
 10
75.1729723397137
 20
-5.962852173012671
 30
0.0
 10
76.90711540961422
 20
-6.991041344307735
 30
0.0
 10
78.64094154939929
 20
-7.690012982701514
 30
0.0
 10
80.37463498472454
 20
-8.036118212027315
 30
0.0
 10
82.10839672631471
 20
-7.979572613960737
 30
0.0
 10
83.41725567645007
 20
-7.729603680827058
 30
0.0
 10
84.148283570154
 20
-7.396175630662532
 30
0.0
 10
84.30127227127124
 20
-7.326396180726274
 30
0.0
  0
SPLINE
  5
BE
330
1F
100
AcDbEntity
  8
0
  6
Continuous
 62
     1
370
    15
100
AcDbSpline
210
0.0
220
0.0
230
1.0
 70
     8
 71
     3
 72
    17
 73
    13
 74
     0
 42
0.000000001
 43
0.00000001
 40
0.0
 40
0.0
 40
0.0
 40
0.0
 40
0.0113052563927115
 40
0.1211854171640139
 40
0.2310411034222055
 40
0.3408800689075704
 40
0.4507101129839298
 40
0.560539059400213
 40
0.6703747349076596
 40
0.7802249478592205
 40
0.8900974669179422
 40
1.0
 40
1.0
 40
1.0
 40
1.0
 10
106.2128696017921
 20
7.982692031232501
 30
0.0
 10
106.2723770117865
 20
7.988334249505308
 30
0.0
 10
106.9102599623371
 20
8.048815370089306
 30
0.0
 10
108.1261663210291
 20
7.809277805795192
 30
0.0
 10
109.860522238813
 20
7.245631565658171
 30
0.0
 10
111.5944589507994
 20
6.304353774086356
 30
0.0
 10
113.3281904738551
 20
5.078277973120477
 30
0.0
 10
115.0618947348752
 20
3.611948521123826
 30
0.0
 10
116.7957573072685
 20
1.976484384409648
 30
0.0
 10
118.5299697458067
 20
0.2510122746411166
 30
0.0
 10
120.2646890699124
 20
-1.496894637859866
 30
0.0
 10
121.421510362093
 20
-2.589146404606282
 30
0.0
 10
122.0
 20
-3.135346870762422
 30
0.0
  0
SPLINE
  5
BF
330
1F
100
AcDbEntity
  8
0
  6
Continuous
 62
   131
370
    15
100
AcDbSpline
210
0.0
220
0.0
230
1.0
 70
    24
 71
     3
 72
    10
 73
     6
 74
     0
 42
0.000000001
 43
0.00000001
 40
0.0
 40
0.0
 40
0.0
 40
0.0
 40
0.3066150417362417
 40
0.7670483797626766
 40
1.0
 40
1.0
 40
1.0
 40
1.0
 10
11.99999999999996
 20
7.999043626388534
 30
0.0
 10
11.99999999999999
 20
7.762368552990679
 30
0.0
 10
12.00000000000006
 20
7.1702866037424
 30
0.0
 10
11.99999999999999
 20
6.369494705812332
 30
0.0
 10
11.99999999999999
 20
5.919887040843214
 30
0.0
 10
12.00000000000001
 20
5.768835546608414
 30
0.0
  0
SPLINE
  5
C0
330
1F
100
AcDbEntity
  8
0
  6
Continuous
 62
     1
370
    15
100
AcDbSpline
210
0.0
220
0.0
230
1.0
 70
     8
 71
     3
 72
    15
 73
    11
 74
     0
 42
0.000000001
 43
0.00000001
 40
0.0
 40
0.0
 40
0.0
 40
0.0
 40
0.1380631526285367
 40
0.2760886006603888
 40
0.4140860270316767
 40
0.5520651909907188
 40
0.6900359016456017
 40
0.8280079912169324
 40
0.96599128815372
 40
1.0
 40
1.0
 40
1.0
 40
1.0
 10
122.0
 20
3.135346870762517
 30
0.0
 10
121.4215103650187
 20
3.653075618832129
 30
0.0
 10
120.2646890786887
 20
4.688391724938845
 30
0.0
 10
118.5299697107162
 20
5.982455850787136
 30
0.0
 10
116.7957574388223
 20
7.007337645360147
 30
0.0
 10
115.0618942438227
 20
7.699351378148072
 30
0.0
 10
113.328192306425
 20
8.039024871920473
 30
0.0
 10
111.5944521112161
 20
7.974911142418548
 30
0.0
 10
110.2961418867912
 20
7.723720481080108
 30
0.0
 10
109.5756592365254
 20
7.39327664737474
 30
0.0
 10
109.4331951359169
 20
7.327936581860182
 30
0.0
  0
SPLINE
  5
C1
330
1F
100
AcDbEntity
  8
0
  6
Continuous
 62
     1
370
    15
100
AcDbSpline
210
0.0
220
0.0
230
1.0
 70
     8
 71
     3
 72
    25
 73
    21
 74
     0
 42
0.000000001
 43
0.00000001
 40
0.0
 40
0.0
 40
0.0
 40
0.0
 40
0.007405167628713
 40
0.0685870766324957
 40
0.1297546763369642
 40
0.1909122787770906
 40
0.2520642232556866
 40
0.3132148645374203
 40
0.3743685609513194
 40
0.4355296624721462
 40
0.4967024988512636
 40
0.5578913678671189
 40
0.6190856917835296
 40
0.6802631553089021
 40
0.7414275152453483
 40
0.802583092457088
 40
0.8637342317789407
 40
0.9248852901776151
 40
0.9860406248411625
 40
1.0
 40
1.0
 40
1.0
 40
1.0
 10
87.52171255867893
 20
-7.980046807138858
 30
0.0
 10
87.45170532794437
 20
-7.98650861371951
 30
0.0
 10
86.80329444247046
 20
-8.046358227577421
 30
0.0
 10
85.57680811884245
 20
-7.802431264353441
 30
0.0
 10
83.84237809692273
 20
-7.231360693016785
 30
0.0
 10
82.10838931365626
 20
-6.284501783907354
 30
0.0
 10
80.37463697081469
 20
-5.053511016552869
 30
0.0
 10
78.6409410171944
 20
-3.583316049457411
 30
0.0
 10
76.9071155522816
 20
-1.946070553300526
 30
0.0
 10
75.17297230131877
 20
-0.2174339666250583
 30
0.0
 10
73.43834074984022
 20
1.521513086610921
 30
0.0
 10
71.7031277416424
 20
3.189262764547319
 30
0.0
 10
69.96773381501782
 20
4.707627882337486
 30
0.0
 10
68.23292454084793
 20
6.005501333021265
 30
0.0
 10
66.49863911146554
 20
7.022575852004497
 30
0.0
 10
64.76473401909331
 20
7.708822112078165
 30
0.0
 10
63.03101894601456
 20
8.041742266211612
 30
0.0
 10
61.29729564139734
 20
7.970127839720146
 30
0.0
 10
60.00953589632769
 20
7.717809385622416
 30
0.0
 10
59.29960170370863
 20
7.390432073975758
 30
0.0
 10
59.16766699003819
 20
7.329592023836797
 30
0.0
  0
SPLINE
  5
C2
330
1F
100
AcDbEntity
  8
0
  6
Continuous
 62
     1
370
    15
100
AcDbSpline
210
0.0
220
0.0
230
1.0
 70
     8
 71
     3
 72
    22
 73
    18
 74
     0
 42
0.000000001
 43
0.00000001
 40
0.0
 40
0.0
 40
0.0
 40
0.0
 40
0.0096081239064048
 40
0.0786405210433896
 40
0.1476560047739953
 40
0.2166594341161716
 40
0.2856557009533378
 40
0.3546497167377759
 40
0.4236463990781975
 40
0.4926506582908452
 40
0.5616673839938003
 40
0.6307014318237424
 40
0.6997465960171575
 40
0.7687737626537888
 40
0.8474834309788046
 40
0.9261922312163967
 40
1.0
 40
1.0
 40
1.0
 40
1.0
 10
37.25631534038504
 20
-7.977524338288882
 30
0.0
 10
37.17580812570043
 20
-7.98474889678165
 30
0.0
 10
36.51687310652052
 20
-8.04388042440495
 30
0.0
 10
35.27979605377847
 20
-7.795438313312474
 30
0.0
 10
33.54528964711339
 20
-7.21698359553069
 30
0.0
 10
31.81124351597416
 20
-6.26456021766965
 30
0.0
 10
30.07746584334076
 20
-5.028632240051349
 30
0.0
 10
28.34377350329005
 20
-3.554753004444899
 30
0.0
 10
26.60998039498541
 20
-1.915151952259546
 30
0.0
 10
24.87590205347632
 20
-0.1856096604632219
 30
0.0
 10
23.14135230959418
 20
1.552690110612704
 30
0.0
 10
21.40624775173462
 20
3.218574828214564
 30
0.0
 10
19.67075726933569
 20
4.732988885155631
 30
0.0
 10
17.85478379685773
 20
6.088883757503167
 30
0.0
 10
15.95712877394233
 20
7.164845862325333
 30
0.0
 10
14.01963603623626
 20
7.876092953113495
 30
0.0
 10
12.74164221659496
 20
7.950005761568873
 30
0.0
 10
12.12317910171957
 20
7.985774593189149
 30
0.0
  0
LINE
  5
C3
330
1F
100
AcDbEntity
  8
0
  6
Continuous
 62
     1
370
    15
100
AcDbLine
 10
122.0
 20
-7.941620407234731
 30
0.0
 11
122.0
 21
-4.768905187006902
 31
0.0
  0
SPLINE
  5
C4
330
1F
100
AcDbEntity
  8
0
  6
Continuous
 62
     1
370
    15
100
AcDbSpline
210
0.0
220
0.0
230
1.0
 70
     8
 71
     3
 72
    15
 73
    11
 74
     0
 42
0.000000001
 43
0.00000001
 40
0.0
 40
0.0
 40
0.0
 40
0.0
 40
0.1448415701220505
 40
0.2896848435369012
 40
0.4345297144430589
 40
0.5615564349625142
 40
0.6886162753495056
 40
0.8156556589328224
 40
0.9426631656031651
 40
1.0
 40
1.0
 40
1.0
 40
1.0
 10
11.99999999999996
 20
-2.105850423792597
 30
0.0
 10
12.65952301740368
 20
-2.729676257408546
 30
0.0
 10
13.97857680800117
 20
-3.977335260642464
 30
0.0
 10
15.95712880718187
 20
-5.572262101217662
 30
0.0
 10
17.85478388352197
 20
-6.785947558841834
 30
0.0
 10
19.67075694731729
 20
-7.585234955990273
 30
0.0
 10
21.40624897166539
 20
-7.999481215426555
 30
0.0
 10
23.14134775330227
 20
-8.019439170562364
 30
0.0
 10
24.55886135781788
 20
-7.788482274960196
 30
0.0
 10
25.39796153473829
 20
-7.42901835771378
 30
0.0
 10
25.65894783682886
 20
-7.317213878251704
 30
0.0
  0
SPLINE
  5
C5
330
1F
100
AcDbEntity
  8
0
  6
Continuous
 62
     1
370
    15
100
AcDbSpline
210
0.0
220
0.0
230
1.0
 70
     8
 71
     3
 72
    24
 73
    20
 74
     0
 42
0.000000001
 43
0.00000001
 40
0.0
 40
0.0
 40
0.0
 40
0.0
 40
0.0559682580894636
 40
0.117126862591388
 40
0.1782973616106859
 40
0.2394840513141348
 40
0.3006750147665985
 40
0.3618490587123016
 40
0.423010159535522
 40
0.4841626389988654
 40
0.5453108423969839
 40
0.6064591267145024
 40
0.6676118487147139
 40
0.7287733530295856
 40
0.7899479603216083
 40
0.8511394272174985
 40
0.9123254394675073
 40
0.973495419829306
 40
1.0
 40
1.0
 40
1.0
 40
1.0
 10
47.56801828540314
 20
7.985463279699422
 30
0.0
 10
48.09696469501613
 20
7.960990950328644
 30
0.0
 10
49.20391058813141
 20
7.909776793280543
 30
0.0
 10
50.88908829694681
 20
7.372497878659215
 30
0.0
 10
52.62373911265027
 20
6.507194336629544
 30
0.0
 10
54.35897515601472
 20
5.328354349433511
 30
0.0
 10
56.09435241728976
 20
3.902428245054931
 30
0.0
 10
57.82914050118593
 20
2.293045625611719
 30
0.0
 10
59.56340874718786
 20
0.5766638395166152
 30
0.0
 10
61.29730291477691
 20
-1.166643075314887
 30
0.0
 10
63.03101699549883
 20
-2.855259158102741
 30
0.0
 10
64.76473454804139
 20
-4.410261119175594
 30
0.0
 10
66.49863894630793
 20
-5.758772396925511
 30
0.0
 10
68.23292467246814
 20
-6.838168111372127
 30
0.0
 10
69.96773345361441
 20
-7.596039660812892
 30
0.0
 10
71.70312905593072
 20
-8.003573318309439
 30
0.0
 10
73.43833585525823
 20
-8.016216191859597
 30
0.0
 10
74.84542935733275
 20
-7.782918421767575
 30
0.0
 10
75.6740757386032
 20
-7.425595736339919
 30
0.0
 10
75.92458083737014
 20
-7.317574804096807
 30
0.0
  0
SPLINE
  5
C6
330
1F
100
AcDbEntity
  8
0
  6
Continuous
 62
     1
370
    15
100
AcDbSpline
210
0.0
220
0.0
230
1.0
 70
     8
 71
     3
 72
    21
 73
    17
 74
     0
 42
0.000000001
 43
0.00000001
 40
0.0
 40
0.0
 40
0.0
 40
0.0
 40
0.0669759029741922
 40
0.1387359958538849
 40
0.2105092412282618
 40
0.2823006870512704
 40
0.3541025976091037
 40
0.4258854313657968
 40
0.4976522763407701
 40
0.5694081979202216
 40
0.6411582912954275
 40
0.7129076675880388
 40
0.784661439881065
 40
0.8564247092382269
 40
0.9282025507945086
 40
1.0
 40
1.0
 40
1.0
 40
1.0
 10
97.8336508393879
 20
7.988358461212072
 30
0.0
 10
98.3730995234234
 20
7.961490605394864
 30
0.0
 10
99.4905305257434
 20
7.905835682239958
 30
0.0
 10
101.1861560619259
 20
7.359825151543308
 30
0.0
 10
102.9207214539798
 20
6.488304891472239
 30
0.0
 10
104.6558606536867
 20
5.30444635444959
 30
0.0
 10
106.3912969367069
 20
3.874573934642708
 30
0.0
 10
108.1261760951768
 20
2.2625320830955
 30
0.0
 10
109.8605196205212
 20
0.5448959637773769
 30
0.0
 10
111.5944596522601
 20
-1.198127910050027
 30
0.0
 10
113.3281902859086
 20
-2.885122255666372
 30
0.0
 10
115.061894785237
 20
-4.436554198759001
 30
0.0
 10
116.7957572937765
 20
-5.782277596965643
 30
0.0
 10
118.5299697494056
 20
-6.850246982457508
 30
0.0
 10
120.2646890690124
 20
-7.624269151674556
 30
0.0
 10
121.421510361793
 20
-7.835827024772105
 30
0.0
 10
122.0
 20
-7.94162040723473
 30
0.0
  0
SPLINE
  5
C7
330
1F
100
AcDbEntity
  8
0
  6
Continuous
 62
   131
370
    15
100
AcDbSpline
210
0.0
220
0.0
230
1.0
 70
    24
 71
     3
 72
    24
 73
    20
 74
     0
 42
0.000000001
 43
0.00000001
 40
0.0
 40
0.0
 40
0.0
 40
0.0
 40
0.1249999999999994
 40
0.1249999999999994
 40
0.1874999999999994
 40
0.1874999999999994
 40
0.2499999999999993
 40
0.2499999999999993
 40
0.3749999999999994
 40
0.3749999999999994
 40
0.4999999999999996
 40
0.4999999999999996
 40
0.6249999999999997
 40
0.6249999999999997
 40
0.7499999999999998
 40
0.7499999999999998
 40
0.8749999999999999
 40
0.8749999999999999
 40
1.0
 40
1.0
 40
1.0
 40
1.0
 10
11.99999999999998
 20
4.106646961265944
 30
0.0
 10
11.99999999999995
 20
4.006036880328269
 30
0.0
 10
11.99999999999996
 20
3.875997118410311
 30
0.0
 10
11.99999999999998
 20
3.669568527892086
 30
0.0
 10
11.99999999999998
 20
3.601374173590701
 30
0.0
 10
11.99999999999995
 20
3.444968893889453
 30
0.0
 10
11.99999999999996
 20
3.357348653045591
 30
0.0
 10
11.99999999999996
 20
3.061478123227509
 30
0.0
 10
11.99999999999999
 20
2.819467508209574
 30
0.0
 10
11.99999999999999
 20
2.229960766511708
 30
0.0
 10
11.99999999999999
 20
1.881196547610773
 30
0.0
 10
11.99999999999996
 20
1.10037868046739
 30
0.0
 10
12.00000000000002
 20
0.6681514647802976
 30
0.0
 10
11.99999999999999
 20
-0.187695508714273
 30
0.0
 10
11.99999999999995
 20
-0.6083852991255472
 30
0.0
 10
11.99999999999994
 20
-1.316546573659146
 30
0.0
 10
12.00000000000001
 20
-1.601359945757796
 30
0.0
 10
11.99999999999999
 20
-1.982890741498647
 30
0.0
 10
11.99999999999998
 20
-2.080932285825559
 30
0.0
 10
11.99999999999996
 20
-2.105850423792568
 30
0.0
  0
SPLINE
  5
C8
330
1F
100
AcDbEntity
  8
0
  6
Continuous
 62
     1
370
    15
100
AcDbSpline
210
0.0
220
0.0
230
1.0
 70
     8
 71
     3
 72
    20
 73
    16
 74
     0
 42
0.000000001
 43
0.00000001
 40
0.0
 40
0.0
 40
0.0
 40
0.0
 40
0.082838610681406
 40
0.1656545984084161
 40
0.2484537729931365
 40
0.3312419900353892
 40
0.4140251350511173
 40
0.4968091074238961
 40
0.5795998042743229
 40
0.6624031043428157
 40
0.7452248519812299
 40
0.8280686100910459
 40
0.9109002941772923
 40
0.9937109789119593
 40
1.0
 40
1.0
 40
1.0
 40
1.0
 10
122.0
 20
-4.806273536472219
 30
0.0
 10
121.4215103617985
 20
-4.322211911676564
 30
0.0
 10
120.2646890690289
 20
-3.354220857736199
 30
0.0
 10
118.52996974934
 20
-1.684765929813892
 30
0.0
 10
116.7957572940232
 20
0.0472257346720353
 30
0.0
 10
115.0618947843161
 20
1.78122554068779
 30
0.0
 10
113.3281902893457
 20
3.430622854431349
 30
0.0
 10
111.5944596394322
 20
4.919811151649266
 30
0.0
 10
109.8605196684025
 20
6.178492905410868
 30
0.0
 10
108.1261759164347
 20
7.148735009211974
 30
0.0
 10
106.3912976040187
 20
7.781726232572916
 30
0.0
 10
104.655858162681
 20
8.059995567756431
 30
0.0
 10
102.9207307479482
 20
7.924650828167499
 30
0.0
 10
101.7202946471612
 20
7.667678791240228
 30
0.0
 10
101.0982640596334
 20
7.368982068777723
 30
0.0
 10
101.0543586006171
 20
7.347898834336599
 30
0.0
  0
SPLINE
  5
C9
330
1F
100
AcDbEntity
  8
0
  6
Continuous
 62
     1
370
    15
100
AcDbSpline
210
0.0
220
0.0
230
1.0
 70
     8
 71
     3
 72
    25
 73
    21
 74
     0
 42
0.000000001
 43
0.00000001
 40
0.0
 40
0.0
 40
0.0
 40
0.0
 40
0.0177657401022614
 40
0.0789184767564301
 40
0.1400786184013089
 40
0.201250494720309
 40
0.2624384034244271
 40
0.3236317669434902
 40
0.3848082703361257
 40
0.4459716703454858
 40
0.5071262877679773
 40
0.5682764673702312
 40
0.6294265660505766
 40
0.6905809409286825
 40
0.7517439374338842
 40
0.8129198774627402
 40
0.8741127375227737
 40
0.9353013237013278
 40
0.9964737186939038
 40
1.0
 40
1.0
 40
1.0
 40
1.0
 10
79.1446422902355
 20
-7.961316485998589
 30
0.0
 10
78.97674938807849
 20
-7.972517698710343
 30
0.0
 10
78.23094020590075
 20
-8.022275414400651
 30
0.0
 10
76.90711475089056
 20
-7.731745607217794
 30
0.0
 10
75.17297251628494
 20
-7.093567171476319
 30
0.0
 10
73.43834069155018
 20
-6.095233242184555
 30
0.0
 10
71.70312775976072
 20
-4.818935762337078
 30
0.0
 10
69.96773380084908
 20
-3.315056060962114
 30
0.0
 10
68.23292457939347
 20
-1.656377355904496
 30
0.0
 10
66.49863897148757
 20
0.0797982917973056
 30
0.0
 10
64.76473454037567
 20
1.812083290932066
 30
0.0
 10
63.03101700098571
 20
3.459479621268339
 30
0.0
 10
61.29730290049399
 20
4.944995650595954
 30
0.0
 10
59.56340879883975
 20
6.198899234845822
 30
0.0
 10
57.82914030881646
 20
7.16340668504235
 30
0.0
 10
56.09435313535273
 20
7.789913565310196
 30
0.0
 10
54.35897247547295
 20
8.061628524830585
 30
0.0
 10
52.62374911456573
 20
7.918512353416808
 30
0.0
 10
51.43382629218122
 20
7.661577949233036
 30
0.0
 10
50.82234560183925
 20
7.366705673677211
 30
0.0
 10
50.78901798138784
 20
7.350634207420645
 30
0.0
  0
SPLINE
  5
CA
330
1F
100
AcDbEntity
  8
0
  6
Continuous
 62
     1
370
    15
100
AcDbSpline
210
0.0
220
0.0
230
1.0
 70
     8
 71
     3
 72
    17
 73
    13
 74
     0
 42
0.000000001
 43
0.00000001
 40
0.0
 40
0.0
 40
0.0
 40
0.0
 40
0.0317233249920862
 40
0.1344650984371978
 40
0.2372181544724757
 40
0.3399897741441399
 40
0.442787187897289
 40
0.5456011548361672
 40
0.6483883219226625
 40
0.765593535806563
 40
0.8827974570364054
 40
1.0
 40
1.0
 40
1.0
 40
1.0
 10
28.87910932025661
 20
-7.95994067712108
 30
0.0
 10
28.70066983339395
 20
-7.971319314906245
 30
0.0
 10
27.94432152589284
 20
-8.019549746307908
 30
0.0
 10
26.60998005398952
 20
-7.723421568378463
 30
0.0
 10
24.87590214480314
 20
-7.078200174814326
 30
0.0
 10
23.14135228535573
 20
-6.074428832576068
 30
0.0
 10
21.40624775733126
 20
-4.793337385146814
 30
0.0
 10
19.67075727119523
 20
-3.286190152442924
 30
0.0
 10
17.85478378313239
 20
-1.546906111703818
 30
0.0
 10
15.95712883541876
 20
0.3557202968495025
 30
0.0
 10
13.97857680094214
 20
2.33571280282723
 30
0.0
 10
12.65952301505073
 20
3.516337889071405
 30
0.0
 10
12.00000000000001
 20
4.106646961265946
 30
0.0
  0
SPLINE
  5
CB
330
1F
100
AcDbEntity
  8
0
  6
Continuous
 62
     1
370
    15
100
AcDbSpline
210
0.0
220
0.0
230
1.0
 70
     8
 71
     3
 72
    24
 73
    20
 74
     0
 42
0.000000001
 43
0.00000001
 40
0.0
 40
0.0
 40
0.0
 40
0.0
 40
0.0248426664919233
 40
0.0860173858766119
 40
0.1471810552724989
 40
0.2083380087161651
 40
0.2694925985905315
 40
0.3306491837423834
 40
0.3918121175615991
 40
0.4529857360927047
 40
0.514174346249078
 40
0.5753747194335902
 40
0.6365600553091688
 40
0.6977312404282007
 40
0.7588925883318864
 40
0.8200484393951474
 40
0.8812031490152188
 40
0.9423610757113194
 40
1.0
 40
1.0
 40
1.0
 40
1.0
 10
22.43699695182405
 20
7.954695594553426
 30
0.0
 10
22.67182258475039
 20
7.965863932395667
 30
0.0
 10
23.48490306013774
 20
8.00453414624283
 30
0.0
 10
24.87589239400574
 20
7.676721102727553
 30
0.0
 10
26.60998298678604
 20
6.994394708727942
 30
0.0
 10
28.34377279371645
 20
5.961716212271685
 30
0.0
 10
30.0774660900715
 20
4.656164394805212
 30
0.0
 10
31.81124323861091
 20
3.130995756619869
 30
0.0
 10
33.54529050997093
 20
1.459621539696196
 30
0.0
 10
35.27979287883075
 20
-0.2803582716548151
 30
0.0
 10
37.01485874845429
 20
-2.007319007396374
 30
0.0
 10
38.75031908882258
 20
-3.64014460835464
 30
0.0
 10
40.4852690575046
 20
-5.102631229586741
 30
0.0
 10
42.21967208387754
 20
-6.326182250822836
 30
0.0
 10
43.95365092742416
 20
-7.252939085036963
 30
0.0
 10
45.68739661621973
 20
-7.842198317017036
 30
0.0
 10
47.42109690705874
 20
-8.056742524897693
 30
0.0
 10
49.12159552064355
 20
-7.925257142555251
 30
0.0
 10
50.24429604603696
 20
-7.538354910897218
 30
0.0
 10
50.78901798138776
 20
-7.350634207420696
 30
0.0
  0
SPLINE
  5
CC
330
1F
100
AcDbEntity
  8
0
  6
Continuous
 62
     1
370
    15
100
AcDbSpline
210
0.0
220
0.0
230
1.0
 70
     8
 71
     3
 72
    24
 73
    20
 74
     0
 42
0.000000001
 43
0.00000001
 40
0.0
 40
0.0
 40
0.0
 40
0.0
 40
0.0259583974490447
 40
0.087135364864639
 40
0.1483005966294807
 40
0.2094584227873238
 40
0.2706131936066874
 40
0.3317692677109171
 40
0.3929310001587637
 40
0.4541027305460738
 40
0.5152887711990126
 40
0.5764893522997205
 40
0.6376774260896464
 40
0.698850667483633
 40
0.7600133846923414
 40
0.8211699146226885
 40
0.882324611086965
 40
0.9434818329119221
 40
1.0
 40
1.0
 40
1.0
 40
1.0
 10
72.70232791181212
 20
7.95411082184946
 30
0.0
 10
72.94770558367959
 20
7.965016077057269
 30
0.0
 10
73.77137249184588
 20
8.001622088400607
 30
0.0
 10
75.17296459794674
 20
7.667549999444462
 30
0.0
 10
76.90711762448908
 20
6.978354160261053
 30
0.0
 10
78.64094043015042
 20
5.940257804014298
 30
0.0
 10
80.3746372470011
 20
4.630109332586034
 30
0.0
 10
82.10838879591746
 20
3.101623300773398
 30
0.0
 10
83.84237989197555
 20
1.428303208907773
 30
0.0
 10
85.57680145460954
 20
-0.3121368857600381
 30
0.0
 10
87.31177320539936
 20
-2.038110202653015
 30
0.0
 10
89.04723720973635
 20
-3.668497082912811
 30
0.0
 10
90.78228094307379
 20
-5.127214740431479
 30
0.0
 10
92.5167641318408
 20
-6.345875226612186
 30
0.0
 10
94.25079794126049
 20
-7.266778392260255
 30
0.0
 10
95.98456818962316
 20
-7.849617765258352
 30
0.0
 10
97.71826378028379
 20
-8.057056074986308
 30
0.0
 10
99.40815124064198
 20
-7.920668523916566
 30
0.0
 10
100.5202365310722
 20
-7.533737471320775
 30
0.0
 10
101.054358600617
 20
-7.347898834336653
 30
0.0
  0
SPLINE
  5
CD
330
1F
100
AcDbEntity
  8
0
  6
Continuous
 62
     1
370
    15
100
AcDbSpline
210
0.0
220
0.0
230
1.0
 70
     8
 71
     3
 72
    24
 73
    20
 74
     0
 42
0.000000001
 43
0.00000001
 40
0.0
 40
0.0
 40
0.0
 40
0.0
 40
0.0478673880652159
 40
0.109039764220069
 40
0.1702009304965317
 40
0.2313552198215086
 40
0.2925069839068985
 40
0.353660581370441
 40
0.4148203658156652
 40
0.4759906739415298
 40
0.5371758137521184
 40
0.5983734602737614
 40
0.659556567044852
 40
0.7207253642364932
 40
0.7818841639680745
 40
0.8430373056273585
 40
0.9041891440642673
 40
0.9653440376931525
 40
1.0
 40
1.0
 40
1.0
 40
1.0
 10
104.2780631495171
 20
-7.968032803763348
 30
0.0
 10
103.8255688507478
 20
-7.958671845605036
 30
0.0
 10
102.7948071225017
 20
-7.937348002552102
 30
0.0
 10
101.1861598269736
 20
-7.461350100544352
 30
0.0
 10
99.45206055754855
 20
-6.642300527967163
 30
0.0
 10
97.71826197550178
 20
-5.500728133550109
 30
0.0
 10
95.98456867321303
 20
-4.104825190630188
 30
0.0
 10
94.25079781168955
 20
-2.515927277644837
 30
0.0
 10
92.51676416648483
 20
-0.8093974245279342
 30
0.0
 10
90.782280934095
 20
0.9352369871176351
 30
0.0
 10
89.04723721099629
 20
2.636208811825374
 30
0.0
 10
87.31177320934212
 20
4.213603972192111
 30
0.0
 10
85.57680143758523
 20
5.59376072427512
 30
0.0
 10
83.84237995611112
 20
6.712159654263425
 30
0.0
 10
82.10838855644535
 20
7.515095388147714
 30
0.0
 10
80.37463814067307
 20
7.970522812071734
 30
0.0
 10
78.64093709490648
 20
8.036807401287412
 30
0.0
 10
77.15761851925575
 20
7.822961085041513
 30
0.0
 10
76.25211321688215
 20
7.45182079965904
 30
0.0
 10
75.92458083737012
 20
7.31757480409675
 30
0.0
  0
SPLINE
  5
CE
330
1F
100
AcDbEntity
  8
0
  6
Continuous
 62
     1
370
    15
100
AcDbSpline
210
0.0
220
0.0
230
1.0
 70
     8
 71
     3
 72
    24
 73
    20
 74
     0
 42
0.000000001
 43
0.00000001
 40
0.0
 40
0.0
 40
0.0
 40
0.0
 40
0.0489811577145981
 40
0.1101552830536113
 40
0.171317513170117
 40
0.2324721768919416
 40
0.2936236237093787
 40
0.3547762119091054
 40
0.4159342966559819
 40
0.4771022180933582
 40
0.5382842895322921
 40
0.5994813974778699
 40
0.6606667430229055
 40
0.7218370977425232
 40
0.7829967683203183
 40
0.8441500905694705
 40
0.9053014176475913
 40
0.9664551081689072
 40
1.0
 40
1.0
 40
1.0
 40
1.0
 10
54.01270838988704
 20
-7.970022811092158
 30
0.0
 10
53.54967089196897
 20
-7.958843219019581
 30
0.0
 10
52.50833113955224
 20
-7.933701078926561
 30
0.0
 10
50.88909043089066
 20
-7.449563541451469
 30
0.0
 10
49.15492772890882
 20
-6.624116374996022
 30
0.0
 10
47.42109503580964
 20
-5.477414369667703
 30
0.0
 10
45.6873971176114
 20
-4.077366843488521
 30
0.0
 10
43.95365079308387
 20
-2.485649035289309
 30
0.0
 10
42.21967211980355
 20
-0.7777186744724407
 30
0.0
 10
40.48526904816626
 20
0.9668165539289033
 30
0.0
 10
38.75031909023902
 20
2.666246450935131
 30
0.0
 10
37.0148587521313
 20
4.240691052776563
 30
0.0
 10
35.27979286271203
 20
5.616619122657951
 30
0.0
 10
33.54529057074917
 20
6.729753310855278
 30
0.0
 10
31.81124301166338
 20
7.526546533432596
 30
0.0
 10
30.07746693699337
 20
7.975424687066845
 30
0.0
 10
28.34376963299934
 20
8.034416718025017
 30
0.0
 10
26.87096539693695
 20
7.817603035349714
 30
0.0
 10
25.9759775976807
 20
7.448101631060716
 30
0.0
 10
25.6589478368288
 20
7.317213878251645
 30
0.0
  0
LINE
  5
CF
330
1F
100
AcDbEntity
  8
0
  6
Continuous
 62
     1
370
    15
100
AcDbLine
 10
122.0
 20
4.781696050734666
 30
0.0
 11
122.0
 21
7.941620407234681
 31
0.0
  0
SPLINE
  5
D0
330
1F
100
AcDbEntity
  8
0
  6
Continuous
 62
     1
370
    15
100
AcDbSpline
210
0.0
220
0.0
230
1.0
 70
     8
 71
     3
 72
    24
 73
    20
 74
     0
 42
0.000000001
 43
0.00000001
 40
0.0
 40
0.0
 40
0.0
 40
0.0
 40
0.0669797684431326
 40
0.1367392539380358
 40
0.1979172481059006
 40
0.2591111933040267
 40
0.3202952861954035
 40
0.381464026682278
 40
0.4426217182603191
 40
0.5037726945425216
 40
0.5649213074864271
 40
0.62607191551281
 40
0.6872288715860713
 40
0.7483965113269544
 40
0.809579141227902
 40
0.8707735330073315
 40
0.9319528889474956
 40
0.9931180955141341
 40
1.0
 40
1.0
 40
1.0
 40
1.0
 10
14.05738293430446
 20
7.990682678440767
 30
0.0
 10
14.69063044034637
 20
7.950937118986431
 30
0.0
 10
15.98340575962513
 20
7.869796525737739
 30
0.0
 10
17.85478355386672
 20
7.173904825338492
 30
0.0
 10
19.67075733083903
 20
6.159897496166212
 30
0.0
 10
21.40624773518128
 20
4.894430560127407
 30
0.0
 10
23.14135231430657
 20
3.401937575202897
 30
0.0
 10
24.87590205117546
 20
1.749636447680485
 30
0.0
 10
26.60998039947704
 20
0.0157436489489985
 30
0.0
 10
28.34377348762591
 20
-1.71883788616602
 30
0.0
 10
30.07746590150488
 20
-3.372906928602829
 30
0.0
 10
31.81124329896389
 20
-4.869174931331917
 30
0.0
 10
33.54529045713826
 20
-6.137409195874568
 30
0.0
 10
35.27979302983962
 20
-7.119064235195725
 30
0.0
 10
37.01485819707587
 20
-7.764976707649828
 30
0.0
 10
38.75032114348339
 20
-8.05637475927159
 30
0.0
 10
40.48526139319571
 20
-7.936481333227317
 30
0.0
 10
41.70670849436283
 20
-7.679832479911584
 30
0.0
 10
42.34982359782025
 20
-7.373733714840019
 30
0.0
 10
42.41486466491266
 20
-7.342776596574724
 30
0.0
  0
SPLINE
  5
D1
330
1F
100
AcDbEntity
  8
0
  6
Continuous
 62
     1
370
    15
100
AcDbSpline
210
0.0
220
0.0
230
1.0
 70
     8
 71
     3
 72
    25
 73
    21
 74
     0
 42
0.000000001
 43
0.00000001
 40
0.0
 40
0.0
 40
0.0
 40
0.0
 40
0.0155343516107774
 40
0.0766883148843611
 40
0.1378510606508679
 40
0.1990269096604889
 40
0.2602196186161921
 40
0.3214068728152963
 40
0.382578094800776
 40
0.443737582237656
 40
0.5048896647630343
 40
0.5660386922368751
 40
0.627189022873184
 40
0.6883450113217068
 40
0.7495109967707374
 40
0.8106912911414493
 40
0.8718861245943652
 40
0.9330684519111224
 40
0.9942359482249236
 40
1.0
 40
1.0
 40
1.0
 40
1.0
 10
64.32427920621271
 20
7.964441997658425
 30
0.0
 10
64.47108670292246
 20
7.975087536810913
 30
0.0
 10
65.1958301500355
 20
8.02764128859244
 30
0.0
 10
66.49864081475364
 20
7.747979044269419
 30
0.0
 10
68.23292408430926
 20
7.12397261299438
 30
0.0
 10
69.96773393743892
 20
6.136564152116051
 30
0.0
 10
71.70312770867852
 20
4.86984666843278
 30
0.0
 10
73.4383407592684
 20
3.372891302347754
 30
0.0
 10
75.17297229656077
 20
1.718608459882138
 30
0.0
 10
76.90711556188583
 20
-0.0161164498428593
 30
0.0
 10
78.64094098353901
 20
-1.749945702244724
 30
0.0
 10
80.37463709582802
 20
-3.401818063152005
 30
0.0
 10
82.10838884722678
 20
-4.894523175456016
 30
0.0
 10
83.84237983791766
 20
-6.157999861190296
 30
0.0
 10
85.57680161956736
 20
-7.133953044291778
 30
0.0
 10
87.31177259942653
 20
-7.773414153284188
 30
0.0
 10
89.04723946899483
 20
-8.058244324495623
 30
0.0
 10
90.78227251496858
 20
-7.930640074120148
 30
0.0
 10
91.99321660621641
 20
-7.673764114916548
 30
0.0
 10
92.62579188932322
 20
-7.371325291789276
 30
0.0
 10
92.68026839237102
 20
-7.34527968123528
 30
0.0
  0
SPLINE
  5
D2
330
1F
100
AcDbEntity
  8
0
  6
Continuous
 62
     1
370
    15
100
AcDbSpline
210
0.0
220
0.0
230
1.0
 70
     8
 71
     3
 72
    12
 73
     8
 74
     0
 42
0.000000001
 43
0.00000001
 40
0.0
 40
0.0
 40
0.0
 40
0.0
 40
0.063712438368426
 40
0.2977213508798964
 40
0.5317612359462505
 40
0.765848644987442
 40
0.9999999999999999
 40
0.9999999999999999
 40
0.9999999999999999
 40
0.9999999999999999
 10
114.5898204944395
 20
7.962816986252235
 30
0.0
 10
114.747169337137
 20
7.973766159824096
 30
0.0
 10
115.482443503484
 20
8.024930466673927
 30
0.0
 10
116.7957586016565
 20
7.74069277868594
 30
0.0
 10
118.5299694005421
 20
7.106079029176553
 30
0.0
 10
120.2646891562634
 20
6.126169084806884
 30
0.0
 10
121.4215103908793
 20
5.246278773915518
 30
0.0
 10
122.0
 20
4.806273536472203
 30
0.0
  0
SPLINE
  5
D3
330
1F
100
AcDbEntity
  8
0
  6
Continuous
 62
     1
370
    15
100
AcDbSpline
210
0.0
220
0.0
230
1.0
 70
     8
 71
     3
 72
    10
 73
     6
 74
     0
 42
0.000000001
 43
0.00000001
 40
0.0
 40
0.0
 40
0.0
 40
0.0
 40
0.4141202218282594
 40
0.8281273487746059
 40
1.0
 40
1.0
 40
1.0
 40
1.0
 10
122.0
 20
7.941620407234683
 30
0.0
 10
121.4215119880706
 20
7.9713933594086
 30
0.0
 10
120.2646939474012
 20
8.030931132860307
 30
0.0
 10
118.8680165911061
 20
7.775706075217779
 30
0.0
 10
118.0498223908717
 20
7.421854927662371
 30
0.0
 10
117.8097983933712
 20
7.318049783441011
 30
0.0
  0
SPLINE
  5
D4
330
1F
100
AcDbEntity
  8
0
  6
Continuous
 62
     1
370
    15
100
AcDbSpline
210
0.0
220
0.0
230
1.0
 70
     8
 71
     3
 72
    24
 73
    20
 74
     0
 42
0.000000001
 43
0.00000001
 40
0.0
 40
0.0
 40
0.0
 40
0.0
 40
0.0581910652198027
 40
0.1193467769584381
 40
0.1805130116769291
 40
0.2416940770924835
 40
0.3028876483862547
 40
0.3640666808976939
 40
0.4252314047825764
 40
0.4863861318731422
 40
0.547535201268189
 40
0.6086829675276438
 40
0.6698337887756258
 40
0.7309920147823813
 40
0.7921619750957085
 40
0.8533479672919925
 40
0.9145394141323674
 40
0.9757140013744023
 40
1.0
 40
1.0
 40
1.0
 40
1.0
 10
95.90070208231319
 20
-7.991375513801058
 30
0.0
 10
95.35075349413768
 20
-7.962033300218248
 30
0.0
 10
94.22283821635963
 20
-7.901853982195677
 30
0.0
 10
92.51676374755355
 20
-7.347031707901979
 30
0.0
 10
90.78228104602778
 20
-6.469311466139738
 30
0.0
 10
89.04723718232789
 20
-5.280461364197322
 30
0.0
 10
87.31177321204285
 20
-3.846652524341817
 30
0.0
 10
85.57680145543881
 20
-2.231985661166906
 30
0.0
 10
83.84237988202085
 20
-0.513135692626424
 30
0.0
 10
82.10838883489959
 20
1.229641002704336
 30
0.0
 10
80.37463710104105
 20
2.914758145048261
 30
0.0
 10
78.64094097501305
 20
4.463458527392969
 30
0.0
 10
76.90711559077971
 20
5.803159120702331
 30
0.0
 10
75.17297218948967
 20
6.871686763287609
 30
0.0
 10
73.4383411587809
 20
7.617043710097002
 30
0.0
 10
71.70312621725267
 20
8.011458190702808
 30
0.0
 10
69.96773950335376
 20
8.009348271848543
 30
0.0
 10
68.5814773507561
 20
7.771698423028999
 30
0.0
 10
67.77373415476205
 20
7.418897103249021
 30
0.0
 10
67.54419149543452
 20
7.318638811308962
 30
0.0
  0
SPLINE
  5
D5
330
1F
100
AcDbEntity
  8
0
  6
Continuous
 62
     1
370
    15
100
AcDbSpline
210
0.0
220
0.0
230
1.0
 70
     8
 71
     3
 72
    24
 73
    20
 74
     0
 42
0.000000001
 43
0.00000001
 40
0.0
 40
0.0
 40
0.0
 40
0.0
 40
0.0593009626222386
 40
0.1204543112101569
 40
0.1816174957268094
 40
0.2427948291492258
 40
0.3039871979138399
 40
0.365167805188807
 40
0.4263334227992646
 40
0.4874883570952927
 40
0.5486369435543008
 40
0.6097835349967858
 40
0.6709324896994382
 40
0.7320881594759292
 40
0.7932548777959914
 40
0.8544369480130224
 40
0.9156288702110967
 40
0.976804841906231
 40
0.9999999999999999
 40
0.9999999999999999
 40
0.9999999999999999
 40
0.9999999999999999
 10
45.63504065251762
 20
-7.994514102566636
 30
0.0
 10
45.07459472176815
 20
-7.962618667436874
 30
0.0
 10
43.93619619375428
 20
-7.897831478504078
 30
0.0
 10
42.21967186796691
 20
-7.334117968407731
 30
0.0
 10
40.48526911531053
 20
-6.450214304006444
 30
0.0
 10
38.75031907357243
 20
-5.256400388964778
 30
0.0
 10
37.01485875162669
 20
-3.818663208850968
 30
0.0
 10
35.2797928813889
 20
-2.201412335471586
 30
0.0
 10
33.5452904965716
 20
-0.4813642257697736
 30
0.0
 10
31.81124328963942
 20
1.261108709117251
 30
0.0
 10
30.07746589937705
 20
2.944438218881352
 30
0.0
 10
28.34377350546065
 20
4.489958021554827
 30
0.0
 10
26.60998033025946
 20
5.825206630668852
 30
0.0
 10
24.87590231026071
 20
6.888338519905995
 30
0.0
 10
23.14135134690315
 20
7.627185936188457
 30
0.0
 10
21.4062513468627
 20
8.015899118456216
 30
0.0
 10
19.67074385103422
 20
8.003163469209987
 30
0.0
 10
18.29492671279623
 20
7.773020710256017
 30
0.0
 10
17.49718388030325
 20
7.409938087986002
 30
0.0
 10
17.2778698665625
 20
7.310120071494763
 30
0.0
  0
SPLINE
  5
D6
330
1F
100
AcDbEntity
  8
0
  6
Continuous
 62
     1
370
    15
100
AcDbSpline
210
0.0
220
0.0
230
1.0
 70
     8
 71
     3
 72
    10
 73
     6
 74
     0
 42
0.000000001
 43
0.00000001
 40
0.0
 40
0.0
 40
0.0
 40
0.0
 40
0.3748808637620786
 40
0.7497661360090668
 40
1.0
 40
1.0
 40
1.0
 40
1.0
 10
11.99999999999996
 20
-7.736789774741663
 30
0.0
 10
12.65952005106168
 20
-7.855472858908111
 30
0.0
 10
13.97856790894022
 20
-8.09284042291797
 30
0.0
 10
15.73785901600061
 20
-7.912037000361181
 30
0.0
 10
16.83763276721707
 20
-7.48218779602699
 30
0.0
 10
17.2778698665625
 20
-7.310120071494821
 30
0.0
  0
SPLINE
  5
D7
330
1F
100
AcDbEntity
  8
0
  6
Continuous
 62
     1
370
    15
100
AcDbSpline
210
0.0
220
0.0
230
1.0
 70
     8
 71
     3
 72
    24
 73
    20
 74
     0
 42
0.000000001
 43
0.00000001
 40
0.0
 40
0.0
 40
0.0
 40
0.0
 40
0.045638668280118
 40
0.1068078134592346
 40
0.1679671217510568
 40
0.2291209333857633
 40
0.2902736036153451
 40
0.3514294908136729
 40
0.4125929445580575
 40
0.4737682937629275
 40
0.5349598349357015
 40
0.5961556501963544
 40
0.6573345446087054
 40
0.7185004948723185
 40
0.7796578230924701
 40
0.8408108749083495
 40
0.9019640076500446
 40
0.9631215784262952
 40
0.9999999999999999
 40
0.9999999999999999
 40
0.9999999999999999
 40
0.9999999999999999
 10
39.1912012888141
 20
7.964421934225938
 30
0.0
 10
39.62260158530826
 20
7.958466506729382
 30
0.0
 10
40.63220427816948
 20
7.944529066986006
 30
0.0
 10
42.21966608609499
 20
7.484560159133295
 30
0.0
 10
43.95365239551003
 20
6.678367032361023
 30
0.0
 10
45.68739674062493
 20
5.547098328174707
 30
0.0
 10
47.42109494143067
 20
4.159547915247663
 30
0.0
 10
49.15492848351398
 20
2.576358719288318
 30
0.0
 10
50.88908750621688
 20
0.8727062188315149
 30
0.0
 10
52.62373932423846
 20
-0.8720547242387819
 30
0.0
 10
54.35897510067792
 20
-2.575986882596557
 30
0.0
 10
56.09435242700273
 20
-4.159256068229723
 30
0.0
 10
57.82914051764871
 20
-5.547768263973608
 30
0.0
 10
59.56340867164867
 20
-6.676654707377383
 30
0.0
 10
61.29730320042461
 20
-7.491837743469423
 30
0.0
 10
63.03101592851067
 20
-7.960352078531323
 30
0.0
 10
64.76473853050555
 20
-8.041190024627685
 30
0.0
 10
66.26909950023826
 20
-7.833570389397275
 30
0.0
 10
67.19564919534558
 20
-7.459393703733612
 30
0.0
 10
67.54419149543452
 20
-7.31863881130902
 30
0.0
  0
SPLINE
  5
D8
330
1F
100
AcDbEntity
  8
0
  6
Continuous
 62
     1
370
    15
100
AcDbSpline
210
0.0
220
0.0
230
1.0
 70
     8
 71
     3
 72
    24
 73
    20
 74
     0
 42
0.000000001
 43
0.00000001
 40
0.0
 40
0.0
 40
0.0
 40
0.0
 40
0.0467532177274236
 40
0.107923934841673
 40
0.1690841282049189
 40
0.2302381345451182
 40
0.2913903074949037
 40
0.3525450057011622
 40
0.4137065809048875
 40
0.4748793660619514
 40
0.5360676635750206
 40
0.5972648802469187
 40
0.6584458376420967
 40
0.7196131676987874
 40
0.780771187677273
 40
0.8419242402408913
 40
0.9030766816305369
 40
0.964232869758783
 40
1.0
 40
1.0
 40
1.0
 40
1.0
 10
89.45657335799558
 20
7.966165748292397
 30
0.0
 10
89.89852185938256
 20
7.958546150729852
 30
0.0
 10
90.91870450317711
 20
7.940957266138977
 30
0.0
 10
92.51675876681624
 20
7.473015812037658
 30
0.0
 10
94.2507992373508
 20
6.660384210624416
 30
0.0
 10
95.98456836926118
 20
5.523956307570522
 30
0.0
 10
97.71826176576462
 20
4.132219091600812
 30
0.0
 10
99.45206170056844
 20
2.546164071858323
 30
0.0
 10
101.1861554637684
 20
0.841060182783927
 30
0.0
 10
102.920721613951
 20
-0.9036494606956369
 30
0.0
 10
104.655860612161
 20
-2.606122065429211
 30
0.0
 10
106.3912969427917
 20
-4.186458748388526
 30
0.0
 10
108.1261761123468
 20
-5.570810275478841
 30
0.0
 10
109.8605195457809
 20
-6.694459994820535
 30
0.0
 10
111.5944599340015
 20
-7.503525701864989
 30
0.0
 10
113.3281892337625
 20
-7.965498596512942
 30
0.0
 10
115.0618987121753
 20
-8.039065089322582
 30
0.0
 10
116.5557360996792
 20
-7.828283643649449
 30
0.0
 10
117.4717619343892
 20
-7.455584934784908
 30
0.0
 10
117.8097983933712
 20
-7.318049783441068
 30
0.0
  0
SPLINE
  5
D9
330
1F
100
AcDbEntity
  8
0
  6
Continuous
 62
   131
370
    15
100
AcDbSpline
210
0.0
220
0.0
230
1.0
 70
    24
 71
     3
 72
    12
 73
     8
 74
     0
 42
0.000000001
 43
0.00000001
 40
0.0
 40
0.0
 40
0.0
 40
0.0
 40
0.0818075727228704
 40
0.3474964400463738
 40
0.6131853073698735
 40
0.8788741746933788
 40
1.0
 40
1.0
 40
1.0
 40
1.0
 10
12.00000000000004
 20
-4.030292860782086
 30
0.0
 10
12.00000000000002
 20
-4.098227221858568
 30
0.0
 10
11.99999999999998
 20
-4.386794011523291
 30
0.0
 10
11.99999999999999
 20
-5.155568348841663
 30
0.0
 10
12.00000000000008
 20
-6.210863237560413
 30
0.0
 10
11.99999999999983
 20
-7.108837326425996
 30
0.0
 10
11.99999999999995
 20
-7.587045354145904
 30
0.0
 10
11.99999999999996
 20
-7.736789774741663
 30
0.0
  0
SPLINE
  5
DA
330
1F
100
AcDbEntity
  8
0
  6
Continuous
 62
     1
370
    15
100
AcDbSpline
210
0.0
220
0.0
230
1.0
 70
     8
 71
     3
 72
    24
 73
    20
 74
     0
 42
0.000000001
 43
0.00000001
 40
0.0
 40
0.0
 40
0.0
 40
0.0
 40
0.0270740406887092
 40
0.0882532832835504
 40
0.149420105386417
 40
0.2105788327461395
 40
0.2717338132116969
 40
0.3328894048766025
 40
0.3940499641626237
 40
0.4552198339134079
 40
0.516403331568495
 40
0.5776030891753918
 40
0.6387939272531334
 40
0.6999692523307904
 40
0.761133366989665
 40
0.822290604365538
 40
0.8834453163800905
 40
0.9446018618611768
 40
1.0
 40
1.0
 40
1.0
 40
1.0
 10
121.0323588774425
 20
-7.953650962200129
 30
0.0
 10
120.7764289484246
 20
-7.964221500918339
 30
0.0
 10
119.9421738482699
 20
-7.998678298803964
 30
0.0
 10
118.5299757661107
 20
-7.658248333932373
 30
0.0
 10
116.7957556819816
 20
-6.962209538245251
 30
0.0
 10
115.0618952170484
 20
-5.918706580532782
 30
0.0
 10
113.3281901702591
 20
-4.60398193377799
 30
0.0
 10
111.594459683057
 20
-3.072200459968393
 30
0.0
 10
109.8605196129917
 20
-1.396959492531081
 30
0.0
 10
108.1261760944915
 20
0.3439171156047007
 30
0.0
 10
106.3912969469837
 20
2.068861242467808
 30
0.0
 10
104.6558606132559
 20
3.696800031966787
 30
0.0
 10
102.9207216053817
 20
5.151713047271108
 30
0.0
 10
101.1861554969391
 20
6.365467520094882
 30
0.0
 10
99.45206157648175
 20
7.280503074550167
 30
0.0
 10
97.71826222888649
 20
7.856915709163093
 30
0.0
 10
95.98456664089386
 20
8.057240024336423
 30
0.0
 10
94.30527896287234
 20
7.916041116900544
 30
0.0
 10
93.2037989697755
 20
7.529162216769681
 30
0.0
 10
92.68026839237099
 20
7.345279681235224
 30
0.0
  0
SPLINE
  5
DB
330
1F
100
AcDbEntity
  8
0
  6
Continuous
 62
     1
370
    15
100
AcDbSpline
210
0.0
220
0.0
230
1.0
 70
     8
 71
     3
 72
    24
 73
    20
 74
     0
 42
0.000000001
 43
0.00000001
 40
0.0
 40
0.0
 40
0.0
 40
0.0
 40
0.0281894523975925
 40
0.0893710078201665
 40
0.1505394587773718
 40
0.2116991264224318
 40
0.2728543558807734
 40
0.3340095044105241
 40
0.3951689294911689
 40
0.456336976910894
 40
0.5175179689231652
 40
0.5787158823638906
 40
0.6399095215701943
 40
0.7010869682534321
 40
0.7622525190683316
 40
0.8234105030777457
 40
0.8845652700081158
 40
0.9457211783827449
 40
1.0
 40
1.0
 40
1.0
 40
1.0
 10
70.7670566890679
 20
-7.953316364008955
 30
0.0
 10
70.50057696792601
 20
-7.963479890441079
 30
0.0
 10
69.65573752563446
 20
-7.995702034647159
 30
0.0
 10
68.23292867829254
 20
-7.648816901237625
 30
0.0
 10
66.49863787322175
 20
-6.945961105630611
 30
0.0
 10
64.76473483551452
 20
-5.897063093950252
 30
0.0
 10
63.03101691854312
 20
-4.577782796108652
 30
0.0
 10
61.29730293513792
 20
-3.042727915773367
 30
0.0
 10
59.56340874270428
 20
-1.365591111377648
 30
0.0
 10
57.82914049875511
 20
0.3756982124184828
 30
0.0
 10
56.09435243150291
 20
2.099571436414355
 30
0.0
 10
54.35897510157898
 20
3.725052749177046
 30
0.0
 10
52.62373931613536
 20
5.176125626553538
 30
0.0
 10
50.88908753771652
 20
6.384958712082963
 30
0.0
 10
49.1549283656461
 20
7.29411282831402
 30
0.0
 10
47.42109538134343
 20
7.86409201935709
 30
0.0
 10
45.68739509889932
 20
8.057294239411132
 30
0.0
 10
44.01869614003692
 20
7.911375030191904
 30
0.0
 10
42.92781181448913
 20
7.524629210331994
 30
0.0
 10
42.41486466491267
 20
7.342776596574673
 30
0.0
  0
SPLINE
  5
DC
330
1F
100
AcDbEntity
  8
0
  6
Continuous
 62
     1
370
    15
100
AcDbSpline
210
0.0
220
0.0
230
1.0
 70
     8
 71
     3
 72
    12
 73
     8
 74
     0
 42
0.000000001
 43
0.00000001
 40
0.0
 40
0.0
 40
0.0
 40
0.0
 40
0.0977517069061772
 40
0.3018445364605806
 40
0.5345656476472045
 40
0.7672841921571522
 40
1.0
 40
1.0
 40
1.0
 40
1.0
 10
20.50175770550577
 20
-7.953107417821737
 30
0.0
 10
20.22473028152992
 20
-7.962749540591093
 30
0.0
 10
19.36930568564927
 20
-7.992523159588925
 30
0.0
 10
17.85478941260608
 20
-7.620926104018769
 30
0.0
 10
15.95712725200111
 20
-6.814190162903072
 30
0.0
 10
13.97857719678928
 20
-5.550910152460489
 30
0.0
 10
12.65952314699928
 20
-4.445232327175559
 30
0.0
 10
12.00000000000002
 20
-3.892396665122692
 30
0.0
  0
LINE
  5
DD
330
1F
100
AcDbEntity
  8
0
  6
Continuous
 62
   131
370
    15
100
AcDbLine
 10
122.0
 20
7.941620407234681
 30
0.0
 11
122.0
 21
7.99999999999998
 31
0.0
  0
LINE
  5
DE
330
1F
100
AcDbEntity
  8
0
  6
Continuous
 62
   131
370
    15
100
AcDbLine
 10
122.0
 20
-8.000000000000037
 30
0.0
 11
122.0
 21
-7.941620407234731
 31
0.0
  0
LINE
  5
DF
330
1F
100
AcDbEntity
  8
0
  6
Continuous
 62
   131
370
    15
100
AcDbLine
 10
11.99999999999996
 20
-3.892396665122701
 30
0.0
 11
11.99999999999998
 21
-2.105850423792581
 31
0.0
  0
LINE
  5
E0
330
1F
100
AcDbEntity
  8
0
  6
Continuous
 62
     1
370
    15
100
AcDbLine
 10
122.0
 20
-4.80627353647222
 30
0.0
 11
122.0
 21
-3.135346870762423
 31
0.0
  0
LINE
  5
E1
330
1F
100
AcDbEntity
  8
0
  6
Continuous
 62
   131
370
    15
100
AcDbLine
 10
11.99999999999996
 20
4.106646961265928
 30
0.0
 11
11.99999999999996
 21
5.63093935094903
 31
0.0
  0
LINE
  5
E2
330
1F
100
AcDbEntity
  8
0
  6
Continuous
 62
     1
370
    15
100
AcDbLine
 10
122.0
 20
3.135346870762517
 30
0.0
 11
122.0
 21
4.806273536472203
 31
0.0
  0
LINE
  5
E3
330
1F
100
AcDbEntity
  8
0
  6
Continuous
 62
   131
370
    15
100
AcDbLine
 10
11.99999999999996
 20
-7.999043626388594
 30
0.0
 11
11.99999999999996
 21
-7.736789774741663
 31
0.0
  0
LINE
  5
E4
330
1F
100
AcDbEntity
  8
0
  6
Continuous
 62
   131
370
    15
100
AcDbLine
 10
11.00016726667799
 20
6.296050410271126
 30
0.0
 11
11.00016726667799
 21
7.999999999999972
 31
0.0
  0
SPLINE
  5
E5
330
1F
100
AcDbEntity
  8
0
  6
Continuous
 62
   131
370
    15
100
AcDbSpline
210
0.0
220
0.0
230
1.0
 70
     8
 71
     3
 72
     8
 73
     4
 74
     0
 42
0.000000001
 43
0.00000001
 40
0.0
 40
0.0
 40
0.0
 40
0.0
 40
1.0
 40
1.0
 40
1.0
 40
1.0
 10
12.00000000000001
 20
5.630939350949023
 30
0.0
 10
11.66727655191951
 20
5.867800754239596
 30
0.0
 10
11.33509910656372
 20
6.089873593874796
 30
0.0
 10
11.00016726667799
 20
6.296048966702806
 30
0.0
  0
SPLINE
  5
E6
330
1F
100
AcDbEntity
  8
0
  6
Continuous
 62
   131
370
    15
100
AcDbSpline
210
0.0
220
0.0
230
1.0
 70
     8
 71
     3
 72
     8
 73
     4
 74
     0
 42
0.000000001
 43
0.00000001
 40
0.0
 40
0.0
 40
0.0
 40
0.0
 40
1.0
 40
1.0
 40
1.0
 40
1.0
 10
11.99999999999999
 20
4.10664696126594
 30
0.0
 10
11.6672765519195
 20
4.392812378042308
 30
0.0
 10
11.3350991065637
 20
4.668131556578632
 30
0.0
 10
11.00016726667802
 20
4.931279298383165
 30
0.0
  0
SPLINE
  5
E7
330
1F
100
AcDbEntity
  8
0
  6
Continuous
 62
   131
370
    15
100
AcDbSpline
210
0.0
220
0.0
230
1.0
 70
     8
 71
     3
 72
     8
 73
     4
 74
     0
 42
0.000000001
 43
0.00000001
 40
0.0
 40
0.0
 40
0.0
 40
0.0
 40
1.0
 40
1.0
 40
1.0
 40
1.0
 10
12.00000000000001
 20
-2.105850423792597
 30
0.0
 10
11.66727655191951
 20
-1.784158376165893
 30
0.0
 10
11.33509910656372
 20
-1.457156124577442
 30
0.0
 10
11.00016726667799
 20
-1.126297165362039
 30
0.0
  0
SPLINE
  5
E8
330
1F
100
AcDbEntity
  8
0
  6
Continuous
 62
   131
370
    15
100
AcDbSpline
210
0.0
220
0.0
230
1.0
 70
     8
 71
     3
 72
     8
 73
     4
 74
     0
 42
0.000000001
 43
0.00000001
 40
0.0
 40
0.0
 40
0.0
 40
0.0
 40
1.0
 40
1.0
 40
1.0
 40
1.0
 10
11.99999999999999
 20
-3.892396665122687
 30
0.0
 10
11.6672765519195
 20
-3.601075352694716
 30
0.0
 10
11.3350991065637
 20
-3.2997758767309
 30
0.0
 10
11.00016726667802
 20
-2.98980381225167
 30
0.0
  0
LINE
  5
E9
330
1F
100
AcDbEntity
  8
0
  6
Continuous
 62
   131
370
    15
100
AcDbLine
 10
11.00016726667799
 20
-7.422345259073265
 30
0.0
 11
11.00016726667799
 21
-2.98980124814011
 31
0.0
  0
SPLINE
  5
EA
330
1F
100
AcDbEntity
  8
0
  6
Continuous
 62
   131
370
    15
100
AcDbSpline
210
0.0
220
0.0
230
1.0
 70
     8
 71
     3
 72
     8
 73
     4
 74
     0
 42
0.000000001
 43
0.00000001
 40
0.0
 40
0.0
 40
0.0
 40
0.0
 40
1.0
 40
1.0
 40
1.0
 40
1.0
 10
12.00000000000001
 20
-7.736789774741652
 30
0.0
 10
11.66727655191951
 20
-7.651959130405525
 30
0.0
 10
11.33509910656372
 20
-7.547029718452281
 30
0.0
 10
11.00016726667799
 20
-7.422346132064889
 30
0.0
  0
SPLINE
  5
EB
330
1F
100
AcDbEntity
  8
0
  6
Continuous
 62
   131
370
    15
100
AcDbSpline
210
0.0
220
0.0
230
1.0
 70
     8
 71
     3
 72
     8
 73
     4
 74
     0
 42
0.000000001
 43
0.00000001
 40
0.0
 40
0.0
 40
0.0
 40
0.0
 40
1.0
 40
1.0
 40
1.0
 40
1.0
 10
11.99999999999999
 20
-7.999043626388594
 30
0.0
 10
11.6672765519195
 20
-7.993887730736991
 30
0.0
 10
11.3350991065637
 20
-7.967907433309497
 30
0.0
 10
11.00016726667802
 20
-7.921083110634801
 30
0.0
  0
LINE
  5
EC
330
1F
100
AcDbEntity
  8
0
  6
Continuous
 62
   131
370
    15
100
AcDbLine
 10
11.00016726667799
 20
-8.000000000000028
 30
0.0
 11
11.00016726667799
 21
-7.921082723300137
 31
0.0
  0
SPLINE
  5
ED
330
1F
100
AcDbEntity
  8
0
  6
Continuous
 62
   131
370
    15
100
AcDbSpline
210
0.0
220
0.0
230
1.0
 70
     8
 71
     3
 72
     8
 73
     4
 74
     0
 42
0.000000001
 43
0.00000001
 40
0.0
 40
0.0
 40
0.0
 40
0.0
 40
1.0
 40
1.0
 40
1.0
 40
1.0
 10
11.99999999999999
 20
7.999043626388534
 30
0.0
 10
11.6672765519195
 20
7.993887730736929
 30
0.0
 10
11.3350991065637
 20
7.967907433309434
 30
0.0
 10
11.00016726667802
 20
7.921083110634735
 30
0.0
  0
LINE
  5
EE
330
1F
100
AcDbEntity
  8
0
  6
Continuous
 62
   131
370
    15
100
AcDbLine
 10
-76.4
 20
-0.0000000000000286
 30
0.0
 11
-76.4
 21
7.999999999999972
 31
0.0
  0
LINE
  5
EF
330
1F
100
AcDbEntity
  8
0
  6
Continuous
 62
   131
370
    15
100
AcDbLine
 10
-76.4
 20
-8.000000000000028
 30
0.0
 11
-76.4
 21
-0.0000000000000286
 31
0.0
  0
LINE
  5
F0
330
1F
100
AcDbEntity
  8
0
  6
Continuous
 62
   131
370
    15
100
AcDbLine
 10
11.00016726667799
 20
-1.126294848802095
 30
0.0
 11
11.00016726667799
 21
4.931281475160061
 31
0.0
  0
LINE
  5
F1
330
1F
100
AcDbEntity
  8
0
  6
Continuous
 62
   131
370
    15
100
AcDbLine
 10
-78.0
 20
-0.0000000000000286
 30
0.0
 11
-78.0
 21
6.399999999999979
 31
0.0
  0
LINE
  5
F2
330
1F
100
AcDbEntity
  8
0
  6
Continuous
 62
   131
370
    15
100
AcDbLine
 10
-78.0
 20
-6.400000000000037
 30
0.0
 11
-78.0
 21
-0.0000000000000286
 31
0.0
  0
SPLINE
  5
F3
330
1F
100
AcDbEntity
  8
0
  6
Continuous
 62
   131
370
    15
100
AcDbSpline
210
0.0
220
0.0
230
1.0
 70
    24
 71
     3
 72
    24
 73
    20
 74
     0
 42
0.000000001
 43
0.00000001
 40
0.0
 40
0.0
 40
0.0
 40
0.0
 40
0.1250000000000001
 40
0.1250000000000001
 40
0.2500000000000003
 40
0.2500000000000003
 40
0.3750000000000004
 40
0.3750000000000004
 40
0.5000000000000006
 40
0.5000000000000006
 40
0.6250000000000006
 40
0.6250000000000006
 40
0.7500000000000006
 40
0.7500000000000006
 40
0.8125000000000004
 40
0.8125000000000004
 40
0.8750000000000003
 40
0.8750000000000003
 40
1.0
 40
1.0
 40
1.0
 40
1.0
 10
11.99999999999999
 20
-2.105850423792564
 30
0.0
 10
12.00000000000002
 20
-2.080932285825514
 30
0.0
 10
12.00000000000001
 20
-1.982890741498558
 30
0.0
 10
11.99999999999999
 20
-1.60135994575763
 30
0.0
 10
11.99999999999999
 20
-1.316546573658947
 30
0.0
 10
12.00000000000001
 20
-0.6083852991253166
 30
0.0
 10
12.00000000000001
 20
-0.1876955087140443
 30
0.0
 10
12.00000000000002
 20
0.6681514647805008
 30
0.0
 10
11.99999999999999
 20
1.100378680467569
 30
0.0
 10
12.00000000000002
 20
1.881196547610902
 30
0.0
 10
12.00000000000004
 20
2.229960766511808
 30
0.0
 10
12.00000000000004
 20
2.819467508209631
 30
0.0
 10
12.00000000000004
 20
3.061478123227551
 30
0.0
 10
12.00000000000001
 20
3.357348653045611
 30
0.0
 10
12.00000000000001
 20
3.444968893889471
 30
0.0
 10
12.00000000000002
 20
3.601374173590708
 30
0.0
 10
12.00000000000001
 20
3.669568527892089
 30
0.0
 10
12.00000000000002
 20
3.875997118410306
 30
0.0
 10
11.99999999999998
 20
4.006036880328258
 30
0.0
 10
11.99999999999999
 20
4.106646961265928
 30
0.0
  0
SPLINE
  5
F4
330
1F
100
AcDbEntity
  8
0
  6
Continuous
 62
   131
370
    15
100
AcDbSpline
210
0.0
220
0.0
230
1.0
 70
    24
 71
     3
 72
    12
 73
     8
 74
     0
 42
0.000000001
 43
0.00000001
 40
0.0
 40
0.0
 40
0.0
 40
0.0
 40
0.1648131077001614
 40
0.4317687410334242
 40
0.6987243743666776
 40
0.9656800076999502
 40
1.0
 40
1.0
 40
1.0
 40
1.0
 10
12.00000000000001
 20
-7.736789774741652
 30
0.0
 10
12.00000000000001
 20
-7.532385592404716
 30
0.0
 10
11.99999999999998
 20
-6.996898229165713
 30
0.0
 10
12.00000000000004
 20
-6.032171472824956
 30
0.0
 10
11.99999999999991
 20
-4.996798130736979
 30
0.0
 10
12.00000000000009
 20
-4.293756974094357
 30
0.0
 10
12.00000000000001
 20
-4.057245236239707
 30
0.0
 10
12.00000000000001
 20
-4.030302860782085
 30
0.0
  0
SPLINE
  5
F5
330
1F
100
AcDbEntity
  8
0
  6
Continuous
 62
   131
370
    15
100
AcDbSpline
210
0.0
220
0.0
230
1.0
 70
    24
 71
     3
 72
    13
 73
     9
 74
     0
 42
0.000000001
 43
0.00000001
 40
0.0
 40
0.0
 40
0.0
 40
0.0
 40
0.0650580249730697
 40
0.3009112085246057
 40
0.5301173970805801
 40
0.7659705806322145
 40
0.8825639516341447
 40
1.0
 40
1.0
 40
1.0
 40
1.0
 10
11.99999999999999
 20
5.768835546608414
 30
0.0
 10
11.99999999999998
 20
5.810616484319685
 30
0.0
 10
12.00000000000001
 20
6.003864780209304
 30
0.0
 10
12.00000000000008
 20
6.390231336456106
 30
0.0
 10
11.99999999999989
 20
6.916211109973247
 30
0.0
 10
12.00000000000001
 20
7.36764644742542
 30
0.0
 10
11.99999999999991
 20
7.730739097053037
 30
0.0
 10
11.99999999999996
 20
7.909394353340463
 30
0.0
 10
11.99999999999999
 20
7.999043626388534
 30
0.0
  0
LINE
  5
F6
330
1F
100
AcDbEntity
  8
중심선
 62
     1
100
AcDbLine
 10
-85.20259277488952
 20
-0.0000000000000349
 30
0.0
 11
129.0
 21
0.0000000000000494
 31
0.0
  0
CIRCLE
  5
F7
330
1F
100
AcDbEntity
  8
외형선
100
AcDbCircle
 10
0.0
 20
0.0
 30
0.0
 40
3.000000000000012
  0
INSERT
  5
F8
330
1F
100
AcDbEntity
  8
0
  6
Continuous
 62
     7
100
AcDbBlockReference
 66
     1
  2
블럭10
 10
-22.93944368806589
 20
-52.04609937292004
 30
0.0
  0
ATTRIB
  5
F9
330
F8
100
AcDbEntity
  8
FORMAT
 62
     2
100
AcDbText
 10
-40.63836564979034
 20
-49.97073246008785
 30
0.0
 40
4.233333333333333
  1
SEME75160110E [ 6 FLUTE ]
 41
0.75
  7
SLDTEXTSTYLE0
 11
-40.63836564979034
 21
-52.08739912675452
 31
0.0
100
AcDbAttribute
  2
AUTOATTR0
 70
     0
 74
     1
  0
SEQEND
  5
FA
330
F8
100
AcDbEntity
  8
0
  6
Continuous
 62
     7
  0
HATCH
  5
FB
330
1F
100
AcDbEntity
  8
중심선
100
AcDbHatch
 10
0.0
 20
0.0
 30
0.0
210
0.0
220
0.0
230
1.0
  2
SOLID
 70
     1
 71
     0
 91
        1
 92
        0
 93
        4
 72
     1
 10
-17.22453438368504
 20
-35.7989250712761
 11
-20.67080962752232
 21
-35.7989250712761
 72
     1
 10
-20.67080962752232
 20
-35.7989250712761
 11
-22.79903948672635
 21
-38.3352506518487
 72
     1
 10
-22.79903948672635
 20
-38.3352506518487
 11
-19.35273115777591
 21
-38.33521122254621
 72
     1
 10
-19.35273115777591
 20
-38.33521122254621
 11
-17.22453438368504
 21
-35.7989250712761
 97
        0
 75
     0
 76
     1
 98
        1
 10
0.0
 20
0.0
  0
HATCH
  5
FC
330
1F
100
AcDbEntity
  8
중심선
100
AcDbHatch
 10
0.0
 20
0.0
 30
0.0
210
0.0
220
0.0
230
1.0
  2
SOLID
 70
     1
 71
     0
 91
        1
 92
        0
 93
        4
 72
     1
 10
-12.21177039264909
 20
-35.7989250712761
 11
-15.65804563648637
 21
-35.7989250712761
 72
     1
 10
-15.65804563648637
 20
-35.7989250712761
 11
-20.18918364484376
 21
-41.19892507127612
 72
     1
 10
-20.18918364484376
 20
-41.19892507127612
 11
-16.74290840100648
 21
-41.19892507127612
 72
     1
 10
-16.74290840100648
 20
-41.19892507127612
 11
-12.21177039264909
 21
-35.7989250712761
 97
        0
 75
     0
 76
     1
 98
        1
 10
0.0
 20
0.0
  0
HATCH
  5
FD
330
1F
100
AcDbEntity
  8
중심선
100
AcDbHatch
 10
0.0
 20
0.0
 30
0.0
210
0.0
220
0.0
230
1.0
  2
SOLID
 70
     1
 71
     0
 91
        1
 92
        0
 93
        4
 72
     1
 10
-7.199006401613195
 20
-35.79892507127613
 11
-10.64528164545031
 21
-35.7989250712761
 72
     1
 10
-10.64528164545031
 20
-35.7989250712761
 11
-17.69371854733956
 21
-44.19892507127612
 72
     1
 10
-17.69371854733956
 20
-44.19892507127612
 11
-14.24744330350228
 21
-44.19892507127612
 72
     1
 10
-14.24744330350228
 20
-44.19892507127612
 11
-7.199006401613195
 21
-35.79892507127613
 97
        0
 75
     0
 76
     1
 98
        1
 10
0.0
 20
0.0
  0
HATCH
  5
FE
330
1F
100
AcDbEntity
  8
중심선
100
AcDbHatch
 10
0.0
 20
0.0
 30
0.0
210
0.0
220
0.0
230
1.0
  2
SOLID
 70
     1
 71
     0
 91
        1
 92
        0
 93
        6
 72
     3
 10
-2.399115970600996
 20
-39.99892507132738
 11
3.960054785062284
 21
1.540850780301639E-10
 40
0.3939339440162633
 50
17.09539180608433
 51
320.0019657685079
 73
     0
 72
     1
 10
-0.7161163149004002
 20
-38.58681907591441
 11
1.589185558800638
 21
-36.65249236586649
 72
     3
 10
-2.399115970653842
 20
-39.99892507127625
 11
6.600054785286829
 21
-1.249000902703301E-13
 40
0.6363583540795982
 50
39.99873849337408
 51
368.4976242363725
 73
     1
 72
     1
 10
4.026216521246767
 20
-39.03892507120613
 11
-3.71904866381792
 21
-39.0389250712061
 72
     1
 10
-3.71904866381792
 20
-39.0389250712061
 11
-3.719073708263854
 21
-40.95892507120602
 72
     1
 10
-3.719073708263854
 20
-40.95892507120602
 11
0.7223060612081831
 21
-40.95892507120599
 97
        0
 75
     0
 76
     1
 98
        1
 10
0.0
 20
0.0
  0
DIMENSION
  5
FF
330
1F
100
AcDbEntity
  8
치수문자_일반주서
100
AcDbDimension
  2
_D
 10
-95.02890613132342
 20
-8.000000000000105
 30
0.0
 11
-95.02890613132345
 21
-0.0000000000000263
 31
0.0
 70
   160
  1
%%c<>
 71
     2
 42
16.00000000000001
 52
-270.0
  3
SLDDIMSTYLE0
100
AcDbAlignedDimension
 13
-76.4
 23
7.999999999999979
 33
0.0
 14
-76.4
 24
-8.000000000000036
 34
0.0
 50
90.0000000000002
100
AcDbRotatedDimension
  0
DIMENSION
  5
10D
330
1F
100
AcDbEntity
  8
치수문자_일반주서
100
AcDbDimension
  2
_D_1
 10
132.0
 20
-8.0
 30
0.0
 11
132.0
 21
1.05508920015356
 31
0.0
 70
   160
  1
%%c<>
 71
     2
 42
16.00000000000002
 52
-270.0
  3
SLDDIMSTYLE0
100
AcDbAlignedDimension
 13
122.0
 23
7.99999999999998
 33
0.0
 14
122.0
 24
-8.000000000000037
 34
0.0
 50
90.0000000000002
100
AcDbRotatedDimension
  0
DIMENSION
  5
11A
330
1F
100
AcDbEntity
  8
치수문자_일반주서
100
AcDbDimension
  2
_D_2
 10
122.0
 20
51.49388424503034
 30
0.0
 11
57.01748654054401
 21
51.49388424503034
 31
0.0
 70
   160
  1
<>
 71
     2
 42
110.0
  3
SLDDIMSTYLE1
100
AcDbAlignedDimension
 13
11.99999999999999
 23
7.999043626388534
 33
0.0
 14
122.0
 24
7.941620407234681
 34
0.0
 50
-0.0000000000000037
100
AcDbRotatedDimension
  0
DIMENSION
  5
125
330
1F
100
AcDbEntity
  8
치수문자_일반주서
100
AcDbDimension
  2
_D_3
 10
-78.0
 20
78.88630306810431
 30
0.0
 11
28.19632639685437
 21
78.88630306810431
 31
0.0
 70
   160
  1
<>
 71
     2
 42
200.0
  3
SLDDIMSTYLE1
100
AcDbAlignedDimension
 13
122.0
 23
7.941620407234681
 33
0.0
 14
-78.0
 24
6.399999999999979
 34
0.0
100
AcDbRotatedDimension
  0
INSERT
  5
135
330
1F
100
AcDbEntity
  8
외형선
100
AcDbBlockReference
  2
SW_DOWELSYMBOL_0
 10
0.0
 20
0.0
 30
0.0
  0
ENDSEC
  0
SECTION
  2
OBJECTS
  0
DICTIONARY
  5
C
330
0
100
AcDbDictionary
281
     1
  3
ACAD_GROUP
350
D
  3
ACAD_IMAGE_VARS
350
159
  3
ACAD_LAYOUT
350
1A
  3
ACAD_MLINESTYLE
350
17
  3
ACAD_PLOTSETTINGS
350
19
  3
ACAD_PLOTSTYLENAME
350
E
  3
ACAD_SCALELIST
350
47
  3
APPDATA
350
157
  3
DWGPROPS
350
163
  0
DICTIONARY
  5
D
102
{ACAD_REACTORS
330
C
102
}
330
C
100
AcDbDictionary
281
     1
  0
RASTERVARIABLES
  5
159
102
{ACAD_REACTORS
330
C
102
}
330
C
100
AcDbRasterVariables
 90
        0
 70
     1
 71
     1
 72
     1
  0
DICTIONARY
  5
1A
102
{ACAD_REACTORS
330
C
102
}
330
C
100
AcDbDictionary
281
     1
  3
Layout1
350
1E
  3
Layout2
350
26
  3
Model
350
22
  0
DICTIONARY
  5
17
102
{ACAD_REACTORS
330
C
102
}
330
C
100
AcDbDictionary
281
     1
  3
Standard
350
18
  0
DICTIONARY
  5
19
102
{ACAD_REACTORS
330
C
102
}
330
C
100
AcDbDictionary
281
     1
  0
ACDBDICTIONARYWDFLT
  5
E
102
{ACAD_REACTORS
330
C
102
}
330
C
100
AcDbDictionary
281
     1
  3
Normal
350
F
100
AcDbDictionaryWithDefault
340
F
  0
DICTIONARY
  5
47
102
{ACAD_REACTORS
330
C
102
}
330
C
100
AcDbDictionary
281
     1
  3
A0
350
48
  3
A1
350
49
  3
A2
350
4A
  3
A3
350
4B
  3
A4
350
4C
  3
A5
350
4D
  3
A6
350
4E
  3
A7
350
4F
  3
A8
350
50
  3
A9
350
51
  3
B0
350
52
  3
B1
350
53
  3
B2
350
54
  3
B3
350
55
  3
B4
350
56
  3
B5
350
57
  3
B6
350
58
  3
B7
350
59
  3
B8
350
5A
  3
B9
350
5B
  3
C0
350
5C
  3
C1
350
5D
  3
C2
350
5E
  3
C3
350
5F
  3
C4
350
60
  3
C5
350
61
  3
C6
350
62
  3
C7
350
63
  3
C8
350
64
  3
C9
350
65
  3
D0
350
66
  3
D1
350
67
  3
D2
350
68
  0
DICTIONARY
  5
157
102
{ACAD_REACTORS
330
C
102
}
330
C
100
AcDbDictionary
281
     1
  0
XRECORD
  5
163
102
{ACAD_REACTORS
330
C
102
}
330
C
100
AcDbXrecord
280
     1
  1
DWGPROPS COOKIE
  2

  3

  4

  6

  7

  8
12016016
  9

300
=
301
=
302
=
303
=
304
=
305
=
306
=
307
=
308
=
309
=
 40
0.0
 41
2458268.397839746
 42
2458269.998710937
  1

 90
        0
  0
LAYOUT
  5
1E
102
{ACAD_REACTORS
330
1A
102
}
330
1A
100
AcDbPlotSettings
  1

  2
none_device
  4

  6

 40
0.0
 41
0.0
 42
0.0
 43
0.0
 44
0.0
 45
0.0
 46
0.0
 47
0.0
 48
0.0
 49
0.0
140
0.0
141
0.0
142
1.0
143
1.0
 70
   688
 72
     1
 73
     0
 74
     5
  7

 75
    16
147
1.0
148
0.0
149
0.0
100
AcDbLayout
  1
Layout1
 70
     1
 71
     1
 10
0.0
 20
0.0
 11
420.0
 21
297.0
 12
0.0
 22
0.0
 32
0.0
 14
1.000000000000000E+20
 24
1.000000000000000E+20
 34
1.000000000000000E+20
 15
-1.000000000000000E+20
 25
-1.000000000000000E+20
 35
-1.000000000000000E+20
146
0.0
 13
0.0
 23
0.0
 33
0.0
 16
1.0
 26
0.0
 36
0.0
 17
0.0
 27
1.0
 37
0.0
 76
     0
330
1B
  0
LAYOUT
  5
26
102
{ACAD_REACTORS
330
1A
102
}
330
1A
100
AcDbPlotSettings
  1

  2
none_device
  4

  6

 40
0.0
 41
0.0
 42
0.0
 43
0.0
 44
0.0
 45
0.0
 46
0.0
 47
0.0
 48
0.0
 49
0.0
140
0.0
141
0.0
142
1.0
143
1.0
 70
   688
 72
     1
 73
     0
 74
     5
  7

 75
    16
147
1.0
148
0.0
149
0.0
100
AcDbLayout
  1
Layout2
 70
     1
 71
     2
 10
0.0
 20
0.0
 11
0.0
 21
0.0
 12
0.0
 22
0.0
 32
0.0
 14
0.0
 24
0.0
 34
0.0
 15
0.0
 25
0.0
 35
0.0
146
0.0
 13
0.0
 23
0.0
 33
0.0
 16
1.0
 26
0.0
 36
0.0
 17
0.0
 27
1.0
 37
0.0
 76
     0
330
23
  0
LAYOUT
  5
22
102
{ACAD_REACTORS
330
1A
102
}
330
1A
100
AcDbPlotSettings
  1

  2
none_device
  4
ANSI_A_(11.00_x_8.50_Inches)
  6

 40
6.35
 41
19.05
 42
6.35000508
 43
19.05000254
 44
279.4
 45
215.9
 46
73.05135487094785
 47
69.46548777085339
 48
0.0
 49
0.0
140
0.0
141
0.0
142
0.0468197571611125
143
1.0
 70
  1696
 72
     0
 73
     0
 74
     0
  7

 75
     0
147
0.0235690232323232
148
0.0
149
0.0
100
AcDbLayout
  1
Model
 70
     1
 71
     0
 10
0.0
 20
0.0
 11
420.0
 21
297.0
 12
0.0
 22
0.0
 32
0.0
 14
-99.40390613132347
 24
-49.97073246008785
 34
0.0
 15
132.5503333333334
 25
83.26130306810431
 35
0.0
146
0.0
 13
0.0
 23
0.0
 33
0.0
 16
1.0
 26
0.0
 36
0.0
 17
0.0
 27
1.0
 37
0.0
 76
     0
330
1F
331
29
  0
MLINESTYLE
  5
18
102
{ACAD_REACTORS
330
17
102
}
330
17
100
AcDbMlineStyle
  2
Standard
 70
     0
  3

 62
   256
 51
90.0
 52
90.0
 71
     2
 49
0.5
 62
   256
  6
BYLAYER
 49
-0.5
 62
   256
  6
BYLAYER
  0
ACDBPLACEHOLDER
  5
F
102
{ACAD_REACTORS
330
E
102
}
330
E
  0
SCALE
  5
48
102
{ACAD_REACTORS
330
47
102
}
330
47
100
AcDbScale
 70
     0
300
1:1
140
1.0
141
1.0
290
     1
  0
SCALE
  5
49
102
{ACAD_REACTORS
330
47
102
}
330
47
100
AcDbScale
 70
     0
300
1:2
140
1.0
141
2.0
290
     0
  0
SCALE
  5
4A
102
{ACAD_REACTORS
330
47
102
}
330
47
100
AcDbScale
 70
     0
300
1:4
140
1.0
141
4.0
290
     0
  0
SCALE
  5
4B
102
{ACAD_REACTORS
330
47
102
}
330
47
100
AcDbScale
 70
     0
300
1:5
140
1.0
141
5.0
290
     0
  0
SCALE
  5
4C
102
{ACAD_REACTORS
330
47
102
}
330
47
100
AcDbScale
 70
     0
300
1:8
140
1.0
141
8.0
290
     0
  0
SCALE
  5
4D
102
{ACAD_REACTORS
330
47
102
}
330
47
100
AcDbScale
 70
     0
300
1:10
140
1.0
141
10.0
290
     0
  0
SCALE
  5
4E
102
{ACAD_REACTORS
330
47
102
}
330
47
100
AcDbScale
 70
     0
300
1:16
140
1.0
141
16.0
290
     0
  0
SCALE
  5
4F
102
{ACAD_REACTORS
330
47
102
}
330
47
100
AcDbScale
 70
     0
300
1:20
140
1.0
141
20.0
290
     0
  0
SCALE
  5
50
102
{ACAD_REACTORS
330
47
102
}
330
47
100
AcDbScale
 70
     0
300
1:30
140
1.0
141
30.0
290
     0
  0
SCALE
  5
51
102
{ACAD_REACTORS
330
47
102
}
330
47
100
AcDbScale
 70
     0
300
1:40
140
1.0
141
40.0
290
     0
  0
SCALE
  5
52
102
{ACAD_REACTORS
330
47
102
}
330
47
100
AcDbScale
 70
     0
300
1:50
140
1.0
141
50.0
290
     0
  0
SCALE
  5
53
102
{ACAD_REACTORS
330
47
102
}
330
47
100
AcDbScale
 70
     0
300
1:100
140
1.0
141
100.0
290
     0
  0
SCALE
  5
54
102
{ACAD_REACTORS
330
47
102
}
330
47
100
AcDbScale
 70
     0
300
2:1
140
2.0
141
1.0
290
     0
  0
SCALE
  5
55
102
{ACAD_REACTORS
330
47
102
}
330
47
100
AcDbScale
 70
     0
300
4:1
140
4.0
141
1.0
290
     0
  0
SCALE
  5
56
102
{ACAD_REACTORS
330
47
102
}
330
47
100
AcDbScale
 70
     0
300
8:1
140
8.0
141
1.0
290
     0
  0
SCALE
  5
57
102
{ACAD_REACTORS
330
47
102
}
330
47
100
AcDbScale
 70
     0
300
10:1
140
10.0
141
1.0
290
     0
  0
SCALE
  5
58
102
{ACAD_REACTORS
330
47
102
}
330
47
100
AcDbScale
 70
     0
300
100:1
140
100.0
141
1.0
290
     0
  0
SCALE
  5
59
102
{ACAD_REACTORS
330
47
102
}
330
47
100
AcDbScale
 70
     0
300
1/128" = 1'-0"
140
0.0078125
141
12.0
290
     0
  0
SCALE
  5
5A
102
{ACAD_REACTORS
330
47
102
}
330
47
100
AcDbScale
 70
     0
300
1/64" = 1'-0"
140
0.015625
141
12.0
290
     0
  0
SCALE
  5
5B
102
{ACAD_REACTORS
330
47
102
}
330
47
100
AcDbScale
 70
     0
300
1/32" = 1'-0"
140
0.03125
141
12.0
290
     0
  0
SCALE
  5
5C
102
{ACAD_REACTORS
330
47
102
}
330
47
100
AcDbScale
 70
     0
300
1/16" = 1'-0"
140
0.0625
141
12.0
290
     0
  0
SCALE
  5
5D
102
{ACAD_REACTORS
330
47
102
}
330
47
100
AcDbScale
 70
     0
300
3/32" = 1'-0"
140
0.09375
141
12.0
290
     0
  0
SCALE
  5
5E
102
{ACAD_REACTORS
330
47
102
}
330
47
100
AcDbScale
 70
     0
300
1/8" = 1'-0"
140
0.125
141
12.0
290
     0
  0
SCALE
  5
5F
102
{ACAD_REACTORS
330
47
102
}
330
47
100
AcDbScale
 70
     0
300
3/16" = 1'-0"
140
0.1875
141
12.0
290
     0
  0
SCALE
  5
60
102
{ACAD_REACTORS
330
47
102
}
330
47
100
AcDbScale
 70
     0
300
1/4" = 1'-0"
140
0.25
141
12.0
290
     0
  0
SCALE
  5
61
102
{ACAD_REACTORS
330
47
102
}
330
47
100
AcDbScale
 70
     0
300
3/8" = 1'-0"
140
0.375
141
12.0
290
     0
  0
SCALE
  5
62
102
{ACAD_REACTORS
330
47
102
}
330
47
100
AcDbScale
 70
     0
300
1/2" = 1'-0"
140
0.5
141
12.0
290
     0
  0
SCALE
  5
63
102
{ACAD_REACTORS
330
47
102
}
330
47
100
AcDbScale
 70
     0
300
3/4" = 1'-0"
140
0.75
141
12.0
290
     0
  0
SCALE
  5
64
102
{ACAD_REACTORS
330
47
102
}
330
47
100
AcDbScale
 70
     0
300
1" = 1'-0"
140
1.0
141
12.0
290
     0
  0
SCALE
  5
65
102
{ACAD_REACTORS
330
47
102
}
330
47
100
AcDbScale
 70
     0
300
1-1/2" = 1'-0"
140
1.5
141
12.0
290
     0
  0
SCALE
  5
66
102
{ACAD_REACTORS
330
47
102
}
330
47
100
AcDbScale
 70
     0
300
3" = 1'-0"
140
3.0
141
12.0
290
     0
  0
SCALE
  5
67
102
{ACAD_REACTORS
330
47
102
}
330
47
100
AcDbScale
 70
     0
300
6" = 1'-0"
140
6.0
141
12.0
290
     0
  0
SCALE
  5
68
102
{ACAD_REACTORS
330
47
102
}
330
47
100
AcDbScale
 70
     0
300
1'-0" = 1'-0"
140
12.0
141
12.0
290
     0
  0
ENDSEC
  0
EOF
