  0
SECTION
  2
HEADER
  9
$ACADVER
  1
AC1015
  9
$ACADMAINTVER
 70
     6
  9
$DWGCODEPAGE
  3
ANSI_949
  9
$INSBASE
 10
0.0
 20
0.0
 30
0.0
  9
$EXTMIN
 10
-69.40390613132352
 20
-49.97180738881178
 30
0.0
  9
$EXTMAX
 10
72.55033333333327
 20
83.2613030681043
 30
0.0
  9
$LIMMIN
 10
0.0
 20
0.0
  9
$LIMMAX
 10
420.0
 20
297.0
  9
$ORTHOMODE
 70
     1
  9
$REGENMODE
 70
     1
  9
$FILLMODE
 70
     1
  9
$QTEXTMODE
 70
     0
  9
$MIRRTEXT
 70
     1
  9
$LTSCALE
 40
1.0
  9
$ATTMODE
 70
     1
  9
$TEXTSIZE
 40
3.5
  9
$TRACEWID
 40
1.0
  9
$TEXTSTYLE
  7
Standard
  9
$CLAYER
  8
0
  9
$CELTYPE
  6
ByLayer
  9
$CECOLOR
 62
   256
  9
$CELTSCALE
 40
1.0
  9
$DISPSILH
 70
     0
  9
$DIMSCALE
 40
1.0
  9
$DIMASZ
 40
3.302
  9
$DIMEXO
 40
1.0
  9
$DIMDLI
 40
3.75
  9
$DIMRND
 40
0.0
  9
$DIMDLE
 40
0.0
  9
$DIMEXE
 40
1.0
  9
$DIMTP
 40
0.0
  9
$DIMTM
 40
0.0
  9
$DIMTXT
 40
3.5
  9
$DIMCEN
 40
2.5
  9
$DIMTSZ
 40
0.0
  9
$DIMTOL
 70
     0
  9
$DIMLIM
 70
     0
  9
$DIMTIH
 70
     1
  9
$DIMTOH
 70
     1
  9
$DIMSE1
 70
     0
  9
$DIMSE2
 70
     0
  9
$DIMTAD
 70
     1
  9
$DIMZIN
 70
     0
  9
$DIMBLK
  1

  9
$DIMASO
 70
     1
  9
$DIMSHO
 70
     1
  9
$DIMPOST
  1

  9
$DIMAPOST
  1

  9
$DIMALT
 70
     0
  9
$DIMALTD
 70
     3
  9
$DIMALTF
 40
0.0393700787401575
  9
$DIMLFAC
 40
1.0
  9
$DIMTOFL
 70
     1
  9
$DIMTVP
 40
0.0
  9
$DIMTIX
 70
     0
  9
$DIMSOXD
 70
     0
  9
$DIMSAH
 70
     0
  9
$DIMBLK1
  1

  9
$DIMBLK2
  1

  9
$DIMSTYLE
  2
ISO-25
  9
$DIMCLRD
 70
     0
  9
$DIMCLRE
 70
     0
  9
$DIMCLRT
 70
     0
  9
$DIMTFAC
 40
1.0
  9
$DIMGAP
 40
1.524
  9
$DIMJUST
 70
     0
  9
$DIMSD1
 70
     0
  9
$DIMSD2
 70
     0
  9
$DIMTOLJ
 70
     0
  9
$DIMTZIN
 70
     0
  9
$DIMALTZ
 70
     0
  9
$DIMALTTZ
 70
     0
  9
$DIMUPT
 70
     0
  9
$DIMDEC
 70
     2
  9
$DIMTDEC
 70
     2
  9
$DIMALTU
 70
     2
  9
$DIMALTTD
 70
     3
  9
$DIMTXSTY
  7
Standard
  9
$DIMAUNIT
 70
     0
  9
$DIMADEC
 70
     2
  9
$DIMALTRND
 40
0.0
  9
$DIMAZIN
 70
     0
  9
$DIMDSEP
 70
    44
  9
$DIMATFIT
 70
     3
  9
$DIMFRAC
 70
     0
  9
$DIMLDRBLK
  1

  9
$DIMLUNIT
 70
     2
  9
$DIMLWD
 70
    -2
  9
$DIMLWE
 70
    -2
  9
$DIMTMOVE
 70
     0
  9
$LUNITS
 70
     2
  9
$LUPREC
 70
     2
  9
$SKETCHINC
 40
1.0
  9
$FILLETRAD
 40
10.0
  9
$AUNITS
 70
     0
  9
$AUPREC
 70
     2
  9
$MENU
  1
.
  9
$ELEVATION
 40
0.0
  9
$PELEVATION
 40
0.0
  9
$THICKNESS
 40
0.0
  9
$LIMCHECK
 70
     0
  9
$CHAMFERA
 40
0.0
  9
$CHAMFERB
 40
0.0
  9
$CHAMFERC
 40
0.0
  9
$CHAMFERD
 40
0.0
  9
$SKPOLY
 70
     0
  9
$TDCREATE
 40
2458268.773027048
  9
$TDUCREATE
 40
2458268.398027048
  9
$TDUPDATE
 40
2458270.377745729
  9
$TDUUPDATE
 40
2458270.002745729
  9
$TDINDWG
 40
0.0005446181
  9
$TDUSRTIMER
 40
2458270.002201261
  9
$USRTIMER
 70
     1
  9
$ANGBASE
 50
0.0
  9
$ANGDIR
 70
     0
  9
$PDMODE
 70
     0
  9
$PDSIZE
 40
-1.0
  9
$PLINEWID
 40
0.0
  9
$SPLFRAME
 70
     0
  9
$SPLINETYPE
 70
     6
  9
$SPLINESEGS
 70
     8
  9
$HANDSEED
  5
143
  9
$SURFTAB1
 70
     6
  9
$SURFTAB2
 70
     6
  9
$SURFTYPE
 70
     6
  9
$SURFU
 70
     6
  9
$SURFV
 70
     6
  9
$UCSBASE
  2

  9
$UCSNAME
  2

  9
$UCSORG
 10
0.0
 20
0.0
 30
0.0
  9
$UCSXDIR
 10
1.0
 20
0.0
 30
0.0
  9
$UCSYDIR
 10
0.0
 20
1.0
 30
0.0
  9
$UCSORTHOREF
  2

  9
$UCSORTHOVIEW
 70
     0
  9
$UCSORGTOP
 10
0.0
 20
0.0
 30
0.0
  9
$UCSORGBOTTOM
 10
0.0
 20
0.0
 30
0.0
  9
$UCSORGLEFT
 10
0.0
 20
0.0
 30
0.0
  9
$UCSORGRIGHT
 10
0.0
 20
0.0
 30
0.0
  9
$UCSORGFRONT
 10
0.0
 20
0.0
 30
0.0
  9
$UCSORGBACK
 10
0.0
 20
0.0
 30
0.0
  9
$PUCSBASE
  2

  9
$PUCSNAME
  2

  9
$PUCSORG
 10
0.0
 20
0.0
 30
0.0
  9
$PUCSXDIR
 10
1.0
 20
0.0
 30
0.0
  9
$PUCSYDIR
 10
0.0
 20
1.0
 30
0.0
  9
$PUCSORTHOREF
  2

  9
$PUCSORTHOVIEW
 70
     0
  9
$PUCSORGTOP
 10
0.0
 20
0.0
 30
0.0
  9
$PUCSORGBOTTOM
 10
0.0
 20
0.0
 30
0.0
  9
$PUCSORGLEFT
 10
0.0
 20
0.0
 30
0.0
  9
$PUCSORGRIGHT
 10
0.0
 20
0.0
 30
0.0
  9
$PUCSORGFRONT
 10
0.0
 20
0.0
 30
0.0
  9
$PUCSORGBACK
 10
0.0
 20
0.0
 30
0.0
  9
$USERI1
 70
     0
  9
$USERI2
 70
     0
  9
$USERI3
 70
     0
  9
$USERI4
 70
     0
  9
$USERI5
 70
     0
  9
$USERR1
 40
0.0
  9
$USERR2
 40
0.0
  9
$USERR3
 40
0.0
  9
$USERR4
 40
0.0
  9
$USERR5
 40
0.0
  9
$WORLDVIEW
 70
     1
  9
$SHADEDGE
 70
     3
  9
$SHADEDIF
 70
    70
  9
$TILEMODE
 70
     1
  9
$MAXACTVP
 70
    64
  9
$PINSBASE
 10
0.0
 20
0.0
 30
0.0
  9
$PLIMCHECK
 70
     0
  9
$PEXTMIN
 10
1.000000000000000E+20
 20
1.000000000000000E+20
 30
1.000000000000000E+20
  9
$PEXTMAX
 10
-1.000000000000000E+20
 20
-1.000000000000000E+20
 30
-1.000000000000000E+20
  9
$PLIMMIN
 10
0.0
 20
0.0
  9
$PLIMMAX
 10
0.0
 20
0.0
  9
$UNITMODE
 70
     0
  9
$VISRETAIN
 70
     1
  9
$PLINEGEN
 70
     0
  9
$PSLTSCALE
 70
     1
  9
$TREEDEPTH
 70
  3020
  9
$CMLSTYLE
  2
Standard
  9
$CMLJUST
 70
     0
  9
$CMLSCALE
 40
20.0
  9
$PROXYGRAPHICS
 70
     1
  9
$MEASUREMENT
 70
     1
  9
$CELWEIGHT
370
    -1
  9
$ENDCAPS
280
     0
  9
$JOINSTYLE
280
     0
  9
$LWDISPLAY
290
     1
  9
$INSUNITS
 70
     4
  9
$HYPERLINKBASE
  1

  9
$STYLESHEET
  1

  9
$XEDIT
290
     1
  9
$CEPSNTYPE
380
     0
  9
$PSTYLEMODE
290
     1
  9
$FINGERPRINTGUID
  2
{8515A1EF-1E7B-4B39-B121-4BAE57B22E9A}
  9
$VERSIONGUID
  2
{FAEB1C32-E019-11D5-929B-00C0DF256EC4}
  9
$EXTNAMES
290
     1
  9
$PSVPSCALE
 40
0.0
  9
$OLESTARTUP
290
     0
  0
ENDSEC
  0
SECTION
  2
CLASSES
  0
CLASS
  1
ACDBDICTIONARYWDFLT
  2
AcDbDictionaryWithDefault
  3
ObjectDBX Classes
 90
        0
280
     0
281
     0
  0
CLASS
  1
VISUALSTYLE
  2
AcDbVisualStyle
  3
ObjectDBX Classes
 90
     4095
280
     0
281
     0
  0
CLASS
  1
MATERIAL
  2
AcDbMaterial
  3
ObjectDBX Classes
 90
     1153
280
     0
281
     0
  0
CLASS
  1
SCALE
  2
AcDbScale
  3
ObjectDBX Classes
 90
     1153
280
     0
281
     0
  0
CLASS
  1
SUN
  2
AcDbSun
  3
SCENEOE
 90
     1153
280
     0
281
     0
  0
CLASS
  1
ACDBPLACEHOLDER
  2
AcDbPlaceHolder
  3
ObjectDBX Classes
 90
        0
280
     0
281
     0
  0
CLASS
  1
LAYOUT
  2
AcDbLayout
  3
ObjectDBX Classes
 90
        0
280
     0
281
     0
  0
CLASS
  1
TABLESTYLE
  2
AcDbTableStyle
  3
ObjectDBX Classes
 90
     4095
280
     0
281
     0
  0
CLASS
  1
MLEADERSTYLE
  2
AcDbMLeaderStyle
  3
ACDB_MLEADERSTYLE_CLASS
 90
     4095
280
     0
281
     0
  0
CLASS
  1
RASTERVARIABLES
  2
AcDbRasterVariables
  3
ISM
 90
        0
280
     0
281
     0
  0
ENDSEC
  0
SECTION
  2
TABLES
  0
TABLE
  2
VPORT
  5
8
330
0
100
AcDbSymbolTable
 70
     1
  0
VPORT
  5
29
330
8
100
AcDbSymbolTableRecord
100
AcDbViewportTableRecord
  2
*Active
 70
     0
 10
0.0
 20
0.0
 11
1.0
 21
1.0
 12
11.1712565936633
 22
-6.021874148735818
 13
0.0
 23
0.0
 14
10.0
 24
10.0
 15
10.0
 25
10.0
 16
0.0
 26
0.0
 36
1.0
 17
0.0
 27
0.0
 37
0.0
 40
36.22707289073183
 41
1.627413127413127
 42
50.0
 43
0.0
 44
0.0
 50
0.0
 51
0.0
 71
    16
 72
  2000
 73
     1
 74
     3
 75
     0
 76
     0
 77
     0
 78
     0
281
     0
 65
     1
110
0.0
120
0.0
130
0.0
111
1.0
121
0.0
131
0.0
112
0.0
122
1.0
132
0.0
 79
     0
146
0.0
  0
ENDTAB
  0
TABLE
  2
LTYPE
  5
5
330
0
100
AcDbSymbolTable
 70
     6
  0
LTYPE
  5
14
330
5
100
AcDbSymbolTableRecord
100
AcDbLinetypeTableRecord
  2
ByBlock
 70
     0
  3

 72
    65
 73
     0
 40
0.0
  0
LTYPE
  5
15
330
5
100
AcDbSymbolTableRecord
100
AcDbLinetypeTableRecord
  2
ByLayer
 70
     0
  3

 72
    65
 73
     0
 40
0.0
  0
LTYPE
  5
16
330
5
100
AcDbSymbolTableRecord
100
AcDbLinetypeTableRecord
  2
Continuous
 70
     0
  3
Solid line
 72
    65
 73
     0
 40
0.0
  0
LTYPE
  5
6A
330
5
100
AcDbSymbolTableRecord
100
AcDbLinetypeTableRecord
  2
HIDDEN
 70
     0
  3
Hidden __ __ __ __ __ __ __ __ __ __ __ __ __ __
 72
    65
 73
     2
 40
1.905
 49
1.27
 74
     0
 49
-0.635
 74
     0
  0
LTYPE
  5
6B
330
5
100
AcDbSymbolTableRecord
100
AcDbLinetypeTableRecord
  2
PHANTOM
 70
     0
  3
Phantom ______  __  __  ______  __  __  ______
 72
    65
 73
     6
 40
12.7
 49
6.35
 74
     0
 49
-1.27
 74
     0
 49
1.27
 74
     0
 49
-1.27
 74
     0
 49
1.27
 74
     0
 49
-1.27
 74
     0
  0
LTYPE
  5
6C
330
5
100
AcDbSymbolTableRecord
100
AcDbLinetypeTableRecord
  2
CENTER
 70
     0
  3
Center ____ _ ____ _ ____ _ ____ _ ____ _ ____
 72
    65
 73
     4
 40
10.16
 49
6.35
 74
     0
 49
-1.27
 74
     0
 49
1.27
 74
     0
 49
-1.27
 74
     0
  0
LTYPE
  5
6D
330
5
100
AcDbSymbolTableRecord
100
AcDbLinetypeTableRecord
  2
CENTERX2
 70
     0
  3
Center (2x) ________  __  ________  __  _____
 72
    65
 73
     4
 40
20.32
 49
12.7
 74
     0
 49
-2.54
 74
     0
 49
2.54
 74
     0
 49
-2.54
 74
     0
  0
LTYPE
  5
6E
330
5
100
AcDbSymbolTableRecord
100
AcDbLinetypeTableRecord
  2
DOT2
 70
     0
  3
Dot (.5x) ........................................
 72
    65
 73
     2
 40
0.635
 49
0.0
 74
     0
 49
-0.635
 74
     0
  0
ENDTAB
  0
TABLE
  2
LAYER
  5
2
330
0
100
AcDbSymbolTable
 70
    17
  0
LAYER
  5
10
330
2
100
AcDbSymbolTableRecord
100
AcDbLayerTableRecord
  2
0
 70
     0
 62
     7
  6
Continuous
370
    -3
390
F
  0
LAYER
  5
6F
330
2
100
AcDbSymbolTableRecord
100
AcDbLayerTableRecord
  2
FORMAT
 70
     0
 62
     2
  6
Continuous
370
    -3
390
F
  0
LAYER
  5
70
330
2
100
AcDbSymbolTableRecord
100
AcDbLayerTableRecord
  2
외형선
 70
     0
 62
   100
  6
Continuous
370
    30
390
F
  0
LAYER
  5
71
330
2
100
AcDbSymbolTableRecord
100
AcDbLayerTableRecord
  2
숨은선
 70
     0
 62
     2
  6
HIDDEN
370
    15
390
F
  0
LAYER
  5
72
330
2
100
AcDbSymbolTableRecord
100
AcDbLayerTableRecord
  2
중심선
 70
     0
 62
     1
  6
CENTERX2
370
    -3
390
F
  0
LAYER
  5
73
330
2
100
AcDbSymbolTableRecord
100
AcDbLayerTableRecord
  2
파단선
 70
     0
 62
     4
  6
Continuous
370
    -3
390
F
  0
LAYER
  5
74
330
2
100
AcDbSymbolTableRecord
100
AcDbLayerTableRecord
  2
해칭선
 70
     0
 62
     4
  6
Continuous
370
    -3
390
F
  0
LAYER
  5
75
330
2
100
AcDbSymbolTableRecord
100
AcDbLayerTableRecord
  2
가는실선
 70
     0
 62
     4
  6
Continuous
370
    -3
390
F
  0
LAYER
  5
76
330
2
100
AcDbSymbolTableRecord
100
AcDbLayerTableRecord
  2
치수_보조선
 70
     0
 62
     4
  6
Continuous
370
    -3
390
F
  0
LAYER
  5
77
330
2
100
AcDbSymbolTableRecord
100
AcDbLayerTableRecord
  2
치수문자_일반주서
 70
     0
 62
     7
  6
Continuous
370
    15
390
F
  0
LAYER
  5
78
330
2
100
AcDbSymbolTableRecord
100
AcDbLayerTableRecord
  2
개별주서
 70
     0
 62
   100
  6
Continuous
370
    30
390
F
  0
LAYER
  5
79
330
2
100
AcDbSymbolTableRecord
100
AcDbLayerTableRecord
  2
중간선
 70
     0
 62
     2
  6
Continuous
370
    15
390
F
  0
LAYER
  5
7A
330
2
100
AcDbSymbolTableRecord
100
AcDbLayerTableRecord
  2
윤곽선
 70
     0
 62
     3
  6
Continuous
370
    40
390
F
  0
LAYER
  5
7B
330
2
100
AcDbSymbolTableRecord
100
AcDbLayerTableRecord
  2
중심마크
 70
     0
 62
   100
  6
Continuous
370
    30
390
F
  0
LAYER
  5
7C
330
2
100
AcDbSymbolTableRecord
100
AcDbLayerTableRecord
  2
가상선
 70
     0
 62
     4
  6
PHANTOM
370
    -3
390
F
  0
LAYER
  5
7D
330
2
100
AcDbSymbolTableRecord
100
AcDbLayerTableRecord
  2
특수지정선
 70
     0
 62
     5
  6
CENTERX2
370
    60
390
F
  0
LAYER
  5
13A
330
2
100
AcDbSymbolTableRecord
100
AcDbLayerTableRecord
  2
Defpoints
 70
     0
 62
     7
  6
Continuous
290
     0
370
    -3
390
F
  0
ENDTAB
  0
TABLE
  2
STYLE
  5
3
330
0
100
AcDbSymbolTable
 70
     2
  0
STYLE
  5
11
330
3
100
AcDbSymbolTableRecord
100
AcDbTextStyleTableRecord
  2
Standard
 70
     0
 40
0.0
 41
1.0
 50
0.0
 71
     0
 42
3.5
  3
txt
  4

  0
STYLE
  5
93
330
3
100
AcDbSymbolTableRecord
100
AcDbTextStyleTableRecord
  2
SLDTEXTSTYLE0
 70
     0
 40
0.0
 41
0.75
 50
0.0
 71
     0
 42
3.5
  3
TXT
  4

  0
ENDTAB
  0
TABLE
  2
VIEW
  5
6
330
0
100
AcDbSymbolTable
 70
     0
  0
ENDTAB
  0
TABLE
  2
UCS
  5
7
330
0
100
AcDbSymbolTable
 70
     0
  0
ENDTAB
  0
TABLE
  2
APPID
  5
9
330
0
100
AcDbSymbolTable
 70
     1
  0
APPID
  5
12
330
9
100
AcDbSymbolTableRecord
100
AcDbRegAppTableRecord
  2
ACAD
 70
     0
  0
ENDTAB
  0
TABLE
  2
DIMSTYLE
  5
A
330
0
100
AcDbSymbolTable
 70
     3
100
AcDbDimStyleTable
  0
DIMSTYLE
105
27
330
A
100
AcDbSymbolTableRecord
100
AcDbDimStyleTableRecord
  2
ISO-25
 70
     0
 41
2.5
 42
0.625
 43
3.75
 44
1.25
 73
     0
 74
     0
 77
     1
 78
     8
140
2.5
141
2.5
143
0.03937007874016
147
0.625
171
     3
172
     1
178
     0
271
     2
272
     2
274
     3
278
    44
283
     0
284
     8
340
11
  0
DIMSTYLE
105
E0
102
{ACAD_REACTORS
330
DF
330
ED
102
}
330
A
100
AcDbSymbolTableRecord
100
AcDbDimStyleTableRecord
  2
SLDDIMSTYLE0
 70
     0
 41
3.302
 44
0.0
 45
0.000000001
 73
     0
 74
     0
 77
     1
 78
    12
 79
     3
140
3.5
147
0.875
172
     1
173
     1
178
     0
271
     2
272
     2
276
     2
284
    12
289
     0
340
93
  0
DIMSTYLE
105
FB
102
{ACAD_REACTORS
330
FA
330
105
102
}
330
A
100
AcDbSymbolTableRecord
100
AcDbDimStyleTableRecord
  2
SLDDIMSTYLE1
 70
     0
 41
3.302
 44
0.0
 45
0.000000001
 73
     0
 74
     0
 77
     1
 78
    12
 79
     3
140
3.5
147
0.875
173
     1
178
     0
271
     2
272
     2
276
     2
284
    12
340
93
  0
ENDTAB
  0
TABLE
  2
BLOCK_RECORD
  5
1
330
0
100
AcDbSymbolTable
 70
     7
  0
BLOCK_RECORD
  5
1F
330
1
100
AcDbSymbolTableRecord
100
AcDbBlockTableRecord
  2
*Model_Space
340
22
  0
BLOCK_RECORD
  5
1B
330
1
100
AcDbSymbolTableRecord
100
AcDbBlockTableRecord
  2
*Paper_Space
340
1E
  0
BLOCK_RECORD
  5
23
330
1
100
AcDbSymbolTableRecord
100
AcDbBlockTableRecord
  2
*Paper_Space0
340
26
  0
BLOCK_RECORD
  5
7E
330
1
100
AcDbSymbolTableRecord
100
AcDbBlockTableRecord
  2
블럭10
340
0
102
{BLKREFS
331
D8
102
}
  0
BLOCK_RECORD
  5
E1
330
1
100
AcDbSymbolTableRecord
100
AcDbBlockTableRecord
  2
_D
340
0
  0
BLOCK_RECORD
  5
EE
330
1
100
AcDbSymbolTableRecord
100
AcDbBlockTableRecord
  2
_D_1
340
0
  0
BLOCK_RECORD
  5
FC
330
1
100
AcDbSymbolTableRecord
100
AcDbBlockTableRecord
  2
_D_2
340
0
  0
BLOCK_RECORD
  5
106
330
1
100
AcDbSymbolTableRecord
100
AcDbBlockTableRecord
  2
_D_3
340
0
  0
BLOCK_RECORD
  5
10F
330
1
100
AcDbSymbolTableRecord
100
AcDbBlockTableRecord
  2
SW_DOWELSYMBOL_0
340
0
102
{BLKREFS
331
115
102
}
  0
ENDTAB
  0
ENDSEC
  0
SECTION
  2
BLOCKS
  0
BLOCK
  5
20
330
1F
100
AcDbEntity
  8
0
100
AcDbBlockBegin
  2
*Model_Space
 70
     0
 10
0.0
 20
0.0
 30
0.0
  3
*Model_Space
  1
*Model_Space
  0
ENDBLK
  5
21
330
1F
100
AcDbEntity
  8
0
100
AcDbBlockEnd
  0
BLOCK
  5
1C
330
1B
100
AcDbEntity
 67
     1
  8
0
100
AcDbBlockBegin
  2
*Paper_Space
 70
     0
 10
0.0
 20
0.0
 30
0.0
  3
*Paper_Space
  1
*Paper_Space
  0
ENDBLK
  5
1D
330
1B
100
AcDbEntity
 67
     1
  8
0
100
AcDbBlockEnd
  0
BLOCK
  5
24
330
23
100
AcDbEntity
  8
0
100
AcDbBlockBegin
  2
*Paper_Space0
 70
     0
 10
0.0
 20
0.0
 30
0.0
  3
*Paper_Space0
  1
*Paper_Space0
  0
ENDBLK
  5
25
330
23
100
AcDbEntity
  8
0
100
AcDbBlockEnd
  0
BLOCK
  5
7F
330
7E
100
AcDbEntity
  8
0
100
AcDbBlockBegin
  2
블럭10
 70
     2
 10
0.0
 20
0.0
 30
0.0
  3
블럭10
  1
블럭10
  0
ELLIPSE
  5
81
330
7E
100
AcDbEntity
  8
중심선
100
AcDbEllipse
 10
20.54032771741204
 20
12.0471743016438
 30
0.0
 11
6.600054785286829
 21
-1.261213355974178E-13
 31
0.0
210
0.0
220
0.0
230
1.0
 40
0.636358354079598
 41
0.9219305317359503
 42
6.513795318482858
  0
ELLIPSE
  5
82
330
7E
100
AcDbEntity
  8
중심선
100
AcDbEllipse
 10
20.54032771746488
 20
12.04717430159265
 30
0.0
 11
3.960054785062283
 21
1.540847449632565E-10
 31
0.0
210
0.0
220
0.0
230
1.0
 40
0.3939339440162632
 41
1.131841032648279
 42
5.62031148352944
  0
LINE
  5
83
330
7E
100
AcDbEntity
  8
중심선
100
AcDbLine
 10
2.268634060543552
 20
16.24717430164393
 30
0.0
 11
5.714909304380834
 21
16.24717430164393
 31
0.0
  0
LINE
  5
84
330
7E
100
AcDbEntity
  8
중심선
100
AcDbLine
 10
5.245725140726316
 20
7.84717430164391
 30
0.0
 11
8.692000384563599
 21
7.84717430164391
 31
0.0
  0
LINE
  5
85
330
7E
100
AcDbEntity
  8
중심선
100
AcDbLine
 10
15.74043728645272
 20
16.24717430164393
 30
0.0
 11
8.692000384563599
 21
7.84717430164391
 31
0.0
  0
LINE
  5
86
330
7E
100
AcDbEntity
  8
중심선
100
AcDbLine
 10
0.1404042013395286
 20
13.71084872107135
 30
0.0
 11
3.58671253028996
 21
13.71088815037384
 31
0.0
  0
LINE
  5
87
330
7E
100
AcDbEntity
  8
중심선
100
AcDbLine
 10
2.750260043222114
 20
10.84717430164391
 30
0.0
 11
6.196535287059397
 21
10.84717430164391
 31
0.0
  0
LINE
  5
88
330
7E
100
AcDbEntity
  8
중심선
100
AcDbLine
 10
12.29416204261559
 20
16.24717430164393
 30
0.0
 11
5.245725140726316
 21
7.84717430164391
 31
0.0
  0
LINE
  5
89
330
7E
100
AcDbEntity
  8
중심선
100
AcDbLine
 10
10.72767329541681
 20
16.24717430164393
 30
0.0
 11
6.196535287059397
 21
10.84717430164391
 31
0.0
  0
LINE
  5
8A
330
7E
100
AcDbEntity
  8
중심선
100
AcDbLine
 10
7.28139805157953
 20
16.24717430164393
 30
0.0
 11
2.750260043222114
 21
10.84717430164391
 31
0.0
  0
LINE
  5
8B
330
7E
100
AcDbEntity
  8
중심선
100
AcDbLine
 10
5.714909304380834
 20
16.24717430164393
 30
0.0
 11
3.58671253028996
 21
13.71088815037384
 31
0.0
  0
LINE
  5
8C
330
7E
100
AcDbEntity
  8
중심선
100
AcDbLine
 10
2.268634060543552
 20
16.24717430164393
 30
0.0
 11
0.1404042013395286
 21
13.71084872107135
 31
0.0
  0
LINE
  5
8D
330
7E
100
AcDbEntity
  8
중심선
100
AcDbLine
 10
7.28139805157953
 20
16.24717430164393
 30
0.0
 11
10.72767329541681
 21
16.24717430164393
 31
0.0
  0
LINE
  5
8E
330
7E
100
AcDbEntity
  8
중심선
100
AcDbLine
 10
12.29416204261559
 20
16.24717430164393
 30
0.0
 11
15.74043728645272
 21
16.24717430164393
 31
0.0
  0
LINE
  5
8F
330
7E
100
AcDbEntity
  8
중심선
100
AcDbLine
 10
19.22036997980202
 20
11.08717430171403
 30
0.0
 11
23.66174974927406
 21
11.08717430171406
 31
0.0
  0
LINE
  5
90
330
7E
100
AcDbEntity
  8
중심선
100
AcDbLine
 10
19.22039502424796
 20
13.00717430171391
 30
0.0
 11
19.22036997980202
 21
11.08717430171403
 31
0.0
  0
LINE
  5
91
330
7E
100
AcDbEntity
  8
중심선
100
AcDbLine
 10
19.22039502424796
 20
13.00717430171391
 30
0.0
 11
26.96566020931264
 21
13.00717430171391
 31
0.0
  0
LINE
  5
92
330
7E
100
AcDbEntity
  8
중심선
100
AcDbLine
 10
22.22332737316547
 20
13.45928029700563
 30
0.0
 11
24.52862924686651
 21
15.39360700705356
 31
0.0
  0
ATTDEF
  5
94
330
7E
100
AcDbEntity
  8
FORMAT
 62
     2
100
AcDbText
 10
-16.11926103943555
 20
2.075366912832191
 30
0.0
 40
4.233333333333333
  1
SEME7516050E [ 6 FLUTE ]
 41
0.75
  7
SLDTEXTSTYLE0
 11
-16.11926103943555
 21
-0.0412997538344756
 31
0.0
100
AcDbAttributeDefinition
  3

  2
AUTOATTR0
 70
     0
 74
     1
  0
ENDBLK
  5
80
330
7E
100
AcDbEntity
  8
0
100
AcDbBlockEnd
  0
BLOCK
  5
E2
330
E1
100
AcDbEntity
  8
0
100
AcDbBlockBegin
  2
_D
 70
     0
 10
0.0
 20
0.0
 30
0.0
  3
_D
  1
_D
  0
LINE
  5
E4
330
E1
100
AcDbEntity
  8
치수문자_일반주서
 62
     0
370
    -2
100
AcDbLine
 10
-46.46250000000007
 20
7.999999999999977
 30
0.0
 11
-65.02890613132354
 21
7.999999999999908
 31
0.0
  0
LINE
  5
E5
330
E1
100
AcDbEntity
  8
치수문자_일반주서
 62
     0
370
    -2
100
AcDbLine
 10
-46.46250000000007
 20
-8.000000000000037
 30
0.0
 11
-65.02890613132348
 21
-8.000000000000107
 31
0.0
  0
LINE
  5
E6
330
E1
100
AcDbEntity
  8
치수문자_일반주서
 62
     0
370
    -2
100
AcDbLine
 10
-65.02890613132352
 20
4.697999999999908
 30
0.0
 11
-65.0289061313235
 21
-4.698000000000107
 31
0.0
  0
SOLID
  5
E7
330
E1
100
AcDbEntity
  8
치수문자_일반주서
 62
     0
100
AcDbTrace
 10
-64.4785727979902
 20
4.69799999999991
 30
0.0
 11
-65.57923946465685
 21
4.697999999999906
 31
0.0
 12
-65.02890613132354
 22
7.999999999999908
 32
0.0
 13
-65.02890613132354
 23
7.999999999999908
 33
0.0
  0
SOLID
  5
E8
330
E1
100
AcDbEntity
  8
치수문자_일반주서
 62
     0
100
AcDbTrace
 10
-65.57923946465682
 20
-4.698000000000109
 30
0.0
 11
-64.47857279799017
 21
-4.698000000000105
 31
0.0
 12
-65.02890613132348
 22
-8.000000000000107
 32
0.0
 13
-65.02890613132348
 23
-8.000000000000107
 33
0.0
  0
MTEXT
  5
E9
330
E1
100
AcDbEntity
  8
치수문자_일반주서
 62
     0
100
AcDbMText
 10
-69.40390613132351
 20
-0.000000000000044
 30
0.0
 40
3.5
 41
0.0
 71
     2
 72
     1
  1
\A1;%%c16
  7
SLDTEXTSTYLE0
 11
-3.552713678800498E-15
 21
1.0
 31
0.0
 73
     1
 44
1.0
  0
POINT
  5
EA
330
E1
100
AcDbEntity
  8
Defpoints
 62
     0
100
AcDbPoint
 10
-46.40000000000007
 20
7.999999999999977
 30
0.0
  0
POINT
  5
EB
330
E1
100
AcDbEntity
  8
Defpoints
 62
     0
100
AcDbPoint
 10
-46.40000000000007
 20
-8.000000000000037
 30
0.0
  0
POINT
  5
EC
330
E1
100
AcDbEntity
  8
Defpoints
 62
     0
100
AcDbPoint
 10
-65.02890613132351
 20
-8.000000000000107
 30
0.0
  0
ENDBLK
  5
E3
330
E1
100
AcDbEntity
  8
0
100
AcDbBlockEnd
  0
BLOCK
  5
EF
330
EE
100
AcDbEntity
  8
0
100
AcDbBlockBegin
  2
_D_1
 70
     0
 10
0.0
 20
0.0
 30
0.0
  3
_D_1
  1
_D_1
  0
LINE
  5
F1
330
EE
100
AcDbEntity
  8
치수문자_일반주서
 62
     0
370
    -2
100
AcDbLine
 10
62.06249999999994
 20
7.999999999999973
 30
0.0
 11
71.9999999999999
 21
8.00000000000001
 31
0.0
  0
LINE
  5
F2
330
EE
100
AcDbEntity
  8
치수문자_일반주서
 62
     0
370
    -2
100
AcDbLine
 10
62.06249999999994
 20
-8.000000000000034
 30
0.0
 11
71.99999999999996
 21
-7.999999999999996
 31
0.0
  0
LINE
  5
F3
330
EE
100
AcDbEntity
  8
치수문자_일반주서
 62
     0
370
    -2
100
AcDbLine
 10
71.99999999999991
 20
4.698000000000011
 30
0.0
 11
71.99999999999994
 21
-4.697999999999997
 31
0.0
  0
SOLID
  5
F4
330
EE
100
AcDbEntity
  8
치수문자_일반주서
 62
     0
100
AcDbTrace
 10
72.55033333333324
 20
4.698000000000013
 30
0.0
 11
71.44966666666659
 21
4.698000000000009
 31
0.0
 12
71.9999999999999
 22
8.00000000000001
 32
0.0
 13
71.9999999999999
 23
8.00000000000001
 33
0.0
  0
SOLID
  5
F5
330
EE
100
AcDbEntity
  8
치수문자_일반주서
 62
     0
100
AcDbTrace
 10
71.44966666666662
 20
-4.697999999999999
 30
0.0
 11
72.55033333333327
 21
-4.697999999999995
 31
0.0
 12
71.99999999999996
 22
-7.999999999999996
 32
0.0
 13
71.99999999999996
 23
-7.999999999999996
 33
0.0
  0
MTEXT
  5
F6
330
EE
100
AcDbEntity
  8
치수문자_일반주서
 62
     0
100
AcDbMText
 10
67.62499999999993
 20
1.055089200153542
 30
0.0
 40
3.5
 41
0.0
 71
     2
 72
     1
  1
\A1;%%c16
  7
SLDTEXTSTYLE0
 11
-3.552713678800499E-15
 21
1.0
 31
0.0
 73
     1
 44
1.0
  0
POINT
  5
F7
330
EE
100
AcDbEntity
  8
Defpoints
 62
     0
100
AcDbPoint
 10
61.99999999999994
 20
7.999999999999973
 30
0.0
  0
POINT
  5
F8
330
EE
100
AcDbEntity
  8
Defpoints
 62
     0
100
AcDbPoint
 10
61.99999999999994
 20
-8.000000000000034
 30
0.0
  0
POINT
  5
F9
330
EE
100
AcDbEntity
  8
Defpoints
 62
     0
100
AcDbPoint
 10
71.99999999999996
 20
-7.999999999999996
 30
0.0
  0
ENDBLK
  5
F0
330
EE
100
AcDbEntity
  8
0
100
AcDbBlockEnd
  0
BLOCK
  5
FD
330
FC
100
AcDbEntity
  8
0
100
AcDbBlockBegin
  2
_D_2
 70
     0
 10
0.0
 20
0.0
 30
0.0
  3
_D_2
  1
_D_2
  0
LINE
  5
FF
330
FC
100
AcDbEntity
  8
치수문자_일반주서
 62
     0
370
    -2
100
AcDbLine
 10
11.99999999999994
 20
7.967615127179371
 30
0.0
 11
11.99999999999994
 21
51.39995574582117
 31
0.0
  0
LINE
  5
100
330
FC
100
AcDbEntity
  8
치수문자_일반주서
 62
     0
370
    -2
100
AcDbLine
 10
61.99999999999994
 20
8.004120407234673
 30
0.0
 11
61.99999999999994
 21
51.39995574582117
 31
0.0
  0
LINE
  5
101
330
FC
100
AcDbEntity
  8
치수문자_일반주서
 62
     0
370
    -2
100
AcDbLine
 10
15.30199999999994
 20
51.39995574582117
 30
0.0
 11
58.69799999999994
 21
51.39995574582117
 31
0.0
  0
SOLID
  5
102
330
FC
100
AcDbEntity
  8
치수문자_일반주서
 62
     0
100
AcDbTrace
 10
15.30199999999994
 20
51.95028907915451
 30
0.0
 11
15.30199999999994
 21
50.84962241248784
 31
0.0
 12
11.99999999999994
 22
51.39995574582117
 32
0.0
 13
11.99999999999994
 23
51.39995574582117
 33
0.0
  0
SOLID
  5
103
330
FC
100
AcDbEntity
  8
치수문자_일반주서
 62
     0
100
AcDbTrace
 10
58.69799999999994
 20
50.84962241248784
 30
0.0
 11
58.69799999999994
 21
51.95028907915451
 31
0.0
 12
61.99999999999994
 22
51.39995574582117
 32
0.0
 13
61.99999999999994
 23
51.39995574582117
 33
0.0
  0
MTEXT
  5
104
330
FC
100
AcDbEntity
  8
치수문자_일반주서
 62
     0
100
AcDbMText
 10
32.46249388206542
 20
55.77495574582117
 30
0.0
 40
3.5
 41
0.0
 71
     2
 72
     1
  1
\A1;50
  7
SLDTEXTSTYLE0
 73
     1
 44
1.0
  0
POINT
  5
13C
330
FC
100
AcDbEntity
  8
Defpoints
 62
     0
100
AcDbPoint
 10
11.99999999999994
 20
7.905115127179371
 30
0.0
  0
POINT
  5
13D
330
FC
100
AcDbEntity
  8
Defpoints
 62
     0
100
AcDbPoint
 10
61.99999999999994
 20
7.941620407234673
 30
0.0
  0
POINT
  5
13E
330
FC
100
AcDbEntity
  8
Defpoints
 62
     0
100
AcDbPoint
 10
61.99999999999994
 20
51.39995574582117
 30
0.0
  0
ENDBLK
  5
FE
330
FC
100
AcDbEntity
  8
0
100
AcDbBlockEnd
  0
BLOCK
  5
107
330
106
100
AcDbEntity
  8
0
100
AcDbBlockBegin
  2
_D_3
 70
     0
 10
0.0
 20
0.0
 30
0.0
  3
_D_3
  1
_D_3
  0
LINE
  5
109
330
106
100
AcDbEntity
  8
치수문자_일반주서
 62
     0
370
    -2
100
AcDbLine
 10
61.99999999999994
 20
8.004120407234673
 30
0.0
 11
61.99999999999994
 21
78.8863030681043
 31
0.0
  0
LINE
  5
10A
330
106
100
AcDbEntity
  8
치수문자_일반주서
 62
     0
370
    -2
100
AcDbLine
 10
-48.00000000000006
 20
6.462499999999977
 30
0.0
 11
-48.00000000000006
 21
78.8863030681043
 31
0.0
  0
LINE
  5
10B
330
106
100
AcDbEntity
  8
치수문자_일반주서
 62
     0
370
    -2
100
AcDbLine
 10
58.69799999999994
 20
78.8863030681043
 30
0.0
 11
-44.69800000000006
 21
78.8863030681043
 31
0.0
  0
SOLID
  5
10C
330
106
100
AcDbEntity
  8
치수문자_일반주서
 62
     0
100
AcDbTrace
 10
58.69799999999994
 20
78.33596973477097
 30
0.0
 11
58.69799999999994
 21
79.43663640143762
 31
0.0
 12
61.99999999999994
 22
78.8863030681043
 32
0.0
 13
61.99999999999994
 23
78.8863030681043
 33
0.0
  0
SOLID
  5
10D
330
106
100
AcDbEntity
  8
치수문자_일반주서
 62
     0
100
AcDbTrace
 10
-44.69800000000006
 20
79.43663640143762
 30
0.0
 11
-44.69800000000006
 21
78.33596973477097
 31
0.0
 12
-48.00000000000006
 22
78.8863030681043
 32
0.0
 13
-48.00000000000006
 23
78.8863030681043
 33
0.0
  0
MTEXT
  5
10E
330
106
100
AcDbEntity
  8
치수문자_일반주서
 62
     0
100
AcDbMText
 10
10.40797951826984
 20
83.2613030681043
 30
0.0
 40
3.5
 41
0.0
 71
     2
 72
     1
  1
\A1;110
  7
SLDTEXTSTYLE0
 73
     1
 44
1.0
  0
POINT
  5
13F
330
106
100
AcDbEntity
  8
Defpoints
 62
     0
100
AcDbPoint
 10
61.99999999999994
 20
7.941620407234673
 30
0.0
  0
POINT
  5
140
330
106
100
AcDbEntity
  8
Defpoints
 62
     0
100
AcDbPoint
 10
-48.00000000000006
 20
6.399999999999977
 30
0.0
  0
POINT
  5
141
330
106
100
AcDbEntity
  8
Defpoints
 62
     0
100
AcDbPoint
 10
-48.00000000000006
 20
78.8863030681043
 30
0.0
  0
ENDBLK
  5
108
330
106
100
AcDbEntity
  8
0
100
AcDbBlockEnd
  0
BLOCK
  5
110
330
10F
100
AcDbEntity
  8
0
100
AcDbBlockBegin
  2
SW_DOWELSYMBOL_0
 70
     0
 10
0.0
 20
0.0
 30
0.0
  3
SW_DOWELSYMBOL_0
  1
SW_DOWELSYMBOL_0
  0
CIRCLE
  5
112
330
10F
100
AcDbEntity
  8
외형선
 62
     0
100
AcDbCircle
 10
0.0
 20
0.0
 30
0.0
 40
3.000000000000008
  0
HATCH
  5
113
330
10F
100
AcDbEntity
  8
0
  6
Continuous
 62
     0
370
    30
100
AcDbHatch
 10
0.0
 20
0.0
 30
0.0
210
0.0
220
0.0
230
1.0
  2
SOLID
 70
     1
 71
     0
 91
        1
 92
        0
 93
        3
 72
     2
 10
0.0
 20
0.0
 40
3.000000000000008
 50
0.0
 51
90.0
 73
     1
 72
     1
 10
0.0
 20
3.000000000000008
 11
0.0
 21
0.0
 72
     1
 10
0.0
 20
0.0
 11
3.000000000000008
 21
0.0
 97
        0
 75
     0
 76
     1
 98
        1
 10
0.0
 20
0.0
  0
HATCH
  5
114
330
10F
100
AcDbEntity
  8
0
  6
Continuous
 62
     0
370
    30
100
AcDbHatch
 10
0.0
 20
0.0
 30
0.0
210
0.0
220
0.0
230
1.0
  2
SOLID
 70
     1
 71
     0
 91
        1
 92
        0
 93
        3
 72
     2
 10
0.0
 20
0.0
 40
3.000000000000008
 50
180.0
 51
270.0000000000008
 73
     1
 72
     1
 10
0.0
 20
-3.000000000000008
 11
0.0
 21
0.0
 72
     1
 10
0.0
 20
0.0
 11
-3.000000000000008
 21
0.0
 97
        0
 75
     0
 76
     1
 98
        1
 10
0.0
 20
0.0
  0
ENDBLK
  5
111
330
10F
100
AcDbEntity
  8
0
100
AcDbBlockEnd
  0
ENDSEC
  0
SECTION
  2
ENTITIES
  0
LINE
  5
95
330
1F
100
AcDbEntity
  8
0
  6
Continuous
 62
     1
370
    15
100
AcDbLine
 10
26.82452958767163
 20
-1.546625435244936
 30
0.0
 11
26.87974624273176
 21
-1.600057896160495
 31
0.0
  0
LINE
  5
96
330
1F
100
AcDbEntity
  8
0
  6
Continuous
 62
     1
370
    15
100
AcDbLine
 10
61.032168145094
 20
-8.000000000000034
 30
0.0
 11
61.99999999999994
 21
-8.000000000000034
 31
0.0
  0
LINE
  5
97
330
1F
100
AcDbEntity
  8
0
  6
Continuous
 62
   131
370
    15
100
AcDbLine
 10
11.99999999999994
 20
-8.000000000000034
 30
0.0
 11
12.70168179738594
 21
-8.000000000000034
 31
0.0
  0
LINE
  5
98
330
1F
100
AcDbEntity
  8
0
  6
Continuous
 62
     1
370
    15
100
AcDbLine
 10
37.83403933683724
 20
7.999999999999973
 30
0.0
 11
35.90031614064196
 21
7.999999999999973
 31
0.0
  0
LINE
  5
99
330
1F
100
AcDbEntity
  8
0
  6
Continuous
 62
     1
370
    15
100
AcDbLine
 10
27.52185276941656
 20
-8.000000000000034
 30
0.0
 11
29.45717422092791
 21
-8.000000000000034
 31
0.0
  0
LINE
  5
9A
330
1F
100
AcDbEntity
  8
0
  6
Continuous
 62
     1
370
    15
100
AcDbLine
 10
54.58908828022003
 20
7.999999999999973
 30
0.0
 11
52.65548831990394
 21
7.999999999999973
 31
0.0
  0
LINE
  5
9B
330
1F
100
AcDbEntity
  8
0
  6
Continuous
 62
     1
370
    15
100
AcDbLine
 10
19.14475959339944
 20
-8.000000000000034
 30
0.0
 11
21.07989414781449
 21
-8.000000000000034
 31
0.0
  0
LINE
  5
9C
330
1F
100
AcDbEntity
  8
0
  6
Continuous
 62
     1
370
    15
100
AcDbLine
 10
46.21154471974918
 20
7.999999999999973
 30
0.0
 11
44.27835703169524
 21
7.999999999999973
 31
0.0
  0
LINE
  5
9D
330
1F
100
AcDbEntity
  8
0
  6
Continuous
 62
     1
370
    15
100
AcDbLine
 10
35.90031614064197
 20
-8.000000000000034
 30
0.0
 11
37.83403933683718
 21
-8.000000000000034
 31
0.0
  0
LINE
  5
9E
330
1F
100
AcDbEntity
  8
0
  6
Continuous
 62
   131
370
    15
100
AcDbLine
 10
12.70168179738589
 20
7.999999999999973
 30
0.0
 11
11.99999999999994
 21
7.999999999999973
 31
0.0
  0
LINE
  5
9F
330
1F
100
AcDbEntity
  8
0
  6
Continuous
 62
     1
370
    15
100
AcDbLine
 10
61.99999999999994
 20
7.999999999999973
 30
0.0
 11
61.03216814509402
 21
7.999999999999973
 31
0.0
  0
LINE
  5
A0
330
1F
100
AcDbEntity
  8
0
  6
Continuous
 62
     1
370
    15
100
AcDbLine
 10
52.6554883199039
 20
-8.000000000000034
 30
0.0
 11
54.58908828022003
 21
-8.000000000000034
 31
0.0
  0
LINE
  5
A1
330
1F
100
AcDbEntity
  8
0
  6
Continuous
 62
     1
370
    15
100
AcDbLine
 10
29.45717422092791
 20
7.999999999999973
 30
0.0
 11
27.5218527694165
 21
7.999999999999973
 31
0.0
  0
LINE
  5
A2
330
1F
100
AcDbEntity
  8
0
  6
Continuous
 62
     1
370
    15
100
AcDbLine
 10
44.27835703169517
 20
-8.000000000000034
 30
0.0
 11
46.21154471974916
 21
-8.000000000000034
 31
0.0
  0
LINE
  5
A3
330
1F
100
AcDbEntity
  8
0
  6
Continuous
 62
     1
370
    15
100
AcDbLine
 10
21.07989414781443
 20
7.999999999999973
 30
0.0
 11
19.14475959339939
 21
7.999999999999973
 31
0.0
  0
LINE
  5
A4
330
1F
100
AcDbEntity
  8
0
  6
Continuous
 62
   131
370
    15
100
AcDbLine
 10
-46.40000000000006
 20
-8.00000000000003
 30
0.0
 11
11.99999999999994
 21
-8.00000000000003
 31
0.0
  0
LINE
  5
A5
330
1F
100
AcDbEntity
  8
0
  6
Continuous
 62
   131
370
    15
100
AcDbLine
 10
11.99999999999994
 20
7.99999999999997
 30
0.0
 11
-46.40000000000006
 21
7.99999999999997
 31
0.0
  0
LINE
  5
A6
330
1F
100
AcDbEntity
  8
0
  6
Continuous
 62
   131
370
    15
100
AcDbLine
 10
-46.40000000000006
 20
7.999999999999973
 30
0.0
 11
-48.00000000000006
 21
6.399999999999977
 31
0.0
  0
LINE
  5
A7
330
1F
100
AcDbEntity
  8
0
  6
Continuous
 62
   131
370
    15
100
AcDbLine
 10
-48.00000000000006
 20
-6.400000000000039
 30
0.0
 11
-46.40000000000006
 21
-8.000000000000034
 31
0.0
  0
SPLINE
  5
A8
330
1F
100
AcDbEntity
  8
0
  6
Continuous
 62
     1
370
    15
100
AcDbSpline
210
0.0
220
0.0
230
1.0
 70
     8
 71
     3
 72
    31
 73
    27
 74
     0
 42
0.000000001
 43
0.00000001
 40
0.0
 40
0.0
 40
0.0
 40
0.0
 40
0.0042539802715865
 40
0.0492058296071209
 40
0.0941320706543268
 40
0.1391586254863115
 40
0.1841042044268984
 40
0.2290341177681091
 40
0.2740625837196151
 40
0.3190025173225594
 40
0.3639367297509215
 40
0.4089658936627669
 40
0.4539008076107611
 40
0.4988399454429301
 40
0.5438685940574666
 40
0.588799114589423
 40
0.6337438035962624
 40
0.6787707237285371
 40
0.7236974775702995
 40
0.7686483429076887
 40
0.8136723216165915
 40
0.8585959359115505
 40
0.9035536020513153
 40
0.9485734268106516
 40
0.9934945290502848
 40
1.0
 40
1.0
 40
1.0
 40
1.0
 10
21.07989414781442
 20
7.991309966984605
 30
0.0
 10
21.12012661061139
 20
7.994151769955973
 30
0.0
 10
21.58549588425038
 20
8.027022931517347
 30
0.0
 10
22.47481094698438
 20
7.8988720964814
 30
0.0
 10
23.74868308372742
 20
7.593720414186915
 30
0.0
 10
25.02537075237359
 20
7.075939449174312
 30
0.0
 10
26.2997697062032
 20
6.38362607883189
 30
0.0
 10
27.57372129698085
 20
5.527362582105647
 30
0.0
 10
28.85046939190553
 20
4.533606682659949
 30
0.0
 10
30.1247060249906
 20
3.422841766790133
 30
0.0
 10
31.39878011756543
 20
2.225008943084029
 30
0.0
 10
32.67554774092044
 20
0.9734831599875875
 30
0.0
 10
33.94964175124204
 20
-0.3054128401412323
 30
0.0
 10
35.22385579453346
 20
-1.576423489428386
 30
0.0
 10
36.50060890813972
 20
-2.80497375971007
 30
0.0
 10
37.77457819072022
 20
-3.965168831066218
 30
0.0
 10
39.04895008420476
 20
-5.024279356240426
 30
0.0
 10
40.32565455938383
 20
-5.954339358664557
 30
0.0
 10
41.59951692445805
 20
-6.735563493969675
 30
0.0
 10
42.87406508278986
 20
-7.345233589305638
 30
0.0
 10
44.15068471704431
 20
-7.768471731670033
 30
0.0
 10
45.42446575681112
 20
-7.994373563510372
 30
0.0
 10
46.69917959640058
 20
-8.02187489475168
 30
0.0
 10
47.97578637675676
 20
-7.828870601962924
 30
0.0
 10
48.88610411027656
 20
-7.595490475211513
 30
0.0
 10
49.37217510525912
 20
-7.376190221303778
 30
0.0
 10
49.43366317536086
 20
-7.348448698923722
 30
0.0
  0
SPLINE
  5
A9
330
1F
100
AcDbEntity
  8
0
  6
Continuous
 62
     1
370
    15
100
AcDbSpline
210
0.0
220
0.0
230
1.0
 70
     8
 71
     3
 72
    30
 73
    26
 74
     0
 42
0.000000001
 43
0.00000001
 40
0.0
 40
0.0
 40
0.0
 40
0.0
 40
0.0301466400648285
 40
0.0751606478166962
 40
0.1201252878548451
 40
0.1650459399124858
 40
0.2100653135004695
 40
0.2550225290918125
 40
0.2999456931796037
 40
0.3449692206755244
 40
0.3899196355326474
 40
0.4348459391357778
 40
0.4798724080255933
 40
0.5248166466140626
 40
0.56974671686964
 40
0.6147749142243947
 40
0.6597136016938249
 40
0.7046480653214104
 40
0.7496767779683103
 40
0.7946105400832951
 40
0.8395500233155241
 40
0.8845780380090805
 40
0.929507501079996
 40
0.9744526295932938
 40
1.0
 40
1.0
 40
1.0
 40
1.0
 10
52.6554883199039
 20
-7.977614734821548
 30
0.0
 10
52.37078073858326
 20
-7.977639738732321
 30
0.0
 10
51.66095681776274
 20
-7.977702077690417
 30
0.0
 10
50.52435788141912
 20
-7.74592498553425
 30
0.0
 10
49.24940962880811
 20
-7.318467184249487
 30
0.0
 10
47.97570554405234
 20
-6.69681687745388
 30
0.0
 10
46.69920124267178
 20
-5.909156649283272
 30
0.0
 10
45.42445996539329
 20
-4.970168001225115
 30
0.0
 10
44.1506862722975
 20
-3.904303007638779
 30
0.0
 10
42.87406466641619
 20
-2.742054191936505
 30
0.0
 10
41.59951703587569
 20
-1.508424467924534
 30
0.0
 10
40.32565452945402
 20
-0.2357618311669113
 30
0.0
 10
39.04895009223961
 20
1.039940674898472
 30
0.0
 10
37.77457818848083
 20
2.291681592499663
 30
0.0
 10
36.50060890907351
 20
3.485628884494381
 30
0.0
 10
35.22385579304063
 20
4.588720722580915
 30
0.0
 10
33.94964175626782
 20
5.577767638440957
 30
0.0
 10
32.6755477222911
 20
6.425244033830868
 30
0.0
 10
31.39878018715328
 20
7.108334302922572
 30
0.0
 10
30.12470576590901
 20
7.612884417380982
 30
0.0
 10
28.85047035981371
 20
7.923386797363364
 30
0.0
 10
27.57371768012398
 20
8.035206210431296
 30
0.0
 10
26.29978317271411
 20
7.934824529744251
 30
0.0
 10
25.20934409337565
 20
7.704397897494088
 30
0.0
 10
24.54254467384033
 20
7.43475882671502
 30
0.0
 10
24.30088815692245
 20
7.337038227745616
 30
0.0
  0
LINE
  5
AA
330
1F
100
AcDbEntity
  8
0
  6
Continuous
 62
     1
370
    15
100
AcDbLine
 10
61.99999999999994
 20
-3.135346870762424
 30
0.0
 11
61.99999999999994
 21
3.135346870762513
 31
0.0
  0
SPLINE
  5
AB
330
1F
100
AcDbEntity
  8
0
  6
Continuous
 62
     1
370
    15
100
AcDbSpline
210
0.0
220
0.0
230
1.0
 70
     8
 71
     3
 72
    17
 73
    13
 74
     0
 42
0.000000001
 43
0.00000001
 40
0.0
 40
0.0
 40
0.0
 40
0.0
 40
0.1093413246211981
 40
0.2184854090014763
 40
0.3276058034852732
 40
0.4369322322460019
 40
0.5405700444937912
 40
0.6441259120270899
 40
0.7479128385632432
 40
0.8515347571816699
 40
0.9550976441916451
 40
1.0
 40
1.0
 40
1.0
 40
1.0
 10
11.99999999999994
 20
-3.378554500475806
 30
0.0
 10
12.44871115990015
 20
-3.775415770264746
 30
0.0
 10
13.34532405199711
 20
-4.568422413883473
 30
0.0
 10
14.68802398577819
 20
-5.604980376342361
 30
0.0
 10
16.03025988087168
 20
-6.490719833975882
 30
0.0
 10
17.35234709240082
 20
-7.1789026124946
 30
0.0
 10
18.64989070307573
 20
-7.666346552771698
 30
0.0
 10
19.92364809597351
 20
-7.950047911087848
 30
0.0
 10
21.20025023171635
 20
-8.034841562440892
 30
0.0
 10
22.47484649772154
 20
-7.905290789534536
 30
0.0
 10
23.50739534240137
 20
-7.670514530286589
 30
0.0
 10
24.11662927931299
 20
-7.414475563145672
 30
0.0
 10
24.30088815692251
 20
-7.337038227745674
 30
0.0
  0
SPLINE
  5
AC
330
1F
100
AcDbEntity
  8
0
  6
Continuous
 62
     1
370
    15
100
AcDbSpline
210
0.0
220
0.0
230
1.0
 70
     8
 71
     3
 72
    20
 73
    16
 74
     0
 42
0.000000001
 43
0.00000001
 40
0.0
 40
0.0
 40
0.0
 40
0.0
 40
0.0308723402432421
 40
0.1117241044192549
 40
0.1923985713728868
 40
0.2731520377781607
 40
0.3539941652737458
 40
0.4346652482117494
 40
0.5154331670936393
 40
0.596263482726271
 40
0.6769323094453272
 40
0.7577157978747456
 40
0.8385321281271128
 40
0.9191998266741354
 40
1.0
 40
1.0
 40
1.0
 40
1.0
 10
46.21154471974918
 20
7.976024918806583
 30
0.0
 10
46.37397533760734
 20
7.982184617874026
 30
0.0
 10
46.9617965124028
 20
8.00447599119979
 30
0.0
 10
47.9757632155883
 20
7.831758496916686
 30
0.0
 10
49.24939333113715
 20
7.46365147098216
 30
0.0
 10
50.52436540616316
 20
6.893557533142213
 30
0.0
 10
51.80071365168767
 20
6.153226672315249
 30
0.0
 10
53.07436523508166
 20
5.254160771875627
 30
0.0
 10
54.3495465342014
 20
4.223215234383188
 30
0.0
 10
55.62571486079379
 20
3.086159374314975
 30
0.0
 10
56.89933032214543
 20
1.868491349487688
 30
0.0
 10
58.17475883412298
 20
0.604877135048984
 30
0.0
 10
59.45070773490481
 20
-0.6719887377368732
 30
0.0
 10
60.72430646196528
 20
-1.939994859546386
 30
0.0
 10
61.57453629966209
 20
-2.736678323235074
 30
0.0
 10
61.99999999999997
 20
-3.135346870762424
 30
0.0
  0
SPLINE
  5
AD
330
1F
100
AcDbEntity
  8
0
  6
Continuous
 62
   131
370
    15
100
AcDbSpline
210
0.0
220
0.0
230
1.0
 70
    24
 71
     3
 72
    24
 73
    20
 74
     0
 42
0.000000001
 43
0.00000001
 40
0.0
 40
0.0
 40
0.0
 40
0.0
 40
0.1250000000000003
 40
0.1250000000000003
 40
0.1875000000000003
 40
0.1875000000000003
 40
0.2500000000000003
 40
0.2500000000000003
 40
0.3750000000000002
 40
0.3750000000000002
 40
0.5000000000000002
 40
0.5000000000000002
 40
0.625
 40
0.625
 40
0.75
 40
0.75
 40
0.875
 40
0.875
 40
1.0
 40
1.0
 40
1.0
 40
1.0
 10
11.99999999999995
 20
2.888665595611033
 30
0.0
 10
11.99999999999996
 20
2.837868482825423
 30
0.0
 10
11.99999999999993
 20
2.750546780231425
 30
0.0
 10
11.99999999999992
 20
2.598627244532942
 30
0.0
 10
11.99999999999992
 20
2.546518118385199
 30
0.0
 10
11.99999999999993
 20
2.423348204012644
 30
0.0
 10
11.99999999999994
 20
2.352582038438251
 30
0.0
 10
11.99999999999995
 20
2.107097855567913
 30
0.0
 10
11.99999999999993
 20
1.898620243359936
 30
0.0
 10
11.99999999999993
 20
1.367606733182235
 30
0.0
 10
11.99999999999991
 20
1.043708483432811
 30
0.0
 10
11.99999999999993
 20
0.2908486004982377
 30
0.0
 10
11.99999999999996
 20
-0.1386826614785098
 30
0.0
 10
11.99999999999995
 20
-1.021911254055089
 30
0.0
 10
11.99999999999996
 20
-1.47298013823621
 30
0.0
 10
11.99999999999997
 20
-2.270707927676762
 30
0.0
 10
11.99999999999994
 20
-2.614318037593429
 30
0.0
 10
11.99999999999995
 20
-3.123244955993068
 30
0.0
 10
11.99999999999994
 20
-3.289379175118783
 30
0.0
 10
11.99999999999994
 20
-3.378554500475781
 30
0.0
  0
SPLINE
  5
AE
330
1F
100
AcDbEntity
  8
0
  6
Continuous
 62
     1
370
    15
100
AcDbSpline
210
0.0
220
0.0
230
1.0
 70
     8
 71
     3
 72
    17
 73
    13
 74
     0
 42
0.000000001
 43
0.00000001
 40
0.0
 40
0.0
 40
0.0
 40
0.0
 40
0.101518193207586
 40
0.2028699437005095
 40
0.3044084366416095
 40
0.4059056667686548
 40
0.5072588347088663
 40
0.6088148990297954
 40
0.7102925674124905
 40
0.8116485700900729
 40
0.9132194749606706
 40
1.0
 40
1.0
 40
1.0
 40
1.0
 10
61.99999999999994
 20
3.135346870762513
 30
0.0
 10
61.5745362989465
 20
3.518676347860464
 30
0.0
 10
60.7243064598198
 20
4.284706819645848
 30
0.0
 10
59.45070774347687
 20
5.305996076717165
 30
0.0
 10
58.17475880191549
 20
6.196521999862991
 30
0.0
 10
56.89933044225334
 20
6.929038443041886
 30
0.0
 10
55.62571441285917
 20
7.487190124392081
 30
0.0
 10
54.34954820917902
 20
7.854043586514738
 30
0.0
 10
53.0743589929097
 20
8.023748458471687
 30
0.0
 10
51.80073693803827
 20
7.984798719537833
 30
0.0
 10
50.58583533897597
 20
7.773319277332407
 30
0.0
 10
49.79707463482826
 20
7.482458911859027
 30
0.0
 10
49.43366317536091
 20
7.348448698923656
 30
0.0
  0
SPLINE
  5
AF
330
1F
100
AcDbEntity
  8
0
  6
Continuous
 62
     1
370
    15
100
AcDbSpline
210
0.0
220
0.0
230
1.0
 70
     8
 71
     3
 72
    19
 73
    15
 74
     0
 42
0.000000001
 43
0.00000001
 40
0.0
 40
0.0
 40
0.0
 40
0.0
 40
0.0787627607875231
 40
0.1608678076949826
 40
0.2431207785922623
 40
0.3251904996972608
 40
0.4073070011478233
 40
0.4895542652120891
 40
0.5716184236439159
 40
0.6537475202023099
 40
0.7403846329445785
 40
0.8268584712153247
 40
0.9133510828444948
 40
1.0
 40
1.0
 40
1.0
 40
1.0
 10
27.52185276941656
 20
-7.996074176846664
 30
0.0
 10
27.11449959120223
 20
-7.979661696174881
 30
0.0
 10
26.28250726282636
 20
-7.946140273638301
 30
0.0
 10
25.025406527016
 20
-7.642494280659779
 30
0.0
 10
23.74866879082702
 20
-7.158016687166578
 30
0.0
 10
22.47483235794848
 20
-6.48657779893885
 30
0.0
 10
21.20025402832776
 20
-5.652008594989011
 30
0.0
 10
19.92364708066963
 20
-4.675562014237359
 30
0.0
 10
18.64989097462547
 20
-3.578280341779627
 30
0.0
 10
17.35234701515175
 20
-2.370095882092841
 30
0.0
 10
16.03025990198417
 20
-1.077272900296413
 30
0.0
 10
14.6880239801518
 20
0.2687200212723176
 30
0.0
 10
13.34532405340705
 20
1.61265607878181
 30
0.0
 10
12.44871116037061
 20
2.463073182027975
 30
0.0
 10
12.00000000000024
 20
2.888665595610289
 30
0.0
  0
LINE
  5
B0
330
1F
100
AcDbEntity
  8
0
  6
Continuous
 62
     1
370
    15
100
AcDbLine
 10
61.99999999999994
 20
4.781860980288533
 30
0.0
 11
61.99999999999994
 21
7.941620407234673
 31
0.0
  0
SPLINE
  5
B1
330
1F
100
AcDbEntity
  8
0
  6
Continuous
 62
     1
370
    15
100
AcDbSpline
210
0.0
220
0.0
230
1.0
 70
     8
 71
     3
 72
    24
 73
    20
 74
     0
 42
0.000000001
 43
0.00000001
 40
0.0
 40
0.0
 40
0.0
 40
0.0
 40
0.0650407978646106
 40
0.1299642689757289
 40
0.1948736483445545
 40
0.2599055855276881
 40
0.3215536954339052
 40
0.3831530611930241
 40
0.4448898705211827
 40
0.5065285262312091
 40
0.5681320674689515
 40
0.6298731604856386
 40
0.6915032181352725
 40
0.7531117948780981
 40
0.8148555084507786
 40
0.8764778251280507
 40
0.9380922968442026
 40
0.9998369674706571
 40
0.9999999999999999
 40
0.9999999999999999
 40
0.9999999999999999
 40
0.9999999999999999
 10
11.99999999999994
 20
4.590772679140446
 30
0.0
 10
12.44871116045189
 20
4.211425769279952
 30
0.0
 10
13.34532405365131
 20
3.453416251456274
 30
0.0
 10
14.68802397917595
 20
2.183586692891135
 30
0.0
 10
16.03025990564534
 20
0.8612098753851357
 30
0.0
 10
17.35234700175555
 20
-0.4628851125343449
 30
0.0
 10
18.64989102171637
 20
-1.752045610156131
 30
0.0
 10
19.92364690460031
 20
-2.975427554227575
 30
0.0
 10
21.20025468671869
 20
-4.120611083699979
 30
0.0
 10
22.474829905894
 20
-5.163298599105296
 30
0.0
 10
23.74867794528927
 20
-6.07543891724794
 30
0.0
 10
25.02537230243066
 20
-6.831787446622005
 30
0.0
 10
26.29976864113991
 20
-7.416317974531866
 30
0.0
 10
27.57372401103425
 20
-7.813099507759532
 30
0.0
 10
28.85045958620227
 20
-8.009713501295437
 30
0.0
 10
30.12474244516644
 20
-8.009775244493
 30
0.0
 10
31.39864410959881
 20
-7.783857330480345
 30
0.0
 10
32.25167325095672
 20
-7.557998180418062
 30
0.0
 10
32.67823199117014
 20
-7.360274715698722
 30
0.0
 10
32.67935532391846
 20
-7.359754015447855
 30
0.0
  0
SPLINE
  5
B2
330
1F
100
AcDbEntity
  8
0
  6
Continuous
 62
     1
370
    15
100
AcDbSpline
210
0.0
220
0.0
230
1.0
 70
     8
 71
     3
 72
    13
 73
     9
 74
     0
 42
0.000000001
 43
0.00000001
 40
0.0
 40
0.0
 40
0.0
 40
0.0
 40
0.1398720290250381
 40
0.3117304348866757
 40
0.4838331182413386
 40
0.656005768441524
 40
0.8278617708239604
 40
0.9999999999999999
 40
0.9999999999999999
 40
0.9999999999999999
 40
0.9999999999999999
 10
54.58908828022003
 20
7.98450944885267
 30
0.0
 10
54.93486403059537
 20
7.977844127570339
 30
0.0
 10
55.7054886207232
 20
7.962989238308468
 30
0.0
 10
56.89933044160887
 20
7.697240023669073
 30
0.0
 10
58.17475880208828
 20
7.241750377073785
 30
0.0
 10
59.45070774343093
 20
6.594961423638329
 30
0.0
 10
60.72430645983128
 20
5.789777937206111
 30
0.0
 10
61.57453629895036
 20
5.134287600319775
 30
0.0
 10
61.99999999999997
 20
4.806273536472199
 30
0.0
  0
SPLINE
  5
B3
330
1F
100
AcDbEntity
  8
0
  6
Continuous
 62
   131
370
    15
100
AcDbSpline
210
0.0
220
0.0
230
1.0
 70
    24
 71
     3
 72
    13
 73
     9
 74
     0
 42
0.000000001
 43
0.00000001
 40
0.0
 40
0.0
 40
0.0
 40
0.0
 40
0.2516898943121021
 40
0.4053221684736338
 40
0.5634097889934899
 40
0.717042063154949
 40
0.8751296836748812
 40
1.0
 40
1.0
 40
1.0
 40
1.0
 10
11.99999999999996
 20
7.905115127181872
 30
0.0
 10
11.99999999999996
 20
7.624251221593468
 30
0.0
 10
11.99999999999993
 20
7.171947136957073
 30
0.0
 10
12.00000000000002
 20
6.517111385989462
 30
0.0
 10
11.99999999999989
 20
5.985733260524363
 30
0.0
 10
12.00000000000002
 20
5.473538936492716
 30
0.0
 10
11.99999999999992
 20
5.026379735317878
 30
0.0
 10
11.99999999999994
 20
4.777774643546058
 30
0.0
 10
11.99999999999994
 20
4.668064356583576
 30
0.0
  0
SPLINE
  5
B4
330
1F
100
AcDbEntity
  8
0
  6
Continuous
 62
     1
370
    15
100
AcDbSpline
210
0.0
220
0.0
230
1.0
 70
     8
 71
     3
 72
    11
 73
     7
 74
     0
 42
0.000000001
 43
0.00000001
 40
0.0
 40
0.0
 40
0.0
 40
0.0
 40
0.3045028491094748
 40
0.6085064548889916
 40
0.9130701928548957
 40
1.0
 40
1.0
 40
1.0
 40
1.0
 10
61.99999999999994
 20
7.941620407234673
 30
0.0
 10
61.57453205464259
 20
7.97417591949919
 30
0.0
 10
60.7242937338667
 20
8.039233568099563
 30
0.0
 10
59.45075858893464
 20
7.8658479443804
 30
0.0
 10
58.47860089575478
 20
7.633103252184393
 30
0.0
 10
57.93183669564711
 20
7.394026129167653
 30
0.0
 10
57.81042956885599
 20
7.340939868982298
 30
0.0
  0
SPLINE
  5
B5
330
1F
100
AcDbEntity
  8
0
  6
Continuous
 62
     1
370
    15
100
AcDbSpline
210
0.0
220
0.0
230
1.0
 70
     8
 71
     3
 72
    26
 73
    22
 74
     0
 42
0.000000001
 43
0.00000001
 40
0.0
 40
0.0
 40
0.0
 40
0.0
 40
0.0283024284509671
 40
0.081617895717673
 40
0.1349283517988218
 40
0.1883506253536693
 40
0.2416602491570146
 40
0.2949766605203962
 40
0.3483981060201596
 40
0.4017026294176794
 40
0.4550257383687074
 40
0.508444916530128
 40
0.5617450831446692
 40
0.6150756312467954
 40
0.6684911031064719
 40
0.7217876570438543
 40
0.7751263850366502
 40
0.8313928433843983
 40
0.8875532631539855
 40
0.9437258752780541
 40
1.0
 40
1.0
 40
1.0
 40
1.0
 10
35.90031614064196
 20
-7.97466826072459
 30
0.0
 10
35.67465263343986
 20
-7.978979504256849
 30
0.0
 10
35.0238893736718
 20
-7.991412169730735
 30
0.0
 10
33.94963520018915
 20
-7.790088793470172
 30
0.0
 10
32.67554950088923
 20
-7.391043997721248
 30
0.0
 10
31.39877964492898
 20
-6.795834642536962
 30
0.0
 10
30.12470615803835
 20
-6.029774799311477
 30
0.0
 10
28.85046933185896
 20
-5.109950018750036
 30
0.0
 10
27.57372140392889
 20
-4.062933953977526
 30
0.0
 10
26.29976933929737
 20
-2.910483534258857
 30
0.0
 10
25.02537211494345
 20
-1.684568617282802
 30
0.0
 10
23.74867799543873
 20
-0.4183012585580096
 30
0.0
 10
22.47482989246125
 20
0.8614942630479954
 30
0.0
 10
21.20025469032545
 20
2.118642911475086
 30
0.0
 10
19.92364690363574
 20
3.320146563689676
 30
0.0
 10
18.64989102197435
 20
4.440301045724388
 30
0.0
 10
17.35234700168219
 20
5.464417468847351
 30
0.0
 10
16.03025990566547
 20
6.35994833138424
 30
0.0
 10
14.68802397917074
 20
7.089120574703456
 30
0.0
 10
13.34532405365284
 20
7.63441182268244
 30
0.0
 10
12.44871116045261
 20
7.814826401894612
 30
0.0
 10
12.00000000000024
 20
7.905115127179243
 30
0.0
  0
SPLINE
  5
B6
330
1F
100
AcDbEntity
  8
0
  6
Continuous
 62
     1
370
    15
100
AcDbSpline
210
0.0
220
0.0
230
1.0
 70
     8
 71
     3
 72
    30
 73
    26
 74
     0
 42
0.000000001
 43
0.00000001
 40
0.0
 40
0.0
 40
0.0
 40
0.0
 40
0.0227030816522121
 40
0.0700508211072446
 40
0.1173882836603935
 40
0.1648151258379022
 40
0.2097741921937197
 40
0.2546977101548309
 40
0.2997214637038626
 40
0.3446736352524505
 40
0.3896001983291507
 40
0.4346270759096748
 40
0.4795729770183692
 40
0.524503212415397
 40
0.5695320011291414
 40
0.6144722568597275
 40
0.6594067913747225
 40
0.704436278053809
 40
0.7493715140934645
 40
0.7943109740475714
 40
0.8393399454256555
 40
0.8842707880177815
 40
0.9292157991863494
 40
0.9742430420697821
 40
1.0
 40
1.0
 40
1.0
 40
1.0
 10
12.70168179738588
 20
7.971837372902209
 30
0.0
 10
12.91643381172541
 20
7.977664950695964
 30
0.0
 10
13.57905552843197
 20
7.995646060739627
 30
0.0
 10
14.68799425295478
 20
7.78362413345519
 30
0.0
 10
16.03026790099123
 20
7.353249717225005
 30
0.0
 10
17.3523449814151
 20
6.715718711538669
 30
0.0
 10
18.64989155052692
 20
5.914257653827413
 30
0.0
 10
19.92364676169548
 20
4.975087385464326
 30
0.0
 10
21.20025472833863
 20
3.912402097699537
 30
0.0
 10
22.47482988224733
 20
2.748823510126129
 30
0.0
 10
23.74867799834007
 20
1.514718152394517
 30
0.0
 10
25.02537211357527
 20
0.2451238564938851
 30
0.0
 10
26.29976934186586
 20
-1.033019237612344
 30
0.0
 10
27.57372139501546
 20
-2.28539788813218
 30
0.0
 10
28.8504693649962
 20
-3.477136599611543
 30
0.0
 10
30.12470603470318
 20
-4.583162483811209
 30
0.0
 10
31.39878010558295
 20
-5.572916353122801
 30
0.0
 10
32.67554777917392
 20
-6.419574672123543
 30
0.0
 10
33.94964161055528
 20
-7.105286595679489
 30
0.0
 10
35.22385631964715
 20
-7.610630535785758
 30
0.0
 10
36.50060694597467
 20
-7.921838628012264
 30
0.0
 10
37.77458549631367
 20
-8.035207221661615
 30
0.0
 10
39.04892278685007
 20
-7.935859695679284
 30
0.0
 10
40.14430973054093
 20
-7.706246062027036
 30
0.0
 10
40.81283842808691
 20
-7.435636358501398
 30
0.0
 10
41.05610267829957
 20
-7.337166888349881
 30
0.0
  0
SPLINE
  5
B7
330
1F
100
AcDbEntity
  8
0
  6
Continuous
 62
     1
370
    15
100
AcDbSpline
210
0.0
220
0.0
230
1.0
 70
     8
 71
     3
 72
    31
 73
    27
 74
     0
 42
0.000000001
 43
0.00000001
 40
0.0
 40
0.0
 40
0.0
 40
0.0
 40
0.004488367767549
 40
0.04951057334186
 40
0.0944596684240105
 40
0.1393846529600914
 40
0.1844097998419359
 40
0.2293527188367721
 40
0.2742814699147085
 40
0.3193083452107432
 40
0.364245713249525
 40
0.4091788575704771
 40
0.4542062481435277
 40
0.499138690972476
 40
0.5440768547506923
 40
0.589103547390892
 40
0.6340316913019939
 40
0.6789755001955299
 40
0.7240002817914717
 40
0.7689247535531915
 40
0.8138748325947339
 40
0.858896490304605
 40
0.9038179170924849
 40
0.9487748906203067
 40
0.9961995250957604
 40
1.0
 40
1.0
 40
1.0
 40
1.0
 10
44.27835703169517
 20
-7.990885504567931
 30
0.0
 10
44.23595736306424
 20
-7.993859965680478
 30
0.0
 10
43.76825239499099
 20
-8.026670840967952
 30
0.0
 10
42.87396689936856
 20
-7.897679545054412
 30
0.0
 10
41.59954319701939
 20
-7.591621260345347
 30
0.0
 10
40.32564750336562
 20
-7.071525035336649
 30
0.0
 10
39.04895197280168
 20
-6.379315792230861
 30
0.0
 10
37.77457768527749
 20
-5.5226635860434
 30
0.0
 10
36.50060904388364
 20
-4.525831912607511
 30
0.0
 10
35.22385575824246
 20
-3.416637768315048
 30
0.0
 10
33.94964176082808
 20
-2.218618693450389
 30
0.0
 10
32.67554773882486
 20
-0.9641155343454911
 30
0.0
 10
31.39878011633497
 20
0.312075087061557
 30
0.0
 10
30.12470603198653
 20
1.583126133229191
 30
0.0
 10
28.85046936512033
 20
2.813795321542496
 30
0.0
 10
27.57372139724557
 20
3.970819534541814
 30
0.0
 10
26.29976933284454
 20
5.029779951485299
 30
0.0
 10
25.02537214747717
 20
5.960610958896652
 30
0.0
 10
23.74867787163108
 20
6.739013217861851
 30
0.0
 10
22.47483035405773
 20
7.348200383537055
 30
0.0
 10
21.20025296508776
 20
7.770840437722494
 30
0.0
 10
19.92365334760896
 20
7.99482345945211
 30
0.0
 10
18.64986702559603
 20
8.021925263685736
 30
0.0
 10
17.35243872230566
 20
7.821719061671127
 30
0.0
 10
16.44199155586736
 20
7.591887611993023
 30
0.0
 10
15.95800317089881
 20
7.368901742000544
 30
0.0
 10
15.92209527859187
 20
7.352358054477595
 30
0.0
  0
LINE
  5
B8
330
1F
100
AcDbEntity
  8
0
  6
Continuous
 62
     1
370
    15
100
AcDbLine
 10
61.99999999999994
 20
-7.94162040723473
 30
0.0
 11
61.99999999999994
 21
-4.780813343382999
 31
0.0
  0
SPLINE
  5
B9
330
1F
100
AcDbEntity
  8
0
  6
Continuous
 62
     1
370
    15
100
AcDbSpline
210
0.0
220
0.0
230
1.0
 70
     8
 71
     3
 72
    10
 73
     6
 74
     0
 42
0.000000001
 43
0.00000001
 40
0.0
 40
0.0
 40
0.0
 40
0.0
 40
0.3429297278614515
 40
0.6852408465888369
 40
0.9999999999999999
 40
0.9999999999999999
 40
0.9999999999999999
 40
0.9999999999999999
 10
11.99999999999994
 20
-7.969327179616366
 30
0.0
 10
12.44872041461068
 20
-7.985900681891435
 30
0.0
 10
13.34535179943418
 20
-8.019017789587904
 30
0.0
 10
14.65200933992336
 20
-7.805687626566593
 30
0.0
 10
15.51073587301659
 20
-7.499183853919002
 30
0.0
 10
15.92209527859191
 20
-7.352358054477659
 30
0.0
  0
SPLINE
  5
BA
330
1F
100
AcDbEntity
  8
0
  6
Continuous
 62
     1
370
    15
100
AcDbSpline
210
0.0
220
0.0
230
1.0
 70
     8
 71
     3
 72
    26
 73
    22
 74
     0
 42
0.000000001
 43
0.00000001
 40
0.0
 40
0.0
 40
0.0
 40
0.0
 40
0.0502706157615448
 40
0.1031015261597748
 40
0.155814909614047
 40
0.2085565835279219
 40
0.2613840427002154
 40
0.3140937424666989
 40
0.3668433958866088
 40
0.4196659811537652
 40
0.4723727334797075
 40
0.5251310982263921
 40
0.577947387596622
 40
0.6306519290560991
 40
0.6834197359860948
 40
0.736228308355411
 40
0.788931375767674
 40
0.8417093546928053
 40
0.8945087900451489
 40
0.9472111203929332
 40
1.0
 40
1.0
 40
1.0
 40
1.0
 10
37.83403933683724
 20
7.995485296802082
 30
0.0
 10
38.23875377243296
 20
7.979497318809731
 30
0.0
 10
39.06879484785437
 20
7.94670709123346
 30
0.0
 10
40.32566238461443
 20
7.645337815969768
 30
0.0
 10
41.59951493160804
 20
7.160995834249308
 30
0.0
 10
42.87406523260843
 20
6.490741024232602
 30
0.0
 10
44.15068611650878
 20
5.658620095908114
 30
0.0
 10
45.42446002334125
 20
4.680720310462821
 30
0.0
 10
46.69920116651848
 20
3.584883842228389
 30
0.0
 10
47.97570579075186
 20
2.399904842854568
 30
0.0
 10
49.24940872006973
 20
1.151329330567164
 30
0.0
 10
50.52436127568434
 20
-0.1251564535394101
 30
0.0
 10
51.80071475630579
 20
-1.397048965155781
 30
0.0
 10
53.07436493897617
 20
-2.636318826519341
 30
0.0
 10
54.34954661365611
 20
-3.80709627171272
 30
0.0
 10
55.62571483954545
 20
-4.880729542601438
 30
0.0
 10
56.89933032784293
 20
-5.832464536514006
 30
0.0
 10
58.17475883259518
 20
-6.635876816298063
 30
0.0
 10
59.45070773531147
 20
-7.267215360252763
 30
0.0
 10
60.72430646186352
 20
-7.729706420941923
 30
0.0
 10
61.57453629962815
 20
-7.870943786186393
 30
0.0
 10
61.99999999999997
 20
-7.94162040723473
 30
0.0
  0
SPLINE
  5
BB
330
1F
100
AcDbEntity
  8
0
  6
Continuous
 62
   131
370
    15
100
AcDbSpline
210
0.0
220
0.0
230
1.0
 70
    24
 71
     3
 72
    13
 73
     9
 74
     0
 42
0.000000001
 43
0.00000001
 40
0.0
 40
0.0
 40
0.0
 40
0.0
 40
0.1795962039292574
 40
0.354665539932086
 40
0.5348118985390765
 40
0.7098812345418822
 40
0.89002759314881
 40
1.0
 40
1.0
 40
1.0
 40
1.0
 10
12.00000000000001
 20
-5.093741209014043
 30
0.0
 10
11.99999999999996
 20
-5.242872525597404
 30
0.0
 10
11.99999999999986
 20
-5.537376183022447
 30
0.0
 10
11.99999999999999
 20
-6.039762549139224
 30
0.0
 10
11.99999999999998
 20
-6.562986367295153
 30
0.0
 10
11.99999999999996
 20
-7.10573918058016
 30
0.0
 10
11.99999999999986
 20
-7.577550270040026
 30
0.0
 10
11.99999999999992
 20
-7.861640100578484
 30
0.0
 10
11.99999999999994
 20
-7.969327179616364
 30
0.0
  0
SPLINE
  5
BC
330
1F
100
AcDbEntity
  8
0
  6
Continuous
 62
     1
370
    15
100
AcDbSpline
210
0.0
220
0.0
230
1.0
 70
     8
 71
     3
 72
    24
 73
    20
 74
     0
 42
0.000000001
 43
0.00000001
 40
0.0
 40
0.0
 40
0.0
 40
0.0
 40
0.0609094787243048
 40
0.1217190941761533
 40
0.1826407524531817
 40
0.2435376536259379
 40
0.3043481195260924
 40
0.3652803203822589
 40
0.426165484785342
 40
0.4869776514877873
 40
0.5479187564636565
 40
0.6087930261770281
 40
0.6696077438471201
 40
0.730556113227968
 40
0.791420331537015
 40
0.8522384500572144
 40
0.9131924431039452
 40
0.9740474544065799
 40
1.0
 40
1.0
 40
1.0
 40
1.0
 10
61.99999999999994
 20
-4.806273536472217
 30
0.0
 10
61.57453629962798
 20
-4.454767697513086
 30
0.0
 10
60.72430646186315
 20
-3.752332326010527
 30
0.0
 10
59.45070773531281
 20
-2.568619494947085
 30
0.0
 10
58.17475883259013
 20
-1.330850141517177
 30
0.0
 10
56.89933032786156
 20
-0.056545633258637
 30
0.0
 10
55.62571483947584
 20
1.220508620858898
 30
0.0
 10
54.34954661391627
 20
2.464122541928564
 30
0.0
 10
53.07436493800653
 20
3.646291307583086
 30
0.0
 10
51.80071475992287
 20
4.737372749286401
 30
0.0
 10
50.52436126215896
 20
5.706071969720385
 30
0.0
 10
49.24940877046122
 20
6.531391879436127
 30
0.0
 10
47.97570560271264
 20
7.191600827876718
 30
0.0
 10
46.6992018696215
 20
7.668467524808042
 30
0.0
 10
45.42445740438104
 20
7.951002966577891
 30
0.0
 10
44.15069589198095
 20
8.034731872902618
 30
0.0
 10
42.87402868337576
 20
7.903898512095267
 30
0.0
 10
41.84296807588375
 20
7.66919214049399
 30
0.0
 10
41.23720538799781
 20
7.413584879325331
 30
0.0
 10
41.05610267829963
 20
7.33716688834982
 30
0.0
  0
SPLINE
  5
BD
330
1F
100
AcDbEntity
  8
0
  6
Continuous
 62
     1
370
    15
100
AcDbSpline
210
0.0
220
0.0
230
1.0
 70
     8
 71
     3
 72
    13
 73
     9
 74
     0
 42
0.000000001
 43
0.00000001
 40
0.0
 40
0.0
 40
0.0
 40
0.0
 40
0.0692816571167879
 40
0.2477185014403288
 40
0.4359496356771662
 40
0.6238260334968532
 40
0.8117432190394634
 40
1.0
 40
1.0
 40
1.0
 40
1.0
 10
19.14475959339944
 20
-7.975898749163528
 30
0.0
 10
18.97985913068407
 20
-7.982030272478527
 30
0.0
 10
18.39025291728458
 20
-8.00395370546711
 30
0.0
 10
17.35237703963973
 20
-7.826016813986412
 30
0.0
 10
16.03025169619756
 20
-7.439543361841888
 30
0.0
 10
14.68802616701703
 20
-6.819781699211866
 30
0.0
 10
13.34532350548837
 20
-6.021910797707719
 30
0.0
 10
12.44871097762116
 20
-5.351804935565596
 30
0.0
 10
12.00000000000023
 20
-5.016449531569009
 30
0.0
  0
SPLINE
  5
BE
330
1F
100
AcDbEntity
  8
0
  6
Continuous
 62
     1
370
    15
100
AcDbSpline
210
0.0
220
0.0
230
1.0
 70
     8
 71
     3
 72
    30
 73
    26
 74
     0
 42
0.000000001
 43
0.00000001
 40
0.0
 40
0.0
 40
0.0
 40
0.0
 40
0.0235511500629875
 40
0.0684863468222671
 40
0.1135164971450413
 40
0.1584523954393204
 40
0.203392517710303
 40
0.2484221527244802
 40
0.2933536575064792
 40
0.3382993310737364
 40
0.3833272375677876
 40
0.4282549755770793
 40
0.4732068256101852
 40
0.5182317906164297
 40
0.5631563890101429
 40
0.608115039994603
 40
0.6531358509602844
 40
0.6980579372436424
 40
0.7430240129119571
 40
0.7880394578702015
 40
0.8329596598269842
 40
0.877933783089861
 40
0.9229426508304701
 40
0.9678615964534206
 40
1.0
 40
1.0
 40
1.0
 40
1.0
 10
29.45717422092791
 20
7.974686688881153
 30
0.0
 10
29.67971088986356
 20
7.979108364477289
 30
0.0
 10
30.32684376654421
 20
7.991966522469681
 30
0.0
 10
31.39873650852668
 20
7.791554840834698
 30
0.0
 10
32.67555940900566
 20
7.394755397834809
 30
0.0
 10
33.94963862745942
 20
6.79944504162216
 30
0.0
 10
35.22385663335549
 20
6.034225934847813
 30
0.0
 10
36.50060868427072
 20
5.117219617549269
 30
0.0
 10
37.77457824868503
 20
4.068604241836695
 30
0.0
 10
39.04895007604858
 20
2.916969496110132
 30
0.0
 10
40.32565453387156
 20
1.693729358611569
 30
0.0
 10
41.59951703436997
 20
0.4247149476330703
 30
0.0
 10
42.87406466802615
 20
-0.8543524917216847
 30
0.0
 10
44.15068626736217
 20
-2.109692734461067
 30
0.0
 10
45.42445998348417
 20
-3.314426776686441
 30
0.0
 10
46.69920117513199
 20
-4.434050998035836
 30
0.0
 10
47.97570579624236
 20
-5.439957791542753
 30
0.0
 10
49.2494086895813
 20
-6.31015572126765
 30
0.0
 10
50.52436139235459
 20
-7.019275428966381
 30
0.0
 10
51.800714320032
 20
-7.550200305945262
 30
0.0
 10
53.07436656429211
 20
-7.890221201346197
 30
0.0
 10
54.34954053734032
 20
-8.031422566935365
 30
0.0
 10
55.62573751621944
 20
-7.962703609524356
 30
0.0
 10
56.77799935298766
 20
-7.739994713066874
 30
0.0
 10
57.50656556237288
 20
-7.458389360353589
 30
0.0
 10
57.810429568856
 20
-7.340939868982359
 30
0.0
  0
SPLINE
  5
BF
330
1F
100
AcDbEntity
  8
0
  6
Continuous
 62
     1
370
    15
100
AcDbSpline
210
0.0
220
0.0
230
1.0
 70
     8
 71
     3
 72
    30
 73
    26
 74
     0
 42
0.000000001
 43
0.00000001
 40
0.0
 40
0.0
 40
0.0
 40
0.0
 40
0.0108668694879268
 40
0.0557854021466592
 40
0.1007866980207914
 40
0.1457697064450109
 40
0.1906888673085054
 40
0.2356979507205427
 40
0.2806722894883608
 40
0.3255927066917068
 40
0.370608367352896
 40
0.4155746584875893
 40
0.4604969600265408
 40
0.5055179867208789
 40
0.5504768531361415
 40
0.5954016667974849
 40
0.6404268475522908
 40
0.6853789129836112
 40
0.7303068662755765
 40
0.7753349885322851
 40
0.8202808774681598
 40
0.8652125975508832
 40
0.9102424483359998
 40
0.955182785948999
 40
1.0
 40
1.0
 40
1.0
 40
1.0
 10
61.032168145094
 20
-7.981394887612511
 30
0.0
 10
60.92942440149646
 20
-7.987027223358682
 30
0.0
 10
60.40198629606884
 20
-8.01594098872361
 30
0.0
 10
59.45077448674482
 20
-7.866721073345527
 30
0.0
 10
58.1747409400217
 20
-7.52948419351709
 30
0.0
 10
56.89933511343689
 20
-6.985034280668732
 30
0.0
 10
55.62571355512559
 20
-6.266772767863202
 30
0.0
 10
54.34954695782613
 20
-5.39010717244633
 30
0.0
 10
53.07436484690125
 20
-4.376622680938219
 30
0.0
 10
51.80071478107681
 20
-3.250576649641423
 30
0.0
 10
50.5243612688507
 20
-2.044740575533005
 30
0.0
 10
49.24940872263628
 20
-0.7857766392782981
 30
0.0
 10
47.97570578730772
 20
0.4944681867657431
 30
0.0
 10
46.69920117774569
 20
1.759272235916423
 30
0.0
 10
45.42445998196151
 20
2.98130409615975
 30
0.0
 10
44.15068627084361
 20
4.128590621320903
 30
0.0
 10
42.87406465560183
 20
5.168740736650578
 30
0.0
 10
41.59951708048259
 20
6.079690162990405
 30
0.0
 10
40.32565436175143
 20
6.836694262735659
 30
0.0
 10
39.04895071950936
 20
7.419047340318574
 30
0.0
 10
37.77457585263462
 20
7.81425195271625
 30
0.0
 10
36.50061763206273
 20
8.01204295695587
 30
0.0
 10
35.22382318618455
 20
8.0031194191926
 30
0.0
 10
33.95088605575202
 20
7.80491485543331
 30
0.0
 10
33.10281112321515
 20
7.50800520166948
 30
0.0
 10
32.67935532391846
 20
7.359754015447795
 30
0.0
  0
LINE
  5
C0
330
1F
100
AcDbEntity
  8
0
  6
Continuous
 62
   131
370
    15
100
AcDbLine
 10
61.99999999999994
 20
-8.000000000000034
 30
0.0
 11
61.99999999999994
 21
-7.94162040723473
 31
0.0
  0
LINE
  5
C1
330
1F
100
AcDbEntity
  8
0
  6
Continuous
 62
   131
370
    15
100
AcDbLine
 10
11.99999999999996
 20
2.888665595611021
 30
0.0
 11
11.99999999999994
 21
4.590772679140446
 31
0.0
  0
LINE
  5
C2
330
1F
100
AcDbEntity
  8
0
  6
Continuous
 62
     1
370
    15
100
AcDbLine
 10
61.99999999999994
 20
3.135346870762513
 30
0.0
 11
61.99999999999994
 21
4.806273536472199
 31
0.0
  0
LINE
  5
C3
330
1F
100
AcDbEntity
  8
0
  6
Continuous
 62
     1
370
    15
100
AcDbLine
 10
61.99999999999994
 20
-4.806273536472217
 30
0.0
 11
61.99999999999994
 21
-3.135346870762424
 31
0.0
  0
LINE
  5
C4
330
1F
100
AcDbEntity
  8
0
  6
Continuous
 62
   131
370
    15
100
AcDbLine
 10
11.99999999999996
 20
-5.016449531570911
 30
0.0
 11
11.99999999999994
 21
-3.378554500475807
 31
0.0
  0
LINE
  5
C5
330
1F
100
AcDbEntity
  8
0
  6
Continuous
 62
   131
370
    15
100
AcDbLine
 10
61.99999999999994
 20
7.941620407234673
 30
0.0
 11
61.99999999999994
 21
7.999999999999973
 31
0.0
  0
SPLINE
  5
C6
330
1F
100
AcDbEntity
  8
0
  6
Continuous
 62
   131
370
    15
100
AcDbSpline
210
0.0
220
0.0
230
1.0
 70
     8
 71
     3
 72
     8
 73
     4
 74
     0
 42
0.000000001
 43
0.00000001
 40
0.0
 40
0.0
 40
0.0
 40
0.0
 40
1.0
 40
1.0
 40
1.0
 40
1.0
 10
11.99999999999994
 20
-3.37855450047582
 30
0.0
 10
11.66677270372312
 20
-3.076077694129594
 30
0.0
 10
11.33516870027247
 20
-2.765288873572518
 30
0.0
 10
11.00022969815871
 20
-2.447045324569075
 30
0.0
  0
SPLINE
  5
C7
330
1F
100
AcDbEntity
  8
0
  6
Continuous
 62
   131
370
    15
100
AcDbSpline
210
0.0
220
0.0
230
1.0
 70
     8
 71
     3
 72
     8
 73
     4
 74
     0
 42
0.000000001
 43
0.00000001
 40
0.0
 40
0.0
 40
0.0
 40
0.0
 40
1.0
 40
1.0
 40
1.0
 40
1.0
 10
11.99999999999994
 20
-5.016449531568767
 30
0.0
 10
11.66677270372314
 20
-4.756509852892197
 30
0.0
 10
11.33516870027246
 20
-4.483923446926063
 30
0.0
 10
11.00022969815873
 20
-4.199414752569888
 30
0.0
  0
LINE
  5
C8
330
1F
100
AcDbEntity
  8
0
  6
Continuous
 62
   131
370
    15
100
AcDbLine
 10
11.00022969815872
 20
-7.81965777358835
 30
0.0
 11
11.00022969815872
 21
-4.199412989273082
 31
0.0
  0
SPLINE
  5
C9
330
1F
100
AcDbEntity
  8
0
  6
Continuous
 62
   131
370
    15
100
AcDbSpline
210
0.0
220
0.0
230
1.0
 70
     8
 71
     3
 72
     8
 73
     4
 74
     0
 42
0.000000001
 43
0.00000001
 40
0.0
 40
0.0
 40
0.0
 40
0.0
 40
1.0
 40
1.0
 40
1.0
 40
1.0
 10
11.99999999999994
 20
-7.969327179616361
 30
0.0
 10
11.66677270372312
 20
-7.940134108908273
 30
0.0
 10
11.33516870027247
 20
-7.890230998511885
 30
0.0
 10
11.00022969815871
 20
-7.819656142182351
 30
0.0
  0
SPLINE
  5
CA
330
1F
100
AcDbEntity
  8
0
  6
Continuous
 62
   131
370
    15
100
AcDbSpline
210
0.0
220
0.0
230
1.0
 70
     8
 71
     3
 72
     8
 73
     4
 74
     0
 42
0.000000001
 43
0.00000001
 40
0.0
 40
0.0
 40
0.0
 40
0.0
 40
1.0
 40
1.0
 40
1.0
 40
1.0
 10
11.99999999999994
 20
7.905115127179291
 30
0.0
 10
11.66677270372314
 20
7.956357179135967
 30
0.0
 10
11.33516870027246
 20
7.986926707312731
 30
0.0
 10
11.00022969815873
 20
7.996629183628453
 30
0.0
  0
LINE
  5
CB
330
1F
100
AcDbEntity
  8
0
  6
Continuous
 62
   131
370
    15
100
AcDbLine
 10
11.00022969815872
 20
5.372605092496714
 30
0.0
 11
11.00022969815872
 21
7.996629243761122
 31
0.0
  0
SPLINE
  5
CC
330
1F
100
AcDbEntity
  8
0
  6
Continuous
 62
   131
370
    15
100
AcDbSpline
210
0.0
220
0.0
230
1.0
 70
     8
 71
     3
 72
     8
 73
     4
 74
     0
 42
0.000000001
 43
0.00000001
 40
0.0
 40
0.0
 40
0.0
 40
0.0
 40
1.0
 40
1.0
 40
1.0
 40
1.0
 10
11.99999999999994
 20
4.590772679140432
 30
0.0
 10
11.66677270372312
 20
4.86405641477857
 30
0.0
 10
11.33516870027247
 20
5.12494212493926
 30
0.0
 10
11.00022969815871
 20
5.372610817613173
 30
0.0
  0
SPLINE
  5
CD
330
1F
100
AcDbEntity
  8
0
  6
Continuous
 62
   131
370
    15
100
AcDbSpline
210
0.0
220
0.0
230
1.0
 70
     8
 71
     3
 72
     8
 73
     4
 74
     0
 42
0.000000001
 43
0.00000001
 40
0.0
 40
0.0
 40
0.0
 40
0.0
 40
1.0
 40
1.0
 40
1.0
 40
1.0
 10
11.99999999999994
 20
2.888665595610581
 30
0.0
 10
11.66677270372314
 20
3.199847326243826
 30
0.0
 10
11.33516870027246
 20
3.503003260386721
 30
0.0
 10
11.00022969815873
 20
3.797214431058615
 30
0.0
  0
LINE
  5
CE
330
1F
100
AcDbEntity
  8
0
  6
Continuous
 62
   131
370
    15
100
AcDbLine
 10
-46.40000000000006
 20
-0.0000000000000309
 30
0.0
 11
-46.40000000000006
 21
7.99999999999997
 31
0.0
  0
LINE
  5
CF
330
1F
100
AcDbEntity
  8
0
  6
Continuous
 62
   131
370
    15
100
AcDbLine
 10
-46.40000000000006
 20
-8.00000000000003
 30
0.0
 11
-46.40000000000006
 21
-0.0000000000000309
 31
0.0
  0
LINE
  5
D0
330
1F
100
AcDbEntity
  8
0
  6
Continuous
 62
   131
370
    15
100
AcDbLine
 10
11.00022969815872
 20
-2.447052681091532
 30
0.0
 11
11.00022969815872
 21
3.79721625448809
 31
0.0
  0
LINE
  5
D1
330
1F
100
AcDbEntity
  8
0
  6
Continuous
 62
   131
370
    15
100
AcDbLine
 10
-48.00000000000006
 20
-0.0000000000000309
 30
0.0
 11
-48.00000000000006
 21
6.399999999999977
 31
0.0
  0
LINE
  5
D2
330
1F
100
AcDbEntity
  8
0
  6
Continuous
 62
   131
370
    15
100
AcDbLine
 10
-48.00000000000006
 20
-6.400000000000039
 30
0.0
 11
-48.00000000000006
 21
-0.0000000000000309
 31
0.0
  0
SPLINE
  5
D3
330
1F
100
AcDbEntity
  8
0
  6
Continuous
 62
   131
370
    15
100
AcDbSpline
210
0.0
220
0.0
230
1.0
 70
    24
 71
     3
 72
    24
 73
    20
 74
     0
 42
0.000000001
 43
0.00000001
 40
0.0
 40
0.0
 40
0.0
 40
0.0
 40
0.125
 40
0.125
 40
0.2500000000000001
 40
0.2500000000000001
 40
0.375
 40
0.375
 40
0.5
 40
0.5
 40
0.625
 40
0.625
 40
0.75
 40
0.75
 40
0.8125000000000001
 40
0.8125000000000001
 40
0.8750000000000001
 40
0.8750000000000001
 40
1.0
 40
1.0
 40
1.0
 40
1.0
 10
11.99999999999994
 20
-3.378554500475778
 30
0.0
 10
11.99999999999994
 20
-3.289379175118814
 30
0.0
 10
11.99999999999996
 20
-3.123244955993188
 30
0.0
 10
11.99999999999995
 20
-2.61431803759386
 30
0.0
 10
11.99999999999994
 20
-2.270707927677408
 30
0.0
 10
11.99999999999993
 20
-1.472980138237301
 30
0.0
 10
11.99999999999991
 20
-1.0219112540564
 30
0.0
 10
11.99999999999992
 20
-0.1386826614801055
 30
0.0
 10
11.99999999999995
 20
0.2908486004965739
 30
0.0
 10
11.99999999999994
 20
1.043708483431163
 30
0.0
 10
11.99999999999992
 20
1.367606733180664
 30
0.0
 10
11.99999999999994
 20
1.898620243358584
 30
0.0
 10
11.99999999999994
 20
2.107097855566698
 30
0.0
 10
11.99999999999992
 20
2.352582038437238
 30
0.0
 10
11.99999999999993
 20
2.423348204011699
 30
0.0
 10
11.99999999999994
 20
2.546518118384383
 30
0.0
 10
11.99999999999994
 20
2.598627244532143
 30
0.0
 10
11.99999999999996
 20
2.750546780230685
 30
0.0
 10
11.99999999999995
 20
2.837868482824774
 30
0.0
 10
11.99999999999994
 20
2.888665595610584
 30
0.0
  0
SPLINE
  5
D4
330
1F
100
AcDbEntity
  8
0
  6
Continuous
 62
   131
370
    15
100
AcDbSpline
210
0.0
220
0.0
230
1.0
 70
    24
 71
     3
 72
    13
 73
     9
 74
     0
 42
0.000000001
 43
0.00000001
 40
0.0
 40
0.0
 40
0.0
 40
0.0
 40
0.1798492426471174
 40
0.3569923270571794
 40
0.5341354114672422
 40
0.7112784958773027
 40
0.8884215802873628
 40
1.0
 40
1.0
 40
1.0
 40
1.0
 10
11.99999999999994
 20
-7.969327179616361
 30
0.0
 10
11.99999999999994
 20
-7.79163612445163
 30
0.0
 10
11.99999999999995
 20
-7.438927698511975
 30
0.0
 10
11.99999999999995
 20
-6.893450148038722
 30
0.0
 10
11.99999999999996
 20
-6.356485246487857
 30
0.0
 10
11.99999999999995
 20
-5.841633832724263
 30
0.0
 10
11.99999999999995
 20
-5.412565055155795
 30
0.0
 10
11.99999999999994
 20
-5.182609227219899
 30
0.0
 10
11.99999999999995
 20
-5.093741209014043
 30
0.0
  0
SPLINE
  5
D5
330
1F
100
AcDbEntity
  8
0
  6
Continuous
 62
   131
370
    15
100
AcDbSpline
210
0.0
220
0.0
230
1.0
 70
    24
 71
     3
 72
    14
 73
    10
 74
     0
 42
0.000000001
 43
0.00000001
 40
0.0
 40
0.0
 40
0.0
 40
0.0
 40
0.0311307934485158
 40
0.1868783305649904
 40
0.3426258676814432
 40
0.4983734047978964
 40
0.654120941914396
 40
0.8098684790308959
 40
1.0
 40
1.0
 40
1.0
 40
1.0
 10
11.99999999999995
 20
4.668064356583576
 30
0.0
 10
11.99999999999995
 20
4.693363183073394
 30
0.0
 10
11.99999999999995
 20
4.845232182734122
 30
0.0
 10
11.99999999999994
 20
5.182304122703057
 30
0.0
 10
11.99999999999994
 20
5.668248368544937
 30
0.0
 10
11.99999999999992
 20
6.191017764438758
 30
0.0
 10
11.99999999999995
 20
6.729105814101588
 30
0.0
 10
11.99999999999996
 20
7.31152518726271
 30
0.0
 10
11.99999999999995
 20
7.694559286458185
 30
0.0
 10
11.99999999999994
 20
7.905115127179371
 30
0.0
  0
LINE
  5
D6
330
1F
100
AcDbEntity
  8
중심선
 62
     1
100
AcDbLine
 10
-55.20259277488961
 20
-0.0000000000000393
 30
0.0
 11
68.99999999999994
 21
0.0000000000000494
 31
0.0
  0
CIRCLE
  5
D7
330
1F
100
AcDbEntity
  8
외형선
100
AcDbCircle
 10
0.0
 20
0.0
 30
0.0
 40
3.000000000000008
  0
INSERT
  5
D8
330
1F
100
AcDbEntity
  8
0
  6
Continuous
 62
     7
100
AcDbBlockReference
 66
     1
  2
블럭10
 10
-26.94078629968149
 20
-52.04717430164396
 30
0.0
  0
ATTRIB
  5
D9
330
D8
100
AcDbEntity
  8
FORMAT
 62
     2
100
AcDbText
 10
-43.06004733911705
 20
-49.97180738881178
 30
0.0
 40
4.233333333333333
  1
SEME7516050E [ 6 FLUTE ]
 41
0.75
  7
SLDTEXTSTYLE0
 11
-43.06004733911705
 21
-52.08847405547844
 31
0.0
100
AcDbAttribute
  2
AUTOATTR0
 70
     0
 74
     1
  0
SEQEND
  5
DA
330
D8
100
AcDbEntity
  8
0
  6
Continuous
 62
     7
  0
HATCH
  5
DB
330
1F
100
AcDbEntity
  8
중심선
100
AcDbHatch
 10
0.0
 20
0.0
 30
0.0
210
0.0
220
0.0
230
1.0
  2
SOLID
 70
     1
 71
     0
 91
        1
 92
        0
 93
        4
 72
     1
 10
-21.22587699530064
 20
-35.80000000000003
 11
-24.67215223913792
 21
-35.80000000000003
 72
     1
 10
-24.67215223913792
 20
-35.80000000000003
 11
-26.80038209834194
 21
-38.33632558057263
 72
     1
 10
-26.80038209834194
 20
-38.33632558057263
 11
-23.35407376939151
 21
-38.33628615127014
 72
     1
 10
-23.35407376939151
 20
-38.33628615127014
 11
-21.22587699530064
 21
-35.80000000000003
 97
        0
 75
     0
 76
     1
 98
        1
 10
-4.001342611615596
 20
-0.001074928723924
  0
HATCH
  5
DC
330
1F
100
AcDbEntity
  8
중심선
100
AcDbHatch
 10
0.0
 20
0.0
 30
0.0
210
0.0
220
0.0
230
1.0
  2
SOLID
 70
     1
 71
     0
 91
        1
 92
        0
 93
        4
 72
     1
 10
-16.21311300426468
 20
-35.80000000000003
 11
-19.65938824810197
 21
-35.80000000000003
 72
     1
 10
-19.65938824810197
 20
-35.80000000000003
 11
-24.19052625645936
 21
-41.20000000000005
 72
     1
 10
-24.19052625645936
 20
-41.20000000000005
 11
-20.74425101262207
 21
-41.20000000000005
 72
     1
 10
-20.74425101262207
 20
-41.20000000000005
 11
-16.21311300426468
 21
-35.80000000000003
 97
        0
 75
     0
 76
     1
 98
        1
 10
-4.001342611615596
 20
-0.001074928723924
  0
HATCH
  5
DD
330
1F
100
AcDbEntity
  8
중심선
100
AcDbHatch
 10
0.0
 20
0.0
 30
0.0
210
0.0
220
0.0
230
1.0
  2
SOLID
 70
     1
 71
     0
 91
        1
 92
        0
 93
        4
 72
     1
 10
-11.20034901322879
 20
-35.80000000000005
 11
-14.64662425706591
 21
-35.80000000000003
 72
     1
 10
-14.64662425706591
 20
-35.80000000000003
 11
-21.69506115895516
 21
-44.20000000000005
 72
     1
 10
-21.69506115895516
 20
-44.20000000000005
 11
-18.24878591511787
 21
-44.20000000000005
 72
     1
 10
-18.24878591511787
 20
-44.20000000000005
 11
-11.20034901322879
 21
-35.80000000000005
 97
        0
 75
     0
 76
     1
 98
        1
 10
-4.001342611615596
 20
-0.001074928723924
  0
HATCH
  5
DE
330
1F
100
AcDbEntity
  8
중심선
100
AcDbHatch
 10
0.0
 20
0.0
 30
0.0
210
0.0
220
0.0
230
1.0
  2
SOLID
 70
     1
 71
     0
 91
        1
 92
        0
 93
        6
 72
     3
 10
-6.400458582216592
 20
-40.0000000000513
 11
3.960054785062284
 21
1.540882976769353E-10
 40
0.3939339440162627
 50
17.09539180608437
 51
320.0019657685081
 73
     0
 72
     1
 10
-4.717458926515996
 20
-38.58789400463833
 11
-2.412157052814958
 21
-36.65356729459041
 72
     3
 10
-6.400458582269438
 20
-40.00000000000018
 11
6.60005478528683
 21
-1.278976924368180E-13
 40
0.636358354079598
 50
39.9987384933741
 51
368.4976242363725
 73
     1
 72
     1
 10
0.0248739096311716
 20
-39.03999999993005
 11
-7.720391275433515
 21
-39.03999999993002
 72
     1
 10
-7.720391275433515
 20
-39.03999999993002
 11
-7.720416319879449
 21
-40.95999999992994
 72
     1
 10
-7.720416319879449
 20
-40.95999999992994
 11
-3.279036550407413
 21
-40.95999999992991
 97
        0
 75
     0
 76
     1
 98
        1
 10
-4.001342611615596
 20
-0.001074928723924
  0
DIMENSION
  5
DF
330
1F
100
AcDbEntity
  8
치수문자_일반주서
100
AcDbDimension
  2
_D
 10
-65.02890613132348
 20
-8.000000000000107
 30
0.0
 11
-65.02890613132351
 21
-0.0000000000000285
 31
0.0
 70
   160
  1
%%c<>
 71
     2
 42
16.00000000000001
 52
-270.0
  3
SLDDIMSTYLE0
100
AcDbAlignedDimension
 13
-46.40000000000007
 23
7.999999999999977
 33
0.0
 14
-46.40000000000007
 24
-8.000000000000037
 34
0.0
 50
90.0000000000002
100
AcDbRotatedDimension
  0
DIMENSION
  5
ED
330
1F
100
AcDbEntity
  8
치수문자_일반주서
100
AcDbDimension
  2
_D_1
 10
71.99999999999996
 20
-7.999999999999996
 30
0.0
 11
71.99999999999993
 21
1.055089200153558
 31
0.0
 70
   160
  1
%%c<>
 71
     2
 42
16.00000000000001
 52
-270.0
  3
SLDDIMSTYLE0
100
AcDbAlignedDimension
 13
61.99999999999994
 23
7.999999999999973
 33
0.0
 14
61.99999999999994
 24
-8.000000000000034
 34
0.0
 50
90.0000000000002
100
AcDbRotatedDimension
  0
DIMENSION
  5
FA
330
1F
100
AcDbEntity
  8
치수문자_일반주서
100
AcDbDimension
  2
_D_2
 10
61.99999999999994
 20
51.39995574582117
 30
0.0
 11
32.46249388206542
 21
51.39995574582117
 31
0.0
 70
   160
  1
<>
 71
     2
 42
50.0
  3
SLDDIMSTYLE1
100
AcDbAlignedDimension
 13
11.99999999999994
 23
7.905115127179371
 33
0.0
 14
61.99999999999994
 24
7.941620407234673
 34
0.0
100
AcDbRotatedDimension
  0
DIMENSION
  5
105
330
1F
100
AcDbEntity
  8
치수문자_일반주서
100
AcDbDimension
  2
_D_3
 10
-48.00000000000006
 20
78.8863030681043
 30
0.0
 11
10.40797951826984
 21
78.8863030681043
 31
0.0
 70
   160
  1
<>
 71
     2
 42
110.0
  3
SLDDIMSTYLE1
100
AcDbAlignedDimension
 13
61.99999999999994
 23
7.941620407234673
 33
0.0
 14
-48.00000000000006
 24
6.399999999999977
 34
0.0
100
AcDbRotatedDimension
  0
INSERT
  5
115
330
1F
100
AcDbEntity
  8
외형선
100
AcDbBlockReference
  2
SW_DOWELSYMBOL_0
 10
0.0
 20
0.0
 30
0.0
  0
ENDSEC
  0
SECTION
  2
OBJECTS
  0
DICTIONARY
  5
C
330
0
100
AcDbDictionary
281
     1
  3
ACAD_GROUP
350
D
  3
ACAD_IMAGE_VARS
350
139
  3
ACAD_LAYOUT
350
1A
  3
ACAD_MLINESTYLE
350
17
  3
ACAD_PLOTSETTINGS
350
19
  3
ACAD_PLOTSTYLENAME
350
E
  3
ACAD_SCALELIST
350
47
  3
APPDATA
350
137
  3
DWGPROPS
350
142
  0
DICTIONARY
  5
D
102
{ACAD_REACTORS
330
C
102
}
330
C
100
AcDbDictionary
281
     1
  0
RASTERVARIABLES
  5
139
102
{ACAD_REACTORS
330
C
102
}
330
C
100
AcDbRasterVariables
 90
        0
 70
     1
 71
     1
 72
     1
  0
DICTIONARY
  5
1A
102
{ACAD_REACTORS
330
C
102
}
330
C
100
AcDbDictionary
281
     1
  3
Layout1
350
1E
  3
Layout2
350
26
  3
Model
350
22
  0
DICTIONARY
  5
17
102
{ACAD_REACTORS
330
C
102
}
330
C
100
AcDbDictionary
281
     1
  3
Standard
350
18
  0
DICTIONARY
  5
19
102
{ACAD_REACTORS
330
C
102
}
330
C
100
AcDbDictionary
281
     1
  0
ACDBDICTIONARYWDFLT
  5
E
102
{ACAD_REACTORS
330
C
102
}
330
C
100
AcDbDictionary
281
     1
  3
Normal
350
F
100
AcDbDictionaryWithDefault
340
F
  0
DICTIONARY
  5
47
102
{ACAD_REACTORS
330
C
102
}
330
C
100
AcDbDictionary
281
     1
  3
A0
350
48
  3
A1
350
49
  3
A2
350
4A
  3
A3
350
4B
  3
A4
350
4C
  3
A5
350
4D
  3
A6
350
4E
  3
A7
350
4F
  3
A8
350
50
  3
A9
350
51
  3
B0
350
52
  3
B1
350
53
  3
B2
350
54
  3
B3
350
55
  3
B4
350
56
  3
B5
350
57
  3
B6
350
58
  3
B7
350
59
  3
B8
350
5A
  3
B9
350
5B
  3
C0
350
5C
  3
C1
350
5D
  3
C2
350
5E
  3
C3
350
5F
  3
C4
350
60
  3
C5
350
61
  3
C6
350
62
  3
C7
350
63
  3
C8
350
64
  3
C9
350
65
  3
D0
350
66
  3
D1
350
67
  3
D2
350
68
  0
DICTIONARY
  5
137
102
{ACAD_REACTORS
330
C
102
}
330
C
100
AcDbDictionary
281
     1
  0
XRECORD
  5
142
102
{ACAD_REACTORS
330
C
102
}
330
C
100
AcDbXrecord
280
     1
  1
DWGPROPS COOKIE
  2

  3

  4

  6

  7

  8
12016016
  9

300
=
301
=
302
=
303
=
304
=
305
=
306
=
307
=
308
=
309
=
 40
0.0
 41
2458268.398027048
 42
2458270.002745729
  1

 90
        0
  0
LAYOUT
  5
1E
102
{ACAD_REACTORS
330
1A
102
}
330
1A
100
AcDbPlotSettings
  1

  2
none_device
  4

  6

 40
0.0
 41
0.0
 42
0.0
 43
0.0
 44
0.0
 45
0.0
 46
0.0
 47
0.0
 48
0.0
 49
0.0
140
0.0
141
0.0
142
1.0
143
1.0
 70
   688
 72
     1
 73
     0
 74
     5
  7

 75
    16
147
1.0
148
0.0
149
0.0
100
AcDbLayout
  1
Layout1
 70
     1
 71
     1
 10
0.0
 20
0.0
 11
420.0
 21
297.0
 12
0.0
 22
0.0
 32
0.0
 14
1.000000000000000E+20
 24
1.000000000000000E+20
 34
1.000000000000000E+20
 15
-1.000000000000000E+20
 25
-1.000000000000000E+20
 35
-1.000000000000000E+20
146
0.0
 13
0.0
 23
0.0
 33
0.0
 16
1.0
 26
0.0
 36
0.0
 17
0.0
 27
1.0
 37
0.0
 76
     0
330
1B
  0
LAYOUT
  5
26
102
{ACAD_REACTORS
330
1A
102
}
330
1A
100
AcDbPlotSettings
  1

  2
none_device
  4

  6

 40
0.0
 41
0.0
 42
0.0
 43
0.0
 44
0.0
 45
0.0
 46
0.0
 47
0.0
 48
0.0
 49
0.0
140
0.0
141
0.0
142
1.0
143
1.0
 70
   688
 72
     1
 73
     0
 74
     5
  7

 75
    16
147
1.0
148
0.0
149
0.0
100
AcDbLayout
  1
Layout2
 70
     1
 71
     2
 10
0.0
 20
0.0
 11
0.0
 21
0.0
 12
0.0
 22
0.0
 32
0.0
 14
0.0
 24
0.0
 34
0.0
 15
0.0
 25
0.0
 35
0.0
146
0.0
 13
0.0
 23
0.0
 33
0.0
 16
1.0
 26
0.0
 36
0.0
 17
0.0
 27
1.0
 37
0.0
 76
     0
330
23
  0
LAYOUT
  5
22
102
{ACAD_REACTORS
330
1A
102
}
330
1A
100
AcDbPlotSettings
  1

  2
none_device
  4
ANSI_A_(11.00_x_8.50_Inches)
  6

 40
6.35
 41
19.05
 42
6.35000508
 43
19.05000254
 44
279.4
 45
215.9
 46
124.258916285534
 47
62.85495627396512
 48
0.0
 49
0.0
140
0.0
141
0.0
142
0.0627452147165305
143
1.0
 70
  1696
 72
     0
 73
     0
 74
     0
  7

 75
     0
147
0.0235690232323232
148
0.0
149
0.0
100
AcDbLayout
  1
Model
 70
     1
 71
     0
 10
0.0
 20
0.0
 11
420.0
 21
297.0
 12
0.0
 22
0.0
 32
0.0
 14
-69.40390613132352
 24
-49.97180738881178
 34
0.0
 15
72.55033333333327
 25
83.2613030681043
 35
0.0
146
0.0
 13
0.0
 23
0.0
 33
0.0
 16
1.0
 26
0.0
 36
0.0
 17
0.0
 27
1.0
 37
0.0
 76
     0
330
1F
331
29
  0
MLINESTYLE
  5
18
102
{ACAD_REACTORS
330
17
102
}
330
17
100
AcDbMlineStyle
  2
Standard
 70
     0
  3

 62
   256
 51
90.0
 52
90.0
 71
     2
 49
0.5
 62
   256
  6
BYLAYER
 49
-0.5
 62
   256
  6
BYLAYER
  0
ACDBPLACEHOLDER
  5
F
102
{ACAD_REACTORS
330
E
102
}
330
E
  0
SCALE
  5
48
102
{ACAD_REACTORS
330
47
102
}
330
47
100
AcDbScale
 70
     0
300
1:1
140
1.0
141
1.0
290
     1
  0
SCALE
  5
49
102
{ACAD_REACTORS
330
47
102
}
330
47
100
AcDbScale
 70
     0
300
1:2
140
1.0
141
2.0
290
     0
  0
SCALE
  5
4A
102
{ACAD_REACTORS
330
47
102
}
330
47
100
AcDbScale
 70
     0
300
1:4
140
1.0
141
4.0
290
     0
  0
SCALE
  5
4B
102
{ACAD_REACTORS
330
47
102
}
330
47
100
AcDbScale
 70
     0
300
1:5
140
1.0
141
5.0
290
     0
  0
SCALE
  5
4C
102
{ACAD_REACTORS
330
47
102
}
330
47
100
AcDbScale
 70
     0
300
1:8
140
1.0
141
8.0
290
     0
  0
SCALE
  5
4D
102
{ACAD_REACTORS
330
47
102
}
330
47
100
AcDbScale
 70
     0
300
1:10
140
1.0
141
10.0
290
     0
  0
SCALE
  5
4E
102
{ACAD_REACTORS
330
47
102
}
330
47
100
AcDbScale
 70
     0
300
1:16
140
1.0
141
16.0
290
     0
  0
SCALE
  5
4F
102
{ACAD_REACTORS
330
47
102
}
330
47
100
AcDbScale
 70
     0
300
1:20
140
1.0
141
20.0
290
     0
  0
SCALE
  5
50
102
{ACAD_REACTORS
330
47
102
}
330
47
100
AcDbScale
 70
     0
300
1:30
140
1.0
141
30.0
290
     0
  0
SCALE
  5
51
102
{ACAD_REACTORS
330
47
102
}
330
47
100
AcDbScale
 70
     0
300
1:40
140
1.0
141
40.0
290
     0
  0
SCALE
  5
52
102
{ACAD_REACTORS
330
47
102
}
330
47
100
AcDbScale
 70
     0
300
1:50
140
1.0
141
50.0
290
     0
  0
SCALE
  5
53
102
{ACAD_REACTORS
330
47
102
}
330
47
100
AcDbScale
 70
     0
300
1:100
140
1.0
141
100.0
290
     0
  0
SCALE
  5
54
102
{ACAD_REACTORS
330
47
102
}
330
47
100
AcDbScale
 70
     0
300
2:1
140
2.0
141
1.0
290
     0
  0
SCALE
  5
55
102
{ACAD_REACTORS
330
47
102
}
330
47
100
AcDbScale
 70
     0
300
4:1
140
4.0
141
1.0
290
     0
  0
SCALE
  5
56
102
{ACAD_REACTORS
330
47
102
}
330
47
100
AcDbScale
 70
     0
300
8:1
140
8.0
141
1.0
290
     0
  0
SCALE
  5
57
102
{ACAD_REACTORS
330
47
102
}
330
47
100
AcDbScale
 70
     0
300
10:1
140
10.0
141
1.0
290
     0
  0
SCALE
  5
58
102
{ACAD_REACTORS
330
47
102
}
330
47
100
AcDbScale
 70
     0
300
100:1
140
100.0
141
1.0
290
     0
  0
SCALE
  5
59
102
{ACAD_REACTORS
330
47
102
}
330
47
100
AcDbScale
 70
     0
300
1/128" = 1'-0"
140
0.0078125
141
12.0
290
     0
  0
SCALE
  5
5A
102
{ACAD_REACTORS
330
47
102
}
330
47
100
AcDbScale
 70
     0
300
1/64" = 1'-0"
140
0.015625
141
12.0
290
     0
  0
SCALE
  5
5B
102
{ACAD_REACTORS
330
47
102
}
330
47
100
AcDbScale
 70
     0
300
1/32" = 1'-0"
140
0.03125
141
12.0
290
     0
  0
SCALE
  5
5C
102
{ACAD_REACTORS
330
47
102
}
330
47
100
AcDbScale
 70
     0
300
1/16" = 1'-0"
140
0.0625
141
12.0
290
     0
  0
SCALE
  5
5D
102
{ACAD_REACTORS
330
47
102
}
330
47
100
AcDbScale
 70
     0
300
3/32" = 1'-0"
140
0.09375
141
12.0
290
     0
  0
SCALE
  5
5E
102
{ACAD_REACTORS
330
47
102
}
330
47
100
AcDbScale
 70
     0
300
1/8" = 1'-0"
140
0.125
141
12.0
290
     0
  0
SCALE
  5
5F
102
{ACAD_REACTORS
330
47
102
}
330
47
100
AcDbScale
 70
     0
300
3/16" = 1'-0"
140
0.1875
141
12.0
290
     0
  0
SCALE
  5
60
102
{ACAD_REACTORS
330
47
102
}
330
47
100
AcDbScale
 70
     0
300
1/4" = 1'-0"
140
0.25
141
12.0
290
     0
  0
SCALE
  5
61
102
{ACAD_REACTORS
330
47
102
}
330
47
100
AcDbScale
 70
     0
300
3/8" = 1'-0"
140
0.375
141
12.0
290
     0
  0
SCALE
  5
62
102
{ACAD_REACTORS
330
47
102
}
330
47
100
AcDbScale
 70
     0
300
1/2" = 1'-0"
140
0.5
141
12.0
290
     0
  0
SCALE
  5
63
102
{ACAD_REACTORS
330
47
102
}
330
47
100
AcDbScale
 70
     0
300
3/4" = 1'-0"
140
0.75
141
12.0
290
     0
  0
SCALE
  5
64
102
{ACAD_REACTORS
330
47
102
}
330
47
100
AcDbScale
 70
     0
300
1" = 1'-0"
140
1.0
141
12.0
290
     0
  0
SCALE
  5
65
102
{ACAD_REACTORS
330
47
102
}
330
47
100
AcDbScale
 70
     0
300
1-1/2" = 1'-0"
140
1.5
141
12.0
290
     0
  0
SCALE
  5
66
102
{ACAD_REACTORS
330
47
102
}
330
47
100
AcDbScale
 70
     0
300
3" = 1'-0"
140
3.0
141
12.0
290
     0
  0
SCALE
  5
67
102
{ACAD_REACTORS
330
47
102
}
330
47
100
AcDbScale
 70
     0
300
6" = 1'-0"
140
6.0
141
12.0
290
     0
  0
SCALE
  5
68
102
{ACAD_REACTORS
330
47
102
}
330
47
100
AcDbScale
 70
     0
300
1'-0" = 1'-0"
140
12.0
141
12.0
290
     0
  0
ENDSEC
  0
EOF
