  0
SECTION
  2
HEADER
  9
$ACADVER
  1
AC1015
  9
$ACADMAINTVER
 70
     6
  9
$DWGCODEPAGE
  3
ANSI_949
  9
$INSBASE
 10
0.0
 20
0.0
 30
0.0
  9
$EXTMIN
 10
-69.40390613132347
 20
-49.97180738881177
 30
0.0
  9
$EXTMAX
 10
112.5503333333333
 20
83.26130306810431
 30
0.0
  9
$LIMMIN
 10
0.0
 20
0.0
  9
$LIMMAX
 10
420.0
 20
297.0
  9
$ORTHOMODE
 70
     1
  9
$REGENMODE
 70
     1
  9
$FILLMODE
 70
     1
  9
$QTEXTMODE
 70
     0
  9
$MIRRTEXT
 70
     1
  9
$LTSCALE
 40
1.0
  9
$ATTMODE
 70
     1
  9
$TEXTSIZE
 40
3.5
  9
$TRACEWID
 40
1.0
  9
$TEXTSTYLE
  7
Standard
  9
$CLAYER
  8
0
  9
$CELTYPE
  6
ByLayer
  9
$CECOLOR
 62
   256
  9
$CELTSCALE
 40
1.0
  9
$DISPSILH
 70
     0
  9
$DIMSCALE
 40
1.0
  9
$DIMASZ
 40
3.302
  9
$DIMEXO
 40
1.0
  9
$DIMDLI
 40
3.75
  9
$DIMRND
 40
0.0
  9
$DIMDLE
 40
0.0
  9
$DIMEXE
 40
1.0
  9
$DIMTP
 40
0.0
  9
$DIMTM
 40
0.0
  9
$DIMTXT
 40
3.5
  9
$DIMCEN
 40
2.5
  9
$DIMTSZ
 40
0.0
  9
$DIMTOL
 70
     0
  9
$DIMLIM
 70
     0
  9
$DIMTIH
 70
     1
  9
$DIMTOH
 70
     1
  9
$DIMSE1
 70
     0
  9
$DIMSE2
 70
     0
  9
$DIMTAD
 70
     1
  9
$DIMZIN
 70
     0
  9
$DIMBLK
  1

  9
$DIMASO
 70
     1
  9
$DIMSHO
 70
     1
  9
$DIMPOST
  1

  9
$DIMAPOST
  1

  9
$DIMALT
 70
     0
  9
$DIMALTD
 70
     3
  9
$DIMALTF
 40
0.0393700787401575
  9
$DIMLFAC
 40
1.0
  9
$DIMTOFL
 70
     1
  9
$DIMTVP
 40
0.0
  9
$DIMTIX
 70
     0
  9
$DIMSOXD
 70
     0
  9
$DIMSAH
 70
     0
  9
$DIMBLK1
  1

  9
$DIMBLK2
  1

  9
$DIMSTYLE
  2
ISO-25
  9
$DIMCLRD
 70
     0
  9
$DIMCLRE
 70
     0
  9
$DIMCLRT
 70
     0
  9
$DIMTFAC
 40
1.0
  9
$DIMGAP
 40
1.524
  9
$DIMJUST
 70
     0
  9
$DIMSD1
 70
     0
  9
$DIMSD2
 70
     0
  9
$DIMTOLJ
 70
     0
  9
$DIMTZIN
 70
     0
  9
$DIMALTZ
 70
     0
  9
$DIMALTTZ
 70
     0
  9
$DIMUPT
 70
     0
  9
$DIMDEC
 70
     2
  9
$DIMTDEC
 70
     2
  9
$DIMALTU
 70
     2
  9
$DIMALTTD
 70
     3
  9
$DIMTXSTY
  7
Standard
  9
$DIMAUNIT
 70
     0
  9
$DIMADEC
 70
     2
  9
$DIMALTRND
 40
0.0
  9
$DIMAZIN
 70
     0
  9
$DIMDSEP
 70
    44
  9
$DIMATFIT
 70
     3
  9
$DIMFRAC
 70
     0
  9
$DIMLDRBLK
  1

  9
$DIMLUNIT
 70
     2
  9
$DIMLWD
 70
    -2
  9
$DIMLWE
 70
    -2
  9
$DIMTMOVE
 70
     0
  9
$LUNITS
 70
     2
  9
$LUPREC
 70
     2
  9
$SKETCHINC
 40
1.0
  9
$FILLETRAD
 40
10.0
  9
$AUNITS
 70
     0
  9
$AUPREC
 70
     2
  9
$MENU
  1
.
  9
$ELEVATION
 40
0.0
  9
$PELEVATION
 40
0.0
  9
$THICKNESS
 40
0.0
  9
$LIMCHECK
 70
     0
  9
$CHAMFERA
 40
0.0
  9
$CHAMFERB
 40
0.0
  9
$CHAMFERC
 40
0.0
  9
$CHAMFERD
 40
0.0
  9
$SKPOLY
 70
     0
  9
$TDCREATE
 40
2458268.773403113
  9
$TDUCREATE
 40
2458268.398403113
  9
$TDUPDATE
 40
2458270.375881944
  9
$TDUUPDATE
 40
2458270.000881944
  9
$TDINDWG
 40
0.000538044
  9
$TDUSRTIMER
 40
2458270.000344016
  9
$USRTIMER
 70
     1
  9
$ANGBASE
 50
0.0
  9
$ANGDIR
 70
     0
  9
$PDMODE
 70
     0
  9
$PDSIZE
 40
-1.0
  9
$PLINEWID
 40
0.0
  9
$SPLFRAME
 70
     0
  9
$SPLINETYPE
 70
     6
  9
$SPLINESEGS
 70
     8
  9
$HANDSEED
  5
160
  9
$SURFTAB1
 70
     6
  9
$SURFTAB2
 70
     6
  9
$SURFTYPE
 70
     6
  9
$SURFU
 70
     6
  9
$SURFV
 70
     6
  9
$UCSBASE
  2

  9
$UCSNAME
  2

  9
$UCSORG
 10
0.0
 20
0.0
 30
0.0
  9
$UCSXDIR
 10
1.0
 20
0.0
 30
0.0
  9
$UCSYDIR
 10
0.0
 20
1.0
 30
0.0
  9
$UCSORTHOREF
  2

  9
$UCSORTHOVIEW
 70
     0
  9
$UCSORGTOP
 10
0.0
 20
0.0
 30
0.0
  9
$UCSORGBOTTOM
 10
0.0
 20
0.0
 30
0.0
  9
$UCSORGLEFT
 10
0.0
 20
0.0
 30
0.0
  9
$UCSORGRIGHT
 10
0.0
 20
0.0
 30
0.0
  9
$UCSORGFRONT
 10
0.0
 20
0.0
 30
0.0
  9
$UCSORGBACK
 10
0.0
 20
0.0
 30
0.0
  9
$PUCSBASE
  2

  9
$PUCSNAME
  2

  9
$PUCSORG
 10
0.0
 20
0.0
 30
0.0
  9
$PUCSXDIR
 10
1.0
 20
0.0
 30
0.0
  9
$PUCSYDIR
 10
0.0
 20
1.0
 30
0.0
  9
$PUCSORTHOREF
  2

  9
$PUCSORTHOVIEW
 70
     0
  9
$PUCSORGTOP
 10
0.0
 20
0.0
 30
0.0
  9
$PUCSORGBOTTOM
 10
0.0
 20
0.0
 30
0.0
  9
$PUCSORGLEFT
 10
0.0
 20
0.0
 30
0.0
  9
$PUCSORGRIGHT
 10
0.0
 20
0.0
 30
0.0
  9
$PUCSORGFRONT
 10
0.0
 20
0.0
 30
0.0
  9
$PUCSORGBACK
 10
0.0
 20
0.0
 30
0.0
  9
$USERI1
 70
     0
  9
$USERI2
 70
     0
  9
$USERI3
 70
     0
  9
$USERI4
 70
     0
  9
$USERI5
 70
     0
  9
$USERR1
 40
0.0
  9
$USERR2
 40
0.0
  9
$USERR3
 40
0.0
  9
$USERR4
 40
0.0
  9
$USERR5
 40
0.0
  9
$WORLDVIEW
 70
     1
  9
$SHADEDGE
 70
     3
  9
$SHADEDIF
 70
    70
  9
$TILEMODE
 70
     1
  9
$MAXACTVP
 70
    64
  9
$PINSBASE
 10
0.0
 20
0.0
 30
0.0
  9
$PLIMCHECK
 70
     0
  9
$PEXTMIN
 10
1.000000000000000E+20
 20
1.000000000000000E+20
 30
1.000000000000000E+20
  9
$PEXTMAX
 10
-1.000000000000000E+20
 20
-1.000000000000000E+20
 30
-1.000000000000000E+20
  9
$PLIMMIN
 10
0.0
 20
0.0
  9
$PLIMMAX
 10
0.0
 20
0.0
  9
$UNITMODE
 70
     0
  9
$VISRETAIN
 70
     1
  9
$PLINEGEN
 70
     0
  9
$PSLTSCALE
 70
     1
  9
$TREEDEPTH
 70
  3020
  9
$CMLSTYLE
  2
Standard
  9
$CMLJUST
 70
     0
  9
$CMLSCALE
 40
20.0
  9
$PROXYGRAPHICS
 70
     1
  9
$MEASUREMENT
 70
     1
  9
$CELWEIGHT
370
    -1
  9
$ENDCAPS
280
     0
  9
$JOINSTYLE
280
     0
  9
$LWDISPLAY
290
     1
  9
$INSUNITS
 70
     4
  9
$HYPERLINKBASE
  1

  9
$STYLESHEET
  1

  9
$XEDIT
290
     1
  9
$CEPSNTYPE
380
     0
  9
$PSTYLEMODE
290
     1
  9
$FINGERPRINTGUID
  2
{2FFFE9D1-5053-433E-AF39-9D26392FB27B}
  9
$VERSIONGUID
  2
{FAEB1C32-E019-11D5-929B-00C0DF256EC4}
  9
$EXTNAMES
290
     1
  9
$PSVPSCALE
 40
0.0
  9
$OLESTARTUP
290
     0
  0
ENDSEC
  0
SECTION
  2
CLASSES
  0
CLASS
  1
ACDBDICTIONARYWDFLT
  2
AcDbDictionaryWithDefault
  3
ObjectDBX Classes
 90
        0
280
     0
281
     0
  0
CLASS
  1
VISUALSTYLE
  2
AcDbVisualStyle
  3
ObjectDBX Classes
 90
     4095
280
     0
281
     0
  0
CLASS
  1
MATERIAL
  2
AcDbMaterial
  3
ObjectDBX Classes
 90
     1153
280
     0
281
     0
  0
CLASS
  1
SCALE
  2
AcDbScale
  3
ObjectDBX Classes
 90
     1153
280
     0
281
     0
  0
CLASS
  1
SUN
  2
AcDbSun
  3
SCENEOE
 90
     1153
280
     0
281
     0
  0
CLASS
  1
ACDBPLACEHOLDER
  2
AcDbPlaceHolder
  3
ObjectDBX Classes
 90
        0
280
     0
281
     0
  0
CLASS
  1
LAYOUT
  2
AcDbLayout
  3
ObjectDBX Classes
 90
        0
280
     0
281
     0
  0
CLASS
  1
TABLESTYLE
  2
AcDbTableStyle
  3
ObjectDBX Classes
 90
     4095
280
     0
281
     0
  0
CLASS
  1
MLEADERSTYLE
  2
AcDbMLeaderStyle
  3
ACDB_MLEADERSTYLE_CLASS
 90
     4095
280
     0
281
     0
  0
CLASS
  1
RASTERVARIABLES
  2
AcDbRasterVariables
  3
ISM
 90
        0
280
     0
281
     0
  0
ENDSEC
  0
SECTION
  2
TABLES
  0
TABLE
  2
VPORT
  5
8
330
0
100
AcDbSymbolTable
 70
     1
  0
VPORT
  5
29
330
8
100
AcDbSymbolTableRecord
100
AcDbViewportTableRecord
  2
*Active
 70
     0
 10
0.0
 20
0.0
 11
1.0
 21
1.0
 12
7.490371324756616
 22
-6.427222584584978
 13
0.0
 23
0.0
 14
10.0
 24
10.0
 15
10.0
 25
10.0
 16
0.0
 26
0.0
 36
1.0
 17
0.0
 27
0.0
 37
0.0
 40
45.28384111341477
 41
1.627413127413127
 42
50.0
 43
0.0
 44
0.0
 50
0.0
 51
0.0
 71
    16
 72
  2000
 73
     1
 74
     3
 75
     0
 76
     0
 77
     0
 78
     0
281
     0
 65
     1
110
0.0
120
0.0
130
0.0
111
1.0
121
0.0
131
0.0
112
0.0
122
1.0
132
0.0
 79
     0
146
0.0
  0
ENDTAB
  0
TABLE
  2
LTYPE
  5
5
330
0
100
AcDbSymbolTable
 70
     6
  0
LTYPE
  5
14
330
5
100
AcDbSymbolTableRecord
100
AcDbLinetypeTableRecord
  2
ByBlock
 70
     0
  3

 72
    65
 73
     0
 40
0.0
  0
LTYPE
  5
15
330
5
100
AcDbSymbolTableRecord
100
AcDbLinetypeTableRecord
  2
ByLayer
 70
     0
  3

 72
    65
 73
     0
 40
0.0
  0
LTYPE
  5
16
330
5
100
AcDbSymbolTableRecord
100
AcDbLinetypeTableRecord
  2
Continuous
 70
     0
  3
Solid line
 72
    65
 73
     0
 40
0.0
  0
LTYPE
  5
6A
330
5
100
AcDbSymbolTableRecord
100
AcDbLinetypeTableRecord
  2
HIDDEN
 70
     0
  3
Hidden __ __ __ __ __ __ __ __ __ __ __ __ __ __
 72
    65
 73
     2
 40
1.905
 49
1.27
 74
     0
 49
-0.635
 74
     0
  0
LTYPE
  5
6B
330
5
100
AcDbSymbolTableRecord
100
AcDbLinetypeTableRecord
  2
PHANTOM
 70
     0
  3
Phantom ______  __  __  ______  __  __  ______
 72
    65
 73
     6
 40
12.7
 49
6.35
 74
     0
 49
-1.27
 74
     0
 49
1.27
 74
     0
 49
-1.27
 74
     0
 49
1.27
 74
     0
 49
-1.27
 74
     0
  0
LTYPE
  5
6C
330
5
100
AcDbSymbolTableRecord
100
AcDbLinetypeTableRecord
  2
CENTER
 70
     0
  3
Center ____ _ ____ _ ____ _ ____ _ ____ _ ____
 72
    65
 73
     4
 40
10.16
 49
6.35
 74
     0
 49
-1.27
 74
     0
 49
1.27
 74
     0
 49
-1.27
 74
     0
  0
LTYPE
  5
6D
330
5
100
AcDbSymbolTableRecord
100
AcDbLinetypeTableRecord
  2
CENTERX2
 70
     0
  3
Center (2x) ________  __  ________  __  _____
 72
    65
 73
     4
 40
20.32
 49
12.7
 74
     0
 49
-2.54
 74
     0
 49
2.54
 74
     0
 49
-2.54
 74
     0
  0
LTYPE
  5
6E
330
5
100
AcDbSymbolTableRecord
100
AcDbLinetypeTableRecord
  2
DOT2
 70
     0
  3
Dot (.5x) ........................................
 72
    65
 73
     2
 40
0.635
 49
0.0
 74
     0
 49
-0.635
 74
     0
  0
ENDTAB
  0
TABLE
  2
LAYER
  5
2
330
0
100
AcDbSymbolTable
 70
    17
  0
LAYER
  5
10
330
2
100
AcDbSymbolTableRecord
100
AcDbLayerTableRecord
  2
0
 70
     0
 62
     7
  6
Continuous
370
    -3
390
F
  0
LAYER
  5
6F
330
2
100
AcDbSymbolTableRecord
100
AcDbLayerTableRecord
  2
FORMAT
 70
     0
 62
     2
  6
Continuous
370
    -3
390
F
  0
LAYER
  5
70
330
2
100
AcDbSymbolTableRecord
100
AcDbLayerTableRecord
  2
외형선
 70
     0
 62
   100
  6
Continuous
370
    30
390
F
  0
LAYER
  5
71
330
2
100
AcDbSymbolTableRecord
100
AcDbLayerTableRecord
  2
숨은선
 70
     0
 62
     2
  6
HIDDEN
370
    15
390
F
  0
LAYER
  5
72
330
2
100
AcDbSymbolTableRecord
100
AcDbLayerTableRecord
  2
중심선
 70
     0
 62
     1
  6
CENTERX2
370
    -3
390
F
  0
LAYER
  5
73
330
2
100
AcDbSymbolTableRecord
100
AcDbLayerTableRecord
  2
파단선
 70
     0
 62
     4
  6
Continuous
370
    -3
390
F
  0
LAYER
  5
74
330
2
100
AcDbSymbolTableRecord
100
AcDbLayerTableRecord
  2
해칭선
 70
     0
 62
     4
  6
Continuous
370
    -3
390
F
  0
LAYER
  5
75
330
2
100
AcDbSymbolTableRecord
100
AcDbLayerTableRecord
  2
가는실선
 70
     0
 62
     4
  6
Continuous
370
    -3
390
F
  0
LAYER
  5
76
330
2
100
AcDbSymbolTableRecord
100
AcDbLayerTableRecord
  2
치수_보조선
 70
     0
 62
     4
  6
Continuous
370
    -3
390
F
  0
LAYER
  5
77
330
2
100
AcDbSymbolTableRecord
100
AcDbLayerTableRecord
  2
치수문자_일반주서
 70
     0
 62
     7
  6
Continuous
370
    15
390
F
  0
LAYER
  5
78
330
2
100
AcDbSymbolTableRecord
100
AcDbLayerTableRecord
  2
개별주서
 70
     0
 62
   100
  6
Continuous
370
    30
390
F
  0
LAYER
  5
79
330
2
100
AcDbSymbolTableRecord
100
AcDbLayerTableRecord
  2
중간선
 70
     0
 62
     2
  6
Continuous
370
    15
390
F
  0
LAYER
  5
7A
330
2
100
AcDbSymbolTableRecord
100
AcDbLayerTableRecord
  2
윤곽선
 70
     0
 62
     3
  6
Continuous
370
    40
390
F
  0
LAYER
  5
7B
330
2
100
AcDbSymbolTableRecord
100
AcDbLayerTableRecord
  2
중심마크
 70
     0
 62
   100
  6
Continuous
370
    30
390
F
  0
LAYER
  5
7C
330
2
100
AcDbSymbolTableRecord
100
AcDbLayerTableRecord
  2
가상선
 70
     0
 62
     4
  6
PHANTOM
370
    -3
390
F
  0
LAYER
  5
7D
330
2
100
AcDbSymbolTableRecord
100
AcDbLayerTableRecord
  2
특수지정선
 70
     0
 62
     5
  6
CENTERX2
370
    60
390
F
  0
LAYER
  5
156
330
2
100
AcDbSymbolTableRecord
100
AcDbLayerTableRecord
  2
Defpoints
 70
     0
 62
     7
  6
Continuous
290
     0
370
    -3
390
F
  0
ENDTAB
  0
TABLE
  2
STYLE
  5
3
330
0
100
AcDbSymbolTable
 70
     2
  0
STYLE
  5
11
330
3
100
AcDbSymbolTableRecord
100
AcDbTextStyleTableRecord
  2
Standard
 70
     0
 40
0.0
 41
1.0
 50
0.0
 71
     0
 42
3.5
  3
txt
  4

  0
STYLE
  5
93
330
3
100
AcDbSymbolTableRecord
100
AcDbTextStyleTableRecord
  2
SLDTEXTSTYLE0
 70
     0
 40
0.0
 41
0.75
 50
0.0
 71
     0
 42
3.5
  3
TXT
  4

  0
ENDTAB
  0
TABLE
  2
VIEW
  5
6
330
0
100
AcDbSymbolTable
 70
     0
  0
ENDTAB
  0
TABLE
  2
UCS
  5
7
330
0
100
AcDbSymbolTable
 70
     0
  0
ENDTAB
  0
TABLE
  2
APPID
  5
9
330
0
100
AcDbSymbolTable
 70
     1
  0
APPID
  5
12
330
9
100
AcDbSymbolTableRecord
100
AcDbRegAppTableRecord
  2
ACAD
 70
     0
  0
ENDTAB
  0
TABLE
  2
DIMSTYLE
  5
A
330
0
100
AcDbSymbolTable
 70
     3
100
AcDbDimStyleTable
  0
DIMSTYLE
105
27
330
A
100
AcDbSymbolTableRecord
100
AcDbDimStyleTableRecord
  2
ISO-25
 70
     0
 41
2.5
 42
0.625
 43
3.75
 44
1.25
 73
     0
 74
     0
 77
     1
 78
     8
140
2.5
141
2.5
143
0.03937007874016
147
0.625
171
     3
172
     1
178
     0
271
     2
272
     2
274
     3
278
    44
283
     0
284
     8
340
11
  0
DIMSTYLE
105
FC
102
{ACAD_REACTORS
330
FB
330
109
102
}
330
A
100
AcDbSymbolTableRecord
100
AcDbDimStyleTableRecord
  2
SLDDIMSTYLE0
 70
     0
 41
3.302
 44
0.0
 45
0.000000001
 73
     0
 74
     0
 77
     1
 78
    12
 79
     3
140
3.5
147
0.875
172
     1
173
     1
178
     0
271
     2
272
     2
276
     2
284
    12
289
     0
340
93
  0
DIMSTYLE
105
117
102
{ACAD_REACTORS
330
116
330
121
102
}
330
A
100
AcDbSymbolTableRecord
100
AcDbDimStyleTableRecord
  2
SLDDIMSTYLE1
 70
     0
 41
3.302
 44
0.0
 45
0.000000001
 73
     0
 74
     0
 77
     1
 78
    12
 79
     3
140
3.5
147
0.875
173
     1
178
     0
271
     2
272
     2
276
     2
284
    12
340
93
  0
ENDTAB
  0
TABLE
  2
BLOCK_RECORD
  5
1
330
0
100
AcDbSymbolTable
 70
     7
  0
BLOCK_RECORD
  5
1F
330
1
100
AcDbSymbolTableRecord
100
AcDbBlockTableRecord
  2
*Model_Space
340
22
  0
BLOCK_RECORD
  5
1B
330
1
100
AcDbSymbolTableRecord
100
AcDbBlockTableRecord
  2
*Paper_Space
340
1E
  0
BLOCK_RECORD
  5
23
330
1
100
AcDbSymbolTableRecord
100
AcDbBlockTableRecord
  2
*Paper_Space0
340
26
  0
BLOCK_RECORD
  5
7E
330
1
100
AcDbSymbolTableRecord
100
AcDbBlockTableRecord
  2
블럭10
340
0
102
{BLKREFS
331
F4
102
}
  0
BLOCK_RECORD
  5
FD
330
1
100
AcDbSymbolTableRecord
100
AcDbBlockTableRecord
  2
_D
340
0
  0
BLOCK_RECORD
  5
10A
330
1
100
AcDbSymbolTableRecord
100
AcDbBlockTableRecord
  2
_D_1
340
0
  0
BLOCK_RECORD
  5
118
330
1
100
AcDbSymbolTableRecord
100
AcDbBlockTableRecord
  2
_D_2
340
0
  0
BLOCK_RECORD
  5
122
330
1
100
AcDbSymbolTableRecord
100
AcDbBlockTableRecord
  2
_D_3
340
0
  0
BLOCK_RECORD
  5
12B
330
1
100
AcDbSymbolTableRecord
100
AcDbBlockTableRecord
  2
SW_DOWELSYMBOL_0
340
0
102
{BLKREFS
331
131
102
}
  0
ENDTAB
  0
ENDSEC
  0
SECTION
  2
BLOCKS
  0
BLOCK
  5
20
330
1F
100
AcDbEntity
  8
0
100
AcDbBlockBegin
  2
*Model_Space
 70
     0
 10
0.0
 20
0.0
 30
0.0
  3
*Model_Space
  1
*Model_Space
  0
ENDBLK
  5
21
330
1F
100
AcDbEntity
  8
0
100
AcDbBlockEnd
  0
BLOCK
  5
1C
330
1B
100
AcDbEntity
 67
     1
  8
0
100
AcDbBlockBegin
  2
*Paper_Space
 70
     0
 10
0.0
 20
0.0
 30
0.0
  3
*Paper_Space
  1
*Paper_Space
  0
ENDBLK
  5
1D
330
1B
100
AcDbEntity
 67
     1
  8
0
100
AcDbBlockEnd
  0
BLOCK
  5
24
330
23
100
AcDbEntity
  8
0
100
AcDbBlockBegin
  2
*Paper_Space0
 70
     0
 10
0.0
 20
0.0
 30
0.0
  3
*Paper_Space0
  1
*Paper_Space0
  0
ENDBLK
  5
25
330
23
100
AcDbEntity
  8
0
100
AcDbBlockEnd
  0
BLOCK
  5
7F
330
7E
100
AcDbEntity
  8
0
100
AcDbBlockBegin
  2
블럭10
 70
     2
 10
0.0
 20
0.0
 30
0.0
  3
블럭10
  1
블럭10
  0
ELLIPSE
  5
81
330
7E
100
AcDbEntity
  8
중심선
100
AcDbEllipse
 10
20.54032771741204
 20
12.0471743016438
 30
0.0
 11
6.600054785286829
 21
-1.261213355974178E-13
 31
0.0
210
0.0
220
0.0
230
1.0
 40
0.636358354079598
 41
0.9219305317359503
 42
6.513795318482858
  0
ELLIPSE
  5
82
330
7E
100
AcDbEntity
  8
중심선
100
AcDbEllipse
 10
20.54032771746488
 20
12.04717430159265
 30
0.0
 11
3.960054785062283
 21
1.540847449632565E-10
 31
0.0
210
0.0
220
0.0
230
1.0
 40
0.3939339440162632
 41
1.131841032648279
 42
5.62031148352944
  0
LINE
  5
83
330
7E
100
AcDbEntity
  8
중심선
100
AcDbLine
 10
2.268634060543552
 20
16.24717430164393
 30
0.0
 11
5.714909304380834
 21
16.24717430164393
 31
0.0
  0
LINE
  5
84
330
7E
100
AcDbEntity
  8
중심선
100
AcDbLine
 10
5.245725140726316
 20
7.84717430164391
 30
0.0
 11
8.692000384563599
 21
7.84717430164391
 31
0.0
  0
LINE
  5
85
330
7E
100
AcDbEntity
  8
중심선
100
AcDbLine
 10
15.74043728645272
 20
16.24717430164393
 30
0.0
 11
8.692000384563599
 21
7.84717430164391
 31
0.0
  0
LINE
  5
86
330
7E
100
AcDbEntity
  8
중심선
100
AcDbLine
 10
0.1404042013395286
 20
13.71084872107135
 30
0.0
 11
3.58671253028996
 21
13.71088815037384
 31
0.0
  0
LINE
  5
87
330
7E
100
AcDbEntity
  8
중심선
100
AcDbLine
 10
2.750260043222114
 20
10.84717430164391
 30
0.0
 11
6.196535287059397
 21
10.84717430164391
 31
0.0
  0
LINE
  5
88
330
7E
100
AcDbEntity
  8
중심선
100
AcDbLine
 10
12.29416204261559
 20
16.24717430164393
 30
0.0
 11
5.245725140726316
 21
7.84717430164391
 31
0.0
  0
LINE
  5
89
330
7E
100
AcDbEntity
  8
중심선
100
AcDbLine
 10
10.72767329541681
 20
16.24717430164393
 30
0.0
 11
6.196535287059397
 21
10.84717430164391
 31
0.0
  0
LINE
  5
8A
330
7E
100
AcDbEntity
  8
중심선
100
AcDbLine
 10
7.28139805157953
 20
16.24717430164393
 30
0.0
 11
2.750260043222114
 21
10.84717430164391
 31
0.0
  0
LINE
  5
8B
330
7E
100
AcDbEntity
  8
중심선
100
AcDbLine
 10
5.714909304380834
 20
16.24717430164393
 30
0.0
 11
3.58671253028996
 21
13.71088815037384
 31
0.0
  0
LINE
  5
8C
330
7E
100
AcDbEntity
  8
중심선
100
AcDbLine
 10
2.268634060543552
 20
16.24717430164393
 30
0.0
 11
0.1404042013395286
 21
13.71084872107135
 31
0.0
  0
LINE
  5
8D
330
7E
100
AcDbEntity
  8
중심선
100
AcDbLine
 10
7.28139805157953
 20
16.24717430164393
 30
0.0
 11
10.72767329541681
 21
16.24717430164393
 31
0.0
  0
LINE
  5
8E
330
7E
100
AcDbEntity
  8
중심선
100
AcDbLine
 10
12.29416204261559
 20
16.24717430164393
 30
0.0
 11
15.74043728645272
 21
16.24717430164393
 31
0.0
  0
LINE
  5
8F
330
7E
100
AcDbEntity
  8
중심선
100
AcDbLine
 10
19.22036997980202
 20
11.08717430171403
 30
0.0
 11
23.66174974927406
 21
11.08717430171406
 31
0.0
  0
LINE
  5
90
330
7E
100
AcDbEntity
  8
중심선
100
AcDbLine
 10
19.22039502424796
 20
13.00717430171391
 30
0.0
 11
19.22036997980202
 21
11.08717430171403
 31
0.0
  0
LINE
  5
91
330
7E
100
AcDbEntity
  8
중심선
100
AcDbLine
 10
19.22039502424796
 20
13.00717430171391
 30
0.0
 11
26.96566020931264
 21
13.00717430171391
 31
0.0
  0
LINE
  5
92
330
7E
100
AcDbEntity
  8
중심선
100
AcDbLine
 10
22.22332737316547
 20
13.45928029700563
 30
0.0
 11
24.52862924686651
 21
15.39360700705356
 31
0.0
  0
ATTDEF
  5
94
330
7E
100
AcDbEntity
  8
FORMAT
 62
     2
100
AcDbText
 10
-16.11926103943555
 20
2.075366912832191
 30
0.0
 40
4.233333333333333
  1
SEME7516090E [ 6 FLUTE ]
 41
0.75
  7
SLDTEXTSTYLE0
 11
-16.11926103943555
 21
-0.0412997538344756
 31
0.0
100
AcDbAttributeDefinition
  3

  2
AUTOATTR0
 70
     0
 74
     1
  0
ENDBLK
  5
80
330
7E
100
AcDbEntity
  8
0
100
AcDbBlockEnd
  0
BLOCK
  5
FE
330
FD
100
AcDbEntity
  8
0
100
AcDbBlockBegin
  2
_D
 70
     0
 10
0.0
 20
0.0
 30
0.0
  3
_D
  1
_D
  0
LINE
  5
100
330
FD
100
AcDbEntity
  8
치수문자_일반주서
 62
     0
370
    -2
100
AcDbLine
 10
-46.46250000000001
 20
7.999999999999986
 30
0.0
 11
-65.02890613132348
 21
7.999999999999917
 31
0.0
  0
LINE
  5
101
330
FD
100
AcDbEntity
  8
치수문자_일반주서
 62
     0
370
    -2
100
AcDbLine
 10
-46.46250000000001
 20
-8.000000000000028
 30
0.0
 11
-65.02890613132342
 21
-8.000000000000098
 31
0.0
  0
LINE
  5
102
330
FD
100
AcDbEntity
  8
치수문자_일반주서
 62
     0
370
    -2
100
AcDbLine
 10
-65.02890613132347
 20
4.697999999999917
 30
0.0
 11
-65.02890613132344
 21
-4.698000000000098
 31
0.0
  0
SOLID
  5
103
330
FD
100
AcDbEntity
  8
치수문자_일반주서
 62
     0
100
AcDbTrace
 10
-64.47857279799014
 20
4.697999999999919
 30
0.0
 11
-65.5792394646568
 21
4.697999999999915
 31
0.0
 12
-65.02890613132348
 22
7.999999999999917
 32
0.0
 13
-65.02890613132348
 23
7.999999999999917
 33
0.0
  0
SOLID
  5
104
330
FD
100
AcDbEntity
  8
치수문자_일반주서
 62
     0
100
AcDbTrace
 10
-65.57923946465677
 20
-4.6980000000001
 30
0.0
 11
-64.47857279799011
 21
-4.698000000000096
 31
0.0
 12
-65.02890613132342
 22
-8.000000000000098
 32
0.0
 13
-65.02890613132342
 23
-8.000000000000098
 33
0.0
  0
MTEXT
  5
105
330
FD
100
AcDbEntity
  8
치수문자_일반주서
 62
     0
100
AcDbMText
 10
-69.40390613132345
 20
-0.0000000000000349
 30
0.0
 40
3.5
 41
0.0
 71
     2
 72
     1
  1
\A1;%%c16
  7
SLDTEXTSTYLE0
 11
-3.552713678800498E-15
 21
1.0
 31
0.0
 73
     1
 44
1.0
  0
POINT
  5
106
330
FD
100
AcDbEntity
  8
Defpoints
 62
     0
100
AcDbPoint
 10
-46.40000000000001
 20
7.999999999999986
 30
0.0
  0
POINT
  5
107
330
FD
100
AcDbEntity
  8
Defpoints
 62
     0
100
AcDbPoint
 10
-46.40000000000001
 20
-8.000000000000028
 30
0.0
  0
POINT
  5
108
330
FD
100
AcDbEntity
  8
Defpoints
 62
     0
100
AcDbPoint
 10
-65.02890613132345
 20
-8.000000000000098
 30
0.0
  0
ENDBLK
  5
FF
330
FD
100
AcDbEntity
  8
0
100
AcDbBlockEnd
  0
BLOCK
  5
10B
330
10A
100
AcDbEntity
  8
0
100
AcDbBlockBegin
  2
_D_1
 70
     0
 10
0.0
 20
0.0
 30
0.0
  3
_D_1
  1
_D_1
  0
LINE
  5
10D
330
10A
100
AcDbEntity
  8
치수문자_일반주서
 62
     0
370
    -2
100
AcDbLine
 10
102.0625
 20
7.999999999999984
 30
0.0
 11
111.9999999999999
 21
8.000000000000021
 31
0.0
  0
LINE
  5
10E
330
10A
100
AcDbEntity
  8
치수문자_일반주서
 62
     0
370
    -2
100
AcDbLine
 10
102.0625
 20
-8.000000000000027
 30
0.0
 11
112.0
 21
-7.999999999999989
 31
0.0
  0
LINE
  5
10F
330
10A
100
AcDbEntity
  8
치수문자_일반주서
 62
     0
370
    -2
100
AcDbLine
 10
112.0
 20
4.698000000000022
 30
0.0
 11
112.0
 21
-4.69799999999999
 31
0.0
  0
SOLID
  5
110
330
10A
100
AcDbEntity
  8
치수문자_일반주서
 62
     0
100
AcDbTrace
 10
112.5503333333333
 20
4.698000000000023
 30
0.0
 11
111.4496666666666
 21
4.69800000000002
 31
0.0
 12
111.9999999999999
 22
8.000000000000021
 32
0.0
 13
111.9999999999999
 23
8.000000000000021
 33
0.0
  0
SOLID
  5
111
330
10A
100
AcDbEntity
  8
치수문자_일반주서
 62
     0
100
AcDbTrace
 10
111.4496666666667
 20
-4.697999999999992
 30
0.0
 11
112.5503333333333
 21
-4.697999999999988
 31
0.0
 12
112.0
 22
-7.999999999999989
 32
0.0
 13
112.0
 23
-7.999999999999989
 33
0.0
  0
MTEXT
  5
112
330
10A
100
AcDbEntity
  8
치수문자_일반주서
 62
     0
100
AcDbMText
 10
107.625
 20
1.055089200153551
 30
0.0
 40
3.5
 41
0.0
 71
     2
 72
     1
  1
\A1;%%c16
  7
SLDTEXTSTYLE0
 11
-3.552713678800499E-15
 21
1.0
 31
0.0
 73
     1
 44
1.0
  0
POINT
  5
113
330
10A
100
AcDbEntity
  8
Defpoints
 62
     0
100
AcDbPoint
 10
102.0
 20
7.999999999999984
 30
0.0
  0
POINT
  5
114
330
10A
100
AcDbEntity
  8
Defpoints
 62
     0
100
AcDbPoint
 10
102.0
 20
-8.000000000000027
 30
0.0
  0
POINT
  5
115
330
10A
100
AcDbEntity
  8
Defpoints
 62
     0
100
AcDbPoint
 10
112.0
 20
-7.999999999999989
 30
0.0
  0
ENDBLK
  5
10C
330
10A
100
AcDbEntity
  8
0
100
AcDbBlockEnd
  0
BLOCK
  5
119
330
118
100
AcDbEntity
  8
0
100
AcDbBlockBegin
  2
_D_2
 70
     0
 10
0.0
 20
0.0
 30
0.0
  3
_D_2
  1
_D_2
  0
LINE
  5
11B
330
118
100
AcDbEntity
  8
치수문자_일반주서
 62
     0
370
    -2
100
AcDbLine
 10
12.0
 20
7.974664935003323
 30
0.0
 11
12.0
 21
51.40700555364513
 31
0.0
  0
LINE
  5
11C
330
118
100
AcDbEntity
  8
치수문자_일반주서
 62
     0
370
    -2
100
AcDbLine
 10
102.0
 20
8.004120407234684
 30
0.0
 11
102.0
 21
51.40700555364513
 31
0.0
  0
LINE
  5
11D
330
118
100
AcDbEntity
  8
치수문자_일반주서
 62
     0
370
    -2
100
AcDbLine
 10
15.302
 20
51.40700555364513
 30
0.0
 11
98.69800000000001
 21
51.40700555364513
 31
0.0
  0
SOLID
  5
11E
330
118
100
AcDbEntity
  8
치수문자_일반주서
 62
     0
100
AcDbTrace
 10
15.302
 20
51.95733888697846
 30
0.0
 11
15.302
 21
50.85667222031179
 31
0.0
 12
12.0
 22
51.40700555364513
 32
0.0
 13
12.0
 23
51.40700555364513
 33
0.0
  0
SOLID
  5
11F
330
118
100
AcDbEntity
  8
치수문자_일반주서
 62
     0
100
AcDbTrace
 10
98.69800000000001
 20
50.85667222031179
 30
0.0
 11
98.69800000000001
 21
51.95733888697846
 31
0.0
 12
102.0
 22
51.40700555364513
 32
0.0
 13
102.0
 23
51.40700555364513
 33
0.0
  0
MTEXT
  5
120
330
118
100
AcDbEntity
  8
치수문자_일반주서
 62
     0
100
AcDbMText
 10
48.83248898771784
 20
55.78200555364513
 30
0.0
 40
3.5
 41
0.0
 71
     2
 72
     1
  1
\A1;90
  7
SLDTEXTSTYLE0
 73
     1
 44
1.0
  0
POINT
  5
159
330
118
100
AcDbEntity
  8
Defpoints
 62
     0
100
AcDbPoint
 10
12.0
 20
7.912164935003323
 30
0.0
  0
POINT
  5
15A
330
118
100
AcDbEntity
  8
Defpoints
 62
     0
100
AcDbPoint
 10
102.0
 20
7.941620407234685
 30
0.0
  0
POINT
  5
15B
330
118
100
AcDbEntity
  8
Defpoints
 62
     0
100
AcDbPoint
 10
102.0
 20
51.40700555364513
 30
0.0
  0
ENDBLK
  5
11A
330
118
100
AcDbEntity
  8
0
100
AcDbBlockEnd
  0
BLOCK
  5
123
330
122
100
AcDbEntity
  8
0
100
AcDbBlockBegin
  2
_D_3
 70
     0
 10
0.0
 20
0.0
 30
0.0
  3
_D_3
  1
_D_3
  0
LINE
  5
125
330
122
100
AcDbEntity
  8
치수문자_일반주서
 62
     0
370
    -2
100
AcDbLine
 10
102.0
 20
8.004120407234684
 30
0.0
 11
102.0
 21
78.88630306810431
 31
0.0
  0
LINE
  5
126
330
122
100
AcDbEntity
  8
치수문자_일반주서
 62
     0
370
    -2
100
AcDbLine
 10
-48.0
 20
6.462499999999986
 30
0.0
 11
-48.0
 21
78.88630306810431
 31
0.0
  0
LINE
  5
127
330
122
100
AcDbEntity
  8
치수문자_일반주서
 62
     0
370
    -2
100
AcDbLine
 10
98.69800000000001
 20
78.88630306810431
 30
0.0
 11
-44.698
 21
78.88630306810431
 31
0.0
  0
SOLID
  5
128
330
122
100
AcDbEntity
  8
치수문자_일반주서
 62
     0
100
AcDbTrace
 10
98.69800000000001
 20
78.33596973477098
 30
0.0
 11
98.69800000000001
 21
79.43663640143764
 31
0.0
 12
102.0
 22
78.88630306810431
 32
0.0
 13
102.0
 23
78.88630306810431
 33
0.0
  0
SOLID
  5
129
330
122
100
AcDbEntity
  8
치수문자_일반주서
 62
     0
100
AcDbTrace
 10
-44.698
 20
79.43663640143764
 30
0.0
 11
-44.698
 21
78.33596973477098
 31
0.0
 12
-48.0
 22
78.88630306810431
 32
0.0
 13
-48.0
 23
78.88630306810431
 33
0.0
  0
MTEXT
  5
12A
330
122
100
AcDbEntity
  8
치수문자_일반주서
 62
     0
100
AcDbMText
 10
31.64724479764078
 20
83.26130306810431
 30
0.0
 40
3.5
 41
0.0
 71
     2
 72
     1
  1
\A1;150
  7
SLDTEXTSTYLE0
 73
     1
 44
1.0
  0
POINT
  5
15C
330
122
100
AcDbEntity
  8
Defpoints
 62
     0
100
AcDbPoint
 10
102.0
 20
7.941620407234685
 30
0.0
  0
POINT
  5
15D
330
122
100
AcDbEntity
  8
Defpoints
 62
     0
100
AcDbPoint
 10
-48.0
 20
6.399999999999986
 30
0.0
  0
POINT
  5
15E
330
122
100
AcDbEntity
  8
Defpoints
 62
     0
100
AcDbPoint
 10
-48.0
 20
78.88630306810431
 30
0.0
  0
ENDBLK
  5
124
330
122
100
AcDbEntity
  8
0
100
AcDbBlockEnd
  0
BLOCK
  5
12C
330
12B
100
AcDbEntity
  8
0
100
AcDbBlockBegin
  2
SW_DOWELSYMBOL_0
 70
     0
 10
0.0
 20
0.0
 30
0.0
  3
SW_DOWELSYMBOL_0
  1
SW_DOWELSYMBOL_0
  0
CIRCLE
  5
12E
330
12B
100
AcDbEntity
  8
외형선
 62
     0
100
AcDbCircle
 10
0.0
 20
0.0
 30
0.0
 40
3.000000000000008
  0
HATCH
  5
12F
330
12B
100
AcDbEntity
  8
0
  6
Continuous
 62
     0
370
    30
100
AcDbHatch
 10
0.0
 20
0.0
 30
0.0
210
0.0
220
0.0
230
1.0
  2
SOLID
 70
     1
 71
     0
 91
        1
 92
        0
 93
        3
 72
     2
 10
0.0
 20
0.0
 40
3.000000000000008
 50
0.0
 51
90.0
 73
     1
 72
     1
 10
0.0
 20
3.000000000000008
 11
0.0
 21
0.0
 72
     1
 10
0.0
 20
0.0
 11
3.000000000000008
 21
0.0
 97
        0
 75
     0
 76
     1
 98
        1
 10
0.0
 20
0.0
  0
HATCH
  5
130
330
12B
100
AcDbEntity
  8
0
  6
Continuous
 62
     0
370
    30
100
AcDbHatch
 10
0.0
 20
0.0
 30
0.0
210
0.0
220
0.0
230
1.0
  2
SOLID
 70
     1
 71
     0
 91
        1
 92
        0
 93
        3
 72
     2
 10
0.0
 20
0.0
 40
3.000000000000008
 50
180.0
 51
270.0000000000008
 73
     1
 72
     1
 10
0.0
 20
-3.000000000000008
 11
0.0
 21
0.0
 72
     1
 10
0.0
 20
0.0
 11
-3.000000000000008
 21
0.0
 97
        0
 75
     0
 76
     1
 98
        1
 10
0.0
 20
0.0
  0
ENDBLK
  5
12D
330
12B
100
AcDbEntity
  8
0
100
AcDbBlockEnd
  0
ENDSEC
  0
SECTION
  2
ENTITIES
  0
LINE
  5
95
330
1F
100
AcDbEntity
  8
0
  6
Continuous
 62
     1
370
    15
100
AcDbLine
 10
24.90275399239846
 20
-1.516174085140473
 30
0.0
 11
24.98919934744928
 21
-1.599175258080189
 31
0.0
  0
LINE
  5
96
330
1F
100
AcDbEntity
  8
0
  6
Continuous
 62
     1
370
    15
100
AcDbLine
 10
28.28840788447801
 20
1.52784047497738
 30
0.0
 11
28.21352204714203
 21
1.599990370258309
 31
0.0
  0
LINE
  5
97
330
1F
100
AcDbEntity
  8
0
  6
Continuous
 62
     1
370
    15
100
AcDbLine
 10
78.56278328096437
 20
1.519190992783956
 30
0.0
 11
78.47986627014538
 21
1.599145317298627
 31
0.0
  0
LINE
  5
98
330
1F
100
AcDbEntity
  8
0
  6
Continuous
 62
     1
370
    15
100
AcDbLine
 10
75.17416585800825
 20
-1.521413700707208
 30
0.0
 11
75.25546999291939
 21
-1.599948160601103
 31
0.0
  0
LINE
  5
99
330
1F
100
AcDbEntity
  8
0
  6
Continuous
 62
     1
370
    15
100
AcDbLine
 10
50.0488251571615
 20
-1.528440938196947
 30
0.0
 11
50.12248115376799
 21
-1.599705354472768
 31
0.0
  0
LINE
  5
9A
330
1F
100
AcDbEntity
  8
0
  6
Continuous
 62
     1
370
    15
100
AcDbLine
 10
45.058255435888
 20
1.512986113742205
 30
0.0
 11
44.96754767507804
 21
1.600246613211527
 31
0.0
  0
LINE
  5
9B
330
1F
100
AcDbEntity
  8
0
  6
Continuous
 62
     1
370
    15
100
AcDbLine
 10
19.91860393495308
 20
1.51938715451007
 30
0.0
 11
19.8353675960489
 21
1.599698137554155
 31
0.0
  0
LINE
  5
9C
330
1F
100
AcDbEntity
  8
0
  6
Continuous
 62
     1
370
    15
100
AcDbLine
 10
66.80511644247329
 20
-1.528237831046779
 30
0.0
 11
66.87976497038115
 21
-1.600076260386066
 31
0.0
  0
LINE
  5
9D
330
1F
100
AcDbEntity
  8
0
  6
Continuous
 62
     1
370
    15
100
AcDbLine
 10
67.52265243047779
 20
-8.000000000000027
 30
0.0
 11
69.455985381814
 21
-8.000000000000027
 31
0.0
  0
LINE
  5
9E
330
1F
100
AcDbEntity
  8
0
  6
Continuous
 62
     1
370
    15
100
AcDbLine
 10
17.25612568413555
 20
-8.000000000000027
 30
0.0
 11
19.19055615845367
 21
-8.000000000000027
 31
0.0
  0
LINE
  5
9F
330
1F
100
AcDbEntity
  8
0
  6
Continuous
 62
     1
370
    15
100
AcDbLine
 10
44.32463864215703
 20
7.999999999999984
 30
0.0
 11
42.39016909099979
 21
7.999999999999984
 31
0.0
  0
LINE
  5
A0
330
1F
100
AcDbEntity
  8
0
  6
Continuous
 62
     1
370
    15
100
AcDbLine
 10
94.59008779453416
 20
7.999999999999984
 30
0.0
 11
92.65532336924555
 21
7.999999999999984
 31
0.0
  0
LINE
  5
A1
330
1F
100
AcDbEntity
  8
0
  6
Continuous
 62
     1
370
    15
100
AcDbLine
 10
75.90075279705226
 20
-8.000000000000027
 30
0.0
 11
77.83331655733404
 21
-8.000000000000027
 31
0.0
  0
LINE
  5
A2
330
1F
100
AcDbEntity
  8
0
  6
Continuous
 62
     1
370
    15
100
AcDbLine
 10
25.63464836432139
 20
-8.000000000000027
 30
0.0
 11
27.56757299592397
 21
-8.000000000000027
 31
0.0
  0
LINE
  5
A3
330
1F
100
AcDbEntity
  8
0
  6
Continuous
 62
     1
370
    15
100
AcDbLine
 10
52.70273889107699
 20
7.999999999999984
 30
0.0
 11
50.76722500845511
 21
7.999999999999984
 31
0.0
  0
LINE
  5
A4
330
1F
100
AcDbEntity
  8
0
  6
Continuous
 62
     1
370
    15
100
AcDbLine
 10
102.0
 20
7.999999999999984
 30
0.0
 11
101.0321687281265
 21
7.999999999999984
 31
0.0
  0
LINE
  5
A5
330
1F
100
AcDbEntity
  8
0
  6
Continuous
 62
     1
370
    15
100
AcDbLine
 10
101.0321687281265
 20
-8.000000000000027
 30
0.0
 11
102.0
 21
-8.000000000000027
 31
0.0
  0
LINE
  5
A6
330
1F
100
AcDbEntity
  8
0
  6
Continuous
 62
     1
370
    15
100
AcDbLine
 10
50.76722500845514
 20
-8.000000000000027
 30
0.0
 11
52.70273889107706
 21
-8.000000000000027
 31
0.0
  0
LINE
  5
A7
330
1F
100
AcDbEntity
  8
0
  6
Continuous
 62
     1
370
    15
100
AcDbLine
 10
27.56757299592402
 20
7.999999999999984
 30
0.0
 11
25.6346483643214
 21
7.999999999999984
 31
0.0
  0
LINE
  5
A8
330
1F
100
AcDbEntity
  8
0
  6
Continuous
 62
     1
370
    15
100
AcDbLine
 10
77.8333165573341
 20
7.999999999999984
 30
0.0
 11
75.90075279705225
 21
7.999999999999984
 31
0.0
  0
LINE
  5
A9
330
1F
100
AcDbEntity
  8
0
  6
Continuous
 62
     1
370
    15
100
AcDbLine
 10
92.65532336924552
 20
-8.000000000000027
 30
0.0
 11
94.59008779453416
 21
-8.000000000000027
 31
0.0
  0
LINE
  5
AA
330
1F
100
AcDbEntity
  8
0
  6
Continuous
 62
     1
370
    15
100
AcDbLine
 10
42.39016909099976
 20
-8.000000000000027
 30
0.0
 11
44.32463864215707
 21
-8.000000000000027
 31
0.0
  0
LINE
  5
AB
330
1F
100
AcDbEntity
  8
0
  6
Continuous
 62
     1
370
    15
100
AcDbLine
 10
19.19055615845362
 20
7.999999999999984
 30
0.0
 11
17.25612568413548
 21
7.999999999999984
 31
0.0
  0
LINE
  5
AC
330
1F
100
AcDbEntity
  8
0
  6
Continuous
 62
     1
370
    15
100
AcDbLine
 10
69.45598538181406
 20
7.999999999999984
 30
0.0
 11
67.52265243047772
 21
7.999999999999984
 31
0.0
  0
LINE
  5
AD
330
1F
100
AcDbEntity
  8
0
  6
Continuous
 62
     1
370
    15
100
AcDbLine
 10
84.27823494268131
 20
-8.000000000000027
 30
0.0
 11
86.21163451361923
 21
-8.000000000000027
 31
0.0
  0
LINE
  5
AE
330
1F
100
AcDbEntity
  8
0
  6
Continuous
 62
     1
370
    15
100
AcDbLine
 10
34.01246807640632
 20
-8.000000000000027
 30
0.0
 11
35.94596755320822
 21
-8.000000000000027
 31
0.0
  0
LINE
  5
AF
330
1F
100
AcDbEntity
  8
0
  6
Continuous
 62
     1
370
    15
100
AcDbLine
 10
61.07964058754933
 20
7.999999999999984
 30
0.0
 11
59.14455779622875
 21
7.999999999999984
 31
0.0
  0
LINE
  5
B0
330
1F
100
AcDbEntity
  8
0
  6
Continuous
 62
     1
370
    15
100
AcDbLine
 10
59.1445577962288
 20
-8.000000000000027
 30
0.0
 11
61.07964058754936
 21
-8.000000000000027
 31
0.0
  0
LINE
  5
B1
330
1F
100
AcDbEntity
  8
0
  6
Continuous
 62
     1
370
    15
100
AcDbLine
 10
35.94596755320825
 20
7.999999999999984
 30
0.0
 11
34.01246807640641
 21
7.999999999999984
 31
0.0
  0
LINE
  5
B2
330
1F
100
AcDbEntity
  8
0
  6
Continuous
 62
     1
370
    15
100
AcDbLine
 10
86.21163451361933
 20
7.999999999999984
 30
0.0
 11
84.27823494268137
 21
7.999999999999984
 31
0.0
  0
LINE
  5
B3
330
1F
100
AcDbEntity
  8
0
  6
Continuous
 62
   131
370
    15
100
AcDbLine
 10
-46.40000000000001
 20
-8.000000000000021
 30
0.0
 11
11.00022868160751
 21
-8.000000000000021
 31
0.0
  0
LINE
  5
B4
330
1F
100
AcDbEntity
  8
0
  6
Continuous
 62
   131
370
    15
100
AcDbLine
 10
11.00022868160751
 20
7.999999999999979
 30
0.0
 11
-46.40000000000001
 21
7.999999999999979
 31
0.0
  0
LINE
  5
B5
330
1F
100
AcDbEntity
  8
0
  6
Continuous
 62
   131
370
    15
100
AcDbLine
 10
-46.40000000000001
 20
7.999999999999982
 30
0.0
 11
-48.0
 21
6.399999999999986
 31
0.0
  0
LINE
  5
B6
330
1F
100
AcDbEntity
  8
0
  6
Continuous
 62
   131
370
    15
100
AcDbLine
 10
-48.0
 20
-6.40000000000003
 30
0.0
 11
-46.40000000000001
 21
-8.000000000000025
 31
0.0
  0
SPLINE
  5
B7
330
1F
100
AcDbEntity
  8
0
  6
Continuous
 62
     1
370
    15
100
AcDbSpline
210
0.0
220
0.0
230
1.0
 70
     8
 71
     3
 72
    24
 73
    20
 74
     0
 42
0.000000001
 43
0.00000001
 40
0.0
 40
0.0
 40
0.0
 40
0.0
 40
0.0636206584069309
 40
0.1272486895808877
 40
0.1908889912654977
 40
0.2545464259551941
 40
0.3182122786040268
 40
0.3818600020390736
 40
0.4416661479936784
 40
0.5014559614905162
 40
0.5612463575022805
 40
0.621054247227769
 40
0.6808964286771141
 40
0.7407470405534025
 40
0.8005605219591394
 40
0.8603530963151113
 40
0.92014166071022
 40
0.9799431382106877
 40
1.0
 40
1.0
 40
1.0
 40
1.0
 10
12.0
 20
7.912164935003327
 30
0.0
 10
12.57612181658842
 20
7.791309919491812
 30
0.0
 10
13.72843221443002
 20
7.549585883019989
 30
0.0
 10
15.45715398980187
 20
6.737115065237862
 30
0.0
 10
17.18636417430479
 20
5.63749890760523
 30
0.0
 10
18.91618494099588
 20
4.268365480282715
 30
0.0
 10
20.64624123153676
 20
2.702621351693317
 30
0.0
 10
22.3411565520431
 20
1.044299826426573
 30
0.0
 10
24.00038711613377
 20
-0.623233246696418
 30
0.0
 10
25.62449108296229
 20
-2.230431324492064
 30
0.0
 10
27.2486210807021
 20
-3.745887311323687
 30
0.0
 10
28.87343124745863
 20
-5.107605097818154
 30
0.0
 10
30.49938113659823
 20
-6.259123431303881
 30
0.0
 10
32.12559233851583
 20
-7.153581487786388
 30
0.0
 10
33.75060305519989
 20
-7.752503157219432
 30
0.0
 10
35.37482230482198
 20
-8.038101620147112
 30
0.0
 10
36.99889569693597
 20
-7.972502704735293
 30
0.0
 10
38.2632539793633
 20
-7.726637828782158
 30
0.0
 10
38.98655290651483
 20
-7.40657744033224
 30
0.0
 10
39.16821341615294
 20
-7.326192510812485
 30
0.0
  0
SPLINE
  5
B8
330
1F
100
AcDbEntity
  8
0
  6
Continuous
 62
     1
370
    15
100
AcDbSpline
210
0.0
220
0.0
230
1.0
 70
     8
 71
     3
 72
    26
 73
    22
 74
     0
 42
0.000000001
 43
0.00000001
 40
0.0
 40
0.0
 40
0.0
 40
0.0
 40
0.0104111718199979
 40
0.067748262583986
 40
0.1250522381356174
 40
0.1823391904920976
 40
0.239625321810415
 40
0.2969268395667496
 40
0.3542598516628753
 40
0.4116069276434823
 40
0.4689183024181971
 40
0.5262082737231323
 40
0.5834930241622738
 40
0.6407887701594628
 40
0.6981116569419579
 40
0.7554628361577482
 40
0.8127827912532358
 40
0.8700769727963528
 40
0.927361536137111
 40
0.9846526989118297
 40
0.9999999999999999
 40
0.9999999999999999
 40
0.9999999999999999
 40
0.9999999999999999
 10
61.07964058754933
 20
7.975508187627748
 30
0.0
 10
61.17807081542898
 20
7.983217337617176
 30
0.0
 10
61.81858247347138
 20
8.033382825884297
 30
0.0
 10
63.00087763812064
 20
7.805676790682962
 30
0.0
 10
64.62569083161691
 20
7.281822538180608
 30
0.0
 10
66.24983088869742
 20
6.429129813085467
 30
0.0
 10
67.87392793156606
 20
5.320065536114352
 30
0.0
 10
69.49866094563353
 20
3.989963317080417
 30
0.0
 10
71.12449857060747
 20
2.496294104796717
 30
0.0
 10
72.75079351076805
 20
0.9000788648497491
 30
0.0
 10
74.37589071801331
 20
-0.7334768985268972
 30
0.0
 10
76.00016439463778
 20
-2.33653308051969
 30
0.0
 10
77.62419575296013
 20
-3.843468964666807
 30
0.0
 10
79.24870598342403
 20
-5.192559253619858
 30
0.0
 10
80.87420488825738
 20
-6.328178666936807
 30
0.0
 10
82.50063199471786
 20
-7.203751143758093
 30
0.0
 10
84.12603252788632
 20
-7.781650696933703
 30
0.0
 10
85.75047272001017
 20
-8.045654151406255
 30
0.0
 10
87.3745244233832
 20
-7.955709501835583
 30
0.0
 10
88.60218917927114
 20
-7.70590607251869
 30
0.0
 10
89.28876975075273
 20
-7.395791273648481
 30
0.0
 10
89.43383282328281
 20
-7.330269166805167
 30
0.0
  0
SPLINE
  5
B9
330
1F
100
AcDbEntity
  8
0
  6
Continuous
 62
     1
370
    15
100
AcDbSpline
210
0.0
220
0.0
230
1.0
 70
     8
 71
     3
 72
    26
 73
    22
 74
     0
 42
0.000000001
 43
0.00000001
 40
0.0
 40
0.0
 40
0.0
 40
0.0
 40
0.0142755661678799
 40
0.071623953740067
 40
0.1289372446011733
 40
0.1862277613955589
 40
0.2435116788303954
 40
0.3008052143591413
 40
0.3581245231496512
 40
0.4154750557084003
 40
0.4727972961528628
 40
0.5300923961180402
 40
0.5873765006491506
 40
0.6446658259871868
 40
0.7019765545536695
 40
0.7593229839235012
 40
0.8166553495674271
 40
0.8739562212266718
 40
0.9312417066213874
 40
0.9885280130450087
 40
1.0
 40
1.0
 40
1.0
 40
1.0
 10
92.65532336924552
 20
-7.969172632633295
 30
0.0
 10
92.52037672422901
 20
-7.978440387775295
 30
0.0
 10
91.84331690422782
 20
-8.024938947465238
 30
0.0
 10
90.6239898727969
 20
-7.780678520578173
 30
0.0
 10
88.99883212108601
 20
-7.233180670669975
 30
0.0
 10
87.37449949325678
 20
-6.362030824189153
 30
0.0
 10
85.7504794008299
 20
-5.236447336558096
 30
0.0
 10
84.12603073678235
 20
-3.89360380575632
 30
0.0
 10
82.5006324749974
 20
-2.390870809858638
 30
0.0
 10
80.87420475974042
 20
-0.7901391823716901
 30
0.0
 10
79.24870601733306
 20
0.8434997390498842
 30
0.0
 10
77.6241957457495
 20
2.442198182477962
 30
0.0
 10
76.00016438958652
 20
3.940338182456382
 30
0.0
 10
74.37589074543652
 20
5.276584186814544
 30
0.0
 10
72.75079340605654
 20
6.395972708461247
 30
0.0
 10
71.1244989622379
 20
7.252616707171512
 30
0.0
 10
69.49865948465366
 20
7.809299017125115
 30
0.0
 10
67.87393338014449
 20
8.051742867091672
 30
0.0
 10
66.24981055988722
 20
7.937227674217398
 30
0.0
 10
65.05882595381148
 20
7.684842172967847
 30
0.0
 10
64.40897523027216
 20
7.38565246081318
 30
0.0
 10
64.30055079655213
 20
7.335734111967517
 30
0.0
  0
SPLINE
  5
BA
330
1F
100
AcDbEntity
  8
0
  6
Continuous
 62
     1
370
    15
100
AcDbSpline
210
0.0
220
0.0
230
1.0
 70
     8
 71
     3
 72
    25
 73
    21
 74
     0
 42
0.000000001
 43
0.00000001
 40
0.0
 40
0.0
 40
0.0
 40
0.0
 40
0.0181463397895131
 40
0.0755010353701883
 40
0.1328310977112957
 40
0.1901326512492021
 40
0.2474218314975347
 40
0.3047148540754658
 40
0.3620279097107981
 40
0.4193765436250481
 40
0.4767170995355259
 40
0.5340247972436211
 40
0.5913157325402266
 40
0.648606109673194
 40
0.705912136506508
 40
0.7668991486075155
 40
0.8279035320538108
 40
0.8888998494429388
 40
0.949879750050255
 40
1.0
 40
1.0
 40
1.0
 40
1.0
 10
42.39016909099978
 20
-7.964331409382577
 30
0.0
 10
42.21866828208887
 20
-7.97437349802014
 30
0.0
 10
41.5051090304826
 20
-8.01615537239314
 30
0.0
 10
40.24902622818072
 20
-7.753958486443207
 30
0.0
 10
38.62345714029192
 20
-7.183259624413983
 30
0.0
 10
36.99887229069084
 20
-6.293721970470069
 30
0.0
 10
35.37482857631905
 20
-5.151838781186655
 30
0.0
 10
33.75060137409308
 20
-3.796452803290079
 30
0.0
 10
32.12559278933438
 20
-2.285103217859152
 30
0.0
 10
30.49938101583629
 20
-0.6799427407670986
 30
0.0
 10
28.87343127960915
 20
0.9532990212825287
 30
0.0
 10
27.24862107278323
 20
2.547386553367708
 30
0.0
 10
25.62449108250585
 20
4.036481268617959
 30
0.0
 10
24.00038712587824
 20
5.359610012509903
 30
0.0
 10
22.34115651247564
 20
6.486075465627063
 30
0.0
 10
20.64624139048451
 20
7.349654856100618
 30
0.0
 10
18.91618434869867
 20
7.891392565163471
 30
0.0
 10
17.18636638390678
 20
8.056018998470824
 30
0.0
 10
15.55968184292855
 20
7.89297326140017
 30
0.0
 10
14.50965799371943
 20
7.508404289362271
 30
0.0
 10
14.03596414621625
 20
7.334914938494502
 30
0.0
  0
LINE
  5
BB
330
1F
100
AcDbEntity
  8
0
  6
Continuous
 62
     1
370
    15
100
AcDbLine
 10
102.0
 20
-3.135346870762415
 30
0.0
 11
102.0
 21
3.135346870762523
 31
0.0
  0
SPLINE
  5
BC
330
1F
100
AcDbEntity
  8
0
  6
Continuous
 62
     1
370
    15
100
AcDbSpline
210
0.0
220
0.0
230
1.0
 70
     8
 71
     3
 72
     9
 73
     5
 74
     0
 42
0.000000001
 43
0.00000001
 40
0.0
 40
0.0
 40
0.0
 40
0.0
 40
0.8489340139617758
 40
1.0
 40
1.0
 40
1.0
 40
1.0
 10
12.0
 20
-7.912164935003378
 30
0.0
 10
12.57611382499243
 20
-7.815514669894103
 30
0.0
 10
13.25474586884684
 20
-7.701665697512573
 30
0.0
 10
13.93343700110616
 20
-7.383047335518986
 30
0.0
 10
14.0359641462163
 20
-7.334914938494541
 30
0.0
  0
SPLINE
  5
BD
330
1F
100
AcDbEntity
  8
0
  6
Continuous
 62
     1
370
    15
100
AcDbSpline
210
0.0
220
0.0
230
1.0
 70
     8
 71
     3
 72
    25
 73
    21
 74
     0
 42
0.000000001
 43
0.00000001
 40
0.0
 40
0.0
 40
0.0
 40
0.0
 40
0.037139224799628
 40
0.0944374569681184
 40
0.1517641962873554
 40
0.2091155674183426
 40
0.2664335116897111
 40
0.3237270505033005
 40
0.3810123488051472
 40
0.4383056249118875
 40
0.4956230454699939
 40
0.5529742299321275
 40
0.6103015632506207
 40
0.6676001291638934
 40
0.7248860600916769
 40
0.7821755702510053
 40
0.8394848506717377
 40
0.896829600587465
 40
0.9541674968713144
 40
1.0
 40
1.0
 40
1.0
 40
1.0
 10
35.94596755320826
 20
7.962427504413276
 30
0.0
 10
36.29690282118834
 20
7.963877192200516
 30
0.0
 10
37.18925947233723
 20
7.967563451910117
 30
0.0
 10
38.62345101714153
 20
7.599783865584643
 30
0.0
 10
40.24905189809461
 20
6.919877523027805
 30
0.0
 10
41.87545998785866
 20
5.942424827926003
 30
0.0
 10
43.5007608271172
 20
4.723846800760318
 30
0.0
 10
45.12515031741813
 20
3.310318901432733
 30
0.0
 10
46.74916923432455
 20
1.761052747606011
 30
0.0
 10
48.3735479429721
 20
0.1392253451950101
 30
0.0
 10
49.99883058902142
 20
-1.488647610092364
 30
0.0
 10
51.62523236215729
 20
-3.054855668797876
 30
0.0
 10
53.25085426241922
 20
-4.495842624911405
 30
0.0
 10
54.87544323440557
 20
-5.751717742403178
 30
0.0
 10
56.499492899508
 20
-6.771172078049374
 30
0.0
 10
58.12371035106312
 20
-7.511637536754048
 30
0.0
 10
59.74870461570535
 20
-7.945792530371043
 30
0.0
 10
61.37489057380772
 20
-8.043971707431554
 30
0.0
 10
62.89242960418549
 20
-7.858849884559221
 30
0.0
 10
63.86742018061089
 20
-7.496641751181764
 30
0.0
 10
64.30055079655219
 20
-7.335734111967561
 30
0.0
  0
SPLINE
  5
BE
330
1F
100
AcDbEntity
  8
0
  6
Continuous
 62
     1
370
    15
100
AcDbSpline
210
0.0
220
0.0
230
1.0
 70
     8
 71
     3
 72
    17
 73
    13
 74
     0
 42
0.000000001
 43
0.00000001
 40
0.0
 40
0.0
 40
0.0
 40
0.0
 40
0.0736667241983179
 40
0.1765561045939877
 40
0.2794863854692665
 40
0.3824796973496615
 40
0.4854383092062787
 40
0.588342808033543
 40
0.691222144549401
 40
0.7941054323418634
 40
0.897021759400621
 40
1.0
 40
1.0
 40
1.0
 40
1.0
 10
86.21163451361933
 20
7.966504257655765
 30
0.0
 10
86.59923988412386
 20
7.963528131229645
 30
0.0
 10
87.52820876499547
 20
7.956395286729049
 30
0.0
 10
88.99882438014635
 20
7.563732434824313
 30
0.0
 10
90.62401446825179
 20
6.862307556243572
 30
0.0
 10
92.25037232047846
 20
5.867279965282894
 30
0.0
 10
93.87610082634008
 20
4.633835994541281
 30
0.0
 10
95.50075987080815
 20
3.209264983779939
 30
0.0
 10
97.12483086931421
 20
1.652501044430033
 30
0.0
 10
98.74900605706975
 20
0.0302000406291595
 30
0.0
 10
100.3739132074902
 20
-1.602885548985262
 30
0.0
 10
101.4578624194884
 20
-2.624424036235527
 30
0.0
 10
102.0
 20
-3.135346870762415
 30
0.0
  0
SPLINE
  5
BF
330
1F
100
AcDbEntity
  8
0
  6
Continuous
 62
     1
370
    15
100
AcDbSpline
210
0.0
220
0.0
230
1.0
 70
     8
 71
     3
 72
    15
 73
    11
 74
     0
 42
0.000000001
 43
0.00000001
 40
0.0
 40
0.0
 40
0.0
 40
0.0
 40
0.1293888900893361
 40
0.2586999877804372
 40
0.3879695726823252
 40
0.5172341929305999
 40
0.6465304288243375
 40
0.7758946560215456
 40
0.9053024826970131
 40
1.0
 40
1.0
 40
1.0
 40
1.0
 10
102.0
 20
3.135346870762522
 30
0.0
 10
101.4578624153518
 20
3.621286657649873
 30
0.0
 10
100.3739131950828
 20
4.592874070162557
 30
0.0
 10
98.74900610665811
 20
5.827071288249082
 30
0.0
 10
97.12483068342371
 20
6.830899439508615
 30
0.0
 10
95.50076056484987
 20
7.550680257097975
 30
0.0
 10
93.87609823479052
 20
7.963562335275195
 30
0.0
 10
92.25038199925338
 20
8.038300645401568
 30
0.0
 10
90.76910606624324
 20
7.840998474721066
 30
0.0
 10
89.83046370834207
 20
7.481976705687012
 30
0.0
 10
89.43383282328291
 20
7.33026916680512
 30
0.0
  0
SPLINE
  5
C0
330
1F
100
AcDbEntity
  8
0
  6
Continuous
 62
     1
370
    15
100
AcDbSpline
210
0.0
220
0.0
230
1.0
 70
     8
 71
     3
 72
    25
 73
    21
 74
     0
 42
0.000000001
 43
0.00000001
 40
0.0
 40
0.0
 40
0.0
 40
0.0
 40
0.0448992103408442
 40
0.1021866981078517
 40
0.1594912092291108
 40
0.2168288358722254
 40
0.2741733161149876
 40
0.3314823270295565
 40
0.3887715677756934
 40
0.4460572293071182
 40
0.5033555257646125
 40
0.5606825894920455
 40
0.6180335042509544
 40
0.6753506552646165
 40
0.732643661940456
 40
0.7899286908489184
 40
0.8472219602303712
 40
0.9045396349548325
 40
0.9618907363817177
 40
0.9999999999999999
 40
0.9999999999999999
 40
0.9999999999999999
 40
0.9999999999999999
 10
67.5226524304778
 20
-7.972088045209571
 30
0.0
 10
67.09837861070953
 20
-7.963751459543957
 30
0.0
 10
66.132768293588
 20
-7.944778115554264
 30
0.0
 10
64.62569601030002
 20
-7.526146967461782
 30
0.0
 10
63.00086734542049
 20
-6.803530220474183
 30
0.0
 10
61.37489680049273
 20
-5.790939181893398
 30
0.0
 10
59.74870294830971
 20
-4.543065613012108
 30
0.0
 10
58.12371079757382
 20
-3.107403586356505
 30
0.0
 10
56.49949277981381
 20
-1.544467705519437
 30
0.0
 10
54.87544326677805
 20
0.0819729864599678
 30
0.0
 10
53.2508542526416
 20
1.705212732812631
 30
0.0
 10
51.62523236887938
 20
3.258515910159881
 30
0.0
 10
49.99883057191445
 20
4.677472711361173
 30
0.0
 10
48.37354800462585
 20
5.904401722486576
 30
0.0
 10
46.74916900491878
 20
6.888508831837841
 30
0.0
 10
45.12515117335124
 20
7.58852803495124
 30
0.0
 10
43.50075763166723
 20
7.979797396610881
 30
0.0
 10
41.87547192197323
 20
8.03106935439808
 30
0.0
 10
40.43073390356632
 20
7.822666016073412
 30
0.0
 10
39.52842798408855
 20
7.467843272896652
 30
0.0
 10
39.16821341615301
 20
7.326192510812438
 30
0.0
  0
SPLINE
  5
C1
330
1F
100
AcDbEntity
  8
0
  6
Continuous
 62
     1
370
    15
100
AcDbSpline
210
0.0
220
0.0
230
1.0
 70
     8
 71
     3
 72
    11
 73
     7
 74
     0
 42
0.000000001
 43
0.00000001
 40
0.0
 40
0.0
 40
0.0
 40
0.0
 40
0.0132905854632052
 40
0.3422487113345363
 40
0.6711434106651192
 40
1.0
 40
1.0
 40
1.0
 40
1.0
 10
17.25612568413555
 20
-7.992780410011865
 30
0.0
 10
17.2328349501414
 20
-7.995173947629381
 30
0.0
 10
16.6330702732878
 20
-8.056810447194652
 30
0.0
 10
15.45717070970121
 20
-7.829104482037131
 30
0.0
 10
13.7284280353561
 20
-7.311116256889792
 30
0.0
 10
12.57612042361764
 20
-6.659747838387573
 30
0.0
 10
12.00000000000007
 20
-6.33408249922312
 30
0.0
  0
SPLINE
  5
C2
330
1F
100
AcDbEntity
  8
0
  6
Continuous
 62
   131
370
    15
100
AcDbSpline
210
0.0
220
0.0
230
1.0
 70
    24
 71
     3
 72
    10
 73
     6
 74
     0
 42
0.000000001
 43
0.00000001
 40
0.0
 40
0.0
 40
0.0
 40
0.0
 40
0.0835826696303497
 40
0.4447294190247358
 40
1.0
 40
1.0
 40
1.0
 40
1.0
 10
12.0
 20
-6.43775515498655
 30
0.0
 10
12.0
 20
-6.475233542113132
 30
0.0
 10
11.99999999999999
 20
-6.674649777637828
 30
0.0
 10
12.00000000000008
 20
-7.167974951181296
 30
0.0
 10
12.00000000000004
 20
-7.631380672601421
 30
0.0
 10
12.0
 20
-7.912164935003378
 30
0.0
  0
LINE
  5
C3
330
1F
100
AcDbEntity
  8
0
  6
Continuous
 62
     1
370
    15
100
AcDbLine
 10
102.0
 20
4.773458452526706
 30
0.0
 11
102.0
 21
7.941620407234685
 31
0.0
  0
SPLINE
  5
C4
330
1F
100
AcDbEntity
  8
0
  6
Continuous
 62
     1
370
    15
100
AcDbSpline
210
0.0
220
0.0
230
1.0
 70
     8
 71
     3
 72
    14
 73
    10
 74
     0
 42
0.000000001
 43
0.00000001
 40
0.0
 40
0.0
 40
0.0
 40
0.0
 40
0.1659948701819484
 40
0.3320089769064914
 40
0.4980550990466865
 40
0.6641459235056937
 40
0.8302587115543434
 40
0.996324198041452
 40
1.0
 40
1.0
 40
1.0
 40
1.0
 10
12.0
 20
-4.979915721004287
 30
0.0
 10
12.57612176258432
 20
-5.408416400989577
 30
0.0
 10
13.7284320524115
 20
-6.2654674183476
 30
0.0
 10
15.45715463801566
 20
-7.198152322005622
 30
0.0
 10
17.18636174271272
 20
-7.809971139980222
 30
0.0
 10
18.91619402210756
 20
-8.063815991283018
 30
0.0
 10
20.6462073389412
 20
-7.906480077027471
 30
0.0
 10
21.81227248479541
 20
-7.645466671189543
 30
0.0
 10
22.4013641712772
 20
-7.362643795453256
 30
0.0
 10
22.41412114039626
 20
-7.356519175509143
 30
0.0
  0
SPLINE
  5
C5
330
1F
100
AcDbEntity
  8
0
  6
Continuous
 62
     1
370
    15
100
AcDbSpline
210
0.0
220
0.0
230
1.0
 70
     8
 71
     3
 72
    25
 73
    21
 74
     0
 42
0.000000001
 43
0.00000001
 40
0.0
 40
0.0
 40
0.0
 40
0.0
 40
0.0282389585891839
 40
0.0855244580873259
 40
0.1428179354183808
 40
0.2001355572856016
 40
0.2574869431754345
 40
0.3148144778378574
 40
0.3721132449940237
 40
0.4293993771203241
 40
0.4866890884907404
 40
0.5439985701919976
 40
0.6013435215128248
 40
0.6586816191777031
 40
0.7159866010486862
 40
0.7732745594255722
 40
0.8305616967498772
 40
0.8878642207824019
 40
0.945198239707792
 40
1.0
 40
1.0
 40
1.0
 40
1.0
 10
44.32463864215704
 20
7.958796196165109
 30
0.0
 10
44.59149815861419
 20
7.966923380122652
 30
0.0
 10
45.3997083997378
 20
7.991537354520818
 30
0.0
 10
46.74916223131214
 20
7.676861940735073
 30
0.0
 10
48.37354982052871
 20
7.047509610088917
 30
0.0
 10
49.99883008494766
 20
6.110750918847029
 30
0.0
 10
51.62523249927602
 20
4.927681126744761
 30
0.0
 10
53.25085421795123
 20
3.540414704668242
 30
0.0
 10
54.8754432752341
 20
2.008055559395761
 30
0.0
 10
56.49949278066367
 20
0.3932263520193138
 30
0.0
 10
58.12371078571589
 20
-1.237783154680072
 30
0.0
 10
59.74870299492171
 20
-2.818229578677559
 30
0.0
 10
61.37489662580053
 20
-4.282528986713841
 30
0.0
 10
63.00086799728808
 20
-5.570818714556204
 30
0.0
 10
64.62569357931574
 20
-6.630176300709045
 30
0.0
 10
66.2498295334975
 20
-7.416293479113529
 30
0.0
 10
67.8739306054353
 20
-7.899278984651397
 30
0.0
 10
69.49865160063331
 20
-8.05102092781085
 30
0.0
 10
71.10046126686267
 20
-7.898251177538889
 30
0.0
 10
72.16065247760613
 20
-7.532378185993141
 30
0.0
 10
72.67877742399213
 20
-7.353572775980559
 30
0.0
  0
SPLINE
  5
C6
330
1F
100
AcDbEntity
  8
0
  6
Continuous
 62
     1
370
    15
100
AcDbSpline
210
0.0
220
0.0
230
1.0
 70
     8
 71
     3
 72
    12
 73
     8
 74
     0
 42
0.000000001
 43
0.00000001
 40
0.0
 40
0.0
 40
0.0
 40
0.0
 40
0.1229178544791127
 40
0.3421139014862219
 40
0.5613183671344466
 40
0.7805932266714074
 40
1.0
 40
1.0
 40
1.0
 40
1.0
 10
94.59008779453416
 20
7.959390482489362
 30
0.0
 10
94.89368588960319
 20
7.965177295463362
 30
0.0
 10
95.73868216152816
 20
7.981283573693613
 30
0.0
 10
97.12482089309239
 20
7.644968011964292
 30
0.0
 10
98.74900871833943
 20
6.990489548469946
 30
0.0
 10
100.3739125416167
 20
6.047222012951595
 30
0.0
 10
101.4578621974861
 20
5.220005944654234
 30
0.0
 10
102.0
 20
4.806273536472209
 30
0.0
  0
SPLINE
  5
C7
330
1F
100
AcDbEntity
  8
0
  6
Continuous
 62
     1
370
    15
100
AcDbSpline
210
0.0
220
0.0
230
1.0
 70
     8
 71
     3
 72
    10
 73
     6
 74
     0
 42
0.000000001
 43
0.00000001
 40
0.0
 40
0.0
 40
0.0
 40
0.0
 40
0.3881697256513802
 40
0.7761060722710695
 40
1.0
 40
1.0
 40
1.0
 40
1.0
 10
102.0
 20
7.941620407234685
 30
0.0
 10
101.4578634761364
 20
7.972687558936499
 30
0.0
 10
100.3739163767988
 20
8.034803183856722
 30
0.0
 10
98.97783593595598
 20
7.796012810942302
 30
0.0
 10
98.12379087810149
 20
7.449719952412048
 30
0.0
 10
97.81126057275806
 20
7.322997115227566
 30
0.0
  0
SPLINE
  5
C8
330
1F
100
AcDbEntity
  8
0
  6
Continuous
 62
     1
370
    15
100
AcDbSpline
210
0.0
220
0.0
230
1.0
 70
     8
 71
     3
 72
    25
 73
    21
 74
     0
 42
0.000000001
 43
0.00000001
 40
0.0
 40
0.0
 40
0.0
 40
0.0
 40
0.0537810825170445
 40
0.1110913219207482
 40
0.1684372618230849
 40
0.2257691381195535
 40
0.2830695207001508
 40
0.3403545171475449
 40
0.397640334616837
 40
0.4549431749440408
 40
0.5122791298275704
 40
0.569621938110921
 40
0.6269292781002368
 40
0.6842168484975478
 40
0.7415008397845038
 40
0.7987974656291402
 40
0.8561228579049649
 40
0.9134721005168548
 40
0.9707875803679277
 40
1.0
 40
1.0
 40
1.0
 40
1.0
 10
75.90075279705226
 20
-7.990543680868166
 30
0.0
 10
75.39253298317065
 20
-7.966339569533186
 30
0.0
 10
74.34274357194913
 20
-7.916343054062017
 30
0.0
 10
72.75079197932295
 20
-7.434034983079866
 30
0.0
 10
71.12449899326927
 20
-6.663484484657676
 30
0.0
 10
69.4986607865507
 20
-5.611459475503398
 30
0.0
 10
67.8739281453831
 20
-4.330655603666814
 30
0.0
 10
66.24983019260735
 20
-2.871470618920278
 30
0.0
 10
64.62569340260443
 20
-1.294376994707037
 30
0.0
 10
63.00086804485055
 20
0.3362486997234549
 30
0.0
 10
61.37489661239205
 20
1.952973585752141
 30
0.0
 10
59.74870300097169
 20
3.489263951425881
 30
0.0
 10
58.1237107749254
 20
4.882332909916379
 30
0.0
 10
56.4994928177657
 20
6.074287215089432
 30
0.0
 10
54.87544313760731
 20
7.016810914511132
 30
0.0
 10
53.25085473159135
 20
7.669825703629124
 30
0.0
 10
51.62523058101075
 20
8.011637668955622
 30
0.0
 10
49.99883724540496
 20
8.008397532602771
 30
0.0
 10
48.63892266511721
 20
7.778737604406336
 30
0.0
 10
47.82123174126103
 20
7.437353492873682
 30
0.0
 10
47.54517360810736
 20
7.322099846577128
 30
0.0
  0
SPLINE
  5
C9
330
1F
100
AcDbEntity
  8
0
  6
Continuous
 62
     1
370
    15
100
AcDbSpline
210
0.0
220
0.0
230
1.0
 70
     8
 71
     3
 72
    16
 73
    12
 74
     0
 42
0.000000001
 43
0.00000001
 40
0.0
 40
0.0
 40
0.0
 40
0.0
 40
0.0007454459584211
 40
0.1198889959611503
 40
0.2390650917586374
 40
0.3658963239725402
 40
0.492763682388599
 40
0.6196142662827653
 40
0.7464307091263304
 40
0.8732227004435552
 40
1.0
 40
1.0
 40
1.0
 40
1.0
 10
25.6346483643214
 20
-7.998977732644938
 30
0.0
 10
25.63126141461457
 20
-7.999318265593575
 30
0.0
 10
25.08654318905137
 20
-8.054085687487119
 30
0.0
 10
24.00039289657775
 20
-7.862426756941971
 30
0.0
 10
22.34115489186883
 20
-7.392380536121093
 30
0.0
 10
20.64624168816992
 20
-6.542813956376396
 30
0.0
 10
18.91618481864653
 20
-5.383331705879904
 30
0.0
 10
17.18636420706554
 20
-3.969812833384306
 30
0.0
 10
15.45715398106858
 20
-2.37341389554401
 30
0.0
 10
13.72843221661294
 20
-0.6629657554348046
 30
0.0
 10
12.57612181731608
 20
0.4889845159709453
 30
0.0
 10
12.00000000000009
 20
1.06492627977425
 30
0.0
  0
SPLINE
  5
CA
330
1F
100
AcDbEntity
  8
0
  6
Continuous
 62
   131
370
    15
100
AcDbSpline
210
0.0
220
0.0
230
1.0
 70
    24
 71
     3
 72
    16
 73
    12
 74
     0
 42
0.000000001
 43
0.00000001
 40
0.0
 40
0.0
 40
0.0
 40
0.0
 40
0.0470491859647658
 40
0.1118191833320062
 40
0.2427704551892468
 40
0.3737217270464878
 40
0.5046729989037312
 40
0.6356242707609737
 40
0.766575542618216
 40
0.8975268144754593
 40
1.0
 40
1.0
 40
1.0
 40
1.0
 10
12.00000000000001
 20
1.025986422226826
 30
0.0
 10
12.00000000000001
 20
1.021824585213969
 30
0.0
 10
12.00000000000004
 20
1.011933378673496
 30
0.0
 10
11.99999999999999
 20
0.7907532287545858
 30
0.0
 10
11.99999999999996
 20
0.325918246903261
 30
0.0
 10
11.99999999999999
 20
-0.5287233480500538
 30
0.0
 10
12.00000000000001
 20
-1.558176807358437
 30
0.0
 10
12.00000000000001
 20
-2.654682188288692
 30
0.0
 10
12.00000000000002
 20
-3.685872823697091
 30
0.0
 10
12.00000000000008
 20
-4.498640175042758
 30
0.0
 10
12.00000000000001
 20
-4.833091712705144
 30
0.0
 10
12.0
 20
-4.979915721004287
 30
0.0
  0
LINE
  5
CB
330
1F
100
AcDbEntity
  8
0
  6
Continuous
 62
     1
370
    15
100
AcDbLine
 10
102.0
 20
-7.941620407234721
 30
0.0
 11
102.0
 21
-4.806273536472209
 31
0.0
  0
SPLINE
  5
CC
330
1F
100
AcDbEntity
  8
0
  6
Continuous
 62
     1
370
    15
100
AcDbSpline
210
0.0
220
0.0
230
1.0
 70
     8
 71
     3
 72
    25
 73
    21
 74
     0
 42
0.000000001
 43
0.00000001
 40
0.0
 40
0.0
 40
0.0
 40
0.0
 40
0.0460496854872755
 40
0.1033859201761341
 40
0.1607302322600016
 40
0.2180389687461539
 40
0.2753276736846093
 40
0.3326125365830258
 40
0.3899097718385572
 40
0.4472355137488487
 40
0.5045858870423298
 40
0.561902834057775
 40
0.6191953760400635
 40
0.6764796776539833
 40
0.7337719569339934
 40
0.7910883802452886
 40
0.8484385668731639
 40
0.9057649027723768
 40
0.9630624717668836
 40
1.0
 40
1.0
 40
1.0
 40
1.0
 10
27.56757299592404
 20
7.974003345574159
 30
0.0
 10
28.00276255454715
 20
7.963904247825757
 30
0.0
 10
28.97980447119016
 20
7.941230813629216
 30
0.0
 10
30.49938690723549
 20
7.514545149463477
 30
0.0
 10
32.12559117852629
 20
6.785685974723308
 30
0.0
 10
33.75060192918366
 20
5.767803281962625
 30
0.0
 10
35.37482796593531
 20
4.515605148899283
 30
0.0
 10
36.99887417734693
 20
3.077108302610861
 30
0.0
 10
38.62345020093794
 20
1.512128485065916
 30
0.0
 10
40.24905211692794
 20
-0.1152972923637819
 30
0.0
 10
41.87545992933434
 20
-1.737550006439165
 30
0.0
 10
43.50076084246923
 20
-3.288805560210074
 30
0.0
 10
45.12515031449301
 20
-4.704519034737059
 30
0.0
 10
46.74916923067863
 20
-5.926683195187364
 30
0.0
 10
48.37354796048731
 20
-6.9055067955369
 30
0.0
 10
49.99883052256
 20
-7.599629127659432
 30
0.0
 10
51.62523261059107
 20
-7.984395252376867
 30
0.0
 10
53.25085333582139
 20
-8.028598645146355
 30
0.0
 10
54.68315721451454
 20
-7.816947083846554
 30
0.0
 10
55.57361757657434
 20
-7.463728710554789
 30
0.0
 10
55.92265318784567
 20
-7.325276965719155
 30
0.0
  0
SPLINE
  5
CD
330
1F
100
AcDbEntity
  8
0
  6
Continuous
 62
     1
370
    15
100
AcDbSpline
210
0.0
220
0.0
230
1.0
 70
     8
 71
     3
 72
    22
 73
    18
 74
     0
 42
0.000000001
 43
0.00000001
 40
0.0
 40
0.0
 40
0.0
 40
0.0
 40
0.0585677792440488
 40
0.1258250121462928
 40
0.1931154407035766
 40
0.2603692338426312
 40
0.3275927867423714
 40
0.3948050545566517
 40
0.4620250655201661
 40
0.5292717977126077
 40
0.5965597095179369
 40
0.6638249509954851
 40
0.7310548391798908
 40
0.7982682882445147
 40
0.8654843187694957
 40
0.932721934610999
 40
1.0
 40
1.0
 40
1.0
 40
1.0
 10
77.83331655733413
 20
7.981529322076121
 30
0.0
 10
78.3050292108612
 20
7.964853756147943
 30
0.0
 10
79.31844052892208
 20
7.929028541114331
 30
0.0
 10
80.87420812421571
 20
7.475005710081213
 30
0.0
 10
82.50063154271199
 20
6.725241002667801
 30
0.0
 10
84.1260311024523
 20
5.690148479464424
 30
0.0
 10
85.7504788700399
 20
4.423541001913269
 30
0.0
 10
87.37450125069655
 20
2.974572425113963
 30
0.0
 10
88.99882562009257
 20
1.403414806425797
 30
0.0
 10
90.6240141357227
 20
-0.2258551906446898
 30
0.0
 10
92.25037240957059
 20
-1.845367259541421
 30
0.0
 10
93.87610080248511
 20
-3.389462873051198
 30
0.0
 10
95.50075987719671
 20
-4.793591155834106
 30
0.0
 10
97.12483086760314
 20
-6.002147938294955
 30
0.0
 10
98.74900605752619
 20
-6.957706999748312
 30
0.0
 10
100.373913207376
 20
-7.650753728544649
 30
0.0
 10
101.4578624194504
 20
-7.844645412933777
 30
0.0
 10
102.0
 20
-7.941620407234721
 30
0.0
  0
SPLINE
  5
CE
330
1F
100
AcDbEntity
  8
0
  6
Continuous
 62
     1
370
    15
100
AcDbSpline
210
0.0
220
0.0
230
1.0
 70
     8
 71
     3
 72
    20
 73
    16
 74
     0
 42
0.000000001
 43
0.00000001
 40
0.0
 40
0.0
 40
0.0
 40
0.0
 40
0.0776319909765577
 40
0.1552173073216719
 40
0.2327777164241673
 40
0.3103351467860287
 40
0.3879115462069925
 40
0.4655287397042782
 40
0.54317209243595
 40
0.6207679281155559
 40
0.6983329302360963
 40
0.7758889975561485
 40
0.8534580867080189
 40
0.9310620699962181
 40
1.0
 40
1.0
 40
1.0
 40
1.0
 10
102.0
 20
-4.806273536472209
 30
0.0
 10
101.4578624194542
 20
-4.35402465623959
 30
0.0
 10
100.3739132073875
 20
-3.449798801074476
 30
0.0
 10
98.7490060574802
 20
-1.898347048071605
 30
0.0
 10
97.1248308677758
 20
-0.2833161261068802
 30
0.0
 10
95.50075987655205
 20
1.347136460841013
 30
0.0
 10
93.87610080489229
 20
2.921389685859405
 30
0.0
 10
92.25037240058022
 20
4.375900041815651
 30
0.0
 10
90.62401416927824
 20
5.650075814033078
 30
0.0
 10
88.99882549496947
 20
6.692381606089056
 30
0.0
 10
87.37450171744192
 20
7.458721149074159
 30
0.0
 10
85.7504771281967
 20
7.920448149197095
 30
0.0
 10
84.1260376055825
 20
8.048977848638055
 30
0.0
 10
82.56140452106207
 20
7.881389874144675
 30
0.0
 10
81.53796032881098
 20
7.516542240899366
 30
0.0
 10
81.05649995680396
 20
7.34490642669653
 30
0.0
  0
SPLINE
  5
CF
330
1F
100
AcDbEntity
  8
0
  6
Continuous
 62
     1
370
    15
100
AcDbSpline
210
0.0
220
0.0
230
1.0
 70
     8
 71
     3
 72
    25
 73
    21
 74
     0
 42
0.000000001
 43
0.00000001
 40
0.0
 40
0.0
 40
0.0
 40
0.0
 40
0.0360103755747625
 40
0.0933016088159303
 40
0.1505892627179024
 40
0.2078895519853815
 40
0.2652186095233124
 40
0.3225715189222477
 40
0.3798906634016477
 40
0.4371856627034956
 40
0.4944726839605029
 40
0.5517679459771009
 40
0.6090876141855145
 40
0.6664407102589185
 40
0.7237691737797263
 40
0.7810691292923864
 40
0.8383567118605387
 40
0.8956481366511347
 40
0.9529595939404503
 40
1.0
 40
1.0
 40
1.0
 40
1.0
 10
59.1445577962288
 20
-7.961498704321224
 30
0.0
 10
58.80421387154962
 20
-7.964082059042921
 30
0.0
 10
57.92239480644812
 20
-7.970775439709738
 30
0.0
 10
56.49950631308748
 20
-7.610218645468398
 30
0.0
 10
54.87543963952211
 20
-6.936951490666906
 30
0.0
 10
53.2508552262869
 20
-5.964696652184948
 30
0.0
 10
51.62523210369035
 20
-4.750670296858541
 30
0.0
 10
49.99883065831828
 20
-3.34064885164539
 30
0.0
 10
48.37354792414497
 20
-1.793102536257507
 30
0.0
 10
46.74916924038331
 20
-0.1720725961734759
 30
0.0
 10
45.12515031200391
 20
1.45591379024869
 30
0.0
 10
43.50076084272038
 20
3.024151413360391
 30
0.0
 10
41.87545993082114
 20
4.468338873508011
 30
0.0
 10
40.24905211072644
 20
5.728354462777589
 30
0.0
 10
38.62345022423963
 20
6.753290312997008
 30
0.0
 10
36.99887409039229
 20
7.499739205239222
 30
0.0
 10
35.37482829040358
 20
7.940141712642037
 30
0.0
 10
33.75060071796837
 20
8.045365960927516
 30
0.0
 10
32.22299803476977
 20
7.864077460234252
 30
0.0
 10
31.23639942323534
 20
7.50121756502195
 30
0.0
 10
30.79165413728666
 20
7.337645240908796
 30
0.0
  0
SPLINE
  5
D0
330
1F
100
AcDbEntity
  8
0
  6
Continuous
 62
     1
370
    15
100
AcDbSpline
210
0.0
220
0.0
230
1.0
 70
     8
 71
     3
 72
    19
 73
    15
 74
     0
 42
0.000000001
 43
0.00000001
 40
0.0
 40
0.0
 40
0.0
 40
0.0
 40
0.0919834910220713
 40
0.1839776416768235
 40
0.2759895331791993
 40
0.3680261957804447
 40
0.4600750291653321
 40
0.5520976511211763
 40
0.6385660754856871
 40
0.725010886191993
 40
0.8114565391051834
 40
0.8979274846340055
 40
0.9844480095377107
 40
0.9999999999999999
 40
0.9999999999999999
 40
0.9999999999999999
 40
0.9999999999999999
 10
12.0
 20
2.932249213999074
 30
0.0
 10
12.57612181660933
 20
2.382856398534316
 30
0.0
 10
13.72843221449277
 20
1.284007100466868
 30
0.0
 10
15.45715398955078
 20
-0.4605917039196838
 30
0.0
 10
17.18636417524679
 20
-2.174143598874029
 30
0.0
 10
18.91618493747799
 20
-3.789208565229223
 30
0.0
 10
20.64624124466622
 20
-5.227154963892582
 30
0.0
 10
22.34115650430849
 20
-6.398055450651716
 30
0.0
 10
24.00038728233747
 20
-7.267020872627278
 30
0.0
 10
25.6244904615787
 20
-7.817251113789746
 30
0.0
 10
27.24862340041581
 20
-8.053269140394843
 30
0.0
 10
28.87342258515513
 20
-7.931377925680562
 30
0.0
 10
30.05469959419871
 20
-7.678572690234859
 30
0.0
 10
30.69421602314076
 20
-7.382721735835768
 30
0.0
 10
30.79165413728659
 20
-7.337645240908841
 30
0.0
  0
SPLINE
  5
D1
330
1F
100
AcDbEntity
  8
0
  6
Continuous
 62
     1
370
    15
100
AcDbSpline
210
0.0
220
0.0
230
1.0
 70
     8
 71
     3
 72
    26
 73
    22
 74
     0
 42
0.000000001
 43
0.00000001
 40
0.0
 40
0.0
 40
0.0
 40
0.0
 40
0.0193353224109485
 40
0.0766335522289591
 40
0.1339191471355932
 40
0.1912083212527775
 40
0.2485172655153999
 40
0.3058616790649642
 40
0.363199239022852
 40
0.4205036834973989
 40
0.4777911046374923
 40
0.5350777047327043
 40
0.592379691391842
 40
0.6497131726484914
 40
0.7070607179047079
 40
0.7643725616628865
 40
0.8216630017761393
 40
0.8789482209808755
 40
0.9362444358336368
 40
0.9935677916937993
 40
1.0
 40
1.0
 40
1.0
 40
1.0
 10
52.702738891077
 20
7.9631408961164
 30
0.0
 10
52.88551718489991
 20
7.973263641790508
 30
0.0
 10
53.6099400638309
 20
8.013384098167174
 30
0.0
 10
54.87542188278091
 20
7.745579049012815
 30
0.0
 10
56.49949851277361
 20
7.168099093920516
 30
0.0
 10
58.12370924834651
 20
6.273245158425227
 30
0.0
 10
59.74870341040008
 20
5.126296957753881
 30
0.0
 10
61.37489650252385
 20
3.767120104717979
 30
0.0
 10
63.00086807481391
 20
2.253366136898012
 30
0.0
 10
64.62569339255022
 20
0.6467625160574713
 30
0.0
 10
66.24983020287527
 20
-0.986126310744809
 30
0.0
 10
67.87392811436031
 20
-2.578479855805616
 30
0.0
 10
69.49866090043342
 20
-4.065031767661503
 30
0.0
 10
71.12449856847816
 20
-5.384487813688389
 30
0.0
 10
72.75079356451012
 20
-6.482193090207508
 30
0.0
 10
74.37589050536502
 20
-7.314131889159916
 30
0.0
 10
76.00016519118982
 20
-7.842992484956303
 30
0.0
 10
77.62419277932699
 20
-8.057451834551467
 30
0.0
 10
79.24871708604852
 20
-7.910693773157497
 30
0.0
 10
80.39288046167648
 20
-7.657117980274281
 30
0.0
 10
80.9956839673752
 20
-7.373518386835351
 30
0.0
 10
81.0564999568039
 20
-7.344906426696576
 30
0.0
  0
SPLINE
  5
D2
330
1F
100
AcDbEntity
  8
0
  6
Continuous
 62
     1
370
    15
100
AcDbSpline
210
0.0
220
0.0
230
1.0
 70
     8
 71
     3
 72
    26
 73
    22
 74
     0
 42
0.000000001
 43
0.00000001
 40
0.0
 40
0.0
 40
0.0
 40
0.0
 40
0.0053618159173212
 40
0.0626805012196561
 40
0.1200304099505953
 40
0.177352026874994
 40
0.2346465036153269
 40
0.2919299850411952
 40
0.3492186872172002
 40
0.4065287923888389
 40
0.4638745979754929
 40
0.5212063399892185
 40
0.5785065883608376
 40
0.6357914506352907
 40
0.6930771339297189
 40
0.7503798400421878
 40
0.8077156606334216
 40
0.8650583346084244
 40
0.9223655403724663
 40
0.9796529765908076
 40
1.0
 40
1.0
 40
1.0
 40
1.0
 10
84.27823494268131
 20
-7.986039669046032
 30
0.0
 10
84.22756396718788
 20
-7.990604659538373
 30
0.0
 10
83.63521201214279
 20
-8.043970141780804
 30
0.0
 10
82.50061532262866
 20
-7.835521309295562
 30
0.0
 10
80.87420935418159
 20
-7.343226414913157
 30
0.0
 10
79.24870478763908
 20
-6.514367756465159
 30
0.0
 10
77.624196073299
 20
-5.426970126821974
 30
0.0
 10
76.00016430856704
 20
-4.114103707680743
 30
0.0
 10
74.37589074196539
 20
-2.632722084421331
 30
0.0
 10
72.75079350106002
 20
-1.04256530258832
 30
0.0
 10
71.12449858547456
 20
0.590048468647964
 30
0.0
 10
69.49866089590157
 20
2.198677195947455
 30
0.0
 10
67.87392811550252
 20
3.716824184100758
 30
0.0
 10
66.24983020283574
 20
5.081967932782836
 30
0.0
 10
64.62569339156619
 20
6.238103344801042
 30
0.0
 10
63.0008680787918
 20
7.138305884974944
 30
0.0
 10
61.37489648758667
 20
7.743466232895619
 30
0.0
 10
59.74870346615999
 20
8.035588832079712
 30
0.0
 10
58.12370904041646
 20
7.977156692165181
 30
0.0
 10
56.84854332730457
 20
7.73271023672893
 30
0.0
 10
56.11492531680338
 20
7.409885343200121
 30
0.0
 10
55.9226531878456
 20
7.325276965719111
 30
0.0
  0
SPLINE
  5
D3
330
1F
100
AcDbEntity
  8
0
  6
Continuous
 62
     1
370
    15
100
AcDbSpline
210
0.0
220
0.0
230
1.0
 70
     8
 71
     3
 72
    21
 73
    17
 74
     0
 42
0.000000001
 43
0.00000001
 40
0.0
 40
0.0
 40
0.0
 40
0.0
 40
0.011892465840577
 40
0.0857184290253191
 40
0.1595902212219755
 40
0.2334516079987413
 40
0.3072706695424076
 40
0.3810681391266189
 40
0.4548648897303509
 40
0.528681798990585
 40
0.607240250641883
 40
0.6858210786310583
 40
0.7643915165889767
 40
0.8429408077991567
 40
0.9214749538907703
 40
1.0
 40
1.0
 40
1.0
 40
1.0
 10
34.01246807640632
 20
-7.977744062014708
 30
0.0
 10
33.92523070729654
 20
-7.984825425225405
 30
0.0
 10
33.29644183099151
 20
-8.035866423611756
 30
0.0
 10
32.12558314852666
 20
-7.812801571550904
 30
0.0
 10
30.49938359935663
 20
-7.296236939965873
 30
0.0
 10
28.87343058801881
 20
-6.448969867112668
 30
0.0
 10
27.24862125729618
 20
-5.344659310938503
 30
0.0
 10
25.62449103565787
 20
-4.018610943459126
 30
0.0
 10
24.00038712878647
 20
-2.527905158296327
 30
0.0
 10
22.34115654840918
 20
-0.8992187827531094
 30
0.0
 10
20.64624123253627
 20
0.8053719684816766
 30
0.0
 10
18.91618494072805
 20
2.50667177918936
 30
0.0
 10
17.18636417437657
 20
4.093229359302891
 30
0.0
 10
15.45715398978281
 20
5.482588022985533
 30
0.0
 10
13.72843221443483
 20
6.641427591570781
 30
0.0
 10
12.57612181659006
 20
7.146491470959765
 30
0.0
 10
12.00000000000007
 20
7.399008778997424
 30
0.0
  0
SPLINE
  5
D4
330
1F
100
AcDbEntity
  8
0
  6
Continuous
 62
   131
370
    15
100
AcDbSpline
210
0.0
220
0.0
230
1.0
 70
    24
 71
     3
 72
    16
 73
    12
 74
     0
 42
0.000000001
 43
0.00000001
 40
0.0
 40
0.0
 40
0.0
 40
0.0
 40
0.1854649311845871
 40
0.2939510145698168
 40
0.402437097955043
 40
0.5140692851078111
 40
0.6225553684930385
 40
0.7341875556458063
 40
0.842673639031036
 40
0.9543058261838056
 40
1.0
 40
1.0
 40
1.0
 40
1.0
 10
12.0
 20
7.399008778998166
 30
0.0
 10
12.00000000000001
 20
7.133027771071921
 30
0.0
 10
12.00000000000004
 20
6.711463507483961
 30
0.0
 10
11.99999999999999
 20
6.063657464147278
 30
0.0
 10
12.00000000000006
 20
5.526391105500922
 30
0.0
 10
11.99999999999994
 20
4.990196952821459
 30
0.0
 10
12.00000000000001
 20
4.467544894985082
 30
0.0
 10
11.99999999999999
 20
3.980775947627903
 30
0.0
 10
11.99999999999996
 20
3.54056040467244
 30
0.0
 10
11.99999999999999
 20
3.221856968534318
 30
0.0
 10
12.0
 20
3.07777059570882
 30
0.0
 10
12.0
 20
3.035921869761792
 30
0.0
  0
SPLINE
  5
D5
330
1F
100
AcDbEntity
  8
0
  6
Continuous
 62
     1
370
    15
100
AcDbSpline
210
0.0
220
0.0
230
1.0
 70
     8
 71
     3
 72
    25
 73
    21
 74
     0
 42
0.000000001
 43
0.00000001
 40
0.0
 40
0.0
 40
0.0
 40
0.0
 40
0.0513253017875381
 40
0.1123080486947933
 40
0.1696100677681069
 40
0.2268964382355532
 40
0.2841833668276017
 40
0.3414870566588423
 40
0.3988236023944906
 40
0.4561682255689672
 40
0.5134772729527324
 40
0.5707662886801304
 40
0.6280514623466465
 40
0.6853490084373972
 40
0.7426750613375555
 40
0.8000257457545273
 40
0.8573430037121273
 40
0.9146358565041742
 40
0.9719204688831489
 40
1.0
 40
1.0
 40
1.0
 40
1.0
 10
19.19055615845365
 20
7.975112364619156
 30
0.0
 10
19.67583409762738
 20
7.959660777708666
 30
0.0
 10
20.73770059475658
 20
7.925850210313688
 30
0.0
 10
22.34115761578717
 20
7.436444472784648
 30
0.0
 10
24.00038683819395
 20
6.645030741858395
 30
0.0
 10
25.62449115941175
 20
5.587606065414463
 30
0.0
 10
27.2486210528045
 20
4.302993081599779
 30
0.0
 10
28.87343128259721
 20
2.840551025530325
 30
0.0
 10
30.49938102388406
 20
1.261511250148829
 30
0.0
 10
32.12559275415904
 20
-0.369293473321528
 30
0.0
 10
33.75060150663499
 20
-1.985193258418602
 30
0.0
 10
35.37482808149379
 20
-3.519127196352531
 30
0.0
 10
36.99887413755778
 20
-4.908378768611136
 30
0.0
 10
38.62345024453523
 20
-6.095891711745951
 30
0.0
 10
40.24905198225338
 20
-7.03314656835701
 30
0.0
 10
41.87546042450967
 20
-7.679845226308582
 30
0.0
 10
43.5007589980284
 20
-8.015195822614684
 30
0.0
 10
45.12515719394426
 20
-8.004798706744987
 30
0.0
 10
46.47311170783262
 20
-7.772846328370676
 30
0.0
 10
47.27981729281933
 20
-7.433668428118142
 30
0.0
 10
47.54517360810736
 20
-7.322099846577169
 30
0.0
  0
SPLINE
  5
D6
330
1F
100
AcDbEntity
  8
0
  6
Continuous
 62
     1
370
    15
100
AcDbSpline
210
0.0
220
0.0
230
1.0
 70
     8
 71
     3
 72
    26
 73
    22
 74
     0
 42
0.000000001
 43
0.00000001
 40
0.0
 40
0.0
 40
0.0
 40
0.0
 40
0.0014977680194468
 40
0.0588298901201969
 40
0.1161760758871109
 40
0.173486561002332
 40
0.2307756429800251
 40
0.2880595041729694
 40
0.3453543607532742
 40
0.4026763576975717
 40
0.4600266466359736
 40
0.5173457119387729
 40
0.5746390040892914
 40
0.6319226781867567
 40
0.6892129516157377
 40
0.7465259990146965
 40
0.8038741429756495
 40
0.8612029654688033
 40
0.9185016570559706
 40
0.9757863379095226
 40
0.9999999999999999
 40
0.9999999999999999
 40
0.9999999999999999
 40
0.9999999999999999
 10
69.45598538181405
 20
7.995812751299182
 30
0.0
 10
69.47014065980451
 20
7.997203864312646
 30
0.0
 10
70.02613694092919
 20
8.051844519383543
 30
0.0
 10
71.12452937293664
 20
7.856439809632526
 30
0.0
 10
72.7507852622229
 20
7.388880635469241
 30
0.0
 10
74.37589292613706
 20
6.578549843336883
 30
0.0
 10
76.0001638052659
 20
5.508275090433486
 30
0.0
 10
77.62419590293824
 20
4.20882466346288
 30
0.0
 10
79.24870597296552
 20
2.73695946494919
 30
0.0
 10
80.87420477994405
 20
1.152084134040941
 30
0.0
 10
82.50063243857556
 20
-0.4796583578507869
 30
0.0
 10
84.1260308621657
 20
-2.092163807761861
 30
0.0
 10
85.7504789359469
 20
-3.618321501490015
 30
0.0
 10
87.37450122726327
 20
-4.995640737119436
 30
0.0
 10
88.99882564792529
 20
-6.167561973738599
 30
0.0
 10
90.62401404777356
 20
-7.086418354369547
 30
0.0
 10
92.25037273368429
 20
-7.712373722028178
 30
0.0
 10
93.87609959477226
 20
-8.026135225322529
 30
0.0
 10
95.50076438107607
 20
-7.991791616555196
 30
0.0
 10
96.81229604692119
 20
-7.7529702985026
 30
0.0
 10
97.5824446548205
 20
-7.421483804269115
 30
0.0
 10
97.81126057275809
 20
-7.32299711522761
 30
0.0
  0
SPLINE
  5
D7
330
1F
100
AcDbEntity
  8
0
  6
Continuous
 62
     1
370
    15
100
AcDbSpline
210
0.0
220
0.0
230
1.0
 70
     8
 71
     3
 72
    26
 73
    22
 74
     0
 42
0.000000001
 43
0.00000001
 40
0.0
 40
0.0
 40
0.0
 40
0.0
 40
0.0232169591750743
 40
0.0805242540377285
 40
0.1378131515184527
 40
0.1950998487946037
 40
0.2524005572975493
 40
0.3097313977670907
 40
0.3670815603845457
 40
0.4243966252046078
 40
0.4816889152530471
 40
0.5389746057376743
 40
0.5962699146139097
 40
0.6535909975496421
 40
0.7109433052200508
 40
0.7682673199004763
 40
0.8255641932615656
 40
0.8828500708482576
 40
0.9401411694034698
 40
0.9974536718496002
 40
1.0
 40
1.0
 40
1.0
 40
1.0
 10
101.0321687281265
 20
-7.96024961934817
 30
0.0
 10
100.8126702679794
 20
-7.970072252865802
 30
0.0
 10
100.0513754906364
 20
-8.004140462691591
 30
0.0
 10
98.74902026759487
 20
-7.716709111904224
 30
0.0
 10
97.12482706073592
 20
-7.116431667095563
 30
0.0
 10
95.50076089750944
 20
-6.203386868768225
 30
0.0
 10
93.87610052882121
 20
-5.040582951372893
 30
0.0
 10
92.25037248326613
 20
-3.668921211455602
 30
0.0
 10
90.62401411478383
 20
-2.147098030654791
 30
0.0
 10
88.998825630183
 20
-0.5364671787951232
 30
0.0
 10
87.37450123126763
 20
1.095846800028658
 30
0.0
 10
85.75047893766606
 20
2.683044416280491
 30
0.0
 10
84.12603085128008
 20
4.160045081150819
 30
0.0
 10
82.500632480429
 20
5.46626675141405
 30
0.0
 10
80.87420462336412
 20
6.547196023340065
 30
0.0
 10
79.24870655696635
 20
7.359821166194241
 30
0.0
 10
77.6241937246871
 20
7.867241604920227
 30
0.0
 10
76.00017193332897
 20
8.060195031881092
 30
0.0
 10
74.37586258369205
 20
7.888214537289416
 30
0.0
 10
73.26878250565149
 20
7.635446492964913
 30
0.0
 10
72.70285150021398
 20
7.365074116491893
 30
0.0
 10
72.67877742399214
 20
7.353572775980514
 30
0.0
  0
SPLINE
  5
D8
330
1F
100
AcDbEntity
  8
0
  6
Continuous
 62
     1
370
    15
100
AcDbSpline
210
0.0
220
0.0
230
1.0
 70
     8
 71
     3
 72
    25
 73
    21
 74
     0
 42
0.000000001
 43
0.00000001
 40
0.0
 40
0.0
 40
0.0
 40
0.0
 40
0.0270975059890969
 40
0.0844160419447892
 40
0.1417104329792644
 40
0.1989968460535974
 40
0.2562914998000337
 40
0.3136105594791795
 40
0.3709630466684316
 40
0.4282909015665968
 40
0.485590248759267
 40
0.542877223138786
 40
0.6001680396999579
 40
0.657478888547176
 40
0.714825314303402
 40
0.772163662366892
 40
0.8294691534931753
 40
0.8867578828533907
 40
0.9440460540714595
 40
1.0
 40
1.0
 40
1.0
 40
1.0
 10
50.76722500845514
 20
-7.958871732407501
 30
0.0
 10
50.51102042562829
 20
-7.967532878745967
 30
0.0
 10
49.71287402724528
 20
-7.994514686329738
 30
0.0
 10
48.37355193611209
 20
-7.686237961561159
 30
0.0
 10
46.74916816576406
 20
-7.063466407739249
 30
0.0
 10
45.12515059989845
 20
-6.13233669883392
 30
0.0
 10
43.50076076581389
 20
-4.953870339026639
 30
0.0
 10
41.87545995042068
 20
-3.570116118409486
 30
0.0
 10
40.24905210930289
 20
-2.04031925944869
 30
0.0
 10
38.62345021034918
 20
-0.4261275826300235
 30
0.0
 10
36.99887414734035
 20
1.205355070968993
 30
0.0
 10
35.37482807653444
 20
2.787111860639352
 30
0.0
 10
33.7506015166924
 20
4.254340890575587
 30
0.0
 10
32.12559271886708
 20
5.546882035175745
 30
0.0
 10
30.49938115506887
 20
6.611222669008015
 30
0.0
 10
28.87343079337732
 20
7.403368104148084
 30
0.0
 10
27.2486228771698
 20
7.892716444700825
 30
0.0
 10
25.62448435291283
 20
8.051312436430957
 30
0.0
 10
24.01316698006004
 20
7.903138533258621
 30
0.0
 10
22.94293323462368
 20
7.537288807089859
 30
0.0
 10
22.41412114039626
 20
7.356519175509098
 30
0.0
  0
LINE
  5
D9
330
1F
100
AcDbEntity
  8
0
  6
Continuous
 62
     1
370
    15
100
AcDbLine
 10
102.0
 20
3.135346870762523
 30
0.0
 11
102.0
 21
4.806273536472208
 31
0.0
  0
LINE
  5
DA
330
1F
100
AcDbEntity
  8
0
  6
Continuous
 62
   131
370
    15
100
AcDbLine
 10
12.0
 20
-6.334082499223831
 30
0.0
 11
12.0
 21
-4.979915721004287
 31
0.0
  0
LINE
  5
DB
330
1F
100
AcDbEntity
  8
0
  6
Continuous
 62
   131
370
    15
100
AcDbLine
 10
102.0
 20
7.941620407234685
 30
0.0
 11
102.0
 21
7.999999999999984
 31
0.0
  0
LINE
  5
DC
330
1F
100
AcDbEntity
  8
0
  6
Continuous
 62
   131
370
    15
100
AcDbLine
 10
12.0
 20
1.064926279774292
 30
0.0
 11
12.0
 21
2.932249213999073
 31
0.0
  0
LINE
  5
DD
330
1F
100
AcDbEntity
  8
0
  6
Continuous
 62
   131
370
    15
100
AcDbLine
 10
102.0
 20
-8.000000000000027
 30
0.0
 11
102.0
 21
-7.941620407234721
 31
0.0
  0
LINE
  5
DE
330
1F
100
AcDbEntity
  8
0
  6
Continuous
 62
   131
370
    15
100
AcDbLine
 10
12.0
 20
7.399008778998166
 30
0.0
 11
12.0
 21
7.912164935003331
 31
0.0
  0
LINE
  5
DF
330
1F
100
AcDbEntity
  8
0
  6
Continuous
 62
     1
370
    15
100
AcDbLine
 10
102.0
 20
-4.806273536472209
 30
0.0
 11
102.0
 21
-3.135346870762415
 31
0.0
  0
LINE
  5
E0
330
1F
100
AcDbEntity
  8
0
  6
Continuous
 62
   131
370
    15
100
AcDbLine
 10
11.00022868160751
 20
-8.000000000000021
 30
0.0
 11
11.00022868160751
 21
-5.675009946041136
 31
0.0
  0
SPLINE
  5
E1
330
1F
100
AcDbEntity
  8
0
  6
Continuous
 62
   131
370
    15
100
AcDbSpline
210
0.0
220
0.0
230
1.0
 70
     8
 71
     3
 72
     8
 73
     4
 74
     0
 42
0.000000001
 43
0.00000001
 40
0.0
 40
0.0
 40
0.0
 40
0.0
 40
1.0
 40
1.0
 40
1.0
 40
1.0
 10
12.0
 20
-7.912164935003371
 30
0.0
 10
11.66517577252425
 20
-7.961528145993321
 30
0.0
 10
11.33239187853403
 20
-7.990091427070546
 30
0.0
 10
11.00022868160752
 20
-7.997837358465099
 30
0.0
  0
LINE
  5
E2
330
1F
100
AcDbEntity
  8
0
  6
Continuous
 62
   131
370
    15
100
AcDbLine
 10
11.00022868160751
 20
7.997836643309427
 30
0.0
 11
11.00022868160751
 21
7.999999999999979
 31
0.0
  0
SPLINE
  5
E3
330
1F
100
AcDbEntity
  8
0
  6
Continuous
 62
   131
370
    15
100
AcDbSpline
210
0.0
220
0.0
230
1.0
 70
     8
 71
     3
 72
     8
 73
     4
 74
     0
 42
0.000000001
 43
0.00000001
 40
0.0
 40
0.0
 40
0.0
 40
0.0
 40
1.0
 40
1.0
 40
1.0
 40
1.0
 10
12.0
 20
7.912164935003323
 30
0.0
 10
11.66517577252425
 20
7.961528145993275
 30
0.0
 10
11.33239187853403
 20
7.990091427070491
 30
0.0
 10
11.00022868160752
 20
7.997837358465058
 30
0.0
  0
SPLINE
  5
E4
330
1F
100
AcDbEntity
  8
0
  6
Continuous
 62
   131
370
    15
100
AcDbSpline
210
0.0
220
0.0
230
1.0
 70
     8
 71
     3
 72
     8
 73
     4
 74
     0
 42
0.000000001
 43
0.00000001
 40
0.0
 40
0.0
 40
0.0
 40
0.0
 40
1.0
 40
1.0
 40
1.0
 40
1.0
 10
12.0
 20
7.39900877899745
 30
0.0
 10
11.66517577252425
 20
7.526032622631092
 30
0.0
 10
11.33239187853411
 20
7.6334400478094
 30
0.0
 10
11.00022868160752
 20
7.720701249841087
 30
0.0
  0
LINE
  5
E5
330
1F
100
AcDbEntity
  8
0
  6
Continuous
 62
   131
370
    15
100
AcDbLine
 10
11.00022868160751
 20
3.837807272367208
 30
0.0
 11
11.00022868160751
 21
7.720710537427038
 31
0.0
  0
SPLINE
  5
E6
330
1F
100
AcDbEntity
  8
0
  6
Continuous
 62
   131
370
    15
100
AcDbSpline
210
0.0
220
0.0
230
1.0
 70
     8
 71
     3
 72
     8
 73
     4
 74
     0
 42
0.000000001
 43
0.00000001
 40
0.0
 40
0.0
 40
0.0
 40
0.0
 40
1.0
 40
1.0
 40
1.0
 40
1.0
 10
12.0
 20
2.932249213999071
 30
0.0
 10
11.66517577252425
 20
3.243039323299024
 30
0.0
 10
11.33239187853403
 20
3.545522321606311
 30
0.0
 10
11.00022868160752
 20
3.837834258336916
 30
0.0
  0
SPLINE
  5
E7
330
1F
100
AcDbEntity
  8
0
  6
Continuous
 62
   131
370
    15
100
AcDbSpline
210
0.0
220
0.0
230
1.0
 70
     8
 71
     3
 72
     8
 73
     4
 74
     0
 42
0.000000001
 43
0.00000001
 40
0.0
 40
0.0
 40
0.0
 40
0.0
 40
1.0
 40
1.0
 40
1.0
 40
1.0
 10
12.0
 20
1.064926279774339
 30
0.0
 10
11.66517577252425
 20
1.395990679173324
 30
0.0
 10
11.33239187853411
 20
1.723591547920688
 30
0.0
 10
11.00022868160752
 20
2.045666311320355
 30
0.0
  0
SPLINE
  5
E8
330
1F
100
AcDbEntity
  8
0
  6
Continuous
 62
   131
370
    15
100
AcDbSpline
210
0.0
220
0.0
230
1.0
 70
     8
 71
     3
 72
     8
 73
     4
 74
     0
 42
0.000000001
 43
0.00000001
 40
0.0
 40
0.0
 40
0.0
 40
0.0
 40
1.0
 40
1.0
 40
1.0
 40
1.0
 10
12.0
 20
-4.979915721004285
 30
0.0
 10
11.66517577252425
 20
-4.718488822694283
 30
0.0
 10
11.33239187853403
 20
-4.444569105464222
 30
0.0
 10
11.00022868160752
 20
-4.160003100128177
 30
0.0
  0
SPLINE
  5
E9
330
1F
100
AcDbEntity
  8
0
  6
Continuous
 62
   131
370
    15
100
AcDbSpline
210
0.0
220
0.0
230
1.0
 70
     8
 71
     3
 72
     8
 73
     4
 74
     0
 42
0.000000001
 43
0.00000001
 40
0.0
 40
0.0
 40
0.0
 40
0.0
 40
1.0
 40
1.0
 40
1.0
 40
1.0
 10
12.0
 20
-6.334082499223069
 30
0.0
 10
11.66517577252425
 20
-6.130041943457723
 30
0.0
 10
11.33239187853411
 20
-5.90984849988866
 30
0.0
 10
11.00022868160752
 20
-5.675034938520684
 30
0.0
  0
LINE
  5
EA
330
1F
100
AcDbEntity
  8
0
  6
Continuous
 62
   131
370
    15
100
AcDbLine
 10
-46.40000000000001
 20
-0.0000000000000218
 30
0.0
 11
-46.40000000000001
 21
7.999999999999979
 31
0.0
  0
LINE
  5
EB
330
1F
100
AcDbEntity
  8
0
  6
Continuous
 62
   131
370
    15
100
AcDbLine
 10
-46.40000000000001
 20
-8.000000000000021
 30
0.0
 11
-46.40000000000001
 21
-0.0000000000000218
 31
0.0
  0
LINE
  5
EC
330
1F
100
AcDbEntity
  8
0
  6
Continuous
 62
   131
370
    15
100
AcDbLine
 10
11.00022868160751
 20
-4.160029370942254
 30
0.0
 11
11.00022868160751
 21
2.045700591385854
 31
0.0
  0
LINE
  5
ED
330
1F
100
AcDbEntity
  8
0
  6
Continuous
 62
   131
370
    15
100
AcDbLine
 10
-48.0
 20
-0.0000000000000218
 30
0.0
 11
-48.0
 21
6.399999999999986
 31
0.0
  0
LINE
  5
EE
330
1F
100
AcDbEntity
  8
0
  6
Continuous
 62
   131
370
    15
100
AcDbLine
 10
-48.0
 20
-6.40000000000003
 30
0.0
 11
-48.0
 21
-0.0000000000000218
 31
0.0
  0
SPLINE
  5
EF
330
1F
100
AcDbEntity
  8
0
  6
Continuous
 62
   131
370
    15
100
AcDbSpline
210
0.0
220
0.0
230
1.0
 70
    24
 71
     3
 72
    16
 73
    12
 74
     0
 42
0.000000001
 43
0.00000001
 40
0.0
 40
0.0
 40
0.0
 40
0.0
 40
0.0322641354303518
 40
0.1615112233010355
 40
0.2907583111716544
 40
0.4200053990423976
 40
0.5492524869130784
 40
0.6784995747837604
 40
0.8077466626544358
 40
0.8716737511231453
 40
1.0
 40
1.0
 40
1.0
 40
1.0
 10
12.0
 20
-4.979915721004285
 30
0.0
 10
12.0
 20
-4.937301438095932
 30
0.0
 10
12.00000000000002
 20
-4.723978351305584
 30
0.0
 10
11.99999999999997
 20
-4.174044487248047
 30
0.0
 10
11.99999999999999
 20
-3.220901010292512
 30
0.0
 10
11.99999999999996
 20
-2.141484205697861
 30
0.0
 10
12.00000000000004
 20
-1.061682420468113
 30
0.0
 10
11.99999999999999
 20
-0.1004207839085615
 30
0.0
 10
11.99999999999992
 20
0.5043407975921675
 30
0.0
 10
12.00000000000007
 20
0.9273519477884552
 30
0.0
 10
12.00000000000003
 20
1.009856029751507
 30
0.0
 10
11.99999999999999
 20
1.064926279774354
 30
0.0
  0
SPLINE
  5
F0
330
1F
100
AcDbEntity
  8
0
  6
Continuous
 62
   131
370
    15
100
AcDbSpline
210
0.0
220
0.0
230
1.0
 70
    24
 71
     3
 72
    13
 73
     9
 74
     0
 42
0.000000001
 43
0.00000001
 40
0.0
 40
0.0
 40
0.0
 40
0.0
 40
0.1545490964817329
 40
0.3728352018605481
 40
0.5911213072393522
 40
0.6990881125263197
 40
0.917374217905134
 40
1.0
 40
1.0
 40
1.0
 40
1.0
 10
11.99999999999999
 20
3.035921869761792
 30
0.0
 10
12.00000000000001
 20
3.18618912234305
 30
0.0
 10
12.00000000000003
 20
3.548694777339131
 30
0.0
 10
12.00000000000002
 20
4.421104738503233
 30
0.0
 10
11.99999999999991
 20
5.306828777222775
 30
0.0
 10
12.00000000000007
 20
6.202170055872839
 30
0.0
 10
11.99999999999999
 20
6.863052242919424
 30
0.0
 10
11.99999999999996
 20
7.283547296386857
 30
0.0
 10
11.99999999999998
 20
7.399008778987169
 30
0.0
  0
SPLINE
  5
F1
330
1F
100
AcDbEntity
  8
0
  6
Continuous
 62
   131
370
    15
100
AcDbSpline
210
0.0
220
0.0
230
1.0
 70
    24
 71
     3
 72
    11
 73
     7
 74
     0
 42
0.000000001
 43
0.00000001
 40
0.0
 40
0.0
 40
0.0
 40
0.0
 40
0.1768572634941682
 40
0.5272763830187274
 40
0.8878576807485784
 40
1.0
 40
1.0
 40
1.0
 40
1.0
 10
12.0
 20
-7.912164935003373
 30
0.0
 10
11.99999999999999
 20
-7.822703119061182
 30
0.0
 10
11.99999999999999
 20
-7.555984626439924
 30
0.0
 10
12.00000000000006
 20
-7.109577072236559
 30
0.0
 10
11.99999999999999
 20
-6.701787002002071
 30
0.0
 10
11.99999999999999
 20
-6.488380677599951
 30
0.0
 10
11.99999999999999
 20
-6.43775515498655
 30
0.0
  0
LINE
  5
F2
330
1F
100
AcDbEntity
  8
중심선
 62
     1
100
AcDbLine
 10
-55.20259277488955
 20
-0.0000000000000289
 30
0.0
 11
109.0
 21
0.0000000000000572
 31
0.0
  0
CIRCLE
  5
F3
330
1F
100
AcDbEntity
  8
외형선
100
AcDbCircle
 10
0.0
 20
0.0
 30
0.0
 40
3.000000000000008
  0
INSERT
  5
F4
330
1F
100
AcDbEntity
  8
0
  6
Continuous
 62
     7
100
AcDbBlockReference
 66
     1
  2
블럭10
 10
-26.94078629968143
 20
-52.04717430164396
 30
0.0
  0
ATTRIB
  5
F5
330
F4
100
AcDbEntity
  8
FORMAT
 62
     2
100
AcDbText
 10
-43.06004733911699
 20
-49.97180738881177
 30
0.0
 40
4.233333333333333
  1
SEME7516090E [ 6 FLUTE ]
 41
0.75
  7
SLDTEXTSTYLE0
 11
-43.06004733911699
 21
-52.08847405547844
 31
0.0
100
AcDbAttribute
  2
AUTOATTR0
 70
     0
 74
     1
  0
SEQEND
  5
F6
330
F4
100
AcDbEntity
  8
0
  6
Continuous
 62
     7
  0
HATCH
  5
F7
330
1F
100
AcDbEntity
  8
중심선
100
AcDbHatch
 10
0.0
 20
0.0
 30
0.0
210
0.0
220
0.0
230
1.0
  2
SOLID
 70
     1
 71
     0
 91
        1
 92
        0
 93
        4
 72
     1
 10
-21.22587699530058
 20
-35.80000000000002
 11
-24.67215223913786
 21
-35.80000000000002
 72
     1
 10
-24.67215223913786
 20
-35.80000000000002
 11
-26.80038209834188
 21
-38.33632558057262
 72
     1
 10
-26.80038209834188
 20
-38.33632558057262
 11
-23.35407376939145
 21
-38.33628615127013
 72
     1
 10
-23.35407376939145
 20
-38.33628615127013
 11
-21.22587699530058
 21
-35.80000000000002
 97
        0
 75
     0
 76
     1
 98
        1
 10
-4.001342611615538
 20
-0.0010749287239149
  0
HATCH
  5
F8
330
1F
100
AcDbEntity
  8
중심선
100
AcDbHatch
 10
0.0
 20
0.0
 30
0.0
210
0.0
220
0.0
230
1.0
  2
SOLID
 70
     1
 71
     0
 91
        1
 92
        0
 93
        4
 72
     1
 10
-16.21311300426463
 20
-35.80000000000002
 11
-19.65938824810191
 21
-35.80000000000002
 72
     1
 10
-19.65938824810191
 20
-35.80000000000002
 11
-24.1905262564593
 21
-41.20000000000004
 72
     1
 10
-24.1905262564593
 20
-41.20000000000004
 11
-20.74425101262202
 21
-41.20000000000004
 72
     1
 10
-20.74425101262202
 20
-41.20000000000004
 11
-16.21311300426463
 21
-35.80000000000002
 97
        0
 75
     0
 76
     1
 98
        1
 10
-4.001342611615538
 20
-0.0010749287239149
  0
HATCH
  5
F9
330
1F
100
AcDbEntity
  8
중심선
100
AcDbHatch
 10
0.0
 20
0.0
 30
0.0
210
0.0
220
0.0
230
1.0
  2
SOLID
 70
     1
 71
     0
 91
        1
 92
        0
 93
        4
 72
     1
 10
-11.20034901322873
 20
-35.80000000000005
 11
-14.64662425706585
 21
-35.80000000000002
 72
     1
 10
-14.64662425706585
 20
-35.80000000000002
 11
-21.6950611589551
 21
-44.20000000000004
 72
     1
 10
-21.6950611589551
 20
-44.20000000000004
 11
-18.24878591511781
 21
-44.20000000000004
 72
     1
 10
-18.24878591511781
 20
-44.20000000000004
 11
-11.20034901322873
 21
-35.80000000000005
 97
        0
 75
     0
 76
     1
 98
        1
 10
-4.001342611615538
 20
-0.0010749287239149
  0
HATCH
  5
FA
330
1F
100
AcDbEntity
  8
중심선
100
AcDbHatch
 10
0.0
 20
0.0
 30
0.0
210
0.0
220
0.0
230
1.0
  2
SOLID
 70
     1
 71
     0
 91
        1
 92
        0
 93
        6
 72
     3
 10
-6.400458582216533
 20
-40.00000000005129
 11
3.960054785062283
 21
1.540882976769353E-10
 40
0.3939339440162628
 50
17.09539180608437
 51
320.0019657685079
 73
     0
 72
     1
 10
-4.717458926515938
 20
-38.58789400463832
 11
-2.412157052814901
 21
-36.6535672945904
 72
     3
 10
-6.40045858226938
 20
-40.00000000000017
 11
6.600054785286829
 21
-1.278976924368180E-13
 40
0.636358354079598
 50
39.99873849337411
 51
368.4976242363725
 73
     1
 72
     1
 10
0.0248739096312294
 20
-39.03999999993005
 11
-7.720391275433458
 21
-39.03999999993002
 72
     1
 10
-7.720391275433458
 20
-39.03999999993002
 11
-7.720416319879392
 21
-40.95999999992993
 72
     1
 10
-7.720416319879392
 20
-40.95999999992993
 11
-3.279036550407355
 21
-40.95999999992991
 97
        0
 75
     0
 76
     1
 98
        1
 10
-4.001342611615538
 20
-0.0010749287239149
  0
DIMENSION
  5
FB
330
1F
100
AcDbEntity
  8
치수문자_일반주서
100
AcDbDimension
  2
_D
 10
-65.02890613132342
 20
-8.000000000000098
 30
0.0
 11
-65.02890613132345
 21
-0.0000000000000194
 31
0.0
 70
   160
  1
%%c<>
 71
     2
 42
16.00000000000001
 52
-270.0
  3
SLDDIMSTYLE0
100
AcDbAlignedDimension
 13
-46.40000000000001
 23
7.999999999999986
 33
0.0
 14
-46.40000000000001
 24
-8.000000000000028
 34
0.0
 50
90.0000000000002
100
AcDbRotatedDimension
  0
DIMENSION
  5
109
330
1F
100
AcDbEntity
  8
치수문자_일반주서
100
AcDbDimension
  2
_D_1
 10
112.0
 20
-7.999999999999989
 30
0.0
 11
112.0
 21
1.055089200153567
 31
0.0
 70
   160
  1
%%c<>
 71
     2
 42
16.00000000000001
 52
-270.0
  3
SLDDIMSTYLE0
100
AcDbAlignedDimension
 13
102.0
 23
7.999999999999984
 33
0.0
 14
102.0
 24
-8.000000000000027
 34
0.0
 50
90.0000000000002
100
AcDbRotatedDimension
  0
DIMENSION
  5
116
330
1F
100
AcDbEntity
  8
치수문자_일반주서
100
AcDbDimension
  2
_D_2
 10
102.0
 20
51.40700555364513
 30
0.0
 11
48.83248898771784
 21
51.40700555364513
 31
0.0
 70
   160
  1
<>
 71
     2
 42
90.0
  3
SLDDIMSTYLE1
100
AcDbAlignedDimension
 13
12.0
 23
7.912164935003323
 33
0.0
 14
102.0
 24
7.941620407234685
 34
0.0
100
AcDbRotatedDimension
  0
DIMENSION
  5
121
330
1F
100
AcDbEntity
  8
치수문자_일반주서
100
AcDbDimension
  2
_D_3
 10
-48.0
 20
78.88630306810431
 30
0.0
 11
31.64724479764078
 21
78.88630306810431
 31
0.0
 70
   160
  1
<>
 71
     2
 42
150.0
  3
SLDDIMSTYLE1
100
AcDbAlignedDimension
 13
102.0
 23
7.941620407234685
 33
0.0
 14
-48.0
 24
6.399999999999986
 34
0.0
100
AcDbRotatedDimension
  0
INSERT
  5
131
330
1F
100
AcDbEntity
  8
외형선
100
AcDbBlockReference
  2
SW_DOWELSYMBOL_0
 10
0.0
 20
0.0
 30
0.0
  0
ENDSEC
  0
SECTION
  2
OBJECTS
  0
DICTIONARY
  5
C
330
0
100
AcDbDictionary
281
     1
  3
ACAD_GROUP
350
D
  3
ACAD_IMAGE_VARS
350
155
  3
ACAD_LAYOUT
350
1A
  3
ACAD_MLINESTYLE
350
17
  3
ACAD_PLOTSETTINGS
350
19
  3
ACAD_PLOTSTYLENAME
350
E
  3
ACAD_SCALELIST
350
47
  3
APPDATA
350
153
  3
DWGPROPS
350
15F
  0
DICTIONARY
  5
D
102
{ACAD_REACTORS
330
C
102
}
330
C
100
AcDbDictionary
281
     1
  0
RASTERVARIABLES
  5
155
102
{ACAD_REACTORS
330
C
102
}
330
C
100
AcDbRasterVariables
 90
        0
 70
     1
 71
     1
 72
     1
  0
DICTIONARY
  5
1A
102
{ACAD_REACTORS
330
C
102
}
330
C
100
AcDbDictionary
281
     1
  3
Layout1
350
1E
  3
Layout2
350
26
  3
Model
350
22
  0
DICTIONARY
  5
17
102
{ACAD_REACTORS
330
C
102
}
330
C
100
AcDbDictionary
281
     1
  3
Standard
350
18
  0
DICTIONARY
  5
19
102
{ACAD_REACTORS
330
C
102
}
330
C
100
AcDbDictionary
281
     1
  0
ACDBDICTIONARYWDFLT
  5
E
102
{ACAD_REACTORS
330
C
102
}
330
C
100
AcDbDictionary
281
     1
  3
Normal
350
F
100
AcDbDictionaryWithDefault
340
F
  0
DICTIONARY
  5
47
102
{ACAD_REACTORS
330
C
102
}
330
C
100
AcDbDictionary
281
     1
  3
A0
350
48
  3
A1
350
49
  3
A2
350
4A
  3
A3
350
4B
  3
A4
350
4C
  3
A5
350
4D
  3
A6
350
4E
  3
A7
350
4F
  3
A8
350
50
  3
A9
350
51
  3
B0
350
52
  3
B1
350
53
  3
B2
350
54
  3
B3
350
55
  3
B4
350
56
  3
B5
350
57
  3
B6
350
58
  3
B7
350
59
  3
B8
350
5A
  3
B9
350
5B
  3
C0
350
5C
  3
C1
350
5D
  3
C2
350
5E
  3
C3
350
5F
  3
C4
350
60
  3
C5
350
61
  3
C6
350
62
  3
C7
350
63
  3
C8
350
64
  3
C9
350
65
  3
D0
350
66
  3
D1
350
67
  3
D2
350
68
  0
DICTIONARY
  5
153
102
{ACAD_REACTORS
330
C
102
}
330
C
100
AcDbDictionary
281
     1
  0
XRECORD
  5
15F
102
{ACAD_REACTORS
330
C
102
}
330
C
100
AcDbXrecord
280
     1
  1
DWGPROPS COOKIE
  2

  3

  4

  6

  7

  8
12016016
  9

300
=
301
=
302
=
303
=
304
=
305
=
306
=
307
=
308
=
309
=
 40
0.0
 41
2458268.398403113
 42
2458270.000881944
  1

 90
        0
  0
LAYOUT
  5
1E
102
{ACAD_REACTORS
330
1A
102
}
330
1A
100
AcDbPlotSettings
  1

  2
none_device
  4

  6

 40
0.0
 41
0.0
 42
0.0
 43
0.0
 44
0.0
 45
0.0
 46
0.0
 47
0.0
 48
0.0
 49
0.0
140
0.0
141
0.0
142
1.0
143
1.0
 70
   688
 72
     1
 73
     0
 74
     5
  7

 75
    16
147
1.0
148
0.0
149
0.0
100
AcDbLayout
  1
Layout1
 70
     1
 71
     1
 10
0.0
 20
0.0
 11
420.0
 21
297.0
 12
0.0
 22
0.0
 32
0.0
 14
1.000000000000000E+20
 24
1.000000000000000E+20
 34
1.000000000000000E+20
 15
-1.000000000000000E+20
 25
-1.000000000000000E+20
 35
-1.000000000000000E+20
146
0.0
 13
0.0
 23
0.0
 33
0.0
 16
1.0
 26
0.0
 36
0.0
 17
0.0
 27
1.0
 37
0.0
 76
     0
330
1B
  0
LAYOUT
  5
26
102
{ACAD_REACTORS
330
1A
102
}
330
1A
100
AcDbPlotSettings
  1

  2
none_device
  4

  6

 40
0.0
 41
0.0
 42
0.0
 43
0.0
 44
0.0
 45
0.0
 46
0.0
 47
0.0
 48
0.0
 49
0.0
140
0.0
141
0.0
142
1.0
143
1.0
 70
   688
 72
     1
 73
     0
 74
     5
  7

 75
    16
147
1.0
148
0.0
149
0.0
100
AcDbLayout
  1
Layout2
 70
     1
 71
     2
 10
0.0
 20
0.0
 11
0.0
 21
0.0
 12
0.0
 22
0.0
 32
0.0
 14
0.0
 24
0.0
 34
0.0
 15
0.0
 25
0.0
 35
0.0
146
0.0
 13
0.0
 23
0.0
 33
0.0
 16
1.0
 26
0.0
 36
0.0
 17
0.0
 27
1.0
 37
0.0
 76
     0
330
23
  0
LAYOUT
  5
22
102
{ACAD_REACTORS
330
1A
102
}
330
1A
100
AcDbPlotSettings
  1

  2
none_device
  4
ANSI_A_(11.00_x_8.50_Inches)
  6

 40
6.35
 41
19.05
 42
6.35000508
 43
19.05000254
 44
279.4
 45
215.9
 46
94.41139630527066
 47
64.1437086661785
 48
0.0
 49
0.0
140
0.0
141
0.0
142
0.0596404762350182
143
1.0
 70
  1696
 72
     0
 73
     0
 74
     0
  7

 75
     0
147
0.0235690232323232
148
0.0
149
0.0
100
AcDbLayout
  1
Model
 70
     1
 71
     0
 10
0.0
 20
0.0
 11
420.0
 21
297.0
 12
0.0
 22
0.0
 32
0.0
 14
-69.40390613132347
 24
-49.97180738881177
 34
0.0
 15
112.5503333333333
 25
83.26130306810431
 35
0.0
146
0.0
 13
0.0
 23
0.0
 33
0.0
 16
1.0
 26
0.0
 36
0.0
 17
0.0
 27
1.0
 37
0.0
 76
     0
330
1F
331
29
  0
MLINESTYLE
  5
18
102
{ACAD_REACTORS
330
17
102
}
330
17
100
AcDbMlineStyle
  2
Standard
 70
     0
  3

 62
   256
 51
90.0
 52
90.0
 71
     2
 49
0.5
 62
   256
  6
BYLAYER
 49
-0.5
 62
   256
  6
BYLAYER
  0
ACDBPLACEHOLDER
  5
F
102
{ACAD_REACTORS
330
E
102
}
330
E
  0
SCALE
  5
48
102
{ACAD_REACTORS
330
47
102
}
330
47
100
AcDbScale
 70
     0
300
1:1
140
1.0
141
1.0
290
     1
  0
SCALE
  5
49
102
{ACAD_REACTORS
330
47
102
}
330
47
100
AcDbScale
 70
     0
300
1:2
140
1.0
141
2.0
290
     0
  0
SCALE
  5
4A
102
{ACAD_REACTORS
330
47
102
}
330
47
100
AcDbScale
 70
     0
300
1:4
140
1.0
141
4.0
290
     0
  0
SCALE
  5
4B
102
{ACAD_REACTORS
330
47
102
}
330
47
100
AcDbScale
 70
     0
300
1:5
140
1.0
141
5.0
290
     0
  0
SCALE
  5
4C
102
{ACAD_REACTORS
330
47
102
}
330
47
100
AcDbScale
 70
     0
300
1:8
140
1.0
141
8.0
290
     0
  0
SCALE
  5
4D
102
{ACAD_REACTORS
330
47
102
}
330
47
100
AcDbScale
 70
     0
300
1:10
140
1.0
141
10.0
290
     0
  0
SCALE
  5
4E
102
{ACAD_REACTORS
330
47
102
}
330
47
100
AcDbScale
 70
     0
300
1:16
140
1.0
141
16.0
290
     0
  0
SCALE
  5
4F
102
{ACAD_REACTORS
330
47
102
}
330
47
100
AcDbScale
 70
     0
300
1:20
140
1.0
141
20.0
290
     0
  0
SCALE
  5
50
102
{ACAD_REACTORS
330
47
102
}
330
47
100
AcDbScale
 70
     0
300
1:30
140
1.0
141
30.0
290
     0
  0
SCALE
  5
51
102
{ACAD_REACTORS
330
47
102
}
330
47
100
AcDbScale
 70
     0
300
1:40
140
1.0
141
40.0
290
     0
  0
SCALE
  5
52
102
{ACAD_REACTORS
330
47
102
}
330
47
100
AcDbScale
 70
     0
300
1:50
140
1.0
141
50.0
290
     0
  0
SCALE
  5
53
102
{ACAD_REACTORS
330
47
102
}
330
47
100
AcDbScale
 70
     0
300
1:100
140
1.0
141
100.0
290
     0
  0
SCALE
  5
54
102
{ACAD_REACTORS
330
47
102
}
330
47
100
AcDbScale
 70
     0
300
2:1
140
2.0
141
1.0
290
     0
  0
SCALE
  5
55
102
{ACAD_REACTORS
330
47
102
}
330
47
100
AcDbScale
 70
     0
300
4:1
140
4.0
141
1.0
290
     0
  0
SCALE
  5
56
102
{ACAD_REACTORS
330
47
102
}
330
47
100
AcDbScale
 70
     0
300
8:1
140
8.0
141
1.0
290
     0
  0
SCALE
  5
57
102
{ACAD_REACTORS
330
47
102
}
330
47
100
AcDbScale
 70
     0
300
10:1
140
10.0
141
1.0
290
     0
  0
SCALE
  5
58
102
{ACAD_REACTORS
330
47
102
}
330
47
100
AcDbScale
 70
     0
300
100:1
140
100.0
141
1.0
290
     0
  0
SCALE
  5
59
102
{ACAD_REACTORS
330
47
102
}
330
47
100
AcDbScale
 70
     0
300
1/128" = 1'-0"
140
0.0078125
141
12.0
290
     0
  0
SCALE
  5
5A
102
{ACAD_REACTORS
330
47
102
}
330
47
100
AcDbScale
 70
     0
300
1/64" = 1'-0"
140
0.015625
141
12.0
290
     0
  0
SCALE
  5
5B
102
{ACAD_REACTORS
330
47
102
}
330
47
100
AcDbScale
 70
     0
300
1/32" = 1'-0"
140
0.03125
141
12.0
290
     0
  0
SCALE
  5
5C
102
{ACAD_REACTORS
330
47
102
}
330
47
100
AcDbScale
 70
     0
300
1/16" = 1'-0"
140
0.0625
141
12.0
290
     0
  0
SCALE
  5
5D
102
{ACAD_REACTORS
330
47
102
}
330
47
100
AcDbScale
 70
     0
300
3/32" = 1'-0"
140
0.09375
141
12.0
290
     0
  0
SCALE
  5
5E
102
{ACAD_REACTORS
330
47
102
}
330
47
100
AcDbScale
 70
     0
300
1/8" = 1'-0"
140
0.125
141
12.0
290
     0
  0
SCALE
  5
5F
102
{ACAD_REACTORS
330
47
102
}
330
47
100
AcDbScale
 70
     0
300
3/16" = 1'-0"
140
0.1875
141
12.0
290
     0
  0
SCALE
  5
60
102
{ACAD_REACTORS
330
47
102
}
330
47
100
AcDbScale
 70
     0
300
1/4" = 1'-0"
140
0.25
141
12.0
290
     0
  0
SCALE
  5
61
102
{ACAD_REACTORS
330
47
102
}
330
47
100
AcDbScale
 70
     0
300
3/8" = 1'-0"
140
0.375
141
12.0
290
     0
  0
SCALE
  5
62
102
{ACAD_REACTORS
330
47
102
}
330
47
100
AcDbScale
 70
     0
300
1/2" = 1'-0"
140
0.5
141
12.0
290
     0
  0
SCALE
  5
63
102
{ACAD_REACTORS
330
47
102
}
330
47
100
AcDbScale
 70
     0
300
3/4" = 1'-0"
140
0.75
141
12.0
290
     0
  0
SCALE
  5
64
102
{ACAD_REACTORS
330
47
102
}
330
47
100
AcDbScale
 70
     0
300
1" = 1'-0"
140
1.0
141
12.0
290
     0
  0
SCALE
  5
65
102
{ACAD_REACTORS
330
47
102
}
330
47
100
AcDbScale
 70
     0
300
1-1/2" = 1'-0"
140
1.5
141
12.0
290
     0
  0
SCALE
  5
66
102
{ACAD_REACTORS
330
47
102
}
330
47
100
AcDbScale
 70
     0
300
3" = 1'-0"
140
3.0
141
12.0
290
     0
  0
SCALE
  5
67
102
{ACAD_REACTORS
330
47
102
}
330
47
100
AcDbScale
 70
     0
300
6" = 1'-0"
140
6.0
141
12.0
290
     0
  0
SCALE
  5
68
102
{ACAD_REACTORS
330
47
102
}
330
47
100
AcDbScale
 70
     0
300
1'-0" = 1'-0"
140
12.0
141
12.0
290
     0
  0
ENDSEC
  0
EOF
