  0
SECTION
  2
HEADER
  9
$ACADVER
  1
AC1015
  9
$ACADMAINTVER
 70
     6
  9
$DWGCODEPAGE
  3
ANSI_949
  9
$INSBASE
 10
0.0
 20
0.0
 30
0.0
  9
$EXTMIN
 10
-71.40390613132347
 20
-49.97073246008785
 30
0.0
  9
$EXTMAX
 10
60.55033333333333
 20
83.26237799682823
 30
0.0
  9
$LIMMIN
 10
0.0
 20
0.0
  9
$LIMMAX
 10
420.0
 20
297.0
  9
$ORTHOMODE
 70
     1
  9
$REGENMODE
 70
     1
  9
$FILLMODE
 70
     1
  9
$QTEXTMODE
 70
     0
  9
$MIRRTEXT
 70
     1
  9
$LTSCALE
 40
1.0
  9
$ATTMODE
 70
     1
  9
$TEXTSIZE
 40
3.5
  9
$TRACEWID
 40
1.0
  9
$TEXTSTYLE
  7
Standard
  9
$CLAYER
  8
0
  9
$CELTYPE
  6
ByLayer
  9
$CECOLOR
 62
   256
  9
$CELTSCALE
 40
1.0
  9
$DISPSILH
 70
     0
  9
$DIMSCALE
 40
1.0
  9
$DIMASZ
 40
3.302
  9
$DIMEXO
 40
1.0
  9
$DIMDLI
 40
3.75
  9
$DIMRND
 40
0.0
  9
$DIMDLE
 40
0.0
  9
$DIMEXE
 40
1.0
  9
$DIMTP
 40
0.0
  9
$DIMTM
 40
0.0
  9
$DIMTXT
 40
3.5
  9
$DIMCEN
 40
2.5
  9
$DIMTSZ
 40
0.0
  9
$DIMTOL
 70
     0
  9
$DIMLIM
 70
     0
  9
$DIMTIH
 70
     1
  9
$DIMTOH
 70
     1
  9
$DIMSE1
 70
     0
  9
$DIMSE2
 70
     0
  9
$DIMTAD
 70
     1
  9
$DIMZIN
 70
     0
  9
$DIMBLK
  1

  9
$DIMASO
 70
     1
  9
$DIMSHO
 70
     1
  9
$DIMPOST
  1

  9
$DIMAPOST
  1

  9
$DIMALT
 70
     0
  9
$DIMALTD
 70
     3
  9
$DIMALTF
 40
0.0393700787401575
  9
$DIMLFAC
 40
1.0
  9
$DIMTOFL
 70
     1
  9
$DIMTVP
 40
0.0
  9
$DIMTIX
 70
     0
  9
$DIMSOXD
 70
     0
  9
$DIMSAH
 70
     0
  9
$DIMBLK1
  1

  9
$DIMBLK2
  1

  9
$DIMSTYLE
  2
ISO-25
  9
$DIMCLRD
 70
     0
  9
$DIMCLRE
 70
     0
  9
$DIMCLRT
 70
     0
  9
$DIMTFAC
 40
1.0
  9
$DIMGAP
 40
1.524
  9
$DIMJUST
 70
     0
  9
$DIMSD1
 70
     0
  9
$DIMSD2
 70
     0
  9
$DIMTOLJ
 70
     0
  9
$DIMTZIN
 70
     0
  9
$DIMALTZ
 70
     0
  9
$DIMALTTZ
 70
     0
  9
$DIMUPT
 70
     0
  9
$DIMDEC
 70
     2
  9
$DIMTDEC
 70
     2
  9
$DIMALTU
 70
     2
  9
$DIMALTTD
 70
     3
  9
$DIMTXSTY
  7
Standard
  9
$DIMAUNIT
 70
     0
  9
$DIMADEC
 70
     2
  9
$DIMALTRND
 40
0.0
  9
$DIMAZIN
 70
     0
  9
$DIMDSEP
 70
    44
  9
$DIMATFIT
 70
     3
  9
$DIMFRAC
 70
     0
  9
$DIMLDRBLK
  1

  9
$DIMLUNIT
 70
     2
  9
$DIMLWD
 70
    -2
  9
$DIMLWE
 70
    -2
  9
$DIMTMOVE
 70
     0
  9
$LUNITS
 70
     2
  9
$LUPREC
 70
     2
  9
$SKETCHINC
 40
1.0
  9
$FILLETRAD
 40
10.0
  9
$AUNITS
 70
     0
  9
$AUPREC
 70
     2
  9
$MENU
  1
.
  9
$ELEVATION
 40
0.0
  9
$PELEVATION
 40
0.0
  9
$THICKNESS
 40
0.0
  9
$LIMCHECK
 70
     0
  9
$CHAMFERA
 40
0.0
  9
$CHAMFERB
 40
0.0
  9
$CHAMFERC
 40
0.0
  9
$CHAMFERD
 40
0.0
  9
$SKPOLY
 70
     0
  9
$TDCREATE
 40
2458268.77359059
  9
$TDUCREATE
 40
2458268.39859059
  9
$TDUPDATE
 40
2458270.353186042
  9
$TDUUPDATE
 40
2458269.978186042
  9
$TDINDWG
 40
0.0008114005
  9
$TDUSRTIMER
 40
2458269.977374768
  9
$USRTIMER
 70
     1
  9
$ANGBASE
 50
0.0
  9
$ANGDIR
 70
     0
  9
$PDMODE
 70
     0
  9
$PDSIZE
 40
-1.0
  9
$PLINEWID
 40
0.0
  9
$SPLFRAME
 70
     0
  9
$SPLINETYPE
 70
     6
  9
$SPLINESEGS
 70
     8
  9
$HANDSEED
  5
142
  9
$SURFTAB1
 70
     6
  9
$SURFTAB2
 70
     6
  9
$SURFTYPE
 70
     6
  9
$SURFU
 70
     6
  9
$SURFV
 70
     6
  9
$UCSBASE
  2

  9
$UCSNAME
  2

  9
$UCSORG
 10
0.0
 20
0.0
 30
0.0
  9
$UCSXDIR
 10
1.0
 20
0.0
 30
0.0
  9
$UCSYDIR
 10
0.0
 20
1.0
 30
0.0
  9
$UCSORTHOREF
  2

  9
$UCSORTHOVIEW
 70
     0
  9
$UCSORGTOP
 10
0.0
 20
0.0
 30
0.0
  9
$UCSORGBOTTOM
 10
0.0
 20
0.0
 30
0.0
  9
$UCSORGLEFT
 10
0.0
 20
0.0
 30
0.0
  9
$UCSORGRIGHT
 10
0.0
 20
0.0
 30
0.0
  9
$UCSORGFRONT
 10
0.0
 20
0.0
 30
0.0
  9
$UCSORGBACK
 10
0.0
 20
0.0
 30
0.0
  9
$PUCSBASE
  2

  9
$PUCSNAME
  2

  9
$PUCSORG
 10
0.0
 20
0.0
 30
0.0
  9
$PUCSXDIR
 10
1.0
 20
0.0
 30
0.0
  9
$PUCSYDIR
 10
0.0
 20
1.0
 30
0.0
  9
$PUCSORTHOREF
  2

  9
$PUCSORTHOVIEW
 70
     0
  9
$PUCSORGTOP
 10
0.0
 20
0.0
 30
0.0
  9
$PUCSORGBOTTOM
 10
0.0
 20
0.0
 30
0.0
  9
$PUCSORGLEFT
 10
0.0
 20
0.0
 30
0.0
  9
$PUCSORGRIGHT
 10
0.0
 20
0.0
 30
0.0
  9
$PUCSORGFRONT
 10
0.0
 20
0.0
 30
0.0
  9
$PUCSORGBACK
 10
0.0
 20
0.0
 30
0.0
  9
$USERI1
 70
     0
  9
$USERI2
 70
     0
  9
$USERI3
 70
     0
  9
$USERI4
 70
     0
  9
$USERI5
 70
     0
  9
$USERR1
 40
0.0
  9
$USERR2
 40
0.0
  9
$USERR3
 40
0.0
  9
$USERR4
 40
0.0
  9
$USERR5
 40
0.0
  9
$WORLDVIEW
 70
     1
  9
$SHADEDGE
 70
     3
  9
$SHADEDIF
 70
    70
  9
$TILEMODE
 70
     1
  9
$MAXACTVP
 70
    64
  9
$PINSBASE
 10
0.0
 20
0.0
 30
0.0
  9
$PLIMCHECK
 70
     0
  9
$PEXTMIN
 10
1.000000000000000E+20
 20
1.000000000000000E+20
 30
1.000000000000000E+20
  9
$PEXTMAX
 10
-1.000000000000000E+20
 20
-1.000000000000000E+20
 30
-1.000000000000000E+20
  9
$PLIMMIN
 10
0.0
 20
0.0
  9
$PLIMMAX
 10
0.0
 20
0.0
  9
$UNITMODE
 70
     0
  9
$VISRETAIN
 70
     1
  9
$PLINEGEN
 70
     0
  9
$PSLTSCALE
 70
     1
  9
$TREEDEPTH
 70
  3020
  9
$CMLSTYLE
  2
Standard
  9
$CMLJUST
 70
     0
  9
$CMLSCALE
 40
20.0
  9
$PROXYGRAPHICS
 70
     1
  9
$MEASUREMENT
 70
     1
  9
$CELWEIGHT
370
    -1
  9
$ENDCAPS
280
     0
  9
$JOINSTYLE
280
     0
  9
$LWDISPLAY
290
     1
  9
$INSUNITS
 70
     4
  9
$HYPERLINKBASE
  1

  9
$STYLESHEET
  1

  9
$XEDIT
290
     1
  9
$CEPSNTYPE
380
     0
  9
$PSTYLEMODE
290
     1
  9
$FINGERPRINTGUID
  2
{CE514A56-7E18-473B-BB31-823610B8DD85}
  9
$VERSIONGUID
  2
{FAEB1C32-E019-11D5-929B-00C0DF256EC4}
  9
$EXTNAMES
290
     1
  9
$PSVPSCALE
 40
0.0
  9
$OLESTARTUP
290
     0
  0
ENDSEC
  0
SECTION
  2
CLASSES
  0
CLASS
  1
ACDBDICTIONARYWDFLT
  2
AcDbDictionaryWithDefault
  3
ObjectDBX Classes
 90
        0
280
     0
281
     0
  0
CLASS
  1
VISUALSTYLE
  2
AcDbVisualStyle
  3
ObjectDBX Classes
 90
     4095
280
     0
281
     0
  0
CLASS
  1
MATERIAL
  2
AcDbMaterial
  3
ObjectDBX Classes
 90
     1153
280
     0
281
     0
  0
CLASS
  1
SCALE
  2
AcDbScale
  3
ObjectDBX Classes
 90
     1153
280
     0
281
     0
  0
CLASS
  1
SUN
  2
AcDbSun
  3
SCENEOE
 90
     1153
280
     0
281
     0
  0
CLASS
  1
ACDBPLACEHOLDER
  2
AcDbPlaceHolder
  3
ObjectDBX Classes
 90
        0
280
     0
281
     0
  0
CLASS
  1
LAYOUT
  2
AcDbLayout
  3
ObjectDBX Classes
 90
        0
280
     0
281
     0
  0
CLASS
  1
TABLESTYLE
  2
AcDbTableStyle
  3
ObjectDBX Classes
 90
     4095
280
     0
281
     0
  0
CLASS
  1
MLEADERSTYLE
  2
AcDbMLeaderStyle
  3
ACDB_MLEADERSTYLE_CLASS
 90
     4095
280
     0
281
     0
  0
CLASS
  1
RASTERVARIABLES
  2
AcDbRasterVariables
  3
ISM
 90
        0
280
     0
281
     0
  0
ENDSEC
  0
SECTION
  2
TABLES
  0
TABLE
  2
VPORT
  5
8
330
0
100
AcDbSymbolTable
 70
     1
  0
VPORT
  5
29
330
8
100
AcDbSymbolTableRecord
100
AcDbViewportTableRecord
  2
*Active
 70
     0
 10
0.0
 20
0.0
 11
1.0
 21
1.0
 12
14.17436411106587
 22
-14.18178662963167
 13
0.0
 23
0.0
 14
10.0
 24
10.0
 15
10.0
 25
10.0
 16
0.0
 26
0.0
 36
1.0
 17
0.0
 27
0.0
 37
0.0
 40
110.5562527182978
 41
1.330935251798561
 42
50.0
 43
0.0
 44
0.0
 50
0.0
 51
0.0
 71
    16
 72
  2000
 73
     1
 74
     3
 75
     0
 76
     0
 77
     0
 78
     0
281
     0
 65
     1
110
0.0
120
0.0
130
0.0
111
1.0
121
0.0
131
0.0
112
0.0
122
1.0
132
0.0
 79
     0
146
0.0
  0
ENDTAB
  0
TABLE
  2
LTYPE
  5
5
330
0
100
AcDbSymbolTable
 70
     6
  0
LTYPE
  5
14
330
5
100
AcDbSymbolTableRecord
100
AcDbLinetypeTableRecord
  2
ByBlock
 70
     0
  3

 72
    65
 73
     0
 40
0.0
  0
LTYPE
  5
15
330
5
100
AcDbSymbolTableRecord
100
AcDbLinetypeTableRecord
  2
ByLayer
 70
     0
  3

 72
    65
 73
     0
 40
0.0
  0
LTYPE
  5
16
330
5
100
AcDbSymbolTableRecord
100
AcDbLinetypeTableRecord
  2
Continuous
 70
     0
  3
Solid line
 72
    65
 73
     0
 40
0.0
  0
LTYPE
  5
6A
330
5
100
AcDbSymbolTableRecord
100
AcDbLinetypeTableRecord
  2
HIDDEN
 70
     0
  3
Hidden __ __ __ __ __ __ __ __ __ __ __ __ __ __
 72
    65
 73
     2
 40
1.905
 49
1.27
 74
     0
 49
-0.635
 74
     0
  0
LTYPE
  5
6B
330
5
100
AcDbSymbolTableRecord
100
AcDbLinetypeTableRecord
  2
PHANTOM
 70
     0
  3
Phantom ______  __  __  ______  __  __  ______
 72
    65
 73
     6
 40
12.7
 49
6.35
 74
     0
 49
-1.27
 74
     0
 49
1.27
 74
     0
 49
-1.27
 74
     0
 49
1.27
 74
     0
 49
-1.27
 74
     0
  0
LTYPE
  5
6C
330
5
100
AcDbSymbolTableRecord
100
AcDbLinetypeTableRecord
  2
CENTER
 70
     0
  3
Center ____ _ ____ _ ____ _ ____ _ ____ _ ____
 72
    65
 73
     4
 40
10.16
 49
6.35
 74
     0
 49
-1.27
 74
     0
 49
1.27
 74
     0
 49
-1.27
 74
     0
  0
LTYPE
  5
6D
330
5
100
AcDbSymbolTableRecord
100
AcDbLinetypeTableRecord
  2
CENTERX2
 70
     0
  3
Center (2x) ________  __  ________  __  _____
 72
    65
 73
     4
 40
20.32
 49
12.7
 74
     0
 49
-2.54
 74
     0
 49
2.54
 74
     0
 49
-2.54
 74
     0
  0
LTYPE
  5
6E
330
5
100
AcDbSymbolTableRecord
100
AcDbLinetypeTableRecord
  2
DOT2
 70
     0
  3
Dot (.5x) ........................................
 72
    65
 73
     2
 40
0.635
 49
0.0
 74
     0
 49
-0.635
 74
     0
  0
ENDTAB
  0
TABLE
  2
LAYER
  5
2
330
0
100
AcDbSymbolTable
 70
    17
  0
LAYER
  5
10
330
2
100
AcDbSymbolTableRecord
100
AcDbLayerTableRecord
  2
0
 70
     0
 62
     7
  6
Continuous
370
    -3
390
F
  0
LAYER
  5
6F
330
2
100
AcDbSymbolTableRecord
100
AcDbLayerTableRecord
  2
FORMAT
 70
     0
 62
     2
  6
Continuous
370
    -3
390
F
  0
LAYER
  5
70
330
2
100
AcDbSymbolTableRecord
100
AcDbLayerTableRecord
  2
외형선
 70
     0
 62
   100
  6
Continuous
370
    30
390
F
  0
LAYER
  5
71
330
2
100
AcDbSymbolTableRecord
100
AcDbLayerTableRecord
  2
숨은선
 70
     0
 62
     2
  6
HIDDEN
370
    15
390
F
  0
LAYER
  5
72
330
2
100
AcDbSymbolTableRecord
100
AcDbLayerTableRecord
  2
중심선
 70
     0
 62
     1
  6
CENTERX2
370
    -3
390
F
  0
LAYER
  5
73
330
2
100
AcDbSymbolTableRecord
100
AcDbLayerTableRecord
  2
파단선
 70
     0
 62
     4
  6
Continuous
370
    -3
390
F
  0
LAYER
  5
74
330
2
100
AcDbSymbolTableRecord
100
AcDbLayerTableRecord
  2
해칭선
 70
     0
 62
     4
  6
Continuous
370
    -3
390
F
  0
LAYER
  5
75
330
2
100
AcDbSymbolTableRecord
100
AcDbLayerTableRecord
  2
가는실선
 70
     0
 62
     4
  6
Continuous
370
    -3
390
F
  0
LAYER
  5
76
330
2
100
AcDbSymbolTableRecord
100
AcDbLayerTableRecord
  2
치수_보조선
 70
     0
 62
     4
  6
Continuous
370
    -3
390
F
  0
LAYER
  5
77
330
2
100
AcDbSymbolTableRecord
100
AcDbLayerTableRecord
  2
치수문자_일반주서
 70
     0
 62
     7
  6
Continuous
370
    15
390
F
  0
LAYER
  5
78
330
2
100
AcDbSymbolTableRecord
100
AcDbLayerTableRecord
  2
개별주서
 70
     0
 62
   100
  6
Continuous
370
    30
390
F
  0
LAYER
  5
79
330
2
100
AcDbSymbolTableRecord
100
AcDbLayerTableRecord
  2
중간선
 70
     0
 62
     2
  6
Continuous
370
    15
390
F
  0
LAYER
  5
7A
330
2
100
AcDbSymbolTableRecord
100
AcDbLayerTableRecord
  2
윤곽선
 70
     0
 62
     3
  6
Continuous
370
    40
390
F
  0
LAYER
  5
7B
330
2
100
AcDbSymbolTableRecord
100
AcDbLayerTableRecord
  2
중심마크
 70
     0
 62
   100
  6
Continuous
370
    30
390
F
  0
LAYER
  5
7C
330
2
100
AcDbSymbolTableRecord
100
AcDbLayerTableRecord
  2
가상선
 70
     0
 62
     4
  6
PHANTOM
370
    -3
390
F
  0
LAYER
  5
7D
330
2
100
AcDbSymbolTableRecord
100
AcDbLayerTableRecord
  2
특수지정선
 70
     0
 62
     5
  6
CENTERX2
370
    60
390
F
  0
LAYER
  5
13A
330
2
100
AcDbSymbolTableRecord
100
AcDbLayerTableRecord
  2
Defpoints
 70
     0
 62
     7
  6
Continuous
290
     0
370
    -3
390
F
  0
ENDTAB
  0
TABLE
  2
STYLE
  5
3
330
0
100
AcDbSymbolTable
 70
     2
  0
STYLE
  5
11
330
3
100
AcDbSymbolTableRecord
100
AcDbTextStyleTableRecord
  2
Standard
 70
     0
 40
0.0
 41
1.0
 50
0.0
 71
     0
 42
3.5
  3
txt
  4

  0
STYLE
  5
93
330
3
100
AcDbSymbolTableRecord
100
AcDbTextStyleTableRecord
  2
SLDTEXTSTYLE0
 70
     0
 40
0.0
 41
0.75
 50
0.0
 71
     0
 42
3.5
  3
TXT
  4

  0
ENDTAB
  0
TABLE
  2
VIEW
  5
6
330
0
100
AcDbSymbolTable
 70
     0
  0
ENDTAB
  0
TABLE
  2
UCS
  5
7
330
0
100
AcDbSymbolTable
 70
     0
  0
ENDTAB
  0
TABLE
  2
APPID
  5
9
330
0
100
AcDbSymbolTable
 70
     1
  0
APPID
  5
12
330
9
100
AcDbSymbolTableRecord
100
AcDbRegAppTableRecord
  2
ACAD
 70
     0
  0
ENDTAB
  0
TABLE
  2
DIMSTYLE
  5
A
330
0
100
AcDbSymbolTable
 70
     3
100
AcDbDimStyleTable
  0
DIMSTYLE
105
27
330
A
100
AcDbSymbolTableRecord
100
AcDbDimStyleTableRecord
  2
ISO-25
 70
     0
 41
2.5
 42
0.625
 43
3.75
 44
1.25
 73
     0
 74
     0
 77
     1
 78
     8
140
2.5
141
2.5
143
0.03937007874016
147
0.625
171
     3
172
     1
178
     0
271
     2
272
     2
274
     3
278
    44
283
     0
284
     8
340
11
  0
DIMSTYLE
105
DF
102
{ACAD_REACTORS
330
DE
330
EC
102
}
330
A
100
AcDbSymbolTableRecord
100
AcDbDimStyleTableRecord
  2
SLDDIMSTYLE0
 70
     0
 41
3.302
 44
0.0
 45
0.000000001
 73
     0
 74
     0
 77
     1
 78
    12
 79
     3
140
3.5
147
0.875
172
     1
173
     1
178
     0
271
     2
272
     2
276
     2
284
    12
289
     0
340
93
  0
DIMSTYLE
105
FA
102
{ACAD_REACTORS
330
F9
330
104
102
}
330
A
100
AcDbSymbolTableRecord
100
AcDbDimStyleTableRecord
  2
SLDDIMSTYLE1
 70
     0
 41
3.302
 44
0.0
 45
0.000000001
 73
     0
 74
     0
 77
     1
 78
    12
 79
     3
140
3.5
147
0.875
173
     1
178
     0
271
     2
272
     2
276
     2
284
    12
340
93
  0
ENDTAB
  0
TABLE
  2
BLOCK_RECORD
  5
1
330
0
100
AcDbSymbolTable
 70
     7
  0
BLOCK_RECORD
  5
1F
330
1
100
AcDbSymbolTableRecord
100
AcDbBlockTableRecord
  2
*Model_Space
340
22
  0
BLOCK_RECORD
  5
1B
330
1
100
AcDbSymbolTableRecord
100
AcDbBlockTableRecord
  2
*Paper_Space
340
1E
  0
BLOCK_RECORD
  5
23
330
1
100
AcDbSymbolTableRecord
100
AcDbBlockTableRecord
  2
*Paper_Space0
340
26
  0
BLOCK_RECORD
  5
7E
330
1
100
AcDbSymbolTableRecord
100
AcDbBlockTableRecord
  2
블럭10
340
0
102
{BLKREFS
331
D7
102
}
  0
BLOCK_RECORD
  5
E0
330
1
100
AcDbSymbolTableRecord
100
AcDbBlockTableRecord
  2
_D
340
0
  0
BLOCK_RECORD
  5
ED
330
1
100
AcDbSymbolTableRecord
100
AcDbBlockTableRecord
  2
_D_1
340
0
  0
BLOCK_RECORD
  5
FB
330
1
100
AcDbSymbolTableRecord
100
AcDbBlockTableRecord
  2
_D_2
340
0
  0
BLOCK_RECORD
  5
105
330
1
100
AcDbSymbolTableRecord
100
AcDbBlockTableRecord
  2
_D_3
340
0
  0
BLOCK_RECORD
  5
10E
330
1
100
AcDbSymbolTableRecord
100
AcDbBlockTableRecord
  2
SW_DOWELSYMBOL_0
340
0
102
{BLKREFS
331
114
102
}
  0
ENDTAB
  0
ENDSEC
  0
SECTION
  2
BLOCKS
  0
BLOCK
  5
20
330
1F
100
AcDbEntity
  8
0
100
AcDbBlockBegin
  2
*Model_Space
 70
     0
 10
0.0
 20
0.0
 30
0.0
  3
*Model_Space
  1
*Model_Space
  0
ENDBLK
  5
21
330
1F
100
AcDbEntity
  8
0
100
AcDbBlockEnd
  0
BLOCK
  5
1C
330
1B
100
AcDbEntity
 67
     1
  8
0
100
AcDbBlockBegin
  2
*Paper_Space
 70
     0
 10
0.0
 20
0.0
 30
0.0
  3
*Paper_Space
  1
*Paper_Space
  0
ENDBLK
  5
1D
330
1B
100
AcDbEntity
 67
     1
  8
0
100
AcDbBlockEnd
  0
BLOCK
  5
24
330
23
100
AcDbEntity
  8
0
100
AcDbBlockBegin
  2
*Paper_Space0
 70
     0
 10
0.0
 20
0.0
 30
0.0
  3
*Paper_Space0
  1
*Paper_Space0
  0
ENDBLK
  5
25
330
23
100
AcDbEntity
  8
0
100
AcDbBlockEnd
  0
BLOCK
  5
7F
330
7E
100
AcDbEntity
  8
0
100
AcDbBlockBegin
  2
블럭10
 70
     2
 10
0.0
 20
0.0
 30
0.0
  3
블럭10
  1
블럭10
  0
ELLIPSE
  5
81
330
7E
100
AcDbEntity
  8
중심선
100
AcDbEllipse
 10
20.54032771741204
 20
12.0471743016438
 30
0.0
 11
6.600054785286829
 21
-1.261213355974178E-13
 31
0.0
210
0.0
220
0.0
230
1.0
 40
0.636358354079598
 41
0.9219305317359503
 42
6.513795318482858
  0
ELLIPSE
  5
82
330
7E
100
AcDbEntity
  8
중심선
100
AcDbEllipse
 10
20.54032771746488
 20
12.04717430159265
 30
0.0
 11
3.960054785062283
 21
1.540847449632565E-10
 31
0.0
210
0.0
220
0.0
230
1.0
 40
0.3939339440162632
 41
1.131841032648279
 42
5.62031148352944
  0
LINE
  5
83
330
7E
100
AcDbEntity
  8
중심선
100
AcDbLine
 10
2.268634060543552
 20
16.24717430164393
 30
0.0
 11
5.714909304380834
 21
16.24717430164393
 31
0.0
  0
LINE
  5
84
330
7E
100
AcDbEntity
  8
중심선
100
AcDbLine
 10
5.245725140726316
 20
7.84717430164391
 30
0.0
 11
8.692000384563599
 21
7.84717430164391
 31
0.0
  0
LINE
  5
85
330
7E
100
AcDbEntity
  8
중심선
100
AcDbLine
 10
15.74043728645272
 20
16.24717430164393
 30
0.0
 11
8.692000384563599
 21
7.84717430164391
 31
0.0
  0
LINE
  5
86
330
7E
100
AcDbEntity
  8
중심선
100
AcDbLine
 10
0.1404042013395286
 20
13.71084872107135
 30
0.0
 11
3.58671253028996
 21
13.71088815037384
 31
0.0
  0
LINE
  5
87
330
7E
100
AcDbEntity
  8
중심선
100
AcDbLine
 10
2.750260043222114
 20
10.84717430164391
 30
0.0
 11
6.196535287059397
 21
10.84717430164391
 31
0.0
  0
LINE
  5
88
330
7E
100
AcDbEntity
  8
중심선
100
AcDbLine
 10
12.29416204261559
 20
16.24717430164393
 30
0.0
 11
5.245725140726316
 21
7.84717430164391
 31
0.0
  0
LINE
  5
89
330
7E
100
AcDbEntity
  8
중심선
100
AcDbLine
 10
10.72767329541681
 20
16.24717430164393
 30
0.0
 11
6.196535287059397
 21
10.84717430164391
 31
0.0
  0
LINE
  5
8A
330
7E
100
AcDbEntity
  8
중심선
100
AcDbLine
 10
7.28139805157953
 20
16.24717430164393
 30
0.0
 11
2.750260043222114
 21
10.84717430164391
 31
0.0
  0
LINE
  5
8B
330
7E
100
AcDbEntity
  8
중심선
100
AcDbLine
 10
5.714909304380834
 20
16.24717430164393
 30
0.0
 11
3.58671253028996
 21
13.71088815037384
 31
0.0
  0
LINE
  5
8C
330
7E
100
AcDbEntity
  8
중심선
100
AcDbLine
 10
2.268634060543552
 20
16.24717430164393
 30
0.0
 11
0.1404042013395286
 21
13.71084872107135
 31
0.0
  0
LINE
  5
8D
330
7E
100
AcDbEntity
  8
중심선
100
AcDbLine
 10
7.28139805157953
 20
16.24717430164393
 30
0.0
 11
10.72767329541681
 21
16.24717430164393
 31
0.0
  0
LINE
  5
8E
330
7E
100
AcDbEntity
  8
중심선
100
AcDbLine
 10
12.29416204261559
 20
16.24717430164393
 30
0.0
 11
15.74043728645272
 21
16.24717430164393
 31
0.0
  0
LINE
  5
8F
330
7E
100
AcDbEntity
  8
중심선
100
AcDbLine
 10
19.22036997980202
 20
11.08717430171403
 30
0.0
 11
23.66174974927406
 21
11.08717430171406
 31
0.0
  0
LINE
  5
90
330
7E
100
AcDbEntity
  8
중심선
100
AcDbLine
 10
19.22039502424796
 20
13.00717430171391
 30
0.0
 11
19.22036997980202
 21
11.08717430171403
 31
0.0
  0
LINE
  5
91
330
7E
100
AcDbEntity
  8
중심선
100
AcDbLine
 10
19.22039502424796
 20
13.00717430171391
 30
0.0
 11
26.96566020931264
 21
13.00717430171391
 31
0.0
  0
LINE
  5
92
330
7E
100
AcDbEntity
  8
중심선
100
AcDbLine
 10
22.22332737316547
 20
13.45928029700563
 30
0.0
 11
24.52862924686651
 21
15.39360700705356
 31
0.0
  0
ATTDEF
  5
94
330
7E
100
AcDbEntity
  8
FORMAT
 62
     2
100
AcDbText
 10
-12.95993919485777
 20
2.075366912832191
 30
0.0
 40
4.233333333333333
  1
SEME75160E [ 6 FLUTE ]
 41
0.75
  7
SLDTEXTSTYLE0
 11
-12.95993919485777
 21
-0.0412997538344756
 31
0.0
100
AcDbAttributeDefinition
  3

  2
AUTOATTR0
 70
     0
 74
     1
  0
ENDBLK
  5
80
330
7E
100
AcDbEntity
  8
0
100
AcDbBlockEnd
  0
BLOCK
  5
E1
330
E0
100
AcDbEntity
  8
0
100
AcDbBlockBegin
  2
_D
 70
     0
 10
0.0
 20
0.0
 30
0.0
  3
_D
  1
_D
  0
LINE
  5
E3
330
E0
100
AcDbEntity
  8
치수문자_일반주서
 62
     0
370
    -2
100
AcDbLine
 10
-48.46250000000002
 20
8.001074928723911
 30
0.0
 11
-67.02890613132348
 21
8.001074928723842
 31
0.0
  0
LINE
  5
E4
330
E0
100
AcDbEntity
  8
치수문자_일반주서
 62
     0
370
    -2
100
AcDbLine
 10
-48.46250000000002
 20
-7.998925071276103
 30
0.0
 11
-67.02890613132342
 21
-7.998925071276171
 31
0.0
  0
LINE
  5
E5
330
E0
100
AcDbEntity
  8
치수문자_일반주서
 62
     0
370
    -2
100
AcDbLine
 10
-67.02890613132347
 20
4.699074928723842
 30
0.0
 11
-67.02890613132344
 21
-4.696925071276172
 31
0.0
  0
SOLID
  5
E6
330
E0
100
AcDbEntity
  8
치수문자_일반주서
 62
     0
100
AcDbTrace
 10
-66.47857279799014
 20
4.699074928723844
 30
0.0
 11
-67.5792394646568
 21
4.69907492872384
 31
0.0
 12
-67.02890613132348
 22
8.001074928723842
 32
0.0
 13
-67.02890613132348
 23
8.001074928723842
 33
0.0
  0
SOLID
  5
E7
330
E0
100
AcDbEntity
  8
치수문자_일반주서
 62
     0
100
AcDbTrace
 10
-67.57923946465677
 20
-4.696925071276174
 30
0.0
 11
-66.47857279799011
 21
-4.69692507127617
 31
0.0
 12
-67.02890613132342
 22
-7.998925071276171
 32
0.0
 13
-67.02890613132342
 23
-7.998925071276171
 33
0.0
  0
MTEXT
  5
E8
330
E0
100
AcDbEntity
  8
치수문자_일반주서
 62
     0
100
AcDbMText
 10
-71.40390613132345
 20
0.0010749287238911
 30
0.0
 40
3.5
 41
0.0
 71
     2
 72
     1
  1
\A1;%%c16
  7
SLDTEXTSTYLE0
 11
-3.552713678800498E-15
 21
1.0
 31
0.0
 73
     1
 44
1.0
  0
POINT
  5
E9
330
E0
100
AcDbEntity
  8
Defpoints
 62
     0
100
AcDbPoint
 10
-48.40000000000002
 20
8.001074928723911
 30
0.0
  0
POINT
  5
EA
330
E0
100
AcDbEntity
  8
Defpoints
 62
     0
100
AcDbPoint
 10
-48.40000000000002
 20
-7.998925071276103
 30
0.0
  0
POINT
  5
EB
330
E0
100
AcDbEntity
  8
Defpoints
 62
     0
100
AcDbPoint
 10
-67.02890613132345
 20
-7.998925071276172
 30
0.0
  0
ENDBLK
  5
E2
330
E0
100
AcDbEntity
  8
0
100
AcDbBlockEnd
  0
BLOCK
  5
EE
330
ED
100
AcDbEntity
  8
0
100
AcDbBlockBegin
  2
_D_1
 70
     0
 10
0.0
 20
0.0
 30
0.0
  3
_D_1
  1
_D_1
  0
LINE
  5
F0
330
ED
100
AcDbEntity
  8
치수문자_일반주서
 62
     0
370
    -2
100
AcDbLine
 10
50.0625
 20
8.001074928723906
 30
0.0
 11
59.99999999999996
 21
8.001074928723945
 31
0.0
  0
LINE
  5
F1
330
ED
100
AcDbEntity
  8
치수문자_일반주서
 62
     0
370
    -2
100
AcDbLine
 10
50.0625
 20
-7.9989250712761
 30
0.0
 11
60.00000000000001
 21
-7.99892507127606
 31
0.0
  0
LINE
  5
F2
330
ED
100
AcDbEntity
  8
치수문자_일반주서
 62
     0
370
    -2
100
AcDbLine
 10
59.99999999999997
 20
4.699074928723945
 30
0.0
 11
60.0
 21
-4.696925071276061
 31
0.0
  0
SOLID
  5
F3
330
ED
100
AcDbEntity
  8
치수문자_일반주서
 62
     0
100
AcDbTrace
 10
60.55033333333331
 20
4.699074928723947
 30
0.0
 11
59.44966666666664
 21
4.699074928723944
 31
0.0
 12
59.99999999999996
 22
8.001074928723945
 32
0.0
 13
59.99999999999996
 23
8.001074928723945
 33
0.0
  0
SOLID
  5
F4
330
ED
100
AcDbEntity
  8
치수문자_일반주서
 62
     0
100
AcDbTrace
 10
59.44966666666667
 20
-4.696925071276063
 30
0.0
 11
60.55033333333333
 21
-4.696925071276059
 31
0.0
 12
60.00000000000001
 22
-7.99892507127606
 32
0.0
 13
60.00000000000001
 23
-7.99892507127606
 33
0.0
  0
MTEXT
  5
F5
330
ED
100
AcDbEntity
  8
치수문자_일반주서
 62
     0
100
AcDbMText
 10
55.62499999999998
 20
1.056164128877477
 30
0.0
 40
3.5
 41
0.0
 71
     2
 72
     1
  1
\A1;%%c16
  7
SLDTEXTSTYLE0
 11
-3.552713678800499E-15
 21
1.0
 31
0.0
 73
     1
 44
1.0
  0
POINT
  5
F6
330
ED
100
AcDbEntity
  8
Defpoints
 62
     0
100
AcDbPoint
 10
50.0
 20
8.001074928723906
 30
0.0
  0
POINT
  5
F7
330
ED
100
AcDbEntity
  8
Defpoints
 62
     0
100
AcDbPoint
 10
50.0
 20
-7.9989250712761
 30
0.0
  0
POINT
  5
F8
330
ED
100
AcDbEntity
  8
Defpoints
 62
     0
100
AcDbPoint
 10
60.00000000000001
 20
-7.998925071276062
 30
0.0
  0
ENDBLK
  5
EF
330
ED
100
AcDbEntity
  8
0
100
AcDbBlockEnd
  0
BLOCK
  5
FC
330
FB
100
AcDbEntity
  8
0
100
AcDbBlockBegin
  2
_D_2
 70
     0
 10
0.0
 20
0.0
 30
0.0
  3
_D_2
  1
_D_2
  0
LINE
  5
FE
330
FB
100
AcDbEntity
  8
치수문자_일반주서
 62
     0
370
    -2
100
AcDbLine
 10
9.999999999999991
 20
8.010549003791152
 30
0.0
 11
9.999999999999993
 21
51.44288962243296
 31
0.0
  0
LINE
  5
FF
330
FB
100
AcDbEntity
  8
치수문자_일반주서
 62
     0
370
    -2
100
AcDbLine
 10
50.0
 20
8.005195335958609
 30
0.0
 11
50.0
 21
51.44288962243296
 31
0.0
  0
LINE
  5
100
330
FB
100
AcDbEntity
  8
치수문자_일반주서
 62
     0
370
    -2
100
AcDbLine
 10
13.30199999999999
 20
51.44288962243296
 30
0.0
 11
46.698
 21
51.44288962243296
 31
0.0
  0
SOLID
  5
101
330
FB
100
AcDbEntity
  8
치수문자_일반주서
 62
     0
100
AcDbTrace
 10
13.30199999999999
 20
51.99322295576629
 30
0.0
 11
13.30199999999999
 21
50.89255628909962
 31
0.0
 12
9.999999999999993
 22
51.44288962243296
 32
0.0
 13
9.999999999999993
 23
51.44288962243296
 33
0.0
  0
SOLID
  5
102
330
FB
100
AcDbEntity
  8
치수문자_일반주서
 62
     0
100
AcDbTrace
 10
46.698
 20
50.89255628909962
 30
0.0
 11
46.698
 21
51.99322295576629
 31
0.0
 12
50.0
 22
51.44288962243296
 32
0.0
 13
50.0
 23
51.44288962243296
 33
0.0
  0
MTEXT
  5
103
330
FB
100
AcDbEntity
  8
치수문자_일반주서
 62
     0
100
AcDbMText
 10
26.36999510565236
 20
55.81788962243296
 30
0.0
 40
3.5
 41
0.0
 71
     2
 72
     1
  1
\A1;40
  7
SLDTEXTSTYLE0
 73
     1
 44
1.0
  0
POINT
  5
13B
330
FB
100
AcDbEntity
  8
Defpoints
 62
     0
100
AcDbPoint
 10
9.999999999999991
 20
7.948049003791152
 30
0.0
  0
POINT
  5
13C
330
FB
100
AcDbEntity
  8
Defpoints
 62
     0
100
AcDbPoint
 10
50.0
 20
7.942695335958609
 30
0.0
  0
POINT
  5
13D
330
FB
100
AcDbEntity
  8
Defpoints
 62
     0
100
AcDbPoint
 10
50.0
 20
51.44288962243296
 30
0.0
  0
ENDBLK
  5
FD
330
FB
100
AcDbEntity
  8
0
100
AcDbBlockEnd
  0
BLOCK
  5
106
330
105
100
AcDbEntity
  8
0
100
AcDbBlockBegin
  2
_D_3
 70
     0
 10
0.0
 20
0.0
 30
0.0
  3
_D_3
  1
_D_3
  0
LINE
  5
108
330
105
100
AcDbEntity
  8
치수문자_일반주서
 62
     0
370
    -2
100
AcDbLine
 10
50.0
 20
8.005195335958609
 30
0.0
 11
49.99999999999999
 21
78.88737799682823
 31
0.0
  0
LINE
  5
109
330
105
100
AcDbEntity
  8
치수문자_일반주서
 62
     0
370
    -2
100
AcDbLine
 10
-50.00000000000001
 20
6.463574928723911
 30
0.0
 11
-50.00000000000001
 21
78.88737799682823
 31
0.0
  0
LINE
  5
10A
330
105
100
AcDbEntity
  8
치수문자_일반주서
 62
     0
370
    -2
100
AcDbLine
 10
46.69799999999999
 20
78.88737799682823
 30
0.0
 11
-46.69800000000001
 21
78.88737799682823
 31
0.0
  0
SOLID
  5
10B
330
105
100
AcDbEntity
  8
치수문자_일반주서
 62
     0
100
AcDbTrace
 10
46.69799999999999
 20
78.33704466349491
 30
0.0
 11
46.69799999999999
 21
79.43771133016156
 31
0.0
 12
49.99999999999999
 22
78.88737799682823
 32
0.0
 13
49.99999999999999
 23
78.88737799682823
 33
0.0
  0
SOLID
  5
10C
330
105
100
AcDbEntity
  8
치수문자_일반주서
 62
     0
100
AcDbTrace
 10
-46.69800000000001
 20
79.43771133016156
 30
0.0
 11
-46.69800000000001
 21
78.33704466349491
 31
0.0
 12
-50.00000000000001
 22
78.88737799682823
 32
0.0
 13
-50.00000000000001
 23
78.88737799682823
 33
0.0
  0
MTEXT
  5
10D
330
105
100
AcDbEntity
  8
치수문자_일반주서
 62
     0
100
AcDbMText
 10
3.098163198427175
 20
83.26237799682823
 30
0.0
 40
3.5
 41
0.0
 71
     2
 72
     1
  1
\A1;100
  7
SLDTEXTSTYLE0
 73
     1
 44
1.0
  0
POINT
  5
13E
330
105
100
AcDbEntity
  8
Defpoints
 62
     0
100
AcDbPoint
 10
50.0
 20
7.942695335958609
 30
0.0
  0
POINT
  5
13F
330
105
100
AcDbEntity
  8
Defpoints
 62
     0
100
AcDbPoint
 10
-50.00000000000001
 20
6.401074928723911
 30
0.0
  0
POINT
  5
140
330
105
100
AcDbEntity
  8
Defpoints
 62
     0
100
AcDbPoint
 10
-50.00000000000001
 20
78.88737799682823
 30
0.0
  0
ENDBLK
  5
107
330
105
100
AcDbEntity
  8
0
100
AcDbBlockEnd
  0
BLOCK
  5
10F
330
10E
100
AcDbEntity
  8
0
100
AcDbBlockBegin
  2
SW_DOWELSYMBOL_0
 70
     0
 10
0.0
 20
0.0
 30
0.0
  3
SW_DOWELSYMBOL_0
  1
SW_DOWELSYMBOL_0
  0
CIRCLE
  5
111
330
10E
100
AcDbEntity
  8
외형선
 62
     0
100
AcDbCircle
 10
0.0
 20
0.0
 30
0.0
 40
3.000000000000008
  0
HATCH
  5
112
330
10E
100
AcDbEntity
  8
0
  6
Continuous
 62
     0
370
    30
100
AcDbHatch
 10
0.0
 20
0.0
 30
0.0
210
0.0
220
0.0
230
1.0
  2
SOLID
 70
     1
 71
     0
 91
        1
 92
        0
 93
        3
 72
     2
 10
0.0
 20
0.0
 40
3.000000000000008
 50
0.0
 51
90.0
 73
     1
 72
     1
 10
0.0
 20
3.000000000000008
 11
0.0
 21
0.0
 72
     1
 10
0.0
 20
0.0
 11
3.000000000000008
 21
0.0
 97
        0
 75
     0
 76
     1
 98
        1
 10
0.0
 20
0.0
  0
HATCH
  5
113
330
10E
100
AcDbEntity
  8
0
  6
Continuous
 62
     0
370
    30
100
AcDbHatch
 10
0.0
 20
0.0
 30
0.0
210
0.0
220
0.0
230
1.0
  2
SOLID
 70
     1
 71
     0
 91
        1
 92
        0
 93
        3
 72
     2
 10
0.0
 20
0.0
 40
3.000000000000008
 50
180.0
 51
270.0000000000008
 73
     1
 72
     1
 10
0.0
 20
-3.000000000000008
 11
0.0
 21
0.0
 72
     1
 10
0.0
 20
0.0
 11
-3.000000000000008
 21
0.0
 97
        0
 75
     0
 76
     1
 98
        1
 10
0.0
 20
0.0
  0
ENDBLK
  5
110
330
10E
100
AcDbEntity
  8
0
100
AcDbBlockEnd
  0
ENDSEC
  0
SECTION
  2
ENTITIES
  0
LINE
  5
95
330
1F
100
AcDbEntity
  8
0
  6
Continuous
 62
   131
370
    15
100
AcDbLine
 10
31.58591948467945
 20
-1.552138342200546
 30
0.0
 11
31.63401355067592
 21
-1.598961455265588
 31
0.0
  0
LINE
  5
96
330
1F
100
AcDbEntity
  8
0
  6
Continuous
 62
   131
370
    15
100
AcDbLine
 10
34.91478007939443
 20
1.543190740321002
 30
0.0
 11
34.85442060640285
 21
1.601476711969544
 31
0.0
  0
LINE
  5
97
330
1F
100
AcDbEntity
  8
0
  6
Continuous
 62
   131
370
    15
100
AcDbLine
 10
10.34150499403009
 20
0.9882721092700489
 30
0.0
 11
9.999999999999998
 21
1.309093837552799
 31
0.0
  0
LINE
  5
98
330
1F
100
AcDbEntity
  8
0
  6
Continuous
 62
     1
370
    15
100
AcDbLine
 10
23.89919313429282
 20
-7.998925071276098
 30
0.0
 11
25.83430307340503
 21
-7.998925071276098
 31
0.0
  0
LINE
  5
99
330
1F
100
AcDbEntity
  8
0
  6
Continuous
 62
     1
370
    15
100
AcDbLine
 10
50.0
 20
8.001074928723906
 30
0.0
 11
49.03215999614633
 21
8.001074928723906
 31
0.0
  0
LINE
  5
9A
330
1F
100
AcDbEntity
  8
0
  6
Continuous
 62
     1
370
    15
100
AcDbLine
 10
49.03215999614633
 20
-7.998925071276098
 30
0.0
 11
50.0
 21
-7.998925071276098
 31
0.0
  0
LINE
  5
9B
330
1F
100
AcDbEntity
  8
0
  6
Continuous
 62
     1
370
    15
100
AcDbLine
 10
25.83430307340507
 20
8.001074928723906
 30
0.0
 11
23.89919313429284
 21
8.001074928723906
 31
0.0
  0
LINE
  5
9C
330
1F
100
AcDbEntity
  8
0
  6
Continuous
 62
     1
370
    15
100
AcDbLine
 10
40.65539301359036
 20
-7.998925071276098
 30
0.0
 11
42.58882255507793
 21
-7.998925071276098
 31
0.0
  0
LINE
  5
9D
330
1F
100
AcDbEntity
  8
0
  6
Continuous
 62
     1
370
    15
100
AcDbLine
 10
17.45697986751239
 20
8.001074928723906
 30
0.0
 11
15.52218734973508
 21
8.001074928723906
 31
0.0
  0
LINE
  5
9E
330
1F
100
AcDbEntity
  8
0
  6
Continuous
 62
     1
370
    15
100
AcDbLine
 10
32.2785520911517
 20
-7.998925071276098
 30
0.0
 11
34.21198566907675
 21
-7.998925071276098
 31
0.0
  0
LINE
  5
9F
330
1F
100
AcDbEntity
  8
0
  6
Continuous
 62
     1
370
    15
100
AcDbLine
 10
34.21198566907682
 20
8.001074928723906
 30
0.0
 11
32.27855209115176
 21
8.001074928723906
 31
0.0
  0
LINE
  5
A0
330
1F
100
AcDbEntity
  8
0
  6
Continuous
 62
     1
370
    15
100
AcDbLine
 10
15.52218734973513
 20
-7.998925071276098
 30
0.0
 11
17.4569798675124
 21
-7.998925071276098
 31
0.0
  0
LINE
  5
A1
330
1F
100
AcDbEntity
  8
0
  6
Continuous
 62
     1
370
    15
100
AcDbLine
 10
42.58882255507793
 20
8.001074928723906
 30
0.0
 11
40.65539301359043
 21
8.001074928723906
 31
0.0
  0
LINE
  5
A2
330
1F
100
AcDbEntity
  8
0
  6
Continuous
 62
   131
370
    15
100
AcDbLine
 10
-48.40000000000001
 20
-7.998925071276096
 30
0.0
 11
9.079854453903764
 21
-7.998925071276096
 31
0.0
  0
LINE
  5
A3
330
1F
100
AcDbEntity
  8
0
  6
Continuous
 62
   131
370
    15
100
AcDbLine
 10
9.079854453903694
 20
8.001074928723904
 30
0.0
 11
-48.40000000000001
 21
8.001074928723904
 31
0.0
  0
LINE
  5
A4
330
1F
100
AcDbEntity
  8
0
  6
Continuous
 62
   131
370
    15
100
AcDbLine
 10
-48.40000000000001
 20
8.001074928723908
 30
0.0
 11
-50.00000000000001
 21
6.401074928723911
 31
0.0
  0
LINE
  5
A5
330
1F
100
AcDbEntity
  8
0
  6
Continuous
 62
   131
370
    15
100
AcDbLine
 10
-50.00000000000001
 20
-6.398925071276103
 30
0.0
 11
-48.40000000000001
 21
-7.9989250712761
 31
0.0
  0
SPLINE
  5
A6
330
1F
100
AcDbEntity
  8
0
  6
Continuous
 62
     1
370
    15
100
AcDbSpline
210
0.0
220
0.0
230
1.0
 70
     8
 71
     3
 72
    27
 73
    23
 74
     0
 42
0.000000001
 43
0.00000001
 40
0.0
 40
0.0
 40
0.0
 40
0.0
 40
0.0481929313416676
 40
0.0963804457111405
 40
0.1444947072110637
 40
0.1926666325173879
 40
0.2408737193680283
 40
0.2889908635398657
 40
0.3371449573031964
 40
0.3905741214521233
 40
0.4439363719983042
 40
0.4972721509149774
 40
0.5506404010620634
 40
0.6040707088373253
 40
0.657440240879476
 40
0.7107760939464535
 40
0.7641372098133898
 40
0.8175659133242421
 40
0.8709436040814069
 40
0.9242804159109499
 40
0.9776352765623324
 40
1.0
 40
1.0
 40
1.0
 40
1.0
 10
9.999999999999977
 20
7.948049003791155
 30
0.0
 10
10.44077681574451
 20
7.87648497112837
 30
0.0
 10
11.32228090312642
 20
7.733364949728838
 30
0.0
 10
12.64422263384378
 20
7.250668941137922
 30
0.0
 10
13.96400756596065
 20
6.585434310511447
 30
0.0
 10
15.28541501511329
 20
5.737400428438491
 30
0.0
 10
16.60779239713802
 20
4.735244308429319
 30
0.0
 10
17.92767919252034
 20
3.602194369892092
 30
0.0
 10
19.2962686762322
 20
2.327649460491318
 30
0.0
 10
20.71453786058739
 20
0.9365721417751207
 30
0.0
 10
22.17843568126339
 20
-0.5338560249662477
 30
0.0
 10
23.64160127009615
 20
-1.98608863891493
 30
0.0
 10
25.1057064099974
 20
-3.372173572285148
 30
0.0
 10
26.57170586942448
 20
-4.644464764720698
 30
0.0
 10
28.03585166135254
 20
-5.762629250672584
 30
0.0
 10
29.49901185374244
 20
-6.68790293316399
 30
0.0
 10
30.9629033479609
 20
-7.390078404150243
 30
0.0
 10
32.42885477218516
 20
-7.843826437168611
 30
0.0
 10
33.8932428366957
 20
-8.039778471369333
 30
0.0
 10
35.35644938104949
 20
-7.952267923965188
 30
0.0
 10
36.53616003066229
 20
-7.711763323119522
 30
0.0
 10
37.22899263564482
 20
-7.416208753159495
 30
0.0
 10
37.43362938564083
 20
-7.328913025146498
 30
0.0
  0
SPLINE
  5
A7
330
1F
100
AcDbEntity
  8
0
  6
Continuous
 62
     1
370
    15
100
AcDbSpline
210
0.0
220
0.0
230
1.0
 70
     8
 71
     3
 72
    28
 73
    24
 74
     0
 42
0.000000001
 43
0.00000001
 40
0.0
 40
0.0
 40
0.0
 40
0.0
 40
0.0319190746408852
 40
0.0835711932386701
 40
0.1352597161726085
 40
0.1868810058306833
 40
0.2384848330973518
 40
0.2901282110804487
 40
0.341820944344437
 40
0.393448285977722
 40
0.4450511856333069
 40
0.4966866699889847
 40
0.5483809553926798
 40
0.6000151995037829
 40
0.6516180274183068
 40
0.7032464668635853
 40
0.7549396457988987
 40
0.8015291484614754
 40
0.8480829020743503
 40
0.8947236760077434
 40
0.941330430842562
 40
0.9878813954453992
 40
1.0
 40
1.0
 40
1.0
 40
1.0
 10
40.65539301359036
 20
-7.977712760989494
 30
0.0
 10
40.35395096756024
 20
-7.976055301418375
 30
0.0
 10
39.56470905618058
 20
-7.971715705873647
 30
0.0
 10
38.28589804431054
 20
-7.687619080936543
 30
0.0
 10
36.82015285207309
 20
-7.13900196836564
 30
0.0
 10
35.35642922846792
 20
-6.34240086688917
 30
0.0
 10
33.89324824024268
 20
-5.336366360768633
 30
0.0
 10
32.42885332223875
 20
-4.1512178770652
 30
0.0
 10
30.9629037360804
 20
-2.828500744760194
 30
0.0
 10
29.49901174988672
 20
-1.410046120129326
 30
0.0
 10
28.03585168909017
 20
0.0552339129645368
 30
0.0
 10
26.57170586236698
 20
1.518968519533295
 30
0.0
 10
25.10570641044317
 20
2.930799952114651
 30
0.0
 10
23.64160127535553
 20
4.245944298279621
 30
0.0
 10
22.17843565978919
 20
5.418973590633177
 30
0.0
 10
20.71453794131642
 20
6.41119306390874
 30
0.0
 10
19.29626838699302
 20
7.163093183410279
 30
0.0
 10
17.92768015373088
 20
7.67706325220558
 30
0.0
 10
16.60778879763622
 20
7.963223820307546
 30
0.0
 10
15.2854284761372
 20
8.036593565335489
 30
0.0
 10
13.96395739705447
 20
7.875973082413603
 30
0.0
 10
12.97012732877017
 20
7.637081740702353
 30
0.0
 10
12.4154583145164
 20
7.392331595160254
 30
0.0
 10
12.30088760027792
 20
7.341776762883466
 30
0.0
  0
LINE
  5
A8
330
1F
100
AcDbEntity
  8
0
  6
Continuous
 62
     1
370
    15
100
AcDbLine
 10
50.0
 20
-3.134271942038488
 30
0.0
 11
50.0
 21
3.136421799486448
 31
0.0
  0
SPLINE
  5
A9
330
1F
100
AcDbEntity
  8
0
  6
Continuous
 62
     1
370
    15
100
AcDbSpline
210
0.0
220
0.0
230
1.0
 70
     8
 71
     3
 72
     9
 73
     5
 74
     0
 42
0.000000001
 43
0.00000001
 40
0.0
 40
0.0
 40
0.0
 40
0.0
 40
0.5747183472139298
 40
1.0
 40
1.0
 40
1.0
 40
1.0
 10
9.999999999999991
 20
-7.945899146343349
 30
0.0
 10
10.44080506809382
 20
-7.879481166098261
 30
0.0
 10
11.20779827481974
 20
-7.763915027367755
 30
0.0
 10
11.97472691893827
 20
-7.466227815087487
 30
0.0
 10
12.30088760027797
 20
-7.339626905435658
 30
0.0
  0
SPLINE
  5
AA
330
1F
100
AcDbEntity
  8
0
  6
Continuous
 62
     1
370
    15
100
AcDbSpline
210
0.0
220
0.0
230
1.0
 70
     8
 71
     3
 72
    18
 73
    14
 74
     0
 42
0.000000001
 43
0.00000001
 40
0.0
 40
0.0
 40
0.0
 40
0.0
 40
0.0725037320446284
 40
0.1652163216275452
 40
0.2580496631551085
 40
0.3508176219636555
 40
0.4435020516286295
 40
0.5362053016758369
 40
0.6290263092755359
 40
0.7218114841196165
 40
0.8145006526613182
 40
0.9071960951232171
 40
1.0
 40
1.0
 40
1.0
 40
1.0
 10
34.21198566907682
 20
7.978298031758458
 30
0.0
 10
34.59342026327541
 20
7.971639661034198
 30
0.0
 10
35.46260614954397
 20
7.956467041803815
 30
0.0
 10
36.82013098188413
 20
7.616404842547695
 30
0.0
 10
38.28595660349067
 20
7.026826261971294
 30
0.0
 10
39.75062302854508
 20
6.193885193770663
 30
0.0
 10
41.21385994546979
 20
5.156191005071349
 30
0.0
 10
42.67740441265808
 20
3.945375202436329
 30
0.0
 10
44.14300499722581
 20
2.603945579863109
 30
0.0
 10
45.60797634604622
 20
1.174571215749571
 30
0.0
 10
47.07128688475391
 20
-0.2923274605975613
 30
0.0
 10
48.53469957713571
 20
-1.75702210185189
 30
0.0
 10
49.51137616978284
 20
-2.675009744623395
 30
0.0
 10
49.99999999999999
 20
-3.134271942038489
 30
0.0
  0
SPLINE
  5
AB
330
1F
100
AcDbEntity
  8
0
  6
Continuous
 62
     1
370
    15
100
AcDbSpline
210
0.0
220
0.0
230
1.0
 70
     8
 71
     3
 72
    17
 73
    13
 74
     0
 42
0.000000001
 43
0.00000001
 40
0.0
 40
0.0
 40
0.0
 40
0.0
 40
0.1020200052198485
 40
0.2038733987655991
 40
0.3059047965677179
 40
0.407913206407771
 40
0.5097670206613764
 40
0.611808989832689
 40
0.7138062198502412
 40
0.8156608755055537
 40
0.9321995032756567
 40
1.0
 40
1.0
 40
1.0
 40
1.0
 10
50.00000000000001
 20
3.136421799486448
 30
0.0
 10
49.57244437199936
 20
3.521599987351829
 30
0.0
 10
48.71803136884361
 20
4.29132731799905
 30
0.0
 10
47.43815882924587
 20
5.316686355585828
 30
0.0
 10
46.15604724210394
 20
6.209909093237934
 30
0.0
 10
44.87422394483385
 20
6.943070640415709
 30
0.0
 10
43.59434943258043
 20
7.499954294885745
 30
0.0
 10
42.31209444031671
 20
7.863147980010522
 30
0.0
 10
41.03045338666638
 20
8.02801029231938
 30
0.0
 10
39.68979411681164
 20
7.975825530202632
 30
0.0
 10
38.49042135771257
 20
7.758711154390758
 30
0.0
 10
37.71780138643318
 20
7.446057761665479
 30
0.0
 10
37.43362938564088
 20
7.331062882594306
 30
0.0
  0
SPLINE
  5
AC
330
1F
100
AcDbEntity
  8
0
  6
Continuous
 62
     1
370
    15
100
AcDbSpline
210
0.0
220
0.0
230
1.0
 70
     8
 71
     3
 72
    12
 73
     8
 74
     0
 42
0.000000001
 43
0.00000001
 40
0.0
 40
0.0
 40
0.0
 40
0.0
 40
0.0428890956521965
 40
0.2821929875181133
 40
0.521210422631386
 40
0.7605917563570206
 40
1.0
 40
1.0
 40
1.0
 40
1.0
 10
15.52218734973513
 20
-7.982892199008077
 30
0.0
 10
15.44320744393835
 20
-7.987944880471099
 30
0.0
 10
14.92355145138892
 20
-8.021189490909851
 30
0.0
 10
13.963990926683
 20
-7.871853834170032
 30
0.0
 10
12.64422707626469
 20
-7.521546598073353
 30
0.0
 10
11.32227979167189
 20
-6.959634747004122
 30
0.0
 10
10.44077644524598
 20
-6.431698603402404
 30
0.0
 10
10.00000000000028
 20
-6.167715695524636
 30
0.0
  0
SPLINE
  5
AD
330
1F
100
AcDbEntity
  8
0
  6
Continuous
 62
   131
370
    15
100
AcDbSpline
210
0.0
220
0.0
230
1.0
 70
    24
 71
     3
 72
    11
 73
     7
 74
     0
 42
0.000000001
 43
0.00000001
 40
0.0
 40
0.0
 40
0.0
 40
0.0
 40
0.1991002045228402
 40
0.5002807685137837
 40
0.8101955892638888
 40
1.0
 40
1.0
 40
1.0
 40
1.0
 10
10.00000000000001
 20
-6.237847657739888
 30
0.0
 10
9.999999999999998
 20
-6.342437564094372
 30
0.0
 10
10.00000000000001
 20
-6.605241506738256
 30
0.0
 10
9.999999999999948
 20
-7.070386010423741
 30
0.0
 10
10.00000000000006
 20
-7.540478716835912
 30
0.0
 10
9.999999999999998
 20
-7.834299512899269
 30
0.0
 10
9.999999999999977
 20
-7.945899146343351
 30
0.0
  0
SPLINE
  5
AE
330
1F
100
AcDbEntity
  8
0
  6
Continuous
 62
     1
370
    15
100
AcDbSpline
210
0.0
220
0.0
230
1.0
 70
     8
 71
     3
 72
    21
 73
    17
 74
     0
 42
0.000000001
 43
0.00000001
 40
0.0
 40
0.0
 40
0.0
 40
0.0
 40
0.0693821562244619
 40
0.1387565137697274
 40
0.2080254109933754
 40
0.2773773253548663
 40
0.3467798609110605
 40
0.4160529082452649
 40
0.4853791509809116
 40
0.5622997804326043
 40
0.6391240760463247
 40
0.715910261118045
 40
0.7927431942069242
 40
0.8696654701088085
 40
0.9465002487099065
 40
0.9999999999999999
 40
0.9999999999999999
 40
0.9999999999999999
 40
0.9999999999999999
 10
9.999999999999991
 20
3.178193780267628
 30
0.0
 10
10.44077681574457
 20
2.765517891744131
 30
0.0
 10
11.32228090312655
 20
1.940212500209518
 30
0.0
 10
12.64422263384326
 20
0.6273564163918094
 30
0.0
 10
13.9640075659627
 20
-0.6980800545477067
 30
0.0
 10
15.28541501510559
 20
-2.00489004529857
 30
0.0
 10
16.60779239716682
 20
-3.255854952152205
 30
0.0
 10
17.92767919241305
 20
-4.420297591684019
 30
0.0
 10
19.29626867665157
 20
-5.501071048448708
 30
0.0
 10
20.7145378588313
 20
-6.450884744273651
 30
0.0
 10
22.17843568778417
 20
-7.218079196217126
 30
0.0
 10
23.64160124577266
 20
-7.743209586597704
 30
0.0
 10
25.10570650088009
 20
-8.01201814196631
 30
0.0
 10
26.57170552997675
 20
-8.003990386684771
 30
0.0
 10
27.8879634805327
 20
-7.786842808495939
 30
0.0
 10
28.71552618889037
 20
-7.465020951856514
 30
0.0
 10
29.0552243418745
 20
-7.332919433522893
 30
0.0
  0
SPLINE
  5
AF
330
1F
100
AcDbEntity
  8
0
  6
Continuous
 62
     1
370
    15
100
AcDbSpline
210
0.0
220
0.0
230
1.0
 70
     8
 71
     3
 72
    23
 73
    19
 74
     0
 42
0.000000001
 43
0.00000001
 40
0.0
 40
0.0
 40
0.0
 40
0.0
 40
0.0590384567589953
 40
0.1247475431513158
 40
0.1904255208331451
 40
0.256144970936481
 40
0.3219392605148295
 40
0.387657132087578
 40
0.4533350184604337
 40
0.5190455021012053
 40
0.5848383834136198
 40
0.6441355224601281
 40
0.7033871616354254
 40
0.7627495565765225
 40
0.8220686534546845
 40
0.8813167428965321
 40
0.9406550362079121
 40
1.0
 40
1.0
 40
1.0
 40
1.0
 10
32.2785520911517
 20
-7.986592641685608
 30
0.0
 10
31.83982715047483
 20
-7.970788986538492
 30
0.0
 10
30.91280667139861
 20
-7.937396054869208
 30
0.0
 10
29.49899924865585
 20
-7.559382538249013
 30
0.0
 10
28.03585504045484
 20
-6.93978396378148
 30
0.0
 10
26.57170496257057
 20
-6.081542484096872
 30
0.0
 10
25.10570665279563
 20
-5.022712088345378
 30
0.0
 10
23.64160120511461
 20
-3.794656422683972
 30
0.0
 10
22.17843569868386
 20
-2.440106570699671
 30
0.0
 10
20.71453785589593
 20
-1.003633435524849
 30
0.0
 10
19.29626867735252
 20
0.4172907405930589
 30
0.0
 10
17.92767919223373
 20
1.777374002026995
 30
0.0
 10
16.607792397215
 20
3.042769278938311
 30
0.0
 10
15.28541501509281
 20
4.223089626583269
 30
0.0
 10
13.9640075659663
 20
5.290512947584304
 30
0.0
 10
12.64422263384255
 20
6.210870699196551
 30
0.0
 10
11.32228090312705
 20
6.975752653041939
 30
0.0
 10
10.44077681574492
 20
7.323087349545828
 30
0.0
 10
10.00000000000028
 20
7.496764458607545
 30
0.0
  0
SPLINE
  5
B0
330
1F
100
AcDbEntity
  8
0
  6
Continuous
 62
   131
370
    15
100
AcDbSpline
210
0.0
220
0.0
230
1.0
 70
    24
 71
     3
 72
    17
 73
    13
 74
     0
 42
0.000000001
 43
0.00000001
 40
0.0
 40
0.0
 40
0.0
 40
0.0
 40
0.090937550626304
 40
0.1835853805320992
 40
0.2955244249925394
 40
0.4107097093254797
 40
0.5226487537858491
 40
0.6378340381188584
 40
0.7497730825792288
 40
0.8649583669122397
 40
0.9768974113726109
 40
1.0
 40
1.0
 40
1.0
 40
1.0
 10
10.00000000000001
 20
7.496764458610057
 30
0.0
 10
9.999999999999998
 20
7.37162598565823
 30
0.0
 10
9.99999999999997
 20
7.118995537423768
 30
0.0
 10
9.999999999999977
 20
6.677194788868741
 30
0.0
 10
10.00000000000002
 20
6.179755768279692
 30
0.0
 10
9.999999999999991
 20
5.640698822209066
 30
0.0
 10
9.99999999999997
 20
5.101387396073065
 30
0.0
 10
10.00000000000001
 20
4.587148322899736
 30
0.0
 10
9.999999999999991
 20
4.101110482076338
 30
0.0
 10
9.999999999999998
 20
3.674092305553088
 30
0.0
 10
9.999999999999927
 20
3.385533077654087
 30
0.0
 10
9.999999999999963
 20
3.268369754124602
 30
0.0
 10
9.999999999999963
 20
3.248325742482945
 30
0.0
  0
LINE
  5
B1
330
1F
100
AcDbEntity
  8
0
  6
Continuous
 62
     1
370
    15
100
AcDbLine
 10
50.0
 20
-7.940545478510794
 30
0.0
 11
50.0
 21
-4.805198607748283
 31
0.0
  0
SPLINE
  5
B2
330
1F
100
AcDbEntity
  8
0
  6
Continuous
 62
     1
370
    15
100
AcDbSpline
210
0.0
220
0.0
230
1.0
 70
     8
 71
     3
 72
    24
 73
    20
 74
     0
 42
0.000000001
 43
0.00000001
 40
0.0
 40
0.0
 40
0.0
 40
0.0
 40
0.030510905269999
 40
0.0910997912711375
 40
0.1516504425059342
 40
0.2122297738667919
 40
0.2728858355247986
 40
0.3334839838790999
 40
0.3940357235693047
 40
0.4546079535648775
 40
0.5152590748372062
 40
0.5758674793963916
 40
0.6364213115774501
 40
0.6969874397425424
 40
0.7576305028480277
 40
0.8182501552179865
 40
0.8788070834654192
 40
0.9393681106743724
 40
1.0
 40
1.0
 40
1.0
 40
1.0
 10
25.83430307340507
 20
7.967561145435589
 30
0.0
 10
26.08022451555018
 20
7.973940793372268
 30
0.0
 10
26.81449941989218
 20
7.992989215248695
 30
0.0
 10
28.03585229707689
 20
7.734673896936533
 30
0.0
 10
29.49901160640216
 20
7.218552450834885
 30
0.0
 10
30.96290370188139
 20
6.44714475104284
 30
0.0
 10
32.42885360306312
 20
5.464918369946204
 30
0.0
 10
33.89324715280137
 20
4.298426640278132
 30
0.0
 10
35.35643329504053
 20
2.988693932613091
 30
0.0
 10
36.82013765798428
 20
1.578736552655937
 30
0.0
 10
38.28595481500187
 20
0.1172504766978187
 30
0.0
 10
39.75062350714164
 20
-1.348957906326827
 30
0.0
 10
41.21385981725535
 20
-2.77009443970627
 30
0.0
 10
42.67740444706502
 20
-4.098930445719979
 30
0.0
 10
44.14300498800538
 20
-5.289590874028027
 30
0.0
 10
45.60797634851275
 20
-6.305298406866349
 30
0.0
 10
47.07128688409643
 20
-7.105393036554089
 30
0.0
 10
48.53469957730027
 20
-7.687029099216804
 30
0.0
 10
49.51137616983773
 20
-7.85600708464937
 30
0.0
 10
49.99999999999999
 20
-7.940545478510794
 30
0.0
  0
SPLINE
  5
B3
330
1F
100
AcDbEntity
  8
0
  6
Continuous
 62
     1
370
    15
100
AcDbSpline
210
0.0
220
0.0
230
1.0
 70
     8
 71
     3
 72
    23
 73
    19
 74
     0
 42
0.000000001
 43
0.00000001
 40
0.0
 40
0.0
 40
0.0
 40
0.0
 40
0.0612122761384587
 40
0.1223245848266042
 40
0.1835436965449118
 40
0.244749015424464
 40
0.3058615765384482
 40
0.3670870311065612
 40
0.4282856420626955
 40
0.4893987080199556
 40
0.5593221965405456
 40
0.6292949670315608
 40
0.6991767212134549
 40
0.7690348358746828
 40
0.8389464918840924
 40
0.9089249620631921
 40
0.9788149090400889
 40
1.0
 40
1.0
 40
1.0
 40
1.0
 10
50.00000000000001
 20
-4.805198607748281
 30
0.0
 10
49.57244437240553
 20
-4.451903406797216
 30
0.0
 10
48.71803137006158
 20
-3.745889980996532
 30
0.0
 10
47.43815882437975
 20
-2.55575960802092
 30
0.0
 10
46.15604726038685
 20
-1.311139635568933
 30
0.0
 10
44.87422387664231
 20
-0.0303401929613038
 30
0.0
 10
43.594349686851
 20
1.252651272293781
 30
0.0
 10
42.31209348954047
 20
2.501329923077364
 30
0.0
 10
41.03045693098009
 20
3.686684326357354
 30
0.0
 10
39.68978010507715
 20
4.83069519674538
 30
0.0
 10
38.28588754272437
 20
5.882285795946956
 30
0.0
 10
36.82015565479654
 20
6.782720640620624
 30
0.0
 10
35.35642850783897
 20
7.457559616380124
 30
0.0
 10
33.89324832284225
 20
7.881786966562931
 30
0.0
 10
32.42885371347094
 20
8.047443708912247
 30
0.0
 10
30.96290208756253
 20
7.926515461339134
 30
0.0
 10
29.83874728138446
 20
7.681328404780817
 30
0.0
 10
29.2030863201729
 20
7.400413335146121
 30
0.0
 10
29.05522434187456
 20
7.335069290970702
 30
0.0
  0
SPLINE
  5
B4
330
1F
100
AcDbEntity
  8
0
  6
Continuous
 62
     1
370
    15
100
AcDbSpline
210
0.0
220
0.0
230
1.0
 70
     8
 71
     3
 72
    28
 73
    24
 74
     0
 42
0.000000001
 43
0.00000001
 40
0.0
 40
0.0
 40
0.0
 40
0.0
 40
0.0166017874852102
 40
0.0631865330815982
 40
0.1148744338349249
 40
0.1664976017085054
 40
0.2180951606664203
 40
0.2697241326131337
 40
0.3214131397218646
 40
0.3730433517865161
 40
0.4246409824781673
 40
0.4762630526518473
 40
0.5279505077793539
 40
0.579588612665438
 40
0.6311871708734583
 40
0.6828031896898712
 40
0.7344864349172283
 40
0.7861332795255305
 40
0.8377336208286635
 40
0.8893444400313769
 40
0.9410208185726067
 40
0.9926772478901487
 40
1.0
 40
1.0
 40
1.0
 40
1.0
 10
17.45697986751239
 20
7.976085186763061
 30
0.0
 10
17.6138168108344
 20
7.982762816615512
 30
0.0
 10
18.21073944440396
 20
8.00817792808797
 30
0.0
 10
19.2962464720261
 20
7.819628375052327
 30
0.0
 10
20.71454406070587
 20
7.391398276947422
 30
0.0
 10
22.17843402188805
 20
6.684429423266085
 30
0.0
 10
23.64160171451942
 20
5.758807286292386
 30
0.0
 10
25.10570629220877
 20
4.639340939079924
 30
0.0
 10
26.57170589541934
 20
3.366307075296525
 30
0.0
 10
28.03585167504534
 20
1.979677697982232
 30
0.0
 10
29.49901177304467
 20
0.5271967273440027
 30
0.0
 10
30.96290365740688
 20
-0.943205809054063
 30
0.0
 10
32.42885361403753
 20
-2.380812914277277
 30
0.0
 10
33.89324715335398
 20
-3.739913310333323
 30
0.0
 10
35.35643328187902
 20
-4.973867685695694
 30
0.0
 10
36.82013771013015
 20
-6.041824040657941
 30
0.0
 10
38.28595461936855
 20
-6.90703051286329
 30
0.0
 10
39.75062423658657
 20
-7.542419086921637
 30
0.0
 10
41.21385709731273
 20
-7.924076227001194
 30
0.0
 10
42.67741460610996
 20
-8.047120389366572
 30
0.0
 10
44.14296702667725
 20
-7.878020139978259
 30
0.0
 10
45.18938175278197
 20
-7.631332103522704
 30
0.0
 10
45.74671651578944
 20
-7.374549413322628
 30
0.0
 10
45.81591422611591
 20
-7.342667723191838
 30
0.0
  0
SPLINE
  5
B5
330
1F
100
AcDbEntity
  8
0
  6
Continuous
 62
     1
370
    15
100
AcDbSpline
210
0.0
220
0.0
230
1.0
 70
     8
 71
     3
 72
    29
 73
    25
 74
     0
 42
0.000000001
 43
0.00000001
 40
0.0
 40
0.0
 40
0.0
 40
0.0
 40
0.0110891747646549
 40
0.0562336009458563
 40
0.1014569238602132
 40
0.146670057832205
 40
0.1918146704835282
 40
0.2370426789403064
 40
0.2822508576854368
 40
0.3273958432707972
 40
0.3790491981122612
 40
0.4307389581611814
 40
0.4823614833250743
 40
0.5339665456796154
 40
0.5856111596971931
 40
0.6373051301769335
 40
0.6889337074608847
 40
0.7405378421821407
 40
0.7921745623833731
 40
0.8438700850399692
 40
0.8955055649669427
 40
0.9471096279454206
 40
0.9987393030676406
 40
1.0
 40
1.0
 40
1.0
 40
1.0
 10
49.03215999614633
 20
-7.979941231929878
 30
0.0
 10
48.92732491305891
 20
-7.98567145704054
 30
0.0
 10
48.39570246571012
 20
-8.014729633058273
 30
0.0
 10
47.43822392743431
 20
-7.863466357911324
 30
0.0
 10
46.15602980677664
 20
-7.522085634656356
 30
0.0
 10
44.874228544702
 20
-6.971798473398222
 30
0.0
 10
43.59434843427656
 20
-6.246270199118536
 30
0.0
 10
42.31209382520537
 20
-5.361113752609254
 30
0.0
 10
41.03045684147465
 20
-4.338728320068514
 30
0.0
 10
39.68978013340632
 20
-3.15011469575147
 30
0.0
 10
38.28588753256323
 20
-1.812019206976569
 30
0.0
 10
36.82015566539993
 20
-0.3558011093351258
 30
0.0
 10
35.35642847562963
 20
1.113468572375232
 30
0.0
 10
33.89324844109063
 20
2.545253109595309
 30
0.0
 10
32.42885327212608
 20
3.892132853982248
 30
0.0
 10
30.96290373537354
 20
5.108108997487351
 30
0.0
 10
29.49901180268224
 20
6.15452076601429
 30
0.0
 10
28.03585147865279
 20
6.994906378881403
 30
0.0
 10
26.57170665228447
 20
7.602221187002415
 30
0.0
 10
25.10570345923234
 20
7.95323331054418
 30
0.0
 10
23.64161227218215
 20
8.046447418861389
 30
0.0
 10
22.17839463672711
 20
7.842427207638215
 30
0.0
 10
21.19117018240517
 20
7.599408257879569
 30
0.0
 10
20.69100608066405
 20
7.3637629250714
 30
0.0
 10
20.67908414999413
 20
7.358146073900652
 30
0.0
  0
LINE
  5
B6
330
1F
100
AcDbEntity
  8
0
  6
Continuous
 62
     1
370
    15
100
AcDbLine
 10
50.0
 20
4.786076873136132
 30
0.0
 11
50.0
 21
7.942695335958609
 31
0.0
  0
SPLINE
  5
B7
330
1F
100
AcDbEntity
  8
0
  6
Continuous
 62
     1
370
    15
100
AcDbSpline
210
0.0
220
0.0
230
1.0
 70
     8
 71
     3
 72
    15
 73
    11
 74
     0
 42
0.000000001
 43
0.00000001
 40
0.0
 40
0.0
 40
0.0
 40
0.0
 40
0.1238029976199535
 40
0.2475920795602206
 40
0.3711929819359323
 40
0.494942017074851
 40
0.6187813788335867
 40
0.7423896865157243
 40
0.8660929141386153
 40
1.0
 40
1.0
 40
1.0
 40
1.0
 10
9.999999999999991
 20
-4.768780294799631
 30
0.0
 10
10.44077682331129
 20
-5.109893301339742
 30
0.0
 10
11.32228092582592
 20
-5.792080972704275
 30
0.0
 10
12.64422254311513
 20
-6.62222379894196
 30
0.0
 10
13.96400790578879
 20
-7.282491113892712
 30
0.0
 10
15.28541374427168
 20
-7.741022288523361
 30
0.0
 10
16.60779714003939
 20
-7.990745583378304
 30
0.0
 10
17.92766152324462
 20
-8.018730071633048
 30
0.0
 10
19.28442467903733
 20
-7.839719179538303
 30
0.0
 10
20.20208163149322
 20
-7.521439521039726
 30
0.0
 10
20.67908414999413
 20
-7.355996216452844
 30
0.0
  0
SPLINE
  5
B8
330
1F
100
AcDbEntity
  8
0
  6
Continuous
 62
     1
370
    15
100
AcDbSpline
210
0.0
220
0.0
230
1.0
 70
     8
 71
     3
 72
    13
 73
     9
 74
     0
 42
0.000000001
 43
0.00000001
 40
0.0
 40
0.0
 40
0.0
 40
0.0
 40
0.0119066889042572
 40
0.2096575840089835
 40
0.4073321390730135
 40
0.604802157117655
 40
0.8022855414612287
 40
1.0
 40
1.0
 40
1.0
 40
1.0
 10
42.58882255507793
 20
7.993503830457763
 30
0.0
 10
42.61822739729801
 20
7.996002531182381
 30
0.0
 10
43.1359992335825
 20
8.040000620096723
 30
0.0
 10
44.1430747976945
 20
7.876032566547593
 30
0.0
 10
45.60795767417406
 20
7.485914450326117
 30
0.0
 10
47.07129186192543
 20
6.812815729130024
 30
0.0
 10
48.5346983311089
 20
5.931413581482248
 30
0.0
 10
49.51137575427871
 20
5.182182863632708
 30
0.0
 10
49.99999999999999
 20
4.807348465196132
 30
0.0
  0
SPLINE
  5
B9
330
1F
100
AcDbEntity
  8
0
  6
Continuous
 62
     1
370
    15
100
AcDbSpline
210
0.0
220
0.0
230
1.0
 70
     8
 71
     3
 72
    11
 73
     7
 74
     0
 42
0.000000001
 43
0.00000001
 40
0.0
 40
0.0
 40
0.0
 40
0.0
 40
0.3064000914981438
 40
0.6122997925867965
 40
0.9187340998080478
 40
1.0
 40
1.0
 40
1.0
 40
1.0
 10
50.00000000000002
 20
7.942695335958611
 30
0.0
 10
49.57244040962694
 20
7.97534260739682
 30
0.0
 10
48.71801948819745
 20
8.040583833117095
 30
0.0
 10
47.4382062958331
 20
7.864365271871002
 30
0.0
 10
46.47006675000065
 20
7.631950288388117
 30
0.0
 10
45.92927059207546
 20
7.394574050438479
 30
0.0
 10
45.81591422611589
 20
7.344817580639644
 30
0.0
  0
SPLINE
  5
BA
330
1F
100
AcDbEntity
  8
0
  6
Continuous
 62
     1
370
    15
100
AcDbSpline
210
0.0
220
0.0
230
1.0
 70
     8
 71
     3
 72
    18
 73
    14
 74
     0
 42
0.000000001
 43
0.00000001
 40
0.0
 40
0.0
 40
0.0
 40
0.0
 40
0.0185500721336865
 40
0.1238171703899371
 40
0.2291365148434099
 40
0.3345879245059806
 40
0.4296280987114516
 40
0.5245953467057132
 40
0.6197401116501201
 40
0.7148154793940841
 40
0.8097770379522129
 40
0.9048831733248771
 40
1.0
 40
1.0
 40
1.0
 40
1.0
 10
23.89919313429282
 20
-7.979513038907024
 30
0.0
 10
23.81324556592205
 20
-7.985643321703401
 30
0.0
 10
23.23956667988454
 20
-8.026561452051752
 30
0.0
 10
22.17848083482276
 20
-7.842830359374247
 30
0.0
 10
20.71452570038771
 20
-7.417822914051424
 30
0.0
 10
19.29627158006144
 20
-6.743810637000838
 30
0.0
 10
17.92767844955435
 20
-5.89866700497983
 30
0.0
 10
16.60779259656982
 20
-4.920050584660467
 30
0.0
 10
15.2854149616765
 20
-3.809687026040991
 30
0.0
 10
13.96400758025005
 20
-2.594666660750891
 30
0.0
 10
12.64422263002901
 20
-1.308480048060622
 30
0.0
 10
11.32228090408117
 20
0.0142246568678195
 30
0.0
 10
10.440776816063
 20
0.8900410337169832
 30
0.0
 10
10.00000000000028
 20
1.32797383435894
 30
0.0
  0
LINE
  5
BB
330
1F
100
AcDbEntity
  8
0
  6
Continuous
 62
   131
370
    15
100
AcDbLine
 10
10.00000000000001
 20
1.327973834359133
 30
0.0
 11
9.999999999999991
 21
1.279545281859463
 31
0.0
  0
SPLINE
  5
BC
330
1F
100
AcDbEntity
  8
0
  6
Continuous
 62
   131
370
    15
100
AcDbSpline
210
0.0
220
0.0
230
1.0
 70
    24
 71
     3
 72
    22
 73
    18
 74
     0
 42
0.000000001
 43
0.00000001
 40
0.0
 40
0.0
 40
0.0
 40
0.0
 40
0.0569311304603411
 40
0.1261663780024258
 40
0.1954016255445099
 40
0.2646368730865939
 40
0.3338721206286789
 40
0.4031073681707638
 40
0.4723426157128482
 40
0.5415778632549327
 40
0.6108131107969982
 40
0.6800483583390637
 40
0.7492836058811672
 40
0.8185188534232707
 40
0.8877541009653555
 40
0.9569893485074403
 40
1.0
 40
1.0
 40
1.0
 40
1.0
 10
9.999999999999977
 20
1.20941331964414
 30
0.0
 10
9.999999999999984
 20
1.166952680861008
 30
0.0
 10
9.999999999999998
 20
1.072854689838874
 30
0.0
 10
9.999999999999998
 20
0.8263666084241431
 30
0.0
 10
9.999999999999991
 20
0.4956903548563924
 30
0.0
 10
9.999999999999998
 20
0.0967061883117995
 30
0.0
 10
9.999999999999977
 20
-0.3585807753258548
 30
0.0
 10
9.999999999999991
 20
-0.856073347520112
 30
0.0
 10
9.999999999999977
 20
-1.38289470818012
 30
0.0
 10
9.999999999999956
 20
-1.923276113358705
 30
0.0
 10
9.999999999999998
 20
-2.462107156598961
 30
0.0
 10
10.00000000000003
 20
-2.984502959011631
 30
0.0
 10
10.00000000000002
 20
-3.474526300596537
 30
0.0
 10
9.999999999999991
 20
-3.920263954022842
 30
0.0
 10
10.00000000000002
 20
-4.305406980010693
 30
0.0
 10
10.00000000000001
 20
-4.586670641940605
 30
0.0
 10
9.999999999999998
 20
-4.71833054059633
 30
0.0
 10
9.999999999999991
 20
-4.768780294799637
 30
0.0
  0
LINE
  5
BD
330
1F
100
AcDbEntity
  8
0
  6
Continuous
 62
   131
370
    15
100
AcDbLine
 10
50.0
 20
7.942695335958609
 30
0.0
 11
50.0
 21
8.001074928723908
 31
0.0
  0
LINE
  5
BE
330
1F
100
AcDbEntity
  8
0
  6
Continuous
 62
   131
370
    15
100
AcDbLine
 10
10.00000000000001
 20
1.327973834359133
 30
0.0
 11
9.999999999999991
 21
3.178193780267623
 31
0.0
  0
LINE
  5
BF
330
1F
100
AcDbEntity
  8
0
  6
Continuous
 62
   131
370
    15
100
AcDbLine
 10
50.0
 20
-7.9989250712761
 30
0.0
 11
50.0
 21
-7.940545478510794
 31
0.0
  0
LINE
  5
C0
330
1F
100
AcDbEntity
  8
0
  6
Continuous
 62
   131
370
    15
100
AcDbLine
 10
10.00000000000001
 20
7.496764458610057
 30
0.0
 11
9.999999999999991
 21
7.948049003791152
 31
0.0
  0
LINE
  5
C1
330
1F
100
AcDbEntity
  8
0
  6
Continuous
 62
     1
370
    15
100
AcDbLine
 10
50.0
 20
-4.805198607748283
 30
0.0
 11
50.0
 21
-3.134271942038488
 31
0.0
  0
LINE
  5
C2
330
1F
100
AcDbEntity
  8
0
  6
Continuous
 62
     1
370
    15
100
AcDbLine
 10
50.0
 20
3.136421799486448
 30
0.0
 11
50.0
 21
4.807348465196132
 31
0.0
  0
LINE
  5
C3
330
1F
100
AcDbEntity
  8
0
  6
Continuous
 62
   131
370
    15
100
AcDbLine
 10
10.00000000000001
 20
-6.167715695526955
 30
0.0
 11
9.999999999999991
 21
-4.768780294799637
 31
0.0
  0
LINE
  5
C4
330
1F
100
AcDbEntity
  8
0
  6
Continuous
 62
   131
370
    15
100
AcDbLine
 10
9.000391434184646
 20
-7.998528705889704
 30
0.0
 11
9.00039143418466
 21
-5.48356519138194
 31
0.0
  0
SPLINE
  5
C5
330
1F
100
AcDbEntity
  8
0
  6
Continuous
 62
   131
370
    15
100
AcDbSpline
210
0.0
220
0.0
230
1.0
 70
     8
 71
     3
 72
     8
 73
     4
 74
     0
 42
0.000000001
 43
0.00000001
 40
0.0
 40
0.0
 40
0.0
 40
0.0
 40
1.0
 40
1.0
 40
1.0
 40
1.0
 10
9.999999999999991
 20
-7.945899146343345
 30
0.0
 10
9.66526772664922
 20
-7.984322061446372
 30
0.0
 10
9.334398741826528
 20
-8.001855022376452
 30
0.0
 10
9.000391434184667
 20
-7.998528303630318
 30
0.0
  0
LINE
  5
C6
330
1F
100
AcDbEntity
  8
0
  6
Continuous
 62
   131
370
    15
100
AcDbLine
 10
9.079854453903701
 20
7.996494451667957
 30
0.0
 11
9.999999999999991
 21
7.94804900379115
 31
0.0
  0
SPLINE
  5
C7
330
1F
100
AcDbEntity
  8
0
  6
Continuous
 62
   131
370
    15
100
AcDbSpline
210
0.0
220
0.0
230
1.0
 70
     8
 71
     3
 72
     8
 73
     4
 74
     0
 42
0.000000001
 43
0.00000001
 40
0.0
 40
0.0
 40
0.0
 40
0.0
 40
1.0
 40
1.0
 40
1.0
 40
1.0
 10
10.00000000000001
 20
7.496764458607645
 30
0.0
 10
9.665267726649235
 20
7.613569472742588
 30
0.0
 10
9.334398741826542
 20
7.710360687720266
 30
0.0
 10
9.000391434184653
 20
7.787098992588113
 30
0.0
  0
LINE
  5
C8
330
1F
100
AcDbEntity
  8
0
  6
Continuous
 62
   131
370
    15
100
AcDbLine
 10
9.000391434184646
 20
4.069842439005875
 30
0.0
 11
9.00039143418466
 21
7.787108111536075
 31
0.0
  0
SPLINE
  5
C9
330
1F
100
AcDbEntity
  8
0
  6
Continuous
 62
   131
370
    15
100
AcDbSpline
210
0.0
220
0.0
230
1.0
 70
     8
 71
     3
 72
     8
 73
     4
 74
     0
 42
0.000000001
 43
0.00000001
 40
0.0
 40
0.0
 40
0.0
 40
0.0
 40
1.0
 40
1.0
 40
1.0
 40
1.0
 10
9.999999999999991
 20
3.178193780267621
 30
0.0
 10
9.66526772664922
 20
3.484972517235949
 30
0.0
 10
9.334398741826528
 20
3.782277885119963
 30
0.0
 10
9.000391434184667
 20
4.069877223744715
 30
0.0
  0
SPLINE
  5
CA
330
1F
100
AcDbEntity
  8
0
  6
Continuous
 62
   131
370
    15
100
AcDbSpline
210
0.0
220
0.0
230
1.0
 70
     8
 71
     3
 72
     8
 73
     4
 74
     0
 42
0.000000001
 43
0.00000001
 40
0.0
 40
0.0
 40
0.0
 40
0.0
 40
1.0
 40
1.0
 40
1.0
 40
1.0
 10
10.00000000000001
 20
1.327973834359221
 30
0.0
 10
9.665267726649235
 20
1.657613547575946
 30
0.0
 10
9.334398741826542
 20
1.982521069129208
 30
0.0
 10
9.000391434184653
 20
2.302429975719978
 30
0.0
  0
SPLINE
  5
CB
330
1F
100
AcDbEntity
  8
0
  6
Continuous
 62
   131
370
    15
100
AcDbSpline
210
0.0
220
0.0
230
1.0
 70
     8
 71
     3
 72
     8
 73
     4
 74
     0
 42
0.000000001
 43
0.00000001
 40
0.0
 40
0.0
 40
0.0
 40
0.0
 40
1.0
 40
1.0
 40
1.0
 40
1.0
 10
9.999999999999991
 20
-4.768780294799637
 30
0.0
 10
9.66526772664922
 20
-4.500424472934339
 30
0.0
 10
9.334398741826528
 20
-4.220652065980408
 30
0.0
 10
9.000391434184667
 20
-3.929726008609523
 30
0.0
  0
SPLINE
  5
CC
330
1F
100
AcDbEntity
  8
0
  6
Continuous
 62
   131
370
    15
100
AcDbSpline
210
0.0
220
0.0
230
1.0
 70
     8
 71
     3
 72
     8
 73
     4
 74
     0
 42
0.000000001
 43
0.00000001
 40
0.0
 40
0.0
 40
0.0
 40
0.0
 40
1.0
 40
1.0
 40
1.0
 40
1.0
 10
10.00000000000001
 20
-6.167715695524453
 30
0.0
 10
9.665267726649235
 20
-5.95488099644267
 30
0.0
 10
9.334398741826542
 20
-5.726764689867085
 30
0.0
 10
9.000391434184653
 20
-5.48359408814416
 30
0.0
  0
LINE
  5
CD
330
1F
100
AcDbEntity
  8
0
  6
Continuous
 62
   131
370
    15
100
AcDbLine
 10
-48.40000000000001
 20
0.0010749287239042
 30
0.0
 11
-48.40000000000001
 21
8.001074928723904
 31
0.0
  0
LINE
  5
CE
330
1F
100
AcDbEntity
  8
0
  6
Continuous
 62
   131
370
    15
100
AcDbLine
 10
-48.40000000000001
 20
-7.998925071276096
 30
0.0
 11
-48.40000000000001
 21
0.0010749287239042
 31
0.0
  0
LINE
  5
CF
330
1F
100
AcDbEntity
  8
0
  6
Continuous
 62
   131
370
    15
100
AcDbLine
 10
9.000391434184646
 20
-3.929761195607751
 30
0.0
 11
9.00039143418466
 21
2.302467991430158
 31
0.0
  0
LINE
  5
D0
330
1F
100
AcDbEntity
  8
0
  6
Continuous
 62
   131
370
    15
100
AcDbLine
 10
-50.00000000000001
 20
0.0010749287239042
 30
0.0
 11
-50.00000000000001
 21
6.401074928723911
 31
0.0
  0
LINE
  5
D1
330
1F
100
AcDbEntity
  8
0
  6
Continuous
 62
   131
370
    15
100
AcDbLine
 10
-50.00000000000001
 20
-6.398925071276103
 30
0.0
 11
-50.00000000000001
 21
0.0010749287239042
 31
0.0
  0
SPLINE
  5
D2
330
1F
100
AcDbEntity
  8
0
  6
Continuous
 62
   131
370
    15
100
AcDbSpline
210
0.0
220
0.0
230
1.0
 70
    24
 71
     3
 72
    22
 73
    18
 74
     0
 42
0.000000001
 43
0.00000001
 40
0.0
 40
0.0
 40
0.0
 40
0.0
 40
0.0564787984135706
 40
0.1255920394731228
 40
0.194705280532675
 40
0.2638185215922265
 40
0.3329317626517782
 40
0.4020450037113315
 40
0.4711582447708846
 40
0.5402714858304359
 40
0.6093847268899872
 40
0.6784979679495403
 40
0.7476112090090934
 40
0.8167244500686386
 40
0.885837691128184
 40
0.9549509321877431
 40
1.0
 40
1.0
 40
1.0
 40
1.0
 10
9.999999999999991
 20
-4.768780294799631
 30
0.0
 10
10.00000000000001
 20
-4.701176084331156
 30
0.0
 10
10.00000000000001
 20
-4.550844439391874
 30
0.0
 10
9.999999999999998
 20
-4.234596768410903
 30
0.0
 10
10.00000000000002
 20
-3.837245162219029
 30
0.0
 10
9.99999999999997
 20
-3.38152071355308
 30
0.0
 10
9.99999999999997
 20
-2.884145521119274
 30
0.0
 10
9.999999999999998
 20
-2.357292126445758
 30
0.0
 10
9.999999999999998
 20
-1.816921477560692
 30
0.0
 10
9.99999999999997
 20
-1.278079443159546
 30
0.0
 10
9.99999999999997
 20
-0.7557168490964399
 30
0.0
 10
9.999999999999963
 20
-0.2655716652739727
 30
0.0
 10
9.999999999999991
 20
0.1797118275513386
 30
0.0
 10
9.999999999999963
 20
0.5665496537050778
 30
0.0
 10
10.00000000000001
 20
0.8821317586922511
 30
0.0
 10
9.999999999999977
 20
1.102186106664352
 30
0.0
 10
9.999999999999998
 20
1.179073239120679
 30
0.0
 10
10.00000000000001
 20
1.209413319644139
 30
0.0
  0
SPLINE
  5
D3
330
1F
100
AcDbEntity
  8
0
  6
Continuous
 62
   131
370
    15
100
AcDbSpline
210
0.0
220
0.0
230
1.0
 70
    24
 71
     3
 72
    16
 73
    12
 74
     0
 42
0.000000001
 43
0.00000001
 40
0.0
 40
0.0
 40
0.0
 40
0.0
 40
0.0446842287238287
 40
0.1581662372767837
 40
0.2716482458297418
 40
0.3851302543826997
 40
0.4986122629356445
 40
0.6120942714885897
 40
0.7255762800415575
 40
0.8390582885945254
 40
1.0
 40
1.0
 40
1.0
 40
1.0
 10
9.999999999999991
 20
3.248325742482949
 30
0.0
 10
9.999999999999991
 20
3.288593400486189
 30
0.0
 10
9.999999999999984
 20
3.431126552164478
 30
0.0
 10
9.999999999999963
 20
3.749439088060465
 30
0.0
 10
9.999999999999977
 20
4.190652560727361
 30
0.0
 10
9.999999999999977
 20
4.681270193258543
 30
0.0
 10
9.999999999999991
 20
5.203039725633682
 30
0.0
 10
10.00000000000001
 20
5.742044476687198
 30
0.0
 10
9.999999999999998
 20
6.281691011838427
 30
0.0
 10
10.00000000000002
 20
6.885604708293853
 30
0.0
 10
9.999999999999991
 20
7.270836791706154
 30
0.0
 10
9.999999999999991
 20
7.496764458607768
 30
0.0
  0
SPLINE
  5
D4
330
1F
100
AcDbEntity
  8
0
  6
Continuous
 62
   131
370
    15
100
AcDbSpline
210
0.0
220
0.0
230
1.0
 70
    24
 71
     3
 72
    12
 73
     8
 74
     0
 42
0.000000001
 43
0.00000001
 40
0.0
 40
0.0
 40
0.0
 40
0.0
 40
0.2502676323318106
 40
0.4008208795099978
 40
0.7070425019807736
 40
0.8630771517273209
 40
1.0
 40
1.0
 40
1.0
 40
1.0
 10
9.999999999999991
 20
-7.945899146343347
 30
0.0
 10
10.00000000000001
 20
-7.798956819602253
 30
0.0
 10
10.00000000000003
 20
-7.563618545559994
 30
0.0
 10
9.999999999999941
 20
-7.149955650139953
 30
0.0
 10
9.999999999999895
 20
-6.797362626055886
 30
0.0
 10
10.00000000000003
 20
-6.465451902583862
 30
0.0
 10
10.00000000000002
 20
-6.310342764231283
 30
0.0
 10
10.00000000000001
 20
-6.237847657739888
 30
0.0
  0
LINE
  5
D5
330
1F
100
AcDbEntity
  8
중심선
 62
     1
100
AcDbLine
 10
-53.20259277488955
 20
0.0010749287238984
 30
0.0
 11
52.99999999999999
 21
0.0010749287239823
 31
0.0
  0
CIRCLE
  5
D6
330
1F
100
AcDbEntity
  8
외형선
100
AcDbCircle
 10
0.0
 20
0.0
 30
0.0
 40
3.000000000000008
  0
INSERT
  5
D7
330
1F
100
AcDbEntity
  8
0
  6
Continuous
 62
     7
100
AcDbBlockReference
 66
     1
  2
블럭10
 10
-22.93944368806589
 20
-52.04609937292004
 30
0.0
  0
ATTRIB
  5
D8
330
D7
100
AcDbEntity
  8
FORMAT
 62
     2
100
AcDbText
 10
-35.89938288292366
 20
-49.97073246008785
 30
0.0
 40
4.233333333333333
  1
SEME75160E [ 6 FLUTE ]
 41
0.75
  7
SLDTEXTSTYLE0
 11
-35.89938288292366
 21
-52.08739912675452
 31
0.0
100
AcDbAttribute
  2
AUTOATTR0
 70
     0
 74
     1
  0
SEQEND
  5
D9
330
D7
100
AcDbEntity
  8
0
  6
Continuous
 62
     7
  0
HATCH
  5
DA
330
1F
100
AcDbEntity
  8
중심선
100
AcDbHatch
 10
0.0
 20
0.0
 30
0.0
210
0.0
220
0.0
230
1.0
  2
SOLID
 70
     1
 71
     0
 91
        1
 92
        0
 93
        4
 72
     1
 10
-17.22453438368504
 20
-35.7989250712761
 11
-20.67080962752232
 21
-35.7989250712761
 72
     1
 10
-20.67080962752232
 20
-35.7989250712761
 11
-22.79903948672635
 21
-38.3352506518487
 72
     1
 10
-22.79903948672635
 20
-38.3352506518487
 11
-19.35273115777591
 21
-38.33521122254621
 72
     1
 10
-19.35273115777591
 20
-38.33521122254621
 11
-17.22453438368504
 21
-35.7989250712761
 97
        0
 75
     0
 76
     1
 98
        1
 10
0.0
 20
0.0
  0
HATCH
  5
DB
330
1F
100
AcDbEntity
  8
중심선
100
AcDbHatch
 10
0.0
 20
0.0
 30
0.0
210
0.0
220
0.0
230
1.0
  2
SOLID
 70
     1
 71
     0
 91
        1
 92
        0
 93
        4
 72
     1
 10
-12.21177039264909
 20
-35.7989250712761
 11
-15.65804563648637
 21
-35.7989250712761
 72
     1
 10
-15.65804563648637
 20
-35.7989250712761
 11
-20.18918364484376
 21
-41.19892507127612
 72
     1
 10
-20.18918364484376
 20
-41.19892507127612
 11
-16.74290840100648
 21
-41.19892507127612
 72
     1
 10
-16.74290840100648
 20
-41.19892507127612
 11
-12.21177039264909
 21
-35.7989250712761
 97
        0
 75
     0
 76
     1
 98
        1
 10
0.0
 20
0.0
  0
HATCH
  5
DC
330
1F
100
AcDbEntity
  8
중심선
100
AcDbHatch
 10
0.0
 20
0.0
 30
0.0
210
0.0
220
0.0
230
1.0
  2
SOLID
 70
     1
 71
     0
 91
        1
 92
        0
 93
        4
 72
     1
 10
-7.199006401613195
 20
-35.79892507127613
 11
-10.64528164545031
 21
-35.7989250712761
 72
     1
 10
-10.64528164545031
 20
-35.7989250712761
 11
-17.69371854733956
 21
-44.19892507127612
 72
     1
 10
-17.69371854733956
 20
-44.19892507127612
 11
-14.24744330350228
 21
-44.19892507127612
 72
     1
 10
-14.24744330350228
 20
-44.19892507127612
 11
-7.199006401613195
 21
-35.79892507127613
 97
        0
 75
     0
 76
     1
 98
        1
 10
0.0
 20
0.0
  0
HATCH
  5
DD
330
1F
100
AcDbEntity
  8
중심선
100
AcDbHatch
 10
0.0
 20
0.0
 30
0.0
210
0.0
220
0.0
230
1.0
  2
SOLID
 70
     1
 71
     0
 91
        1
 92
        0
 93
        6
 72
     3
 10
-2.399115970600996
 20
-39.99892507132738
 11
3.960054785062284
 21
1.540850780301639E-10
 40
0.3939339440162633
 50
17.09539180608433
 51
320.0019657685079
 73
     0
 72
     1
 10
-0.7161163149004002
 20
-38.58681907591441
 11
1.589185558800638
 21
-36.65249236586649
 72
     3
 10
-2.399115970653842
 20
-39.99892507127625
 11
6.600054785286829
 21
-1.249000902703301E-13
 40
0.6363583540795982
 50
39.99873849337408
 51
368.4976242363725
 73
     1
 72
     1
 10
4.026216521246767
 20
-39.03892507120613
 11
-3.71904866381792
 21
-39.0389250712061
 72
     1
 10
-3.71904866381792
 20
-39.0389250712061
 11
-3.719073708263854
 21
-40.95892507120602
 72
     1
 10
-3.719073708263854
 20
-40.95892507120602
 11
0.7223060612081831
 21
-40.95892507120599
 97
        0
 75
     0
 76
     1
 98
        1
 10
0.0
 20
0.0
  0
DIMENSION
  5
DE
330
1F
100
AcDbEntity
  8
치수문자_일반주서
100
AcDbDimension
  2
_D
 10
-67.02890613132342
 20
-7.998925071276171
 30
0.0
 11
-67.02890613132345
 21
0.0010749287239066
 31
0.0
 70
   160
  1
%%c<>
 71
     2
 42
16.00000000000001
 52
-270.0
  3
SLDDIMSTYLE0
100
AcDbAlignedDimension
 13
-48.40000000000002
 23
8.001074928723911
 33
0.0
 14
-48.40000000000002
 24
-7.998925071276103
 34
0.0
 50
90.0000000000002
100
AcDbRotatedDimension
  0
DIMENSION
  5
EC
330
1F
100
AcDbEntity
  8
치수문자_일반주서
100
AcDbDimension
  2
_D_1
 10
60.00000000000001
 20
-7.99892507127606
 30
0.0
 11
59.99999999999998
 21
1.056164128877493
 31
0.0
 70
   160
  1
%%c<>
 71
     2
 42
16.00000000000001
 52
-270.0
  3
SLDDIMSTYLE0
100
AcDbAlignedDimension
 13
50.0
 23
8.001074928723906
 33
0.0
 14
50.0
 24
-7.9989250712761
 34
0.0
 50
90.0000000000002
100
AcDbRotatedDimension
  0
DIMENSION
  5
F9
330
1F
100
AcDbEntity
  8
치수문자_일반주서
100
AcDbDimension
  2
_D_2
 10
50.0
 20
51.44288962243296
 30
0.0
 11
26.36999510565236
 21
51.44288962243296
 31
0.0
 70
   160
  1
<>
 71
     2
 42
40.00000000000001
  3
SLDDIMSTYLE1
100
AcDbAlignedDimension
 13
9.999999999999991
 23
7.948049003791152
 33
0.0
 14
50.0
 24
7.942695335958609
 34
0.0
100
AcDbRotatedDimension
  0
DIMENSION
  5
104
330
1F
100
AcDbEntity
  8
치수문자_일반주서
100
AcDbDimension
  2
_D_3
 10
-50.00000000000001
 20
78.88737799682823
 30
0.0
 11
3.098163198427175
 21
78.88737799682823
 31
0.0
 70
   160
  1
<>
 71
     2
 42
100.0
  3
SLDDIMSTYLE1
100
AcDbAlignedDimension
 13
50.0
 23
7.942695335958609
 33
0.0
 14
-50.00000000000001
 24
6.401074928723911
 34
0.0
100
AcDbRotatedDimension
  0
INSERT
  5
114
330
1F
100
AcDbEntity
  8
외형선
100
AcDbBlockReference
  2
SW_DOWELSYMBOL_0
 10
0.0
 20
0.0
 30
0.0
  0
ENDSEC
  0
SECTION
  2
OBJECTS
  0
DICTIONARY
  5
C
330
0
100
AcDbDictionary
281
     1
  3
ACAD_GROUP
350
D
  3
ACAD_IMAGE_VARS
350
138
  3
ACAD_LAYOUT
350
1A
  3
ACAD_MLINESTYLE
350
17
  3
ACAD_PLOTSETTINGS
350
19
  3
ACAD_PLOTSTYLENAME
350
E
  3
ACAD_SCALELIST
350
47
  3
APPDATA
350
136
  3
DWGPROPS
350
141
  0
DICTIONARY
  5
D
102
{ACAD_REACTORS
330
C
102
}
330
C
100
AcDbDictionary
281
     1
  0
RASTERVARIABLES
  5
138
102
{ACAD_REACTORS
330
C
102
}
330
C
100
AcDbRasterVariables
 90
        0
 70
     1
 71
     1
 72
     1
  0
DICTIONARY
  5
1A
102
{ACAD_REACTORS
330
C
102
}
330
C
100
AcDbDictionary
281
     1
  3
Layout1
350
1E
  3
Layout2
350
26
  3
Model
350
22
  0
DICTIONARY
  5
17
102
{ACAD_REACTORS
330
C
102
}
330
C
100
AcDbDictionary
281
     1
  3
Standard
350
18
  0
DICTIONARY
  5
19
102
{ACAD_REACTORS
330
C
102
}
330
C
100
AcDbDictionary
281
     1
  0
ACDBDICTIONARYWDFLT
  5
E
102
{ACAD_REACTORS
330
C
102
}
330
C
100
AcDbDictionary
281
     1
  3
Normal
350
F
100
AcDbDictionaryWithDefault
340
F
  0
DICTIONARY
  5
47
102
{ACAD_REACTORS
330
C
102
}
330
C
100
AcDbDictionary
281
     1
  3
A0
350
48
  3
A1
350
49
  3
A2
350
4A
  3
A3
350
4B
  3
A4
350
4C
  3
A5
350
4D
  3
A6
350
4E
  3
A7
350
4F
  3
A8
350
50
  3
A9
350
51
  3
B0
350
52
  3
B1
350
53
  3
B2
350
54
  3
B3
350
55
  3
B4
350
56
  3
B5
350
57
  3
B6
350
58
  3
B7
350
59
  3
B8
350
5A
  3
B9
350
5B
  3
C0
350
5C
  3
C1
350
5D
  3
C2
350
5E
  3
C3
350
5F
  3
C4
350
60
  3
C5
350
61
  3
C6
350
62
  3
C7
350
63
  3
C8
350
64
  3
C9
350
65
  3
D0
350
66
  3
D1
350
67
  3
D2
350
68
  0
DICTIONARY
  5
136
102
{ACAD_REACTORS
330
C
102
}
330
C
100
AcDbDictionary
281
     1
  0
XRECORD
  5
141
102
{ACAD_REACTORS
330
C
102
}
330
C
100
AcDbXrecord
280
     1
  1
DWGPROPS COOKIE
  2

  3

  4

  6

  7

  8
12016016
  9

300
=
301
=
302
=
303
=
304
=
305
=
306
=
307
=
308
=
309
=
 40
0.0
 41
2458268.39859059
 42
2458269.978186042
  1

 90
        0
  0
LAYOUT
  5
1E
102
{ACAD_REACTORS
330
1A
102
}
330
1A
100
AcDbPlotSettings
  1

  2
none_device
  4

  6

 40
0.0
 41
0.0
 42
0.0
 43
0.0
 44
0.0
 45
0.0
 46
0.0
 47
0.0
 48
0.0
 49
0.0
140
0.0
141
0.0
142
1.0
143
1.0
 70
   688
 72
     1
 73
     0
 74
     5
  7

 75
    16
147
1.0
148
0.0
149
0.0
100
AcDbLayout
  1
Layout1
 70
     1
 71
     1
 10
0.0
 20
0.0
 11
420.0
 21
297.0
 12
0.0
 22
0.0
 32
0.0
 14
1.000000000000000E+20
 24
1.000000000000000E+20
 34
1.000000000000000E+20
 15
-1.000000000000000E+20
 25
-1.000000000000000E+20
 35
-1.000000000000000E+20
146
0.0
 13
0.0
 23
0.0
 33
0.0
 16
1.0
 26
0.0
 36
0.0
 17
0.0
 27
1.0
 37
0.0
 76
     0
330
1B
  0
LAYOUT
  5
26
102
{ACAD_REACTORS
330
1A
102
}
330
1A
100
AcDbPlotSettings
  1

  2
none_device
  4

  6

 40
0.0
 41
0.0
 42
0.0
 43
0.0
 44
0.0
 45
0.0
 46
0.0
 47
0.0
 48
0.0
 49
0.0
140
0.0
141
0.0
142
1.0
143
1.0
 70
   688
 72
     1
 73
     0
 74
     5
  7

 75
    16
147
1.0
148
0.0
149
0.0
100
AcDbLayout
  1
Layout2
 70
     1
 71
     2
 10
0.0
 20
0.0
 11
0.0
 21
0.0
 12
0.0
 22
0.0
 32
0.0
 14
0.0
 24
0.0
 34
0.0
 15
0.0
 25
0.0
 35
0.0
146
0.0
 13
0.0
 23
0.0
 33
0.0
 16
1.0
 26
0.0
 36
0.0
 17
0.0
 27
1.0
 37
0.0
 76
     0
330
23
  0
LAYOUT
  5
22
102
{ACAD_REACTORS
330
1A
102
}
330
1A
100
AcDbPlotSettings
  1

  2
none_device
  4
ANSI_A_(11.00_x_8.50_Inches)
  6

 40
6.35
 41
19.05
 42
6.35000508
 43
19.05000254
 44
279.4
 45
215.9
 46
132.2275585545334
 47
62.85495627396512
 48
0.0
 49
0.0
140
0.0
141
0.0
142
0.0627452147165305
143
1.0
 70
  1696
 72
     0
 73
     0
 74
     0
  7

 75
     0
147
0.0235690232323232
148
0.0
149
0.0
100
AcDbLayout
  1
Model
 70
     1
 71
     0
 10
0.0
 20
0.0
 11
420.0
 21
297.0
 12
0.0
 22
0.0
 32
0.0
 14
-71.40390613132347
 24
-49.97073246008785
 34
0.0
 15
60.55033333333333
 25
83.26237799682823
 35
0.0
146
0.0
 13
0.0
 23
0.0
 33
0.0
 16
1.0
 26
0.0
 36
0.0
 17
0.0
 27
1.0
 37
0.0
 76
     0
330
1F
331
29
  0
MLINESTYLE
  5
18
102
{ACAD_REACTORS
330
17
102
}
330
17
100
AcDbMlineStyle
  2
Standard
 70
     0
  3

 62
   256
 51
90.0
 52
90.0
 71
     2
 49
0.5
 62
   256
  6
BYLAYER
 49
-0.5
 62
   256
  6
BYLAYER
  0
ACDBPLACEHOLDER
  5
F
102
{ACAD_REACTORS
330
E
102
}
330
E
  0
SCALE
  5
48
102
{ACAD_REACTORS
330
47
102
}
330
47
100
AcDbScale
 70
     0
300
1:1
140
1.0
141
1.0
290
     1
  0
SCALE
  5
49
102
{ACAD_REACTORS
330
47
102
}
330
47
100
AcDbScale
 70
     0
300
1:2
140
1.0
141
2.0
290
     0
  0
SCALE
  5
4A
102
{ACAD_REACTORS
330
47
102
}
330
47
100
AcDbScale
 70
     0
300
1:4
140
1.0
141
4.0
290
     0
  0
SCALE
  5
4B
102
{ACAD_REACTORS
330
47
102
}
330
47
100
AcDbScale
 70
     0
300
1:5
140
1.0
141
5.0
290
     0
  0
SCALE
  5
4C
102
{ACAD_REACTORS
330
47
102
}
330
47
100
AcDbScale
 70
     0
300
1:8
140
1.0
141
8.0
290
     0
  0
SCALE
  5
4D
102
{ACAD_REACTORS
330
47
102
}
330
47
100
AcDbScale
 70
     0
300
1:10
140
1.0
141
10.0
290
     0
  0
SCALE
  5
4E
102
{ACAD_REACTORS
330
47
102
}
330
47
100
AcDbScale
 70
     0
300
1:16
140
1.0
141
16.0
290
     0
  0
SCALE
  5
4F
102
{ACAD_REACTORS
330
47
102
}
330
47
100
AcDbScale
 70
     0
300
1:20
140
1.0
141
20.0
290
     0
  0
SCALE
  5
50
102
{ACAD_REACTORS
330
47
102
}
330
47
100
AcDbScale
 70
     0
300
1:30
140
1.0
141
30.0
290
     0
  0
SCALE
  5
51
102
{ACAD_REACTORS
330
47
102
}
330
47
100
AcDbScale
 70
     0
300
1:40
140
1.0
141
40.0
290
     0
  0
SCALE
  5
52
102
{ACAD_REACTORS
330
47
102
}
330
47
100
AcDbScale
 70
     0
300
1:50
140
1.0
141
50.0
290
     0
  0
SCALE
  5
53
102
{ACAD_REACTORS
330
47
102
}
330
47
100
AcDbScale
 70
     0
300
1:100
140
1.0
141
100.0
290
     0
  0
SCALE
  5
54
102
{ACAD_REACTORS
330
47
102
}
330
47
100
AcDbScale
 70
     0
300
2:1
140
2.0
141
1.0
290
     0
  0
SCALE
  5
55
102
{ACAD_REACTORS
330
47
102
}
330
47
100
AcDbScale
 70
     0
300
4:1
140
4.0
141
1.0
290
     0
  0
SCALE
  5
56
102
{ACAD_REACTORS
330
47
102
}
330
47
100
AcDbScale
 70
     0
300
8:1
140
8.0
141
1.0
290
     0
  0
SCALE
  5
57
102
{ACAD_REACTORS
330
47
102
}
330
47
100
AcDbScale
 70
     0
300
10:1
140
10.0
141
1.0
290
     0
  0
SCALE
  5
58
102
{ACAD_REACTORS
330
47
102
}
330
47
100
AcDbScale
 70
     0
300
100:1
140
100.0
141
1.0
290
     0
  0
SCALE
  5
59
102
{ACAD_REACTORS
330
47
102
}
330
47
100
AcDbScale
 70
     0
300
1/128" = 1'-0"
140
0.0078125
141
12.0
290
     0
  0
SCALE
  5
5A
102
{ACAD_REACTORS
330
47
102
}
330
47
100
AcDbScale
 70
     0
300
1/64" = 1'-0"
140
0.015625
141
12.0
290
     0
  0
SCALE
  5
5B
102
{ACAD_REACTORS
330
47
102
}
330
47
100
AcDbScale
 70
     0
300
1/32" = 1'-0"
140
0.03125
141
12.0
290
     0
  0
SCALE
  5
5C
102
{ACAD_REACTORS
330
47
102
}
330
47
100
AcDbScale
 70
     0
300
1/16" = 1'-0"
140
0.0625
141
12.0
290
     0
  0
SCALE
  5
5D
102
{ACAD_REACTORS
330
47
102
}
330
47
100
AcDbScale
 70
     0
300
3/32" = 1'-0"
140
0.09375
141
12.0
290
     0
  0
SCALE
  5
5E
102
{ACAD_REACTORS
330
47
102
}
330
47
100
AcDbScale
 70
     0
300
1/8" = 1'-0"
140
0.125
141
12.0
290
     0
  0
SCALE
  5
5F
102
{ACAD_REACTORS
330
47
102
}
330
47
100
AcDbScale
 70
     0
300
3/16" = 1'-0"
140
0.1875
141
12.0
290
     0
  0
SCALE
  5
60
102
{ACAD_REACTORS
330
47
102
}
330
47
100
AcDbScale
 70
     0
300
1/4" = 1'-0"
140
0.25
141
12.0
290
     0
  0
SCALE
  5
61
102
{ACAD_REACTORS
330
47
102
}
330
47
100
AcDbScale
 70
     0
300
3/8" = 1'-0"
140
0.375
141
12.0
290
     0
  0
SCALE
  5
62
102
{ACAD_REACTORS
330
47
102
}
330
47
100
AcDbScale
 70
     0
300
1/2" = 1'-0"
140
0.5
141
12.0
290
     0
  0
SCALE
  5
63
102
{ACAD_REACTORS
330
47
102
}
330
47
100
AcDbScale
 70
     0
300
3/4" = 1'-0"
140
0.75
141
12.0
290
     0
  0
SCALE
  5
64
102
{ACAD_REACTORS
330
47
102
}
330
47
100
AcDbScale
 70
     0
300
1" = 1'-0"
140
1.0
141
12.0
290
     0
  0
SCALE
  5
65
102
{ACAD_REACTORS
330
47
102
}
330
47
100
AcDbScale
 70
     0
300
1-1/2" = 1'-0"
140
1.5
141
12.0
290
     0
  0
SCALE
  5
66
102
{ACAD_REACTORS
330
47
102
}
330
47
100
AcDbScale
 70
     0
300
3" = 1'-0"
140
3.0
141
12.0
290
     0
  0
SCALE
  5
67
102
{ACAD_REACTORS
330
47
102
}
330
47
100
AcDbScale
 70
     0
300
6" = 1'-0"
140
6.0
141
12.0
290
     0
  0
SCALE
  5
68
102
{ACAD_REACTORS
330
47
102
}
330
47
100
AcDbScale
 70
     0
300
1'-0" = 1'-0"
140
12.0
141
12.0
290
     0
  0
ENDSEC
  0
EOF
