  0
SECTION
  2
HEADER
  9
$ACADVER
  1
AC1015
  9
$ACADMAINTVER
 70
     6
  9
$DWGCODEPAGE
  3
ANSI_949
  9
$INSBASE
 10
0.0
 20
0.0
 30
0.0
  9
$EXTMIN
 10
-99.00390613132342
 20
-49.97073246008785
 30
0.0
  9
$EXTMAX
 10
132.5503333333334
 20
85.20259975857405
 30
0.0
  9
$LIMMIN
 10
0.0
 20
0.0
  9
$LIMMAX
 10
420.0
 20
297.0
  9
$ORTHOMODE
 70
     1
  9
$REGENMODE
 70
     1
  9
$FILLMODE
 70
     1
  9
$QTEXTMODE
 70
     0
  9
$MIRRTEXT
 70
     1
  9
$LTSCALE
 40
1.0
  9
$ATTMODE
 70
     1
  9
$TEXTSIZE
 40
3.5
  9
$TRACEWID
 40
1.0
  9
$TEXTSTYLE
  7
Standard
  9
$CLAYER
  8
0
  9
$CELTYPE
  6
ByLayer
  9
$CECOLOR
 62
   256
  9
$CELTSCALE
 40
1.0
  9
$DISPSILH
 70
     0
  9
$DIMSCALE
 40
1.0
  9
$DIMASZ
 40
3.302
  9
$DIMEXO
 40
1.0
  9
$DIMDLI
 40
3.75
  9
$DIMRND
 40
0.0
  9
$DIMDLE
 40
0.0
  9
$DIMEXE
 40
1.0
  9
$DIMTP
 40
0.0
  9
$DIMTM
 40
0.0
  9
$DIMTXT
 40
3.5
  9
$DIMCEN
 40
2.5
  9
$DIMTSZ
 40
0.0
  9
$DIMTOL
 70
     0
  9
$DIMLIM
 70
     0
  9
$DIMTIH
 70
     1
  9
$DIMTOH
 70
     1
  9
$DIMSE1
 70
     0
  9
$DIMSE2
 70
     0
  9
$DIMTAD
 70
     1
  9
$DIMZIN
 70
     0
  9
$DIMBLK
  1

  9
$DIMASO
 70
     1
  9
$DIMSHO
 70
     1
  9
$DIMPOST
  1

  9
$DIMAPOST
  1

  9
$DIMALT
 70
     0
  9
$DIMALTD
 70
     3
  9
$DIMALTF
 40
0.0393700787401575
  9
$DIMLFAC
 40
1.0
  9
$DIMTOFL
 70
     1
  9
$DIMTVP
 40
0.0
  9
$DIMTIX
 70
     0
  9
$DIMSOXD
 70
     0
  9
$DIMSAH
 70
     0
  9
$DIMBLK1
  1

  9
$DIMBLK2
  1

  9
$DIMSTYLE
  2
ISO-25
  9
$DIMCLRD
 70
     0
  9
$DIMCLRE
 70
     0
  9
$DIMCLRT
 70
     0
  9
$DIMTFAC
 40
1.0
  9
$DIMGAP
 40
1.524
  9
$DIMJUST
 70
     0
  9
$DIMSD1
 70
     0
  9
$DIMSD2
 70
     0
  9
$DIMTOLJ
 70
     0
  9
$DIMTZIN
 70
     0
  9
$DIMALTZ
 70
     0
  9
$DIMALTTZ
 70
     0
  9
$DIMUPT
 70
     0
  9
$DIMDEC
 70
     2
  9
$DIMTDEC
 70
     2
  9
$DIMALTU
 70
     2
  9
$DIMALTTD
 70
     3
  9
$DIMTXSTY
  7
Standard
  9
$DIMAUNIT
 70
     0
  9
$DIMADEC
 70
     2
  9
$DIMALTRND
 40
0.0
  9
$DIMAZIN
 70
     0
  9
$DIMDSEP
 70
    44
  9
$DIMATFIT
 70
     3
  9
$DIMFRAC
 70
     0
  9
$DIMLDRBLK
  1

  9
$DIMLUNIT
 70
     2
  9
$DIMLWD
 70
    -2
  9
$DIMLWE
 70
    -2
  9
$DIMTMOVE
 70
     0
  9
$LUNITS
 70
     2
  9
$LUPREC
 70
     2
  9
$SKETCHINC
 40
1.0
  9
$FILLETRAD
 40
10.0
  9
$AUNITS
 70
     0
  9
$AUPREC
 70
     2
  9
$MENU
  1
.
  9
$ELEVATION
 40
0.0
  9
$PELEVATION
 40
0.0
  9
$THICKNESS
 40
0.0
  9
$LIMCHECK
 70
     0
  9
$CHAMFERA
 40
0.0
  9
$CHAMFERB
 40
0.0
  9
$CHAMFERC
 40
0.0
  9
$CHAMFERD
 40
0.0
  9
$SKPOLY
 70
     0
  9
$TDCREATE
 40
2458268.774154317
  9
$TDUCREATE
 40
2458268.399154317
  9
$TDUPDATE
 40
2458270.372891956
  9
$TDUUPDATE
 40
2458269.997891956
  9
$TDINDWG
 40
0.0005185185
  9
$TDUSRTIMER
 40
2458269.997373553
  9
$USRTIMER
 70
     1
  9
$ANGBASE
 50
0.0
  9
$ANGDIR
 70
     0
  9
$PDMODE
 70
     0
  9
$PDSIZE
 40
-1.0
  9
$PLINEWID
 40
0.0
  9
$SPLFRAME
 70
     0
  9
$SPLINETYPE
 70
     6
  9
$SPLINESEGS
 70
     8
  9
$HANDSEED
  5
15A
  9
$SURFTAB1
 70
     6
  9
$SURFTAB2
 70
     6
  9
$SURFTYPE
 70
     6
  9
$SURFU
 70
     6
  9
$SURFV
 70
     6
  9
$UCSBASE
  2

  9
$UCSNAME
  2

  9
$UCSORG
 10
0.0
 20
0.0
 30
0.0
  9
$UCSXDIR
 10
1.0
 20
0.0
 30
0.0
  9
$UCSYDIR
 10
0.0
 20
1.0
 30
0.0
  9
$UCSORTHOREF
  2

  9
$UCSORTHOVIEW
 70
     0
  9
$UCSORGTOP
 10
0.0
 20
0.0
 30
0.0
  9
$UCSORGBOTTOM
 10
0.0
 20
0.0
 30
0.0
  9
$UCSORGLEFT
 10
0.0
 20
0.0
 30
0.0
  9
$UCSORGRIGHT
 10
0.0
 20
0.0
 30
0.0
  9
$UCSORGFRONT
 10
0.0
 20
0.0
 30
0.0
  9
$UCSORGBACK
 10
0.0
 20
0.0
 30
0.0
  9
$PUCSBASE
  2

  9
$PUCSNAME
  2

  9
$PUCSORG
 10
0.0
 20
0.0
 30
0.0
  9
$PUCSXDIR
 10
1.0
 20
0.0
 30
0.0
  9
$PUCSYDIR
 10
0.0
 20
1.0
 30
0.0
  9
$PUCSORTHOREF
  2

  9
$PUCSORTHOVIEW
 70
     0
  9
$PUCSORGTOP
 10
0.0
 20
0.0
 30
0.0
  9
$PUCSORGBOTTOM
 10
0.0
 20
0.0
 30
0.0
  9
$PUCSORGLEFT
 10
0.0
 20
0.0
 30
0.0
  9
$PUCSORGRIGHT
 10
0.0
 20
0.0
 30
0.0
  9
$PUCSORGFRONT
 10
0.0
 20
0.0
 30
0.0
  9
$PUCSORGBACK
 10
0.0
 20
0.0
 30
0.0
  9
$USERI1
 70
     0
  9
$USERI2
 70
     0
  9
$USERI3
 70
     0
  9
$USERI4
 70
     0
  9
$USERI5
 70
     0
  9
$USERR1
 40
0.0
  9
$USERR2
 40
0.0
  9
$USERR3
 40
0.0
  9
$USERR4
 40
0.0
  9
$USERR5
 40
0.0
  9
$WORLDVIEW
 70
     1
  9
$SHADEDGE
 70
     3
  9
$SHADEDIF
 70
    70
  9
$TILEMODE
 70
     1
  9
$MAXACTVP
 70
    64
  9
$PINSBASE
 10
0.0
 20
0.0
 30
0.0
  9
$PLIMCHECK
 70
     0
  9
$PEXTMIN
 10
1.000000000000000E+20
 20
1.000000000000000E+20
 30
1.000000000000000E+20
  9
$PEXTMAX
 10
-1.000000000000000E+20
 20
-1.000000000000000E+20
 30
-1.000000000000000E+20
  9
$PLIMMIN
 10
0.0
 20
0.0
  9
$PLIMMAX
 10
0.0
 20
0.0
  9
$UNITMODE
 70
     0
  9
$VISRETAIN
 70
     1
  9
$PLINEGEN
 70
     0
  9
$PSLTSCALE
 70
     1
  9
$TREEDEPTH
 70
  3020
  9
$CMLSTYLE
  2
Standard
  9
$CMLJUST
 70
     0
  9
$CMLSCALE
 40
20.0
  9
$PROXYGRAPHICS
 70
     1
  9
$MEASUREMENT
 70
     1
  9
$CELWEIGHT
370
    -1
  9
$ENDCAPS
280
     0
  9
$JOINSTYLE
280
     0
  9
$LWDISPLAY
290
     1
  9
$INSUNITS
 70
     4
  9
$HYPERLINKBASE
  1

  9
$STYLESHEET
  1

  9
$XEDIT
290
     1
  9
$CEPSNTYPE
380
     0
  9
$PSTYLEMODE
290
     1
  9
$FINGERPRINTGUID
  2
{DA1AE8E8-0C4F-47F9-B4F7-45818FC74831}
  9
$VERSIONGUID
  2
{FAEB1C32-E019-11D5-929B-00C0DF256EC4}
  9
$EXTNAMES
290
     1
  9
$PSVPSCALE
 40
0.0
  9
$OLESTARTUP
290
     0
  0
ENDSEC
  0
SECTION
  2
CLASSES
  0
CLASS
  1
ACDBDICTIONARYWDFLT
  2
AcDbDictionaryWithDefault
  3
ObjectDBX Classes
 90
        0
280
     0
281
     0
  0
CLASS
  1
VISUALSTYLE
  2
AcDbVisualStyle
  3
ObjectDBX Classes
 90
     4095
280
     0
281
     0
  0
CLASS
  1
MATERIAL
  2
AcDbMaterial
  3
ObjectDBX Classes
 90
     1153
280
     0
281
     0
  0
CLASS
  1
SCALE
  2
AcDbScale
  3
ObjectDBX Classes
 90
     1153
280
     0
281
     0
  0
CLASS
  1
SUN
  2
AcDbSun
  3
SCENEOE
 90
     1153
280
     0
281
     0
  0
CLASS
  1
ACDBPLACEHOLDER
  2
AcDbPlaceHolder
  3
ObjectDBX Classes
 90
        0
280
     0
281
     0
  0
CLASS
  1
LAYOUT
  2
AcDbLayout
  3
ObjectDBX Classes
 90
        0
280
     0
281
     0
  0
CLASS
  1
TABLESTYLE
  2
AcDbTableStyle
  3
ObjectDBX Classes
 90
     4095
280
     0
281
     0
  0
CLASS
  1
MLEADERSTYLE
  2
AcDbMLeaderStyle
  3
ACDB_MLEADERSTYLE_CLASS
 90
     4095
280
     0
281
     0
  0
CLASS
  1
RASTERVARIABLES
  2
AcDbRasterVariables
  3
ISM
 90
        0
280
     0
281
     0
  0
ENDSEC
  0
SECTION
  2
TABLES
  0
TABLE
  2
VPORT
  5
8
330
0
100
AcDbSymbolTable
 70
     1
  0
VPORT
  5
29
330
8
100
AcDbSymbolTableRecord
100
AcDbViewportTableRecord
  2
*Active
 70
     0
 10
0.0
 20
0.0
 11
1.0
 21
1.0
 12
33.61113666224171
 22
-5.755837872258422
 13
0.0
 23
0.0
 14
10.0
 24
10.0
 15
10.0
 25
10.0
 16
0.0
 26
0.0
 36
1.0
 17
0.0
 27
0.0
 37
0.0
 40
116.4238214843668
 41
1.627413127413127
 42
50.0
 43
0.0
 44
0.0
 50
0.0
 51
0.0
 71
    16
 72
  2000
 73
     1
 74
     3
 75
     0
 76
     0
 77
     0
 78
     0
281
     0
 65
     1
110
0.0
120
0.0
130
0.0
111
1.0
121
0.0
131
0.0
112
0.0
122
1.0
132
0.0
 79
     0
146
0.0
  0
ENDTAB
  0
TABLE
  2
LTYPE
  5
5
330
0
100
AcDbSymbolTable
 70
     6
  0
LTYPE
  5
14
330
5
100
AcDbSymbolTableRecord
100
AcDbLinetypeTableRecord
  2
ByBlock
 70
     0
  3

 72
    65
 73
     0
 40
0.0
  0
LTYPE
  5
15
330
5
100
AcDbSymbolTableRecord
100
AcDbLinetypeTableRecord
  2
ByLayer
 70
     0
  3

 72
    65
 73
     0
 40
0.0
  0
LTYPE
  5
16
330
5
100
AcDbSymbolTableRecord
100
AcDbLinetypeTableRecord
  2
Continuous
 70
     0
  3
Solid line
 72
    65
 73
     0
 40
0.0
  0
LTYPE
  5
6A
330
5
100
AcDbSymbolTableRecord
100
AcDbLinetypeTableRecord
  2
HIDDEN
 70
     0
  3
Hidden __ __ __ __ __ __ __ __ __ __ __ __ __ __
 72
    65
 73
     2
 40
1.905
 49
1.27
 74
     0
 49
-0.635
 74
     0
  0
LTYPE
  5
6B
330
5
100
AcDbSymbolTableRecord
100
AcDbLinetypeTableRecord
  2
PHANTOM
 70
     0
  3
Phantom ______  __  __  ______  __  __  ______
 72
    65
 73
     6
 40
12.7
 49
6.35
 74
     0
 49
-1.27
 74
     0
 49
1.27
 74
     0
 49
-1.27
 74
     0
 49
1.27
 74
     0
 49
-1.27
 74
     0
  0
LTYPE
  5
6C
330
5
100
AcDbSymbolTableRecord
100
AcDbLinetypeTableRecord
  2
CENTER
 70
     0
  3
Center ____ _ ____ _ ____ _ ____ _ ____ _ ____
 72
    65
 73
     4
 40
10.16
 49
6.35
 74
     0
 49
-1.27
 74
     0
 49
1.27
 74
     0
 49
-1.27
 74
     0
  0
LTYPE
  5
6D
330
5
100
AcDbSymbolTableRecord
100
AcDbLinetypeTableRecord
  2
CENTERX2
 70
     0
  3
Center (2x) ________  __  ________  __  _____
 72
    65
 73
     4
 40
20.32
 49
12.7
 74
     0
 49
-2.54
 74
     0
 49
2.54
 74
     0
 49
-2.54
 74
     0
  0
LTYPE
  5
6E
330
5
100
AcDbSymbolTableRecord
100
AcDbLinetypeTableRecord
  2
DOT2
 70
     0
  3
Dot (.5x) ........................................
 72
    65
 73
     2
 40
0.635
 49
0.0
 74
     0
 49
-0.635
 74
     0
  0
ENDTAB
  0
TABLE
  2
LAYER
  5
2
330
0
100
AcDbSymbolTable
 70
    17
  0
LAYER
  5
10
330
2
100
AcDbSymbolTableRecord
100
AcDbLayerTableRecord
  2
0
 70
     0
 62
     7
  6
Continuous
370
    -3
390
F
  0
LAYER
  5
6F
330
2
100
AcDbSymbolTableRecord
100
AcDbLayerTableRecord
  2
FORMAT
 70
     0
 62
     2
  6
Continuous
370
    -3
390
F
  0
LAYER
  5
70
330
2
100
AcDbSymbolTableRecord
100
AcDbLayerTableRecord
  2
외형선
 70
     0
 62
   100
  6
Continuous
370
    30
390
F
  0
LAYER
  5
71
330
2
100
AcDbSymbolTableRecord
100
AcDbLayerTableRecord
  2
숨은선
 70
     0
 62
     2
  6
HIDDEN
370
    15
390
F
  0
LAYER
  5
72
330
2
100
AcDbSymbolTableRecord
100
AcDbLayerTableRecord
  2
중심선
 70
     0
 62
     1
  6
CENTERX2
370
    -3
390
F
  0
LAYER
  5
73
330
2
100
AcDbSymbolTableRecord
100
AcDbLayerTableRecord
  2
파단선
 70
     0
 62
     4
  6
Continuous
370
    -3
390
F
  0
LAYER
  5
74
330
2
100
AcDbSymbolTableRecord
100
AcDbLayerTableRecord
  2
해칭선
 70
     0
 62
     4
  6
Continuous
370
    -3
390
F
  0
LAYER
  5
75
330
2
100
AcDbSymbolTableRecord
100
AcDbLayerTableRecord
  2
가는실선
 70
     0
 62
     4
  6
Continuous
370
    -3
390
F
  0
LAYER
  5
76
330
2
100
AcDbSymbolTableRecord
100
AcDbLayerTableRecord
  2
치수_보조선
 70
     0
 62
     4
  6
Continuous
370
    -3
390
F
  0
LAYER
  5
77
330
2
100
AcDbSymbolTableRecord
100
AcDbLayerTableRecord
  2
치수문자_일반주서
 70
     0
 62
     7
  6
Continuous
370
    15
390
F
  0
LAYER
  5
78
330
2
100
AcDbSymbolTableRecord
100
AcDbLayerTableRecord
  2
개별주서
 70
     0
 62
   100
  6
Continuous
370
    30
390
F
  0
LAYER
  5
79
330
2
100
AcDbSymbolTableRecord
100
AcDbLayerTableRecord
  2
중간선
 70
     0
 62
     2
  6
Continuous
370
    15
390
F
  0
LAYER
  5
7A
330
2
100
AcDbSymbolTableRecord
100
AcDbLayerTableRecord
  2
윤곽선
 70
     0
 62
     3
  6
Continuous
370
    40
390
F
  0
LAYER
  5
7B
330
2
100
AcDbSymbolTableRecord
100
AcDbLayerTableRecord
  2
중심마크
 70
     0
 62
   100
  6
Continuous
370
    30
390
F
  0
LAYER
  5
7C
330
2
100
AcDbSymbolTableRecord
100
AcDbLayerTableRecord
  2
가상선
 70
     0
 62
     4
  6
PHANTOM
370
    -3
390
F
  0
LAYER
  5
7D
330
2
100
AcDbSymbolTableRecord
100
AcDbLayerTableRecord
  2
특수지정선
 70
     0
 62
     5
  6
CENTERX2
370
    60
390
F
  0
LAYER
  5
150
330
2
100
AcDbSymbolTableRecord
100
AcDbLayerTableRecord
  2
Defpoints
 70
     0
 62
     7
  6
Continuous
290
     0
370
    -3
390
F
  0
ENDTAB
  0
TABLE
  2
STYLE
  5
3
330
0
100
AcDbSymbolTable
 70
     2
  0
STYLE
  5
11
330
3
100
AcDbSymbolTableRecord
100
AcDbTextStyleTableRecord
  2
Standard
 70
     0
 40
0.0
 41
1.0
 50
0.0
 71
     0
 42
3.5
  3
txt
  4

  0
STYLE
  5
93
330
3
100
AcDbSymbolTableRecord
100
AcDbTextStyleTableRecord
  2
SLDTEXTSTYLE0
 70
     0
 40
0.0
 41
0.75
 50
0.0
 71
     0
 42
3.5
  3
TXT
  4

  0
ENDTAB
  0
TABLE
  2
VIEW
  5
6
330
0
100
AcDbSymbolTable
 70
     0
  0
ENDTAB
  0
TABLE
  2
UCS
  5
7
330
0
100
AcDbSymbolTable
 70
     0
  0
ENDTAB
  0
TABLE
  2
APPID
  5
9
330
0
100
AcDbSymbolTable
 70
     1
  0
APPID
  5
12
330
9
100
AcDbSymbolTableRecord
100
AcDbRegAppTableRecord
  2
ACAD
 70
     0
  0
ENDTAB
  0
TABLE
  2
DIMSTYLE
  5
A
330
0
100
AcDbSymbolTable
 70
     3
100
AcDbDimStyleTable
  0
DIMSTYLE
105
27
330
A
100
AcDbSymbolTableRecord
100
AcDbDimStyleTableRecord
  2
ISO-25
 70
     0
 41
2.5
 42
0.625
 43
3.75
 44
1.25
 73
     0
 74
     0
 77
     1
 78
     8
140
2.5
141
2.5
143
0.03937007874016
147
0.625
171
     3
172
     1
178
     0
271
     2
272
     2
274
     3
278
    44
283
     0
284
     8
340
11
  0
DIMSTYLE
105
F6
102
{ACAD_REACTORS
330
F5
330
103
102
}
330
A
100
AcDbSymbolTableRecord
100
AcDbDimStyleTableRecord
  2
SLDDIMSTYLE0
 70
     0
 41
3.302
 44
0.0
 45
0.000000001
 73
     0
 74
     0
 77
     1
 78
    12
 79
     3
140
3.5
147
0.875
172
     1
173
     1
178
     0
271
     2
272
     2
276
     2
284
    12
289
     0
340
93
  0
DIMSTYLE
105
111
102
{ACAD_REACTORS
330
110
330
11B
102
}
330
A
100
AcDbSymbolTableRecord
100
AcDbDimStyleTableRecord
  2
SLDDIMSTYLE1
 70
     0
 41
3.302
 44
0.0
 45
0.000000001
 73
     0
 74
     0
 77
     1
 78
    12
 79
     3
140
3.5
147
0.875
173
     1
178
     0
271
     2
272
     2
276
     2
284
    12
340
93
  0
ENDTAB
  0
TABLE
  2
BLOCK_RECORD
  5
1
330
0
100
AcDbSymbolTable
 70
     7
  0
BLOCK_RECORD
  5
1F
330
1
100
AcDbSymbolTableRecord
100
AcDbBlockTableRecord
  2
*Model_Space
340
22
  0
BLOCK_RECORD
  5
1B
330
1
100
AcDbSymbolTableRecord
100
AcDbBlockTableRecord
  2
*Paper_Space
340
1E
  0
BLOCK_RECORD
  5
23
330
1
100
AcDbSymbolTableRecord
100
AcDbBlockTableRecord
  2
*Paper_Space0
340
26
  0
BLOCK_RECORD
  5
7E
330
1
100
AcDbSymbolTableRecord
100
AcDbBlockTableRecord
  2
블럭10
340
0
102
{BLKREFS
331
EE
102
}
  0
BLOCK_RECORD
  5
F7
330
1
100
AcDbSymbolTableRecord
100
AcDbBlockTableRecord
  2
_D
340
0
  0
BLOCK_RECORD
  5
104
330
1
100
AcDbSymbolTableRecord
100
AcDbBlockTableRecord
  2
_D_1
340
0
  0
BLOCK_RECORD
  5
112
330
1
100
AcDbSymbolTableRecord
100
AcDbBlockTableRecord
  2
_D_2
340
0
  0
BLOCK_RECORD
  5
11C
330
1
100
AcDbSymbolTableRecord
100
AcDbBlockTableRecord
  2
_D_3
340
0
  0
BLOCK_RECORD
  5
125
330
1
100
AcDbSymbolTableRecord
100
AcDbBlockTableRecord
  2
SW_DOWELSYMBOL_0
340
0
102
{BLKREFS
331
12B
102
}
  0
ENDTAB
  0
ENDSEC
  0
SECTION
  2
BLOCKS
  0
BLOCK
  5
20
330
1F
100
AcDbEntity
  8
0
100
AcDbBlockBegin
  2
*Model_Space
 70
     0
 10
0.0
 20
0.0
 30
0.0
  3
*Model_Space
  1
*Model_Space
  0
ENDBLK
  5
21
330
1F
100
AcDbEntity
  8
0
100
AcDbBlockEnd
  0
BLOCK
  5
1C
330
1B
100
AcDbEntity
 67
     1
  8
0
100
AcDbBlockBegin
  2
*Paper_Space
 70
     0
 10
0.0
 20
0.0
 30
0.0
  3
*Paper_Space
  1
*Paper_Space
  0
ENDBLK
  5
1D
330
1B
100
AcDbEntity
 67
     1
  8
0
100
AcDbBlockEnd
  0
BLOCK
  5
24
330
23
100
AcDbEntity
  8
0
100
AcDbBlockBegin
  2
*Paper_Space0
 70
     0
 10
0.0
 20
0.0
 30
0.0
  3
*Paper_Space0
  1
*Paper_Space0
  0
ENDBLK
  5
25
330
23
100
AcDbEntity
  8
0
100
AcDbBlockEnd
  0
BLOCK
  5
7F
330
7E
100
AcDbEntity
  8
0
100
AcDbBlockBegin
  2
블럭10
 70
     2
 10
0.0
 20
0.0
 30
0.0
  3
블럭10
  1
블럭10
  0
ELLIPSE
  5
81
330
7E
100
AcDbEntity
  8
중심선
100
AcDbEllipse
 10
20.54032771741204
 20
12.0471743016438
 30
0.0
 11
6.600054785286829
 21
-1.261213355974178E-13
 31
0.0
210
0.0
220
0.0
230
1.0
 40
0.636358354079598
 41
0.9219305317359503
 42
6.513795318482858
  0
ELLIPSE
  5
82
330
7E
100
AcDbEntity
  8
중심선
100
AcDbEllipse
 10
20.54032771746488
 20
12.04717430159265
 30
0.0
 11
3.960054785062283
 21
1.540847449632565E-10
 31
0.0
210
0.0
220
0.0
230
1.0
 40
0.3939339440162632
 41
1.131841032648279
 42
5.62031148352944
  0
LINE
  5
83
330
7E
100
AcDbEntity
  8
중심선
100
AcDbLine
 10
2.268634060543552
 20
16.24717430164393
 30
0.0
 11
5.714909304380834
 21
16.24717430164393
 31
0.0
  0
LINE
  5
84
330
7E
100
AcDbEntity
  8
중심선
100
AcDbLine
 10
5.245725140726316
 20
7.84717430164391
 30
0.0
 11
8.692000384563599
 21
7.84717430164391
 31
0.0
  0
LINE
  5
85
330
7E
100
AcDbEntity
  8
중심선
100
AcDbLine
 10
15.74043728645272
 20
16.24717430164393
 30
0.0
 11
8.692000384563599
 21
7.84717430164391
 31
0.0
  0
LINE
  5
86
330
7E
100
AcDbEntity
  8
중심선
100
AcDbLine
 10
0.1404042013395286
 20
13.71084872107135
 30
0.0
 11
3.58671253028996
 21
13.71088815037384
 31
0.0
  0
LINE
  5
87
330
7E
100
AcDbEntity
  8
중심선
100
AcDbLine
 10
2.750260043222114
 20
10.84717430164391
 30
0.0
 11
6.196535287059397
 21
10.84717430164391
 31
0.0
  0
LINE
  5
88
330
7E
100
AcDbEntity
  8
중심선
100
AcDbLine
 10
12.29416204261559
 20
16.24717430164393
 30
0.0
 11
5.245725140726316
 21
7.84717430164391
 31
0.0
  0
LINE
  5
89
330
7E
100
AcDbEntity
  8
중심선
100
AcDbLine
 10
10.72767329541681
 20
16.24717430164393
 30
0.0
 11
6.196535287059397
 21
10.84717430164391
 31
0.0
  0
LINE
  5
8A
330
7E
100
AcDbEntity
  8
중심선
100
AcDbLine
 10
7.28139805157953
 20
16.24717430164393
 30
0.0
 11
2.750260043222114
 21
10.84717430164391
 31
0.0
  0
LINE
  5
8B
330
7E
100
AcDbEntity
  8
중심선
100
AcDbLine
 10
5.714909304380834
 20
16.24717430164393
 30
0.0
 11
3.58671253028996
 21
13.71088815037384
 31
0.0
  0
LINE
  5
8C
330
7E
100
AcDbEntity
  8
중심선
100
AcDbLine
 10
2.268634060543552
 20
16.24717430164393
 30
0.0
 11
0.1404042013395286
 21
13.71084872107135
 31
0.0
  0
LINE
  5
8D
330
7E
100
AcDbEntity
  8
중심선
100
AcDbLine
 10
7.28139805157953
 20
16.24717430164393
 30
0.0
 11
10.72767329541681
 21
16.24717430164393
 31
0.0
  0
LINE
  5
8E
330
7E
100
AcDbEntity
  8
중심선
100
AcDbLine
 10
12.29416204261559
 20
16.24717430164393
 30
0.0
 11
15.74043728645272
 21
16.24717430164393
 31
0.0
  0
LINE
  5
8F
330
7E
100
AcDbEntity
  8
중심선
100
AcDbLine
 10
19.22036997980202
 20
11.08717430171403
 30
0.0
 11
23.66174974927406
 21
11.08717430171406
 31
0.0
  0
LINE
  5
90
330
7E
100
AcDbEntity
  8
중심선
100
AcDbLine
 10
19.22039502424796
 20
13.00717430171391
 30
0.0
 11
19.22036997980202
 21
11.08717430171403
 31
0.0
  0
LINE
  5
91
330
7E
100
AcDbEntity
  8
중심선
100
AcDbLine
 10
19.22039502424796
 20
13.00717430171391
 30
0.0
 11
26.96566020931264
 21
13.00717430171391
 31
0.0
  0
LINE
  5
92
330
7E
100
AcDbEntity
  8
중심선
100
AcDbLine
 10
22.22332737316547
 20
13.45928029700563
 30
0.0
 11
24.52862924686651
 21
15.39360700705356
 31
0.0
  0
ATTDEF
  5
94
330
7E
100
AcDbEntity
  8
FORMAT
 62
     2
100
AcDbText
 10
-17.69892196172445
 20
2.075366912832191
 30
0.0
 40
4.233333333333333
  1
SEME75200110E [ 6 FLUTE ]
 41
0.75
  7
SLDTEXTSTYLE0
 11
-17.69892196172445
 21
-0.0412997538344756
 31
0.0
100
AcDbAttributeDefinition
  3

  2
AUTOATTR0
 70
     0
 74
     1
  0
ENDBLK
  5
80
330
7E
100
AcDbEntity
  8
0
100
AcDbBlockEnd
  0
BLOCK
  5
F8
330
F7
100
AcDbEntity
  8
0
100
AcDbBlockBegin
  2
_D
 70
     0
 10
0.0
 20
0.0
 30
0.0
  3
_D
  1
_D
  0
LINE
  5
FA
330
F7
100
AcDbEntity
  8
치수문자_일반주서
 62
     0
370
    -2
100
AcDbLine
 10
-76.06249999999997
 20
9.955891588661054
 30
0.0
 11
-94.62890613132343
 21
9.95589158866098
 31
0.0
  0
LINE
  5
FB
330
F7
100
AcDbEntity
  8
치수문자_일반주서
 62
     0
370
    -2
100
AcDbLine
 10
-76.06249999999997
 20
-10.04410841133896
 30
0.0
 11
-94.62890613132336
 21
-10.04410841133904
 31
0.0
  0
LINE
  5
FC
330
F7
100
AcDbEntity
  8
치수문자_일반주서
 62
     0
370
    -2
100
AcDbLine
 10
-94.62890613132342
 20
6.653891588660981
 30
0.0
 11
-94.62890613132338
 21
-6.742108411339037
 31
0.0
  0
SOLID
  5
FD
330
F7
100
AcDbEntity
  8
치수문자_일반주서
 62
     0
100
AcDbTrace
 10
-94.07857279799009
 20
6.653891588660983
 30
0.0
 11
-95.17923946465675
 21
6.653891588660979
 31
0.0
 12
-94.62890613132343
 22
9.95589158866098
 32
0.0
 13
-94.62890613132343
 23
9.95589158866098
 33
0.0
  0
SOLID
  5
FE
330
F7
100
AcDbEntity
  8
치수문자_일반주서
 62
     0
100
AcDbTrace
 10
-95.1792394646567
 20
-6.742108411339039
 30
0.0
 11
-94.07857279799005
 21
-6.742108411339036
 31
0.0
 12
-94.62890613132336
 22
-10.04410841133904
 32
0.0
 13
-94.62890613132336
 23
-10.04410841133904
 33
0.0
  0
MTEXT
  5
FF
330
F7
100
AcDbEntity
  8
치수문자_일반주서
 62
     0
100
AcDbMText
 10
-99.0039061313234
 20
-0.044108411338962
 30
0.0
 40
3.5
 41
0.0
 71
     2
 72
     1
  1
\A1;%%c20
  7
SLDTEXTSTYLE0
 11
-3.552713678800499E-15
 21
1.0
 31
0.0
 73
     1
 44
1.0
  0
POINT
  5
100
330
F7
100
AcDbEntity
  8
Defpoints
 62
     0
100
AcDbPoint
 10
-75.99999999999997
 20
9.955891588661054
 30
0.0
  0
POINT
  5
101
330
F7
100
AcDbEntity
  8
Defpoints
 62
     0
100
AcDbPoint
 10
-75.99999999999997
 20
-10.04410841133896
 30
0.0
  0
POINT
  5
102
330
F7
100
AcDbEntity
  8
Defpoints
 62
     0
100
AcDbPoint
 10
-94.6289061313234
 20
-10.04410841133903
 30
0.0
  0
ENDBLK
  5
F9
330
F7
100
AcDbEntity
  8
0
100
AcDbBlockEnd
  0
BLOCK
  5
105
330
104
100
AcDbEntity
  8
0
100
AcDbBlockBegin
  2
_D_1
 70
     0
 10
0.0
 20
0.0
 30
0.0
  3
_D_1
  1
_D_1
  0
LINE
  5
107
330
104
100
AcDbEntity
  8
치수문자_일반주서
 62
     0
370
    -2
100
AcDbLine
 10
122.0625
 20
9.95589158866105
 30
0.0
 11
132.0
 21
9.955891588661087
 31
0.0
  0
LINE
  5
108
330
104
100
AcDbEntity
  8
치수문자_일반주서
 62
     0
370
    -2
100
AcDbLine
 10
122.0625
 20
-10.04410841133896
 30
0.0
 11
132.0000000000001
 21
-10.04410841133892
 31
0.0
  0
LINE
  5
109
330
104
100
AcDbEntity
  8
치수문자_일반주서
 62
     0
370
    -2
100
AcDbLine
 10
132.0
 20
6.653891588661088
 30
0.0
 11
132.0000000000001
 21
-6.742108411338924
 31
0.0
  0
SOLID
  5
10A
330
104
100
AcDbEntity
  8
치수문자_일반주서
 62
     0
100
AcDbTrace
 10
132.5503333333333
 20
6.653891588661089
 30
0.0
 11
131.4496666666667
 21
6.653891588661086
 31
0.0
 12
132.0
 22
9.955891588661087
 32
0.0
 13
132.0
 23
9.955891588661087
 33
0.0
  0
SOLID
  5
10B
330
104
100
AcDbEntity
  8
치수문자_일반주서
 62
     0
100
AcDbTrace
 10
131.4496666666667
 20
-6.742108411338926
 30
0.0
 11
132.5503333333334
 21
-6.742108411338922
 31
0.0
 12
132.0000000000001
 22
-10.04410841133892
 32
0.0
 13
132.0000000000001
 23
-10.04410841133892
 33
0.0
  0
MTEXT
  5
10C
330
104
100
AcDbEntity
  8
치수문자_일반주서
 62
     0
100
AcDbMText
 10
127.625
 20
1.274753088853014
 30
0.0
 40
3.5
 41
0.0
 71
     2
 72
     1
  1
\A1;%%c20
  7
SLDTEXTSTYLE0
 11
-2.842170943040399E-15
 21
1.0
 31
0.0
 73
     1
 44
1.0
  0
POINT
  5
10D
330
104
100
AcDbEntity
  8
Defpoints
 62
     0
100
AcDbPoint
 10
122.0
 20
9.95589158866105
 30
0.0
  0
POINT
  5
10E
330
104
100
AcDbEntity
  8
Defpoints
 62
     0
100
AcDbPoint
 10
122.0
 20
-10.04410841133896
 30
0.0
  0
POINT
  5
10F
330
104
100
AcDbEntity
  8
Defpoints
 62
     0
100
AcDbPoint
 10
132.0000000000001
 20
-10.04410841133892
 30
0.0
  0
ENDBLK
  5
106
330
104
100
AcDbEntity
  8
0
100
AcDbBlockEnd
  0
BLOCK
  5
113
330
112
100
AcDbEntity
  8
0
100
AcDbBlockBegin
  2
_D_2
 70
     0
 10
0.0
 20
0.0
 30
0.0
  3
_D_2
  1
_D_2
  0
LINE
  5
115
330
112
100
AcDbEntity
  8
치수문자_일반주서
 62
     0
370
    -2
100
AcDbLine
 10
12.00000000000004
 20
9.23571474597932
 30
0.0
 11
12.00000000000004
 21
52.66805536462113
 31
0.0
  0
LINE
  5
116
330
112
100
AcDbEntity
  8
치수문자_일반주서
 62
     0
370
    -2
100
AcDbLine
 10
122.0
 20
9.945417097704423
 30
0.0
 11
122.0
 21
52.66805536462113
 31
0.0
  0
LINE
  5
117
330
112
100
AcDbEntity
  8
치수문자_일반주서
 62
     0
370
    -2
100
AcDbLine
 10
15.30200000000004
 20
52.66805536462113
 30
0.0
 11
118.698
 21
52.66805536462113
 31
0.0
  0
SOLID
  5
118
330
112
100
AcDbEntity
  8
치수문자_일반주서
 62
     0
100
AcDbTrace
 10
15.30200000000004
 20
53.21838869795446
 30
0.0
 11
15.30200000000004
 21
52.11772203128779
 31
0.0
 12
12.00000000000004
 22
52.66805536462113
 32
0.0
 13
12.00000000000004
 23
52.66805536462113
 33
0.0
  0
SOLID
  5
119
330
112
100
AcDbEntity
  8
치수문자_일반주서
 62
     0
100
AcDbTrace
 10
118.698
 20
52.11772203128779
 30
0.0
 11
118.698
 21
53.21838869795446
 31
0.0
 12
122.0
 22
52.66805536462113
 32
0.0
 13
122.0
 23
52.66805536462113
 33
0.0
  0
MTEXT
  5
11A
330
112
100
AcDbEntity
  8
치수문자_일반주서
 62
     0
100
AcDbMText
 10
57.01748654054408
 20
57.04305536462113
 30
0.0
 40
3.5
 41
0.0
 71
     2
 72
     1
  1
\A1;110
  7
SLDTEXTSTYLE0
 73
     1
 44
1.0
  0
POINT
  5
152
330
112
100
AcDbEntity
  8
Defpoints
 62
     0
100
AcDbPoint
 10
12.00000000000004
 20
9.17321474597932
 30
0.0
  0
POINT
  5
153
330
112
100
AcDbEntity
  8
Defpoints
 62
     0
100
AcDbPoint
 10
122.0
 20
9.882917097704423
 30
0.0
  0
POINT
  5
154
330
112
100
AcDbEntity
  8
Defpoints
 62
     0
100
AcDbPoint
 10
122.0
 20
52.66805536462112
 30
0.0
  0
ENDBLK
  5
114
330
112
100
AcDbEntity
  8
0
100
AcDbBlockEnd
  0
BLOCK
  5
11D
330
11C
100
AcDbEntity
  8
0
100
AcDbBlockBegin
  2
_D_3
 70
     0
 10
0.0
 20
0.0
 30
0.0
  3
_D_3
  1
_D_3
  0
LINE
  5
11F
330
11C
100
AcDbEntity
  8
치수문자_일반주서
 62
     0
370
    -2
100
AcDbLine
 10
122.0
 20
9.945417097704423
 30
0.0
 11
122.0
 21
80.82759975857405
 31
0.0
  0
LINE
  5
120
330
11C
100
AcDbEntity
  8
치수문자_일반주서
 62
     0
370
    -2
100
AcDbLine
 10
-77.99999999999997
 20
8.018391588661048
 30
0.0
 11
-77.99999999999997
 21
80.82759975857405
 31
0.0
  0
LINE
  5
121
330
11C
100
AcDbEntity
  8
치수문자_일반주서
 62
     0
370
    -2
100
AcDbLine
 10
118.698
 20
80.82759975857405
 30
0.0
 11
-74.69799999999998
 21
80.82759975857405
 31
0.0
  0
SOLID
  5
122
330
11C
100
AcDbEntity
  8
치수문자_일반주서
 62
     0
100
AcDbTrace
 10
118.698
 20
80.27726642524073
 30
0.0
 11
118.698
 21
81.37793309190738
 31
0.0
 12
122.0
 22
80.82759975857405
 32
0.0
 13
122.0
 23
80.82759975857405
 33
0.0
  0
SOLID
  5
123
330
11C
100
AcDbEntity
  8
치수문자_일반주서
 62
     0
100
AcDbTrace
 10
-74.69799999999998
 20
81.37793309190738
 30
0.0
 11
-74.69799999999998
 21
80.27726642524073
 31
0.0
 12
-77.99999999999997
 22
80.82759975857405
 32
0.0
 13
-77.99999999999997
 23
80.82759975857405
 33
0.0
  0
MTEXT
  5
124
330
11C
100
AcDbEntity
  8
치수문자_일반주서
 62
     0
100
AcDbMText
 10
28.19632639685441
 20
85.20259975857405
 30
0.0
 40
3.5
 41
0.0
 71
     2
 72
     1
  1
\A1;200
  7
SLDTEXTSTYLE0
 73
     1
 44
1.0
  0
POINT
  5
155
330
11C
100
AcDbEntity
  8
Defpoints
 62
     0
100
AcDbPoint
 10
122.0
 20
9.882917097704423
 30
0.0
  0
POINT
  5
156
330
11C
100
AcDbEntity
  8
Defpoints
 62
     0
100
AcDbPoint
 10
-77.99999999999997
 20
7.955891588661048
 30
0.0
  0
POINT
  5
157
330
11C
100
AcDbEntity
  8
Defpoints
 62
     0
100
AcDbPoint
 10
-77.99999999999997
 20
80.82759975857405
 30
0.0
  0
ENDBLK
  5
11E
330
11C
100
AcDbEntity
  8
0
100
AcDbBlockEnd
  0
BLOCK
  5
126
330
125
100
AcDbEntity
  8
0
100
AcDbBlockBegin
  2
SW_DOWELSYMBOL_0
 70
     0
 10
0.0
 20
0.0
 30
0.0
  3
SW_DOWELSYMBOL_0
  1
SW_DOWELSYMBOL_0
  0
CIRCLE
  5
128
330
125
100
AcDbEntity
  8
외형선
 62
     0
100
AcDbCircle
 10
0.0
 20
0.0
 30
0.0
 40
2.999999999999994
  0
HATCH
  5
129
330
125
100
AcDbEntity
  8
0
  6
Continuous
 62
     0
370
    30
100
AcDbHatch
 10
0.0
 20
0.0
 30
0.0
210
0.0
220
0.0
230
1.0
  2
SOLID
 70
     1
 71
     0
 91
        1
 92
        0
 93
        3
 72
     2
 10
0.0
 20
0.0
 40
2.999999999999994
 50
0.0
 51
90.0
 73
     1
 72
     1
 10
0.0
 20
2.999999999999994
 11
0.0
 21
0.0
 72
     1
 10
0.0
 20
0.0
 11
2.999999999999996
 21
0.0
 97
        0
 75
     0
 76
     1
 98
        1
 10
0.0
 20
0.0
  0
HATCH
  5
12A
330
125
100
AcDbEntity
  8
0
  6
Continuous
 62
     0
370
    30
100
AcDbHatch
 10
0.0
 20
0.0
 30
0.0
210
0.0
220
0.0
230
1.0
  2
SOLID
 70
     1
 71
     0
 91
        1
 92
        0
 93
        3
 72
     2
 10
0.0
 20
0.0
 40
2.999999999999994
 50
180.0
 51
270.0000000000008
 73
     1
 72
     1
 10
0.0
 20
-2.999999999999994
 11
0.0
 21
0.0
 72
     1
 10
0.0
 20
0.0
 11
-2.999999999999996
 21
0.0
 97
        0
 75
     0
 76
     1
 98
        1
 10
0.0
 20
0.0
  0
ENDBLK
  5
127
330
125
100
AcDbEntity
  8
0
100
AcDbBlockEnd
  0
ENDSEC
  0
SECTION
  2
ENTITIES
  0
LINE
  5
95
330
1F
100
AcDbEntity
  8
0
  6
Continuous
 62
     1
370
    15
100
AcDbLine
 10
36.10714599429684
 20
-1.943558296417792
 30
0.0
 11
36.2121792208473
 21
-2.044756102710925
 31
0.0
  0
LINE
  5
96
330
1F
100
AcDbEntity
  8
0
  6
Continuous
 62
     1
370
    15
100
AcDbLine
 10
40.51014023138536
 20
1.690362425936851
 30
0.0
 11
40.23773114578839
 21
1.956224760344791
 31
0.0
  0
LINE
  5
97
330
1F
100
AcDbEntity
  8
0
  6
Continuous
 62
     1
370
    15
100
AcDbLine
 10
15.1480893793497
 20
-1.930568259134364
 30
0.0
 11
15.26565878748141
 21
-2.043414012046331
 31
0.0
  0
LINE
  5
98
330
1F
100
AcDbEntity
  8
0
  6
Continuous
 62
     1
370
    15
100
AcDbLine
 10
82.25594299162523
 20
1.829378816108469
 30
0.0
 11
82.12374169827632
 21
1.956904578883704
 31
0.0
  0
LINE
  5
99
330
1F
100
AcDbEntity
  8
0
  6
Continuous
 62
     1
370
    15
100
AcDbLine
 10
89.37587314727719
 20
-10.04410841133896
 30
0.0
 11
91.79438278798779
 21
-10.04410841133896
 31
0.0
  0
LINE
  5
9A
330
1F
100
AcDbEntity
  8
0
  6
Continuous
 62
     1
370
    15
100
AcDbLine
 10
26.54449909593112
 20
-10.04410841133896
 30
0.0
 11
28.96061615835243
 21
-10.04410841133896
 31
0.0
  0
LINE
  5
9B
330
1F
100
AcDbEntity
  8
0
  6
Continuous
 62
     1
370
    15
100
AcDbLine
 10
60.37796304811143
 20
9.95589158866105
 30
0.0
 11
57.9607024951568
 21
9.95589158866105
 31
0.0
  0
LINE
  5
9C
330
1F
100
AcDbEntity
  8
0
  6
Continuous
 62
   131
370
    15
100
AcDbLine
 10
122.0
 20
9.95589158866105
 30
0.0
 11
120.790377188841
 21
9.95589158866105
 31
0.0
  0
LINE
  5
9D
330
1F
100
AcDbEntity
  8
0
  6
Continuous
 62
     1
370
    15
100
AcDbLine
 10
120.7903771888411
 20
-10.04410841133896
 30
0.0
 11
122.0
 21
-10.04410841133896
 31
0.0
  0
LINE
  5
9E
330
1F
100
AcDbEntity
  8
0
  6
Continuous
 62
     1
370
    15
100
AcDbLine
 10
57.96070249515683
 20
-10.04410841133896
 30
0.0
 11
60.37796304811152
 21
-10.04410841133896
 31
0.0
  0
LINE
  5
9F
330
1F
100
AcDbEntity
  8
0
  6
Continuous
 62
     1
370
    15
100
AcDbLine
 10
28.96061615835253
 20
9.95589158866105
 30
0.0
 11
26.54449909593117
 21
9.95589158866105
 31
0.0
  0
LINE
  5
A0
330
1F
100
AcDbEntity
  8
0
  6
Continuous
 62
     1
370
    15
100
AcDbLine
 10
91.79438278798784
 20
9.95589158866105
 30
0.0
 11
89.37587314727722
 21
9.95589158866105
 31
0.0
  0
LINE
  5
A1
330
1F
100
AcDbEntity
  8
0
  6
Continuous
 62
     1
370
    15
100
AcDbLine
 10
68.43060296510305
 20
-10.04410841133896
 30
0.0
 11
70.84821367990887
 21
-10.04410841133896
 31
0.0
  0
LINE
  5
A2
330
1F
100
AcDbEntity
  8
0
  6
Continuous
 62
     1
370
    15
100
AcDbLine
 10
39.43332300619438
 20
9.95589158866105
 30
0.0
 11
37.01478009642151
 21
9.95589158866105
 31
0.0
  0
LINE
  5
A3
330
1F
100
AcDbEntity
  8
0
  6
Continuous
 62
     1
370
    15
100
AcDbLine
 10
102.2637777059455
 20
9.95589158866105
 30
0.0
 11
99.84706665410869
 21
9.95589158866105
 31
0.0
  0
LINE
  5
A4
330
1F
100
AcDbEntity
  8
0
  6
Continuous
 62
     1
370
    15
100
AcDbLine
 10
110.319457171186
 20
-10.04410841133896
 30
0.0
 11
112.7365655134464
 21
-10.04410841133896
 31
0.0
  0
LINE
  5
A5
330
1F
100
AcDbEntity
  8
0
  6
Continuous
 62
     1
370
    15
100
AcDbLine
 10
47.48656876083825
 20
-10.04410841133896
 30
0.0
 11
49.90454310606334
 21
-10.04410841133896
 31
0.0
  0
LINE
  5
A6
330
1F
100
AcDbEntity
  8
0
  6
Continuous
 62
     1
370
    15
100
AcDbLine
 10
18.48973560107692
 20
9.95589158866105
 30
0.0
 11
16.07270525315916
 21
9.95589158866105
 31
0.0
  0
LINE
  5
A7
330
1F
100
AcDbEntity
  8
0
  6
Continuous
 62
     1
370
    15
100
AcDbLine
 10
81.32039996713087
 20
9.95589158866105
 30
0.0
 11
78.90283808188539
 21
9.95589158866105
 31
0.0
  0
LINE
  5
A8
330
1F
100
AcDbEntity
  8
0
  6
Continuous
 62
     1
370
    15
100
AcDbLine
 10
78.90283808188542
 20
-10.04410841133896
 30
0.0
 11
81.3203999671309
 21
-10.04410841133896
 31
0.0
  0
LINE
  5
A9
330
1F
100
AcDbEntity
  8
0
  6
Continuous
 62
     1
370
    15
100
AcDbLine
 10
16.0727052531592
 20
-10.04410841133896
 30
0.0
 11
18.48973560107691
 21
-10.04410841133896
 31
0.0
  0
LINE
  5
AA
330
1F
100
AcDbEntity
  8
0
  6
Continuous
 62
     1
370
    15
100
AcDbLine
 10
49.90454310606336
 20
9.95589158866105
 30
0.0
 11
47.48656876083833
 21
9.95589158866105
 31
0.0
  0
LINE
  5
AB
330
1F
100
AcDbEntity
  8
0
  6
Continuous
 62
     1
370
    15
100
AcDbLine
 10
112.7365655134464
 20
9.95589158866105
 30
0.0
 11
110.3194571711861
 21
9.95589158866105
 31
0.0
  0
LINE
  5
AC
330
1F
100
AcDbEntity
  8
0
  6
Continuous
 62
     1
370
    15
100
AcDbLine
 10
99.84706665410863
 20
-10.04410841133896
 30
0.0
 11
102.2637777059454
 21
-10.04410841133896
 31
0.0
  0
LINE
  5
AD
330
1F
100
AcDbEntity
  8
0
  6
Continuous
 62
     1
370
    15
100
AcDbLine
 10
37.01478009642141
 20
-10.04410841133896
 30
0.0
 11
39.43332300619425
 21
-10.04410841133896
 31
0.0
  0
LINE
  5
AE
330
1F
100
AcDbEntity
  8
0
  6
Continuous
 62
     1
370
    15
100
AcDbLine
 10
70.84821367990878
 20
9.95589158866105
 30
0.0
 11
68.4306029651029
 21
9.95589158866105
 31
0.0
  0
LINE
  5
AF
330
1F
100
AcDbEntity
  8
0
  6
Continuous
 62
   131
370
    15
100
AcDbLine
 10
-75.99999999999997
 20
-10.04410841133895
 30
0.0
 11
11.00007003449089
 21
-10.04410841133895
 31
0.0
  0
LINE
  5
B0
330
1F
100
AcDbEntity
  8
0
  6
Continuous
 62
   131
370
    15
100
AcDbLine
 10
11.00007003449089
 20
9.955891588661043
 30
0.0
 11
-75.99999999999997
 21
9.955891588661043
 31
0.0
  0
LINE
  5
B1
330
1F
100
AcDbEntity
  8
0
  6
Continuous
 62
   131
370
    15
100
AcDbLine
 10
-75.99999999999997
 20
9.955891588661043
 30
0.0
 11
-77.99999999999997
 21
7.955891588661048
 31
0.0
  0
LINE
  5
B2
330
1F
100
AcDbEntity
  8
0
  6
Continuous
 62
   131
370
    15
100
AcDbLine
 10
-77.99999999999997
 20
-8.044108411338959
 30
0.0
 11
-75.99999999999997
 21
-10.04410841133895
 31
0.0
  0
LINE
  5
B3
330
1F
100
AcDbEntity
  8
0
  6
Continuous
 62
     1
370
    15
100
AcDbLine
 10
122.0
 20
5.917057901738334
 30
0.0
 11
122.0
 21
9.882917097704423
 31
0.0
  0
SPLINE
  5
B4
330
1F
100
AcDbEntity
  8
0
  6
Continuous
 62
     1
370
    15
100
AcDbSpline
210
0.0
220
0.0
230
1.0
 70
     8
 71
     3
 72
    12
 73
     8
 74
     0
 42
0.000000001
 43
0.00000001
 40
0.0
 40
0.0
 40
0.0
 40
0.0
 40
0.2040938049280517
 40
0.4081786616430926
 40
0.6122554559216689
 40
0.8163250769936968
 40
1.0
 40
1.0
 40
1.0
 40
1.0
 10
12.0
 20
-8.011447610755017
 30
0.0
 10
12.71544408927274
 20
-8.408153987466301
 30
0.0
 10
14.14630090015315
 20
-9.201549347841773
 30
0.0
 10
16.29248151835193
 20
-9.876180680538296
 30
0.0
 10
18.43853798894871
 20
-10.11573044150598
 30
0.0
 10
20.5130165890111
 20
-9.9311135747045
 30
0.0
 10
21.87213041479862
 20
-9.452047402835845
 30
0.0
 10
22.51594379946328
 20
-9.225113346440393
 30
0.0
  0
SPLINE
  5
B5
330
1F
100
AcDbEntity
  8
0
  6
Continuous
 62
     1
370
    15
100
AcDbSpline
210
0.0
220
0.0
230
1.0
 70
     8
 71
     3
 72
    26
 73
    22
 74
     0
 42
0.000000001
 43
0.00000001
 40
0.0
 40
0.0
 40
0.0
 40
0.0
 40
0.020790603768415
 40
0.0767245392696783
 40
0.1326748084355962
 40
0.1886160837608301
 40
0.2445421360382075
 40
0.3004580043894016
 40
0.3563687586506633
 40
0.4122794841094086
 40
0.4681952661401237
 40
0.5241211748397095
 40
0.5800622497623639
 40
0.6360126120709403
 40
0.6919467235933247
 40
0.7478677751055275
 40
0.8037808208024659
 40
0.8596909390462133
 40
0.9156032170470493
 40
0.9715227354868264
 40
1.0
 40
1.0
 40
1.0
 40
1.0
 10
49.90454310606336
 20
9.910058232411691
 30
0.0
 10
50.15015533641134
 20
9.922043008708174
 30
0.0
 10
51.05654965869035
 20
9.966270990244464
 30
0.0
 10
52.62411096291761
 20
9.635605522470641
 30
0.0
 10
54.60739196799593
 20
8.933517229947073
 30
0.0
 10
56.59031151468024
 20
7.85422331176565
 30
0.0
 10
58.57253076321062
 20
6.47247694643949
 30
0.0
 10
60.55421504112062
 20
4.833855163788978
 30
0.0
 10
62.53562578214449
 20
3.00480858121358
 30
0.0
 10
64.5170350998597
 20
1.056257588244479
 30
0.0
 10
66.49871446380735
 20
-0.9354303091908855
 30
0.0
 10
68.48092727181518
 20
-2.892411820688931
 30
0.0
 10
70.46383586419458
 20
-4.737939188912359
 30
0.0
 10
72.44712971767512
 20
-6.399493869326111
 30
0.0
 10
74.42973242267286
 20
-7.812200097460786
 30
0.0
 10
76.4116983163772
 20
-8.920863263165673
 30
0.0
 10
78.3932299158223
 20
-9.680548966573884
 30
0.0
 10
80.3746047996155
 20
-10.06788692810856
 30
0.0
 10
82.35610742590521
 20
-10.0442265766455
 30
0.0
 10
84.01361635925002
 20
-9.754823702277516
 30
0.0
 10
85.01077313137097
 20
-9.33920989535647
 30
0.0
 10
85.34723497466922
 20
-9.198972982278688
 30
0.0
  0
SPLINE
  5
B6
330
1F
100
AcDbEntity
  8
0
  6
Continuous
 62
     1
370
    15
100
AcDbSpline
210
0.0
220
0.0
230
1.0
 70
     8
 71
     3
 72
    12
 73
     8
 74
     0
 42
0.000000001
 43
0.00000001
 40
0.0
 40
0.0
 40
0.0
 40
0.0
 40
0.1440915989531412
 40
0.3580118745184629
 40
0.5719571418780743
 40
0.7859467714625115
 40
0.9999999999999999
 40
0.9999999999999999
 40
0.9999999999999999
 40
0.9999999999999999
 10
112.7365655134464
 20
9.912759885958748
 30
0.0
 10
113.1814374556191
 20
9.912617033909168
 30
0.0
 10
114.2867721114563
 20
9.912262101835262
 30
0.0
 10
116.0526526214775
 20
9.464433225229486
 30
0.0
 10
118.0344663659272
 20
8.641047089792135
 30
0.0
 10
120.0168678854404
 20
7.479362928564106
 30
0.0
 10
121.3388904860855
 20
6.468993356197548
 30
0.0
 10
122.0
 20
5.963733509251335
 30
0.0
  0
SPLINE
  5
B7
330
1F
100
AcDbEntity
  8
0
  6
Continuous
 62
     1
370
    15
100
AcDbSpline
210
0.0
220
0.0
230
1.0
 70
     8
 71
     3
 72
    10
 73
     6
 74
     0
 42
0.000000001
 43
0.00000001
 40
0.0
 40
0.0
 40
0.0
 40
0.0
 40
0.3787386369463683
 40
0.7573647440282882
 40
1.0
 40
1.0
 40
1.0
 40
1.0
 10
122.0000000000001
 20
9.882917097704423
 30
0.0
 10
121.3388916544011
 20
9.922144624772333
 30
0.0
 10
120.0168713900403
 20
10.00058802372467
 30
0.0
 10
118.271649566932
 20
9.710160700767076
 30
0.0
 10
117.1875279556542
 20
9.281688797132007
 30
0.0
 10
116.7641214148644
 20
9.114347970552696
 30
0.0
  0
SPLINE
  5
B8
330
1F
100
AcDbEntity
  8
0
  6
Continuous
 62
     1
370
    15
100
AcDbSpline
210
0.0
220
0.0
230
1.0
 70
     8
 71
     3
 72
    26
 73
    22
 74
     0
 42
0.000000001
 43
0.00000001
 40
0.0
 40
0.0
 40
0.0
 40
0.0
 40
0.0302434014922559
 40
0.0861893667915597
 40
0.1421184330782415
 40
0.1980352007116466
 40
0.2539447282622827
 40
0.3098520961620748
 40
0.3657623913710492
 40
0.4216806920014639
 40
0.4776120519996102
 40
0.5335596619845356
 40
0.589497985040406
 40
0.6454211426192681
 40
0.7013341740274133
 40
0.7572421491123315
 40
0.8131501529983504
 40
0.8690632707227277
 40
0.9249865718723201
 40
0.9809250953209113
 40
1.0
 40
1.0
 40
1.0
 40
1.0
 10
89.37587314727719
 20
-9.995346121426476
 30
0.0
 10
89.01849995483266
 20
-10.0031874956629
 30
0.0
 10
88.00003749210475
 20
-10.02553429023184
 30
0.0
 10
86.32047149189003
 20
-9.632115279333915
 30
0.0
 10
84.3379841001152
 20
-8.863219716077694
 30
0.0
 10
82.35609679906148
 20
-7.729965659204176
 30
0.0
 10
80.37460764678553
 20
-6.300956190258179
 30
0.0
 10
78.39322915289691
 20
-4.625634034548447
 30
0.0
 10
76.41169852083976
 20
-2.771248070278639
 30
0.0
 10
74.42973236786301
 20
-0.8098478882907584
 30
0.0
 10
72.44712973239436
 20
1.181759630160022
 30
0.0
 10
70.46383586015085
 20
3.125155416918764
 30
0.0
 10
68.48092727327096
 20
4.944591449918734
 30
0.0
 10
66.49871446202712
 20
6.568560222860591
 30
0.0
 10
64.51703510552386
 20
7.933311306935255
 30
0.0
 10
62.53562576126975
 20
8.9861287476066
 30
0.0
 10
60.55421511895938
 20
9.683627856313471
 30
0.0
 10
58.57253047267937
 20
10.00683600598467
 30
0.0
 10
56.59031259929406
 20
9.911936840872968
 30
0.0
 10
55.04309437028414
 20
9.605049712748242
 30
0.0
 10
54.15662256711075
 20
9.214594390802874
 30
0.0
 10
53.9312047243553
 20
9.115306860110719
 30
0.0
  0
SPLINE
  5
B9
330
1F
100
AcDbEntity
  8
0
  6
Continuous
 62
     1
370
    15
100
AcDbSpline
210
0.0
220
0.0
230
1.0
 70
     8
 71
     3
 72
    14
 73
    10
 74
     0
 42
0.000000001
 43
0.00000001
 40
0.0
 40
0.0
 40
0.0
 40
0.0
 40
0.1147367075414181
 40
0.2622687029549552
 40
0.4098045923203147
 40
0.5573450227174744
 40
0.7048906392759852
 40
0.8524420849007686
 40
0.9999999999999999
 40
0.9999999999999999
 40
0.9999999999999999
 40
0.9999999999999999
 10
26.54449909593113
 20
-10.01802418949371
 30
0.0
 10
25.98839346616153
 20
-10.00147865199415
 30
0.0
 10
24.71723007520426
 20
-9.963658352347375
 30
0.0
 10
22.73028839809923
 20
-9.389483872266247
 30
0.0
 10
20.58449124995539
 20
-8.385831142660066
 30
0.0
 10
18.43853577364151
 20
-6.987673164894876
 30
0.0
 10
16.29248210913454
 20
-5.273189836941322
 30
0.0
 10
14.14630075244757
 20
-3.321746318597755
 30
0.0
 10
12.71544404003688
 20
-1.911176111553548
 30
0.0
 10
12.00000000000009
 20
-1.205875546563382
 30
0.0
  0
SPLINE
  5
BA
330
1F
100
AcDbEntity
  8
0
  6
Continuous
 62
   131
370
    15
100
AcDbSpline
210
0.0
220
0.0
230
1.0
 70
    24
 71
     3
 72
    15
 73
    11
 74
     0
 42
0.000000001
 43
0.00000001
 40
0.0
 40
0.0
 40
0.0
 40
0.0
 40
0.0628921109471923
 40
0.2012169872130048
 40
0.3395418634788242
 40
0.4778667397446436
 40
0.616191616010461
 40
0.7545164922762755
 40
0.8928413685420956
 40
1.0
 40
1.0
 40
1.0
 40
1.0
 10
12.00000000000001
 20
-1.010245550047254
 30
0.0
 10
12.00000000000001
 20
-1.014653103927896
 30
0.0
 10
11.99999999999996
 20
-1.028754629532377
 30
0.0
 10
12.00000000000007
 20
-1.381605437703489
 30
0.0
 10
12.00000000000007
 20
-2.195877031553356
 30
0.0
 10
12.00000000000011
 20
-3.333372297300374
 30
0.0
 10
11.99999999999998
 20
-4.659136224127349
 30
0.0
 10
12.00000000000017
 20
-6.018547861980897
 30
0.0
 10
11.99999999999994
 20
-7.190494290397834
 30
0.0
 10
11.99999999999999
 20
-7.761981581242907
 30
0.0
 10
12.00000000000001
 20
-8.011447610755019
 30
0.0
  0
SPLINE
  5
BB
330
1F
100
AcDbEntity
  8
0
  6
Continuous
 62
     1
370
    15
100
AcDbSpline
210
0.0
220
0.0
230
1.0
 70
     8
 71
     3
 72
    25
 73
    21
 74
     0
 42
0.000000001
 43
0.00000001
 40
0.0
 40
0.0
 40
0.0
 40
0.0
 40
0.059096483801172
 40
0.1196349282911511
 40
0.1801717749747433
 40
0.2360892425025166
 40
0.2920023051754778
 40
0.347916049455271
 40
0.4038355597430109
 40
0.4597659030218053
 40
0.5157121136127407
 40
0.5716636045912453
 40
0.6275982094250458
 40
0.6835204573297761
 40
0.7394354070268027
 40
0.7953481392739986
 40
0.8512637415320167
 40
0.9071872925868553
 40
0.9631238472289839
 40
1.0
 40
1.0
 40
1.0
 40
1.0
 10
18.48973560107691
 20
9.950550642969672
 30
0.0
 10
19.1879947879686
 20
9.910368840694268
 30
0.0
 10
20.6015507625251
 20
9.829024795759194
 30
0.0
 10
22.73029035217147
 20
9.13460422725124
 30
0.0
 10
24.82164703863813
 20
8.076153480599764
 30
0.0
 10
26.85761803295212
 20
6.697881001732327
 30
0.0
 10
28.83904201869637
 20
5.094747763115959
 30
0.0
 10
30.82046418347176
 20
3.289814723702143
 30
0.0
 10
32.80220669505474
 20
1.354406218042272
 30
0.0
 10
34.78450791339107
 20
-0.636017668721153
 30
0.0
 10
36.76752289279828
 20
-2.603292521285854
 30
0.0
 10
38.75075551631402
 20
-4.470224623736663
 30
0.0
 10
40.73326046751783
 20
-6.16395890069606
 30
0.0
 10
42.71515113642096
 20
-7.617740372430313
 30
0.0
 10
44.6966438038387
 20
-8.775164212650393
 30
0.0
 10
46.6780219482004
 20
-9.58969475564775
 30
0.0
 10
48.65954918081002
 20
-10.03432249838527
 30
0.0
 10
50.64150964135444
 20
-10.0735179271235
 30
0.0
 10
52.39872393811536
 20
-9.807297024077346
 30
0.0
 10
53.49545414784642
 20
-9.37520256053351
 30
0.0
 10
53.9312047243553
 20
-9.203523682788626
 30
0.0
  0
SPLINE
  5
BC
330
1F
100
AcDbEntity
  8
0
  6
Continuous
 62
     1
370
    15
100
AcDbSpline
210
0.0
220
0.0
230
1.0
 70
     8
 71
     3
 72
    26
 73
    22
 74
     0
 42
0.000000001
 43
0.00000001
 40
0.0
 40
0.0
 40
0.0
 40
0.0
 40
0.0292224567596554
 40
0.0851400852059357
 40
0.1410700124948248
 40
0.1970168390564892
 40
0.2529587475328196
 40
0.3088847332272897
 40
0.3647998295988016
 40
0.4207091029372001
 40
0.4766176371223282
 40
0.5325305182685233
 40
0.5884528193545239
 40
0.6443895849389947
 40
0.700338801797548
 40
0.7562732462817047
 40
0.8121939283282373
 40
0.868105897376088
 40
0.9240142291590798
 40
0.9799240104034835
 40
1.0
 40
1.0
 40
1.0
 40
1.0
 10
81.32039996713087
 20
9.90693307126239
 30
0.0
 10
81.66560859592101
 20
9.915523514363116
 30
0.0
 10
82.67137933965932
 20
9.94055190480845
 30
0.0
 10
84.33798473731864
 20
9.554316755341633
 30
0.0
 10
86.32047843823577
 20
8.792506026386368
 30
0.0
 10
88.30370571174356
 20
7.664969688824756
 30
0.0
 10
90.28672900408708
 20
6.240717537693164
 30
0.0
 10
92.26903821021091
 20
4.568918738777773
 30
0.0
 10
94.25078381716733
 20
2.717033211752026
 30
0.0
 10
96.23221568559092
 20
0.7570306693917602
 30
0.0
 10
98.2136095085601
 20
-1.234296893800912
 30
0.0
 10
100.1952335606344
 20
-3.179110743577681
 30
0.0
 10
102.1773607722478
 20
-5.001311575270452
 30
0.0
 10
104.1601652326486
 20
-6.62954208738932
 30
0.0
 10
106.1434897480258
 20
-7.999557697089673
 30
0.0
 10
108.1261920836913
 20
-9.058593878277062
 30
0.0
 10
110.1082376283053
 20
-9.76275298575965
 30
0.0
 10
112.0898100261243
 20
-10.0926945713622
 30
0.0
 10
114.0712013239287
 20
-10.00539172133609
 30
0.0
 10
115.6292524452129
 20
-9.699909601041984
 30
0.0
 10
116.5269446493712
 20
-9.306505103527185
 30
0.0
 10
116.7641214148643
 20
-9.202564793230609
 30
0.0
  0
SPLINE
  5
BD
330
1F
100
AcDbEntity
  8
0
  6
Continuous
 62
     1
370
    15
100
AcDbSpline
210
0.0
220
0.0
230
1.0
 70
     8
 71
     3
 72
    26
 73
    22
 74
     0
 42
0.000000001
 43
0.00000001
 40
0.0
 40
0.0
 40
0.0
 40
0.0
 40
0.0218236303012562
 40
0.077752940101515
 40
0.1336706551874866
 40
0.1895818383036239
 40
0.2454915719220049
 40
0.3014049428964459
 40
0.3573270270880369
 40
0.4132628740623288
 40
0.4692134937814166
 40
0.5251516619142206
 40
0.581075365185875
 40
0.6369896482815284
 40
0.692899584307122
 40
0.7488102595045176
 40
0.8047267578810346
 40
0.860654145853544
 40
0.9165974570071609
 40
0.9725456863694256
 40
0.9999999999999999
 40
0.9999999999999999
 40
0.9999999999999999
 40
0.9999999999999999
 10
120.7903771888411
 20
-9.997396711718645
 30
0.0
 10
120.5324923653065
 20
-10.00925164494803
 30
0.0
 10
119.6137037421221
 20
-10.05148824356007
 30
0.0
 10
118.0344747886081
 20
-9.714543350964908
 30
0.0
 10
116.0526509977624
 20
-9.005189156830468
 30
0.0
 10
114.0711958066979
 20
-7.920298047506838
 30
0.0
 10
112.0898115045453
 20
-6.533669372777285
 30
0.0
 10
110.1082372320826
 20
-4.891125449702137
 30
0.0
 10
108.126192189912
 20
-3.05912847363997
 30
0.0
 10
106.1434897194848
 20
-1.108703758157768
 30
0.0
 10
104.1601652405471
 20
0.8831493593637177
 30
0.0
 10
102.1773607691922
 20
2.838921763896309
 30
0.0
 10
100.1952335649596
 20
4.681590588803423
 30
0.0
 10
98.21360949431681
 20
6.339087282346203
 30
0.0
 10
96.23221573823596
 20
7.746497017999937
 30
0.0
 10
94.25078362081709
 20
8.849259933692137
 30
0.0
 10
92.2690389431088
 20
9.602477934583163
 30
0.0
 10
90.28672626797155
 20
9.983111612432795
 30
0.0
 10
88.30371592661052
 20
9.951859531650612
 30
0.0
 10
86.65697234821104
 20
9.660195918278207
 30
0.0
 10
85.6715986786578
 20
9.246827954483797
 30
0.0
 10
85.34723497466925
 20
9.11075615960078
 30
0.0
  0
SPLINE
  5
BE
330
1F
100
AcDbEntity
  8
0
  6
Continuous
 62
     1
370
    15
100
AcDbSpline
210
0.0
220
0.0
230
1.0
 70
     8
 71
     3
 72
    26
 73
    22
 74
     0
 42
0.000000001
 43
0.00000001
 40
0.0
 40
0.0
 40
0.0
 40
0.0
 40
0.0386591518592239
 40
0.0945976128548966
 40
0.1505450672387859
 40
0.2064761887797454
 40
0.2623943079964483
 40
0.3183044791883954
 40
0.3742117806482844
 40
0.4301212993426234
 40
0.4860381155357936
 40
0.5419672874578088
 40
0.597913343884381
 40
0.6538541204362676
 40
0.7097790312171999
 40
0.7656931100592833
 40
0.8216014234534706
 40
0.8775090553070308
 40
0.9334210915875605
 40
0.9939520583449643
 40
1.0
 40
1.0
 40
1.0
 40
1.0
 10
57.96070249515686
 20
-10.00223420708947
 30
0.0
 10
57.50395987135303
 20
-10.00074558068391
 30
0.0
 10
56.38632640494223
 20
-9.997102963150228
 30
0.0
 10
54.6073887896385
 20
-9.540406392672288
 30
0.0
 10
52.62410519430387
 20
-8.713726234567403
 30
0.0
 10
50.64150882916135
 20
-7.532846666571045
 30
0.0
 10
48.65954939838171
 20
-6.062722578669963
 30
0.0
 10
46.67802188990694
 20
-4.355995853823568
 30
0.0
 10
44.69664381946705
 20
-2.480771818058228
 30
0.0
 10
42.71515113220126
 20
-0.5100290805059482
 30
0.0
 10
40.73326046876608
 20
1.479058474313737
 30
0.0
 10
38.75075551554136
 20
3.408746569556788
 30
0.0
 10
36.76752289464049
 20
5.203037213076925
 30
0.0
 10
34.78450790679634
 20
6.791972637730798
 30
0.0
 10
32.80220671958204
 20
8.112926926802254
 30
0.0
 10
30.82046409197753
 20
9.115048484739885
 30
0.0
 10
28.83904236011366
 20
9.75578667484171
 30
0.0
 10
26.85761675873679
 20
10.02296975136026
 30
0.0
 10
24.82165196054813
 20
9.853608706134331
 30
0.0
 10
23.37413397413284
 20
9.545877237018937
 30
0.0
 10
22.58740888572964
 20
9.170954058813388
 30
0.0
 10
22.51594379946328
 20
9.136896523762482
 30
0.0
  0
SPLINE
  5
BF
330
1F
100
AcDbEntity
  8
0
  6
Continuous
 62
     1
370
    15
100
AcDbSpline
210
0.0
220
0.0
230
1.0
 70
     8
 71
     3
 72
    18
 73
    14
 74
     0
 42
0.000000001
 43
0.00000001
 40
0.0
 40
0.0
 40
0.0
 40
0.0
 40
0.1022475476336669
 40
0.204490612363816
 40
0.3067296379495297
 40
0.4089650698799707
 40
0.5111973551858142
 40
0.6134269422492468
 40
0.7078557063517967
 40
0.8022770319022386
 40
0.8966995084935557
 40
0.9911317222390802
 40
1.0
 40
1.0
 40
1.0
 40
1.0
 10
12.0
 20
1.205875546563278
 30
0.0
 10
12.71544404383724
 20
0.4906011431509424
 30
0.0
 10
14.14630076384866
 20
-0.9399163034483399
 30
0.0
 10
16.29248206353311
 20
-3.05998169424649
 30
0.0
 10
18.43853594463691
 20
-5.037519354114115
 30
0.0
 10
20.58449061160474
 20
-6.787123667706228
 30
0.0
 10
22.73029078040992
 20
-8.22688701721433
 30
0.0
 10
24.82164663684193
 20
-9.265069835632495
 30
0.0
 10
26.85761914225145
 20
-9.886175887881592
 30
0.0
 10
28.83903794311859
 20
-10.11521984200802
 30
0.0
 10
30.82047937748236
 20
-9.91312141349666
 30
0.0
 10
32.20351716467123
 20
-9.598280257745744
 30
0.0
 10
32.92618893047132
 20
-9.257983518995298
 30
0.0
 10
32.98822981581103
 20
-9.22876927270891
 30
0.0
  0
SPLINE
  5
C0
330
1F
100
AcDbEntity
  8
0
  6
Continuous
 62
     1
370
    15
100
AcDbSpline
210
0.0
220
0.0
230
1.0
 70
     8
 71
     3
 72
    26
 73
    22
 74
     0
 42
0.000000001
 43
0.00000001
 40
0.0
 40
0.0
 40
0.0
 40
0.0
 40
0.0049747743098984
 40
0.0608878120676494
 40
0.1168008210217077
 40
0.1727188867542554
 40
0.2286470795692652
 40
0.2845904392267596
 40
0.3405430866494898
 40
0.3964794826223164
 40
0.4524028180515669
 40
0.508318147338581
 40
0.5642305490528415
 40
0.6201451106123991
 40
0.6760669129066106
 40
0.7320010149614506
 40
0.787952017550475
 40
0.8438981016870657
 40
0.8998282618532751
 40
0.9557475318837171
 40
1.0
 40
1.0
 40
1.0
 40
1.0
 10
60.37796304811143
 20
9.940011690619707
 30
0.0
 10
60.43672883158568
 20
9.945212119195107
 30
0.0
 10
61.15598155689415
 20
10.00886178409351
 30
0.0
 10
62.53561776568704
 20
9.762113970432075
 30
0.0
 10
64.517037248131
 20
9.177898359268818
 30
0.0
 10
66.4987138877986
 20
8.191275160369425
 30
0.0
 10
68.48092742714181
 20
6.893114465500823
 30
0.0
 10
70.46383581909805
 20
5.320184728273487
 30
0.0
 10
72.4471297426845
 20
3.538113267351099
 30
0.0
 10
74.42973236774543
 20
1.615330474483335
 30
0.0
 10
76.41169851102691
 20
-0.3721476489541264
 30
0.0
 10
78.39322919225924
 20
-2.346661716706857
 30
0.0
 10
80.37460749915275
 20
-4.230961877629443
 30
0.0
 10
82.35609735028652
 20
-5.951386998605913
 30
0.0
 10
84.33798204237684
 20
-7.440549405178796
 30
0.0
 10
86.32047917431603
 20
-8.64041518608101
 30
0.0
 10
88.30370546350713
 20
-9.502718347725533
 30
0.0
 10
90.28672926085466
 20
-9.997584416321667
 30
0.0
 10
92.26903743160562
 20
-10.09149663377822
 30
0.0
 10
94.11303787273613
 20
-9.851286378839662
 30
0.0
 10
95.29627983172435
 20
-9.409500306025906
 30
0.0
 10
95.8189958994767
 20
-9.214334239597338
 30
0.0
  0
SPLINE
  5
C1
330
1F
100
AcDbEntity
  8
0
  6
Continuous
 62
     1
370
    15
100
AcDbSpline
210
0.0
220
0.0
230
1.0
 70
     8
 71
     3
 72
    26
 73
    22
 74
     0
 42
0.000000001
 43
0.00000001
 40
0.0
 40
0.0
 40
0.0
 40
0.0
 40
0.0460908228596626
 40
0.1019988564957005
 40
0.1579076292783895
 40
0.2138222250420606
 40
0.2697477100311951
 40
0.3256891176596353
 40
0.3816354433293767
 40
0.4375648698776428
 40
0.4934819976934116
 40
0.5493918853797751
 40
0.6052996134013834
 40
0.66121026875103
 40
0.7171289295736831
 40
0.7730606498481883
 40
0.8290086202141455
 40
0.8849473035912265
 40
0.9408708213936126
 40
0.9967842129600548
 40
1.0
 40
1.0
 40
1.0
 40
1.0
 10
99.84706665410866
 20
-10.01572041377918
 30
0.0
 10
99.30256298705203
 20
-10.0014318023855
 30
0.0
 10
98.09757796071383
 20
-9.969811147065352
 30
0.0
 10
96.23221827895694
 20
-9.452180354666968
 30
0.0
 10
94.25078312564625
 20
-8.575761978935503
 30
0.0
 10
92.26903838267688
 20
-7.35404370149518
 30
0.0
 10
90.2867290059153
 20
-5.848913811133057
 30
0.0
 10
88.3037055318313
 20
-4.11558897235764
 30
0.0
 10
86.32047915602234
 20
-2.22311712901506
 30
0.0
 10
84.33798204724565
 20
-0.2450974143643238
 30
0.0
 10
82.35609734909849
 20
1.740529288821908
 30
0.0
 10
80.37460749903718
 20
3.656165624146986
 30
0.0
 10
78.39322919390949
 20
5.426871178576713
 30
0.0
 10
76.4116985045408
 20
6.983469183482033
 30
0.0
 10
74.42973239204565
 20
8.264787201691608
 30
0.0
 10
72.44712965193696
 20
9.221571241735576
 30
0.0
 10
70.46383615786175
 20
9.812557981820364
 30
0.0
 10
68.48092616324806
 20
10.02804650143403
 30
0.0
 10
66.49871860295269
 20
9.809847279671988
 30
0.0
 10
65.1395157951172
 20
9.495821133628393
 30
0.0
 10
64.44101320832564
 20
9.16416114852233
 30
0.0
 10
64.40302459392387
 20
9.146123558504847
 30
0.0
  0
SPLINE
  5
C2
330
1F
100
AcDbEntity
  8
0
  6
Continuous
 62
     1
370
    15
100
AcDbSpline
210
0.0
220
0.0
230
1.0
 70
     8
 71
     3
 72
    20
 73
    16
 74
     0
 42
0.000000001
 43
0.00000001
 40
0.0
 40
0.0
 40
0.0
 40
0.0
 40
0.0098844233106347
 40
0.0891545336195499
 40
0.1684021615552984
 40
0.247634440240637
 40
0.3268585490770948
 40
0.4060816921457528
 40
0.485311076447251
 40
0.571085652842595
 40
0.6568624931676524
 40
0.7426419736324162
 40
0.8284244693129085
 40
0.9142103539917593
 40
1.0
 40
1.0
 40
1.0
 40
1.0
 10
37.01478009642141
 20
-10.02270736213351
 30
0.0
 10
36.93234944678762
 20
-10.02962894242041
 30
0.0
 10
36.18884971057623
 20
-10.09205952061353
 30
0.0
 10
34.78450449390072
 20
-9.836285687803931
 30
0.0
 10
32.80220761061357
 20
-9.236471458268129
 30
0.0
 10
30.82046393963933
 20
-8.237947876612564
 30
0.0
 10
28.8390420786438
 20
-6.929060330111286
 30
0.0
 10
26.85761803697932
 20
-5.34779319142653
 30
0.0
 10
24.8216469603636
 20
-3.510553689749916
 30
0.0
 10
22.73029069083122
 20
-1.472150382936712
 30
0.0
 10
20.58449063560772
 20
0.6843427692117665
 30
0.0
 10
18.43853593820729
 20
2.809383175903873
 30
0.0
 10
16.29248206524777
 20
4.796476238991094
 30
0.0
 10
14.14630076342002
 20
6.587969592225281
 30
0.0
 10
12.7154440436944
 20
7.513729541290336
 30
0.0
 10
12.00000000000009
 20
7.976619663214191
 30
0.0
  0
SPLINE
  5
C3
330
1F
100
AcDbEntity
  8
0
  6
Continuous
 62
   131
370
    15
100
AcDbSpline
210
0.0
220
0.0
230
1.0
 70
    24
 71
     3
 72
    19
 73
    15
 74
     0
 42
0.000000001
 43
0.00000001
 40
0.0
 40
0.0
 40
0.0
 40
0.0
 40
0.1370394689375437
 40
0.2164642124052286
 40
0.2958889558729134
 40
0.3776170222817755
 40
0.4570417657494641
 40
0.5387698321583305
 40
0.6181945756260194
 40
0.6999226420348856
 40
0.7793473855025731
 40
0.8610754519114382
 40
0.9405001953791247
 40
1.0
 40
1.0
 40
1.0
 40
1.0
 10
11.99999999999999
 20
7.97661966321475
 30
0.0
 10
12.00000000000001
 20
7.697865623790703
 30
0.0
 10
12.00000000000003
 20
7.257552522269535
 30
0.0
 10
11.99999999999998
 20
6.511946970092747
 30
0.0
 10
12.0
 20
5.870651457136161
 30
0.0
 10
12.00000000000007
 20
5.202393779599728
 30
0.0
 10
12.00000000000004
 20
4.522633891804709
 30
0.0
 10
12.00000000000014
 20
3.862219062779951
 30
0.0
 10
11.99999999999995
 20
3.228039534784476
 30
0.0
 10
12.00000000000013
 20
2.649753999445073
 30
0.0
 10
12.00000000000006
 20
2.13205990378366
 30
0.0
 10
12.00000000000004
 20
1.703675369397604
 30
0.0
 10
11.99999999999995
 20
1.38350386853148
 30
0.0
 10
12.00000000000003
 20
1.259139424247234
 30
0.0
 10
12.00000000000007
 20
1.205875546563217
 30
0.0
  0
SPLINE
  5
C4
330
1F
100
AcDbEntity
  8
0
  6
Continuous
 62
   131
370
    15
100
AcDbSpline
210
0.0
220
0.0
230
1.0
 70
    24
 71
     3
 72
    10
 73
     6
 74
     0
 42
0.000000001
 43
0.00000001
 40
0.0
 40
0.0
 40
0.0
 40
0.0
 40
0.0191359836225194
 40
0.6543907205137734
 40
1.0
 40
1.0
 40
1.0
 40
1.0
 10
12.00000000000009
 20
1.147883095157359
 30
0.0
 10
12.00000000000007
 20
1.145538962155625
 30
0.0
 10
12.00000000000028
 20
1.065376953541696
 30
0.0
 10
11.99999999999995
 20
1.009873790044342
 30
0.0
 10
11.99999999999998
 20
1.00947831183713
 30
0.0
 10
12.0
 20
1.009338964347607
 30
0.0
  0
LINE
  5
C5
330
1F
100
AcDbEntity
  8
0
  6
Continuous
 62
     1
370
    15
100
AcDbLine
 10
122.0
 20
-9.971133920382334
 30
0.0
 11
122.0
 21
-6.028519400133827
 31
0.0
  0
SPLINE
  5
C6
330
1F
100
AcDbEntity
  8
0
  6
Continuous
 62
     1
370
    15
100
AcDbSpline
210
0.0
220
0.0
230
1.0
 70
     8
 71
     3
 72
    25
 73
    21
 74
     0
 42
0.000000001
 43
0.00000001
 40
0.0
 40
0.0
 40
0.0
 40
0.0
 40
0.0524802696591175
 40
0.108397263013002
 40
0.1643250888703487
 40
0.2202687813256498
 40
0.2762177539308499
 40
0.3321498411513903
 40
0.3880695719990452
 40
0.4439820049674883
 40
0.499892220585908
 40
0.5558053060859708
 40
0.6117263400250793
 40
0.6676603769661871
 40
0.7236107476015718
 40
0.7795521243799617
 40
0.835478278082887
 40
0.8913942478411598
 40
0.9473051035002255
 40
1.0
 40
1.0
 40
1.0
 40
1.0
 10
28.96061615835252
 20
9.944610043461509
 30
0.0
 10
29.58054372384138
 20
9.915822576622391
 30
0.0
 10
30.86099544030142
 20
9.856362466476094
 30
0.0
 10
32.80220655039212
 20
9.282280695011917
 30
0.0
 10
34.78450795215759
 20
8.363478157020285
 30
0.0
 10
36.7675228824497
 20
7.106614575893024
 30
0.0
 10
38.75075551893196
 20
5.572112585974175
 30
0.0
 10
40.73326046739182
 20
3.816886831688105
 30
0.0
 10
42.71515113430885
 20
1.910843918454216
 30
0.0
 10
44.69664381241186
 20
-0.0716712078678729
 30
0.0
 10
46.67802191602008
 20
-2.053054171684607
 30
0.0
 10
48.65954930097244
 20
-3.955832611118433
 30
0.0
 10
50.6415091927746
 20
-5.705576131461791
 30
0.0
 10
52.62410383677292
 20
-7.233745202701411
 30
0.0
 10
54.60739385727353
 20
-8.480332765595058
 30
0.0
 10
56.59031108354691
 20
-9.396038749403056
 30
0.0
 10
58.57253059922621
 20
-9.947549203178275
 30
0.0
 10
60.55421612780672
 20
-10.10322030393637
 30
0.0
 10
62.4976333369973
 20
-9.898838308327107
 30
0.0
 10
63.78055719586764
 20
-9.45142351002557
 30
0.0
 10
64.40302459392396
 20
-9.234340381182767
 30
0.0
  0
SPLINE
  5
C7
330
1F
100
AcDbEntity
  8
0
  6
Continuous
 62
     1
370
    15
100
AcDbSpline
210
0.0
220
0.0
230
1.0
 70
     8
 71
     3
 72
    23
 73
    19
 74
     0
 42
0.000000001
 43
0.00000001
 40
0.0
 40
0.0
 40
0.0
 40
0.0
 40
0.0157168501782873
 40
0.0813277804164518
 40
0.1469318778912988
 40
0.2125351080416342
 40
0.2781434389282254
 40
0.3437628231984917
 40
0.4093991801516584
 40
0.4750501474646069
 40
0.5406837808321828
 40
0.606301265317016
 40
0.6719085259448627
 40
0.737511518595966
 40
0.803116212049138
 40
0.8687285699417787
 40
0.9343545327634191
 40
1.0
 40
1.0
 40
1.0
 40
1.0
 10
91.79438278798784
 20
9.920162606506395
 30
0.0
 10
91.95263570065941
 20
9.930987041637415
 30
0.0
 10
92.77152485376709
 20
9.986998728042877
 30
0.0
 10
94.25077150230192
 20
9.699252005236314
 30
0.0
 10
96.23221898518591
 20
9.051292668118158
 30
0.0
 10
98.21360862421892
 20
8.015348156935524
 30
0.0
 10
100.1952337982078
 20
6.67233906834112
 30
0.0
 10
102.1773607064593
 20
5.063910300277603
 30
0.0
 10
104.160165258155
 20
3.255870614174052
 30
0.0
 10
106.1434897118099
 20
1.318637322630786
 30
0.0
 10
108.1261922030023
 20
-0.6721668972808394
 30
0.0
 10
110.1082371874089
 20
-2.638124253223436
 30
0.0
 10
112.0898116701224
 20
-4.502501751262134
 30
0.0
 10
114.0711951890893
 20
-6.191721388379242
 30
0.0
 10
116.0526533028153
 20
-7.642268050587809
 30
0.0
 10
118.0344661841879
 20
-8.787905239407905
 30
0.0
 10
120.016867930895
 20
-9.619128427433015
 30
0.0
 10
121.3388905012385
 20
-9.853787134139267
 30
0.0
 10
122.0
 20
-9.971133920382334
 30
0.0
  0
SPLINE
  5
C8
330
1F
100
AcDbEntity
  8
0
  6
Continuous
 62
     1
370
    15
100
AcDbSpline
210
0.0
220
0.0
230
1.0
 70
     8
 71
     3
 72
    21
 73
    17
 74
     0
 42
0.000000001
 43
0.00000001
 40
0.0
 40
0.0
 40
0.0
 40
0.0
 40
0.0757374764695215
 40
0.1514524500118806
 40
0.2271517270707927
 40
0.3028421613972457
 40
0.3785306334487367
 40
0.4542240296145932
 40
0.5299292214026082
 40
0.605653044722673
 40
0.6813968668230795
 40
0.7571238324393028
 40
0.8328312160763608
 40
0.9085258470372418
 40
0.9842145930999229
 40
1.0
 40
1.0
 40
1.0
 40
1.0
 10
122.0000000000001
 20
-6.051950331929189
 30
0.0
 10
121.3388905012388
 20
-5.500897566806644
 30
0.0
 10
120.0168679308958
 20
-4.398955763963284
 30
0.0
 10
118.0344661841847
 20
-2.512295486978385
 30
0.0
 10
116.0526533028277
 20
-0.5460868058460152
 30
0.0
 10
114.071195189043
 20
1.444189286655123
 30
0.0
 10
112.0898116702951
 20
3.374958093440469
 30
0.0
 10
110.1082371867642
 20
5.172233602093308
 30
0.0
 10
108.1261922054088
 20
6.765334948950522
 30
0.0
 10
106.1434897028249
 20
8.091761179269753
 30
0.0
 10
104.1601652916934
 20
9.099982440703913
 30
0.0
 10
102.177360581338
 20
9.747979924844907
 30
0.0
 10
100.1952342650027
 20
10.02056554802352
 30
0.0
 10
98.21360688248461
 20
9.868577700886554
 30
0.0
 10
96.75493527376324
 20
9.554616674842372
 30
0.0
 10
95.95673824967668
 20
9.189179722520391
 30
0.0
 10
95.81899589947676
 20
9.126117416919431
 30
0.0
  0
SPLINE
  5
C9
330
1F
100
AcDbEntity
  8
0
  6
Continuous
 62
     1
370
    15
100
AcDbSpline
210
0.0
220
0.0
230
1.0
 70
     8
 71
     3
 72
    25
 73
    21
 74
     0
 42
0.000000001
 43
0.00000001
 40
0.0
 40
0.0
 40
0.0
 40
0.0
 40
0.0545102136763086
 40
0.1104264808356325
 40
0.166337691379114
 40
0.2222489307253631
 40
0.2781652842059142
 40
0.334091821701007
 40
0.3900335823760305
 40
0.4459843369697694
 40
0.5019187577571423
 40
0.5578401754532818
 40
0.61375364465583
 40
0.6696642439570415
 40
0.7255770606234924
 40
0.7814971752192368
 40
0.8374296462726618
 40
0.8933790028266215
 40
0.9493230791944481
 40
1.0
 40
1.0
 40
1.0
 40
1.0
 10
68.43060296510302
 20
-10.03927458217838
 30
0.0
 10
67.78659649422747
 20
-10.00523408347369
 30
0.0
 10
66.48197184834984
 20
-9.936275034804932
 30
0.0
 10
64.51703868658777
 20
-9.343678428481486
 30
0.0
 10
62.53562483025789
 20
-8.411860345011231
 30
0.0
 10
60.55421526210954
 20
-7.144408573170779
 30
0.0
 10
58.57253083124156
 20
-5.601032060469666
 30
0.0
 10
56.59031102136053
 20
-3.839314744776351
 30
0.0
 10
54.6073938739214
 20
-1.928994470136504
 30
0.0
 10
52.62410383238751
 20
0.0550111519441194
 30
0.0
 10
50.64150919367182
 20
2.035331418685097
 30
0.0
 10
48.65954930176671
 20
3.933968511330371
 30
0.0
 10
46.67802191194674
 20
5.676726081429776
 30
0.0
 10
44.69664382791091
 20
7.195405104663316
 30
0.0
 10
42.71515107637963
 20
8.430830462681469
 30
0.0
 10
40.73326068365912
 20
9.333855152210704
 30
0.0
 10
38.7507547115074
 20
9.872015159874547
 30
0.0
 10
36.76752589666975
 20
10.01306908619553
 30
0.0
 10
34.84654745738757
 20
9.79958876693798
 30
0.0
 10
33.58692697063513
 20
9.352875230071552
 30
0.0
 10
32.98822981581109
 20
9.140552450030999
 30
0.0
  0
SPLINE
  5
CA
330
1F
100
AcDbEntity
  8
0
  6
Continuous
 62
     1
370
    15
100
AcDbSpline
210
0.0
220
0.0
230
1.0
 70
     8
 71
     3
 72
    23
 73
    19
 74
     0
 42
0.000000001
 43
0.00000001
 40
0.0
 40
0.0
 40
0.0
 40
0.0
 40
0.0682103998073975
 40
0.1364178090233497
 40
0.2046225236841445
 40
0.272824840980224
 40
0.3410250591303894
 40
0.4092234772550492
 40
0.472217885451814
 40
0.5352073313132951
 40
0.5981975450460857
 40
0.6611942545354674
 40
0.7242031680442845
 40
0.787229957039639
 40
0.8502626947108666
 40
0.9132764091190712
 40
0.9762762026995214
 40
1.0
 40
1.0
 40
1.0
 40
1.0
 10
12.0
 20
9.173214745979337
 30
0.0
 10
12.71544404369664
 20
8.854790299078731
 30
0.0
 10
14.1463007634269
 20
8.217955366160759
 30
0.0
 10
16.29248206521999
 20
6.770367759015771
 30
0.0
 10
18.43853593831158
 20
5.040562864380051
 30
0.0
 10
20.58449063521809
 20
3.069404577876415
 30
0.0
 10
22.73029069228537
 20
0.9576572143194015
 30
0.0
 10
24.82164695511204
 20
-1.145787710183542
 30
0.0
 10
26.85761805492083
 20
-3.145459349778558
 30
0.0
 10
28.83904201151332
 20
-4.97028516556837
 30
0.0
 10
30.82046419023629
 20
-6.602240915058912
 30
0.0
 10
32.80220667517666
 20
-7.977381467843855
 30
0.0
 10
34.78450798616172
 20
-9.042416068461979
 30
0.0
 10
36.76752262150561
 20
-9.753367193675075
 30
0.0
 10
38.75075652865574
 20
-10.09022720162499
 30
0.0
 10
40.73325669107165
 20
-10.01048248902657
 30
0.0
 10
42.30340308002163
 20
-9.70650106031953
 30
0.0
 10
43.21271643293394
 20
-9.310152080177511
 30
0.0
 10
43.46146496200175
 20
-9.201728261818202
 30
0.0
  0
SPLINE
  5
CB
330
1F
100
AcDbEntity
  8
0
  6
Continuous
 62
     1
370
    15
100
AcDbSpline
210
0.0
220
0.0
230
1.0
 70
     8
 71
     3
 72
    26
 73
    22
 74
     0
 42
0.000000001
 43
0.00000001
 40
0.0
 40
0.0
 40
0.0
 40
0.0
 40
0.0451032577755401
 40
0.1010339954247355
 40
0.1569516738515123
 40
0.2128613469459251
 40
0.268768092763727
 40
0.3246769982083438
 40
0.3805931436551678
 40
0.4365215876184214
 40
0.492466930406262
 40
0.548407355239202
 40
0.604331857712572
 40
0.6602454711517812
 40
0.7161532617123104
 40
0.7720603131391724
 40
0.8279717114118151
 40
0.8838925293744357
 40
0.9398278114519115
 40
0.995775544473248
 40
1.0
 40
1.0
 40
1.0
 40
1.0
 10
70.84821367990878
 20
9.925235711613828
 30
0.0
 10
71.38123965629546
 20
9.912946654013744
 30
0.0
 10
72.57524972819598
 20
9.885418429877028
 30
0.0
 10
74.42973386698412
 20
9.376219066774523
 30
0.0
 10
76.41169810942881
 20
8.506329297000589
 30
0.0
 10
78.39322929978462
 20
7.29009163045199
 30
0.0
 10
80.37460747060055
 20
5.789843689062854
 30
0.0
 10
82.35609735696949
 20
4.060311368350077
 30
0.0
 10
84.33798204420188
 20
2.17018005282286
 30
0.0
 10
86.32047916032585
 20
0.1930247975927959
 30
0.0
 10
88.30370551765822
 20
-1.7932521627018
 30
0.0
 10
90.28672905829092
 20
-3.711136602957277
 30
0.0
 10
92.26903818742167
 20
-5.485342098763351
 30
0.0
 10
94.25078385412942
 20
-7.046338035651714
 30
0.0
 10
96.23221556054096
 20
-8.332894969917426
 30
0.0
 10
98.21360997181213
 20
-9.295645747015893
 30
0.0
 10
100.195231832405
 20
-9.89346457413587
 30
0.0
 10
102.1773672237386
 20
-10.11581413674477
 30
0.0
 10
104.1601411463643
 20
-9.905671030992902
 30
0.0
 10
105.5324302047557
 20
-9.591254356709682
 30
0.0
 10
106.243425664765
 20
-9.255118379429035
 30
0.0
 10
106.2933418930592
 20
-9.231519578700212
 30
0.0
  0
SPLINE
  5
CC
330
1F
100
AcDbEntity
  8
0
  6
Continuous
 62
     1
370
    15
100
AcDbSpline
210
0.0
220
0.0
230
1.0
 70
     8
 71
     3
 72
    26
 73
    22
 74
     0
 42
0.000000001
 43
0.00000001
 40
0.0
 40
0.0
 40
0.0
 40
0.0
 40
0.0059581885341033
 40
0.0618829278010412
 40
0.117821430504111
 40
0.1737747066533588
 40
0.229715530625145
 40
0.2856418890490172
 40
0.3415588268496361
 40
0.3974714173738045
 40
0.4533847471048695
 40
0.5093039002915294
 40
0.5652339435911993
 40
0.6211799108279791
 40
0.6771307965069142
 40
0.7330647816869799
 40
0.7889864671321171
 40
0.8449009118577288
 40
0.9008131967425579
 40
0.9567284091940225
 40
1.0
 40
1.0
 40
1.0
 40
1.0
 10
110.319457171186
 20
-10.02545396227519
 30
0.0
 10
110.2490760368846
 20
-10.0315279435975
 30
0.0
 10
109.518083617359
 20
-10.09461351826191
 30
0.0
 10
108.1261841252205
 20
-9.843447245958545
 30
0.0
 10
106.1434918813587
 20
-9.251399554109392
 30
0.0
 10
104.1601646610917
 20
-8.258771620880275
 30
0.0
 10
102.1773609253558
 20
-6.955020006553801
 30
0.0
 10
100.1952335195566
 20
-5.377840532928647
 30
0.0
 10
98.21360951980637
 20
-3.592713333641159
 30
0.0
 10
96.2322156816773
 20
-1.668510290725707
 30
0.0
 10
94.25078382157594
 20
0.3192508225179636
 30
0.0
 10
92.26903819648783
 20
2.292901024739622
 30
0.0
 10
90.28672905458674
 20
4.17522679098611
 30
0.0
 10
88.30370552340719
 20
5.892342347989267
 30
0.0
 10
86.320479141036
 20
7.376810978830338
 30
0.0
 10
84.33798211558184
 20
8.570949043645916
 30
0.0
 10
82.35609709080839
 20
9.42672901600819
 30
0.0
 10
80.37460846373395
 20
9.914707346451369
 30
0.0
 10
78.39322559343069
 20
10.00127867301949
 30
0.0
 10
76.56115615283775
 20
9.757292904009212
 30
0.0
 10
75.38941470703813
 20
9.3165753758532
 30
0.0
 10
74.8782265780948
 20
9.12430636512714
 30
0.0
  0
SPLINE
  5
CD
330
1F
100
AcDbEntity
  8
0
  6
Continuous
 62
     1
370
    15
100
AcDbSpline
210
0.0
220
0.0
230
1.0
 70
     8
 71
     3
 72
    25
 73
    21
 74
     0
 42
0.000000001
 43
0.00000001
 40
0.0
 40
0.0
 40
0.0
 40
0.0
 40
0.0227888054735644
 40
0.0786320764694096
 40
0.1344775621603128
 40
0.1903303369922437
 40
0.2461954534020405
 40
0.3020774349786222
 40
0.3579541427275427
 40
0.4138150028765288
 40
0.469665043492453
 40
0.525509325263631
 40
0.5813529262747484
 40
0.6372009266684585
 40
0.6976625674918735
 40
0.7581258041366953
 40
0.8185909017895843
 40
0.8790581248378766
 40
0.9395277367572088
 40
0.9999999999999999
 40
0.9999999999999999
 40
0.9999999999999999
 40
0.9999999999999999
 10
47.48656876083827
 20
-9.996710793359702
 30
0.0
 10
47.21704329995676
 20
-10.00835003648361
 30
0.0
 10
46.28705393851028
 20
-10.04851088898754
 30
0.0
 10
44.69664744931473
 20
-9.705292331437732
 30
0.0
 10
42.71515015946868
 20
-8.988888916119981
 30
0.0
 10
40.73326072936565
 20
-7.898216334320525
 30
0.0
 10
38.75075544612914
 20
-6.506209499263556
 30
0.0
 10
36.7675229115771
 20
-4.859500938393558
 30
0.0
 10
34.78450790846446
 20
-3.024558846746581
 30
0.0
 10
32.80220669598862
 20
-1.072799027530916
 30
0.0
 10
30.8204641846609
 20
0.9190072254182743
 30
0.0
 10
28.83904201300686
 20
2.873005929785726
 30
0.0
 10
26.85761805452167
 20
4.712801753773883
 30
0.0
 10
24.82164695522881
 20
6.411760071860426
 30
0.0
 10
22.73029069225303
 20
7.880815174260324
 30
0.0
 10
20.58449063522676
 20
9.024031700744032
 30
0.0
 10
18.43853593830933
 20
9.753492724894794
 30
0.0
 10
16.29248206522058
 20
10.02541237745778
 30
0.0
 10
14.14630076342679
 20
9.865643823723861
 30
0.0
 10
12.71544404369669
 20
9.380809349761792
 30
0.0
 10
12.00000000000009
 20
9.138386798438585
 30
0.0
  0
LINE
  5
CE
330
1F
100
AcDbEntity
  8
0
  6
Continuous
 62
     1
370
    15
100
AcDbLine
 10
122.0
 20
-3.963291999791949
 30
0.0
 11
122.0
 21
3.875075177114224
 31
0.0
  0
SPLINE
  5
CF
330
1F
100
AcDbEntity
  8
0
  6
Continuous
 62
     1
370
    15
100
AcDbSpline
210
0.0
220
0.0
230
1.0
 70
     8
 71
     3
 72
    26
 73
    22
 74
     0
 42
0.000000001
 43
0.00000001
 40
0.0
 40
0.0
 40
0.0
 40
0.0
 40
0.0366760412821014
 40
0.0925922291979474
 40
0.1485011196969567
 40
0.2044077929864282
 40
0.2603173359757144
 40
0.3162348269004535
 40
0.3721653200033548
 40
0.4281121457656717
 40
0.4840499782408216
 40
0.5399725886050022
 40
0.5958850156697592
 40
0.6517923289593253
 40
0.7076996134481476
 40
0.7636119541977381
 40
0.8195344209929635
 40
0.8754720530778674
 40
0.9314189719771104
 40
0.9873496410902999
 40
1.0
 40
1.0
 40
1.0
 40
1.0
 10
39.43332300619436
 20
9.911588269706034
 30
0.0
 10
39.86668284839062
 20
9.912794166539436
 30
0.0
 10
40.96074186978789
 20
9.915838570245073
 30
0.0
 10
42.71514277184391
 20
9.474799777428041
 30
0.0
 10
44.69664605287256
 20
8.661817434551299
 30
0.0
 10
46.67802131577314
 20
7.492475895847468
 30
0.0
 10
48.65954946144858
 20
6.032173394961925
 30
0.0
 10
50.6415091512069
 20
4.332724291900907
 30
0.0
 10
52.6241038425206
 20
2.461930646207751
 30
0.0
 10
54.60739387587409
 20
0.4931053533114245
 30
0.0
 10
56.59031100342315
 20
-1.496918418525106
 30
0.0
 10
58.57253090101273
 20
-3.429932692333902
 30
0.0
 10
60.55421500101567
 20
-5.230168578391388
 30
0.0
 10
62.5356258047853
 20
-6.827311505225389
 30
0.0
 10
64.51703504939726
 20
-8.15872057374745
 30
0.0
 10
66.49871464304675
 20
-9.173028675378006
 30
0.0
 10
68.48092660512035
 20
-9.827805140014519
 30
0.0
 10
70.46383835258851
 20
-10.10733681731263
 30
0.0
 10
72.44712043055
 20
-9.96312682550142
 30
0.0
 10
73.91852675368347
 20
-9.649744301649653
 30
0.0
 10
74.72877022036391
 20
-9.280612681557294
 30
0.0
 10
74.87822657809485
 20
-9.212523187805045
 30
0.0
  0
SPLINE
  5
D0
330
1F
100
AcDbEntity
  8
0
  6
Continuous
 62
     1
370
    15
100
AcDbSpline
210
0.0
220
0.0
230
1.0
 70
     8
 71
     3
 72
    17
 73
    13
 74
     0
 42
0.000000001
 43
0.00000001
 40
0.0
 40
0.0
 40
0.0
 40
0.0
 40
0.0960730816277587
 40
0.196553261432773
 40
0.2970069112715271
 40
0.3974358449071839
 40
0.4978491307156975
 40
0.5982558842964598
 40
0.6986652409903927
 40
0.7990863282693794
 40
0.8995282381770042
 40
0.9999999999999999
 40
0.9999999999999999
 40
0.9999999999999999
 40
0.9999999999999999
 10
102.2637777059455
 20
9.94771300480175
 30
0.0
 10
102.8958557139185
 20
9.91636369956938
 30
0.0
 10
104.1890066344686
 20
9.852227022753405
 30
0.0
 10
106.143493158074
 20
9.268923862673631
 30
0.0
 10
108.1261912799296
 20
8.343438793585458
 30
0.0
 10
110.1082374346773
 20
7.081199964025054
 30
0.0
 10
112.0898116038764
 20
5.542246648997596
 30
0.0
 10
114.0711952068394
 20
3.784232650489778
 30
0.0
 10
116.0526532980601
 20
1.875672963943322
 30
0.0
 10
118.0344661854563
 20
-0.1052569182648785
 30
0.0
 10
120.0168679305776
 20
-2.095030021029363
 30
0.0
 10
121.3388905011327
 20
-3.340476323732409
 30
0.0
 10
122.0
 20
-3.963291999791948
 30
0.0
  0
SPLINE
  5
D1
330
1F
100
AcDbEntity
  8
0
  6
Continuous
 62
     1
370
    15
100
AcDbSpline
210
0.0
220
0.0
230
1.0
 70
     8
 71
     3
 72
    15
 73
    11
 74
     0
 42
0.000000001
 43
0.00000001
 40
0.0
 40
0.0
 40
0.0
 40
0.0
 40
0.126243047356459
 40
0.2524485856984664
 40
0.3786279603498479
 40
0.5047925954885782
 40
0.630953959808389
 40
0.7571235318904861
 40
0.8833127655107829
 40
0.9999999999999999
 40
0.9999999999999999
 40
0.9999999999999999
 40
0.9999999999999999
 10
122.0000000000001
 20
3.875075177114224
 30
0.0
 10
121.3388905037155
 20
4.468156421240137
 30
0.0
 10
120.0168679383254
 20
5.654142694695007
 30
0.0
 10
118.0344661544787
 20
7.168907419867541
 30
0.0
 10
116.052653414195
 20
8.412202256556274
 30
0.0
 10
114.0711947733269
 20
9.320780010231934
 30
0.0
 10
112.0898132218116
 20
9.865706160707829
 30
0.0
 10
110.1082313956083
 20
10.01410037245565
 30
0.0
 10
108.1761232961937
 20
9.805171148444579
 30
0.0
 10
106.9043506058177
 20
9.358095271922513
 30
0.0
 10
106.2933418930593
 20
9.143302756022292
 30
0.0
  0
SPLINE
  5
D2
330
1F
100
AcDbEntity
  8
0
  6
Continuous
 62
     1
370
    15
100
AcDbSpline
210
0.0
220
0.0
230
1.0
 70
     8
 71
     3
 72
    26
 73
    22
 74
     0
 42
0.000000001
 43
0.00000001
 40
0.0
 40
0.0
 40
0.0
 40
0.0
 40
0.0143800769019685
 40
0.0702948794018922
 40
0.1262176879686253
 40
0.18215355695589
 40
0.2381056772399506
 40
0.2940485098462765
 40
0.3499761757530069
 40
0.4058937146726842
 40
0.4618061968615115
 40
0.5177187078537614
 40
0.5736363330966294
 40
0.6295641425856644
 40
0.6855071756008663
 40
0.7414592027393414
 40
0.7973948956999541
 40
0.853317585273591
 40
0.909232326172856
 40
0.965144197105511
 40
1.0
 40
1.0
 40
1.0
 40
1.0
 10
78.90283808188545
 20
-10.00664126978428
 30
0.0
 10
78.73297751168639
 20
-10.01783107140446
 30
0.0
 10
77.90263923333924
 20
-10.07253076187092
 30
0.0
 10
76.41169776824071
 20
-9.779398851817762
 30
0.0
 10
74.42973256959465
 20
-9.124067992791677
 30
0.0
 10
72.44712967827812
 20
-8.082054140610223
 30
0.0
 10
70.46383587479718
 20
-6.73364815210532
 30
0.0
 10
68.48092726880051
 20
-5.120882758969045
 30
0.0
 10
66.4987144652664
 20
-3.309972608544141
 30
0.0
 10
64.5170350970374
 20
-1.371189359607624
 30
0.0
 10
62.53562579197391
 20
0.6194236055490862
 30
0.0
 10
60.55421500462368
 20
2.584070991385501
 30
0.0
 10
58.57253089939307
 20
4.4458915476429
 30
0.0
 10
56.59031100629408
 20
6.132075160693018
 30
0.0
 10
54.60739386600671
 20
7.576364832091246
 30
0.0
 10
52.62410387911958
 20
8.722371978178533
 30
0.0
 10
50.64150901473706
 20
9.524038658776448
 30
0.0
 10
48.65954997058687
 20
9.954962147741107
 30
0.0
 10
46.67801941597362
 20
9.979128246968935
 30
0.0
 10
44.94539525798165
 20
9.70673511492757
 30
0.0
 10
43.87319995975583
 20
9.278108758488516
 30
0.0
 10
43.46146496200181
 20
9.113511439140288
 30
0.0
  0
SPLINE
  5
D3
330
1F
100
AcDbEntity
  8
0
  6
Continuous
 62
     1
370
    15
100
AcDbSpline
210
0.0
220
0.0
230
1.0
 70
     8
 71
     3
 72
     9
 73
     5
 74
     0
 42
0.000000001
 43
0.00000001
 40
0.0
 40
0.0
 40
0.0
 40
0.0
 40
0.4730038649184119
 40
1.0
 40
1.0
 40
1.0
 40
1.0
 10
16.0727052531592
 20
-10.02300065099816
 30
0.0
 10
15.43058088049105
 20
-10.00029021734469
 30
0.0
 10
14.07303515984693
 20
-9.952277007859841
 30
0.0
 10
12.71544484758585
 20
-9.477047653920053
 30
0.0
 10
12.00000000000009
 20
-9.226603621116467
 30
0.0
  0
LINE
  5
D4
330
1F
100
AcDbEntity
  8
0
  6
Continuous
 62
   131
370
    15
100
AcDbLine
 10
122.0
 20
9.882917097704423
 30
0.0
 11
122.0
 21
9.955891588661046
 31
0.0
  0
LINE
  5
D5
330
1F
100
AcDbEntity
  8
0
  6
Continuous
 62
   131
370
    15
100
AcDbLine
 10
11.99999999999999
 20
-1.205875546563574
 30
0.0
 11
12.00000000000001
 21
1.205875546563291
 31
0.0
  0
LINE
  5
D6
330
1F
100
AcDbEntity
  8
0
  6
Continuous
 62
   131
370
    15
100
AcDbLine
 10
122.0
 20
-10.04410841133896
 30
0.0
 11
122.0
 21
-9.971133920382334
 31
0.0
  0
LINE
  5
D7
330
1F
100
AcDbEntity
  8
0
  6
Continuous
 62
     1
370
    15
100
AcDbLine
 10
122.0
 20
-6.051950331929188
 30
0.0
 11
122.0
 21
-3.963291999791949
 31
0.0
  0
LINE
  5
D8
330
1F
100
AcDbEntity
  8
0
  6
Continuous
 62
     1
370
    15
100
AcDbLine
 10
122.0
 20
3.875075177114224
 30
0.0
 11
122.0
 21
5.963733509251334
 31
0.0
  0
LINE
  5
D9
330
1F
100
AcDbEntity
  8
0
  6
Continuous
 62
   131
370
    15
100
AcDbLine
 10
11.99999999999999
 20
-9.226603621117219
 30
0.0
 11
12.0
 21
-8.011447610755017
 31
0.0
  0
LINE
  5
DA
330
1F
100
AcDbEntity
  8
0
  6
Continuous
 62
   131
370
    15
100
AcDbLine
 10
11.99999999999999
 20
7.97661966321475
 30
0.0
 11
12.00000000000001
 21
9.173214745979324
 31
0.0
  0
LINE
  5
DB
330
1F
100
AcDbEntity
  8
0
  6
Continuous
 62
   131
370
    15
100
AcDbLine
 10
11.00007003449089
 20
-10.04410841133895
 30
0.0
 11
11.00007003449089
 21
-8.78542785241546
 31
0.0
  0
SPLINE
  5
DC
330
1F
100
AcDbEntity
  8
0
  6
Continuous
 62
   131
370
    15
100
AcDbSpline
210
0.0
220
0.0
230
1.0
 70
     8
 71
     3
 72
     8
 73
     4
 74
     0
 42
0.000000001
 43
0.00000001
 40
0.0
 40
0.0
 40
0.0
 40
0.0
 40
1.0
 40
1.0
 40
1.0
 40
1.0
 10
12.00000000000004
 20
-9.261431568657256
 30
0.0
 10
11.66854885235937
 20
-9.390455989046322
 30
0.0
 10
11.33440937887318
 20
-9.504487757990521
 30
0.0
 10
11.00007003449088
 20
-9.602539485283272
 30
0.0
  0
LINE
  5
DD
330
1F
100
AcDbEntity
  8
0
  6
Continuous
 62
   131
370
    15
100
AcDbLine
 10
11.00007003449089
 20
9.514321604891604
 30
0.0
 11
11.00007003449089
 21
9.955891588661043
 31
0.0
  0
SPLINE
  5
DE
330
1F
100
AcDbEntity
  8
0
  6
Continuous
 62
   131
370
    15
100
AcDbSpline
210
0.0
220
0.0
230
1.0
 70
     8
 71
     3
 72
     8
 73
     4
 74
     0
 42
0.000000001
 43
0.00000001
 40
0.0
 40
0.0
 40
0.0
 40
0.0
 40
1.0
 40
1.0
 40
1.0
 40
1.0
 10
12.00000000000004
 20
9.173214745979319
 30
0.0
 10
11.66854885235937
 20
9.302239166368388
 30
0.0
 10
11.33440937887318
 20
9.416270935312589
 30
0.0
 10
11.00007003449088
 20
9.514322662605343
 30
0.0
  0
SPLINE
  5
DF
330
1F
100
AcDbEntity
  8
0
  6
Continuous
 62
   131
370
    15
100
AcDbSpline
210
0.0
220
0.0
230
1.0
 70
     8
 71
     3
 72
     8
 73
     4
 74
     0
 42
0.000000001
 43
0.00000001
 40
0.0
 40
0.0
 40
0.0
 40
0.0
 40
1.0
 40
1.0
 40
1.0
 40
1.0
 10
12.00000000000003
 20
7.976619663214212
 30
0.0
 10
11.66854885235939
 20
8.175308344314189
 30
0.0
 10
11.3344093788732
 20
8.361183955066089
 30
0.0
 10
11.00007003449088
 20
8.532737965879319
 30
0.0
  0
SPLINE
  5
E0
330
1F
100
AcDbEntity
  8
0
  6
Continuous
 62
   131
370
    15
100
AcDbSpline
210
0.0
220
0.0
230
1.0
 70
     8
 71
     3
 72
     8
 73
     4
 74
     0
 42
0.000000001
 43
0.00000001
 40
0.0
 40
0.0
 40
0.0
 40
0.0
 40
1.0
 40
1.0
 40
1.0
 40
1.0
 10
12.00000000000004
 20
1.20587554656326
 30
0.0
 10
11.66854885235937
 20
1.535952045489029
 30
0.0
 10
11.33440937887318
 20
1.864839003264716
 30
0.0
 10
11.00007003449088
 20
2.190053775800985
 30
0.0
  0
SPLINE
  5
E1
330
1F
100
AcDbEntity
  8
0
  6
Continuous
 62
   131
370
    15
100
AcDbSpline
210
0.0
220
0.0
230
1.0
 70
     8
 71
     3
 72
     8
 73
     4
 74
     0
 42
0.000000001
 43
0.00000001
 40
0.0
 40
0.0
 40
0.0
 40
0.0
 40
1.0
 40
1.0
 40
1.0
 40
1.0
 10
12.00000000000003
 20
-1.205875546563338
 30
0.0
 10
11.66854885235939
 20
-0.8754425363561298
 30
0.0
 10
11.3344093788732
 20
-0.5421840977807811
 30
0.0
 10
11.00007003449088
 20
-0.2085808723266662
 30
0.0
  0
LINE
  5
E2
330
1F
100
AcDbEntity
  8
0
  6
Continuous
 62
   131
370
    15
100
AcDbLine
 10
11.00007003449089
 20
-7.368379748618124
 30
0.0
 11
11.00007003449089
 21
-0.2085821134286114
 31
0.0
  0
SPLINE
  5
E3
330
1F
100
AcDbEntity
  8
0
  6
Continuous
 62
   131
370
    15
100
AcDbSpline
210
0.0
220
0.0
230
1.0
 70
     8
 71
     3
 72
     8
 73
     4
 74
     0
 42
0.000000001
 43
0.00000001
 40
0.0
 40
0.0
 40
0.0
 40
0.0
 40
1.0
 40
1.0
 40
1.0
 40
1.0
 10
12.00000000000004
 20
-8.011447610755019
 30
0.0
 10
11.66854885235937
 20
-7.81039553221832
 30
0.0
 10
11.33440937887318
 20
-7.595540343386833
 30
0.0
 10
11.00007003449088
 20
-7.368377298143319
 30
0.0
  0
SPLINE
  5
E4
330
1F
100
AcDbEntity
  8
0
  6
Continuous
 62
   131
370
    15
100
AcDbSpline
210
0.0
220
0.0
230
1.0
 70
     8
 71
     3
 72
     8
 73
     4
 74
     0
 42
0.000000001
 43
0.00000001
 40
0.0
 40
0.0
 40
0.0
 40
0.0
 40
1.0
 40
1.0
 40
1.0
 40
1.0
 10
12.00000000000003
 20
-9.226603621116443
 30
0.0
 10
11.66854885235939
 20
-9.09485929200921
 30
0.0
 10
11.3344093788732
 20
-8.94747646418576
 30
0.0
 10
11.00007003449088
 20
-8.785427249544872
 30
0.0
  0
LINE
  5
E5
330
1F
100
AcDbEntity
  8
0
  6
Continuous
 62
   131
370
    15
100
AcDbLine
 10
-75.99999999999997
 20
-0.0441084113389558
 30
0.0
 11
-75.99999999999997
 21
9.955891588661043
 31
0.0
  0
LINE
  5
E6
330
1F
100
AcDbEntity
  8
0
  6
Continuous
 62
   131
370
    15
100
AcDbLine
 10
-75.99999999999997
 20
-10.04410841133895
 30
0.0
 11
-75.99999999999997
 21
-0.0441084113389558
 31
0.0
  0
LINE
  5
E7
330
1F
100
AcDbEntity
  8
0
  6
Continuous
 62
   131
370
    15
100
AcDbLine
 10
11.00007003449089
 20
2.190050267612443
 30
0.0
 11
11.00007003449089
 21
8.532737327647963
 31
0.0
  0
LINE
  5
E8
330
1F
100
AcDbEntity
  8
0
  6
Continuous
 62
   131
370
    15
100
AcDbLine
 10
-77.99999999999997
 20
-0.0441084113389558
 30
0.0
 11
-77.99999999999997
 21
7.955891588661048
 31
0.0
  0
LINE
  5
E9
330
1F
100
AcDbEntity
  8
0
  6
Continuous
 62
   131
370
    15
100
AcDbLine
 10
-77.99999999999997
 20
-8.044108411338959
 30
0.0
 11
-77.99999999999997
 21
-0.0441084113389558
 31
0.0
  0
SPLINE
  5
EA
330
1F
100
AcDbEntity
  8
0
  6
Continuous
 62
   131
370
    15
100
AcDbSpline
210
0.0
220
0.0
230
1.0
 70
    24
 71
     3
 72
    15
 73
    11
 74
     0
 42
0.000000001
 43
0.00000001
 40
0.0
 40
0.0
 40
0.0
 40
0.0
 40
0.1111974989589848
 40
0.2544755239648015
 40
0.3977535489706164
 40
0.5410315739764338
 40
0.6843095989822531
 40
0.8275876239880648
 40
0.9708656489938843
 40
1.0
 40
1.0
 40
1.0
 40
1.0
 10
12.00000000000006
 20
-8.01144761075502
 30
0.0
 10
12.00000000000003
 20
-7.76148429596017
 30
0.0
 10
11.99999999999994
 20
-7.189443143057444
 30
0.0
 10
12.00000000000013
 20
-6.016767171695715
 30
0.0
 10
12.0
 20
-4.656811798982402
 30
0.0
 10
12.00000000000007
 20
-3.333049522371504
 30
0.0
 10
12.00000000000007
 20
-2.189057733204891
 30
0.0
 10
11.99999999999996
 20
-1.400913372563053
 30
0.0
 10
12.0
 20
-1.014465619274279
 30
0.0
 10
12.00000000000004
 20
-1.045986672904877
 30
0.0
 10
12.00000000000003
 20
-1.051313120238871
 30
0.0
  0
SPLINE
  5
EB
330
1F
100
AcDbEntity
  8
0
  6
Continuous
 62
   131
370
    15
100
AcDbSpline
210
0.0
220
0.0
230
1.0
 70
    24
 71
     3
 72
    15
 73
    11
 74
     0
 42
0.000000001
 43
0.00000001
 40
0.0
 40
0.0
 40
0.0
 40
0.0
 40
0.1042439576319692
 40
0.2454155103571273
 40
0.3865870630822879
 40
0.5277586158074503
 40
0.6689301685326055
 40
0.8101017212577679
 40
0.951273273982927
 40
1.0
 40
1.0
 40
1.0
 40
1.0
 10
12.00000000000001
 20
1.039099515681712
 30
0.0
 10
12.00000000000004
 20
1.053273847610865
 30
0.0
 10
12.00000000000011
 20
1.086643656119533
 30
0.0
 10
11.99999999999998
 20
1.661107819470211
 30
0.0
 10
12.00000000000009
 20
2.609765325568524
 30
0.0
 10
12.0000000000001
 20
3.842129311701067
 30
0.0
 10
11.99999999999995
 20
5.201406371389695
 30
0.0
 10
12.00000000000007
 20
6.534422110393415
 30
0.0
 10
11.99999999999995
 20
7.452181263029667
 30
0.0
 10
12.00000000000006
 20
7.869530440666936
 30
0.0
 10
12.00000000000007
 20
7.976619663206895
 30
0.0
  0
LINE
  5
EC
330
1F
100
AcDbEntity
  8
중심선
 62
     1
100
AcDbLine
 10
-85.2025927748895
 20
-0.0441084113389627
 30
0.0
 11
129.0
 21
-0.0441084113388585
 31
0.0
  0
CIRCLE
  5
ED
330
1F
100
AcDbEntity
  8
외형선
100
AcDbCircle
 10
0.0
 20
0.0
 30
0.0
 40
2.999999999999997
  0
INSERT
  5
EE
330
1F
100
AcDbEntity
  8
0
  6
Continuous
 62
     7
100
AcDbBlockReference
 66
     1
  2
블럭10
 10
-22.93944368806589
 20
-52.04609937292004
 30
0.0
  0
ATTRIB
  5
EF
330
EE
100
AcDbEntity
  8
FORMAT
 62
     2
100
AcDbText
 10
-40.63836564979034
 20
-49.97073246008785
 30
0.0
 40
4.233333333333333
  1
SEME75200110E [ 6 FLUTE ]
 41
0.75
  7
SLDTEXTSTYLE0
 11
-40.63836564979034
 21
-52.08739912675452
 31
0.0
100
AcDbAttribute
  2
AUTOATTR0
 70
     0
 74
     1
  0
SEQEND
  5
F0
330
EE
100
AcDbEntity
  8
0
  6
Continuous
 62
     7
  0
HATCH
  5
F1
330
1F
100
AcDbEntity
  8
중심선
100
AcDbHatch
 10
0.0
 20
0.0
 30
0.0
210
0.0
220
0.0
230
1.0
  2
SOLID
 70
     1
 71
     0
 91
        1
 92
        0
 93
        4
 72
     1
 10
-17.22453438368504
 20
-35.7989250712761
 11
-20.67080962752232
 21
-35.7989250712761
 72
     1
 10
-20.67080962752232
 20
-35.7989250712761
 11
-22.79903948672635
 21
-38.3352506518487
 72
     1
 10
-22.79903948672635
 20
-38.3352506518487
 11
-19.35273115777591
 21
-38.33521122254621
 72
     1
 10
-19.35273115777591
 20
-38.33521122254621
 11
-17.22453438368504
 21
-35.7989250712761
 97
        0
 75
     0
 76
     1
 98
        1
 10
0.0
 20
0.0
  0
HATCH
  5
F2
330
1F
100
AcDbEntity
  8
중심선
100
AcDbHatch
 10
0.0
 20
0.0
 30
0.0
210
0.0
220
0.0
230
1.0
  2
SOLID
 70
     1
 71
     0
 91
        1
 92
        0
 93
        4
 72
     1
 10
-12.21177039264909
 20
-35.7989250712761
 11
-15.65804563648637
 21
-35.7989250712761
 72
     1
 10
-15.65804563648637
 20
-35.7989250712761
 11
-20.18918364484376
 21
-41.19892507127612
 72
     1
 10
-20.18918364484376
 20
-41.19892507127612
 11
-16.74290840100648
 21
-41.19892507127612
 72
     1
 10
-16.74290840100648
 20
-41.19892507127612
 11
-12.21177039264909
 21
-35.7989250712761
 97
        0
 75
     0
 76
     1
 98
        1
 10
0.0
 20
0.0
  0
HATCH
  5
F3
330
1F
100
AcDbEntity
  8
중심선
100
AcDbHatch
 10
0.0
 20
0.0
 30
0.0
210
0.0
220
0.0
230
1.0
  2
SOLID
 70
     1
 71
     0
 91
        1
 92
        0
 93
        4
 72
     1
 10
-7.199006401613195
 20
-35.79892507127613
 11
-10.64528164545031
 21
-35.7989250712761
 72
     1
 10
-10.64528164545031
 20
-35.7989250712761
 11
-17.69371854733956
 21
-44.19892507127612
 72
     1
 10
-17.69371854733956
 20
-44.19892507127612
 11
-14.24744330350228
 21
-44.19892507127612
 72
     1
 10
-14.24744330350228
 20
-44.19892507127612
 11
-7.199006401613195
 21
-35.79892507127613
 97
        0
 75
     0
 76
     1
 98
        1
 10
0.0
 20
0.0
  0
HATCH
  5
F4
330
1F
100
AcDbEntity
  8
중심선
100
AcDbHatch
 10
0.0
 20
0.0
 30
0.0
210
0.0
220
0.0
230
1.0
  2
SOLID
 70
     1
 71
     0
 91
        1
 92
        0
 93
        6
 72
     3
 10
-2.399115970600996
 20
-39.99892507132738
 11
3.960054785062284
 21
1.540850780301639E-10
 40
0.3939339440162633
 50
17.09539180608433
 51
320.0019657685079
 73
     0
 72
     1
 10
-0.7161163149004002
 20
-38.58681907591441
 11
1.589185558800638
 21
-36.65249236586649
 72
     3
 10
-2.399115970653842
 20
-39.99892507127625
 11
6.600054785286829
 21
-1.249000902703301E-13
 40
0.6363583540795982
 50
39.99873849337408
 51
368.4976242363725
 73
     1
 72
     1
 10
4.026216521246767
 20
-39.03892507120613
 11
-3.71904866381792
 21
-39.0389250712061
 72
     1
 10
-3.71904866381792
 20
-39.0389250712061
 11
-3.719073708263854
 21
-40.95892507120602
 72
     1
 10
-3.719073708263854
 20
-40.95892507120602
 11
0.7223060612081831
 21
-40.95892507120599
 97
        0
 75
     0
 76
     1
 98
        1
 10
0.0
 20
0.0
  0
DIMENSION
  5
F5
330
1F
100
AcDbEntity
  8
치수문자_일반주서
100
AcDbDimension
  2
_D
 10
-94.62890613132336
 20
-10.04410841133904
 30
0.0
 11
-94.6289061313234
 21
-0.0441084113389466
 31
0.0
 70
   160
  1
%%c<>
 71
     2
 42
20.00000000000002
 52
-270.0
  3
SLDDIMSTYLE0
100
AcDbAlignedDimension
 13
-75.99999999999997
 23
9.955891588661054
 33
0.0
 14
-75.99999999999997
 24
-10.04410841133896
 34
0.0
 50
90.0000000000002
100
AcDbRotatedDimension
  0
DIMENSION
  5
103
330
1F
100
AcDbEntity
  8
치수문자_일반주서
100
AcDbDimension
  2
_D_1
 10
132.0000000000001
 20
-10.04410841133892
 30
0.0
 11
132.0
 21
1.274753088853026
 31
0.0
 70
   160
  1
%%c<>
 71
     2
 42
20.00000000000001
 52
-270.0
  3
SLDDIMSTYLE0
100
AcDbAlignedDimension
 13
122.0
 23
9.95589158866105
 33
0.0
 14
122.0
 24
-10.04410841133896
 34
0.0
 50
90.0000000000002
100
AcDbRotatedDimension
  0
DIMENSION
  5
110
330
1F
100
AcDbEntity
  8
치수문자_일반주서
100
AcDbDimension
  2
_D_2
 10
122.0
 20
52.66805536462113
 30
0.0
 11
57.01748654054408
 21
52.66805536462113
 31
0.0
 70
   160
  1
<>
 71
     2
 42
110.0
  3
SLDDIMSTYLE1
100
AcDbAlignedDimension
 13
12.00000000000004
 23
9.17321474597932
 33
0.0
 14
122.0
 24
9.882917097704423
 34
0.0
 50
-0.0000000000000037
100
AcDbRotatedDimension
  0
DIMENSION
  5
11B
330
1F
100
AcDbEntity
  8
치수문자_일반주서
100
AcDbDimension
  2
_D_3
 10
-77.99999999999997
 20
80.82759975857405
 30
0.0
 11
28.19632639685441
 21
80.82759975857405
 31
0.0
 70
   160
  1
<>
 71
     2
 42
200.0
  3
SLDDIMSTYLE1
100
AcDbAlignedDimension
 13
122.0
 23
9.882917097704423
 33
0.0
 14
-77.99999999999997
 24
7.955891588661048
 34
0.0
100
AcDbRotatedDimension
  0
INSERT
  5
12B
330
1F
100
AcDbEntity
  8
외형선
100
AcDbBlockReference
  2
SW_DOWELSYMBOL_0
 10
0.0
 20
0.0
 30
0.0
  0
ENDSEC
  0
SECTION
  2
OBJECTS
  0
DICTIONARY
  5
C
330
0
100
AcDbDictionary
281
     1
  3
ACAD_GROUP
350
D
  3
ACAD_IMAGE_VARS
350
14F
  3
ACAD_LAYOUT
350
1A
  3
ACAD_MLINESTYLE
350
17
  3
ACAD_PLOTSETTINGS
350
19
  3
ACAD_PLOTSTYLENAME
350
E
  3
ACAD_SCALELIST
350
47
  3
APPDATA
350
14D
  3
DWGPROPS
350
159
  0
DICTIONARY
  5
D
102
{ACAD_REACTORS
330
C
102
}
330
C
100
AcDbDictionary
281
     1
  0
RASTERVARIABLES
  5
14F
102
{ACAD_REACTORS
330
C
102
}
330
C
100
AcDbRasterVariables
 90
        0
 70
     1
 71
     1
 72
     1
  0
DICTIONARY
  5
1A
102
{ACAD_REACTORS
330
C
102
}
330
C
100
AcDbDictionary
281
     1
  3
Layout1
350
1E
  3
Layout2
350
26
  3
Model
350
22
  0
DICTIONARY
  5
17
102
{ACAD_REACTORS
330
C
102
}
330
C
100
AcDbDictionary
281
     1
  3
Standard
350
18
  0
DICTIONARY
  5
19
102
{ACAD_REACTORS
330
C
102
}
330
C
100
AcDbDictionary
281
     1
  0
ACDBDICTIONARYWDFLT
  5
E
102
{ACAD_REACTORS
330
C
102
}
330
C
100
AcDbDictionary
281
     1
  3
Normal
350
F
100
AcDbDictionaryWithDefault
340
F
  0
DICTIONARY
  5
47
102
{ACAD_REACTORS
330
C
102
}
330
C
100
AcDbDictionary
281
     1
  3
A0
350
48
  3
A1
350
49
  3
A2
350
4A
  3
A3
350
4B
  3
A4
350
4C
  3
A5
350
4D
  3
A6
350
4E
  3
A7
350
4F
  3
A8
350
50
  3
A9
350
51
  3
B0
350
52
  3
B1
350
53
  3
B2
350
54
  3
B3
350
55
  3
B4
350
56
  3
B5
350
57
  3
B6
350
58
  3
B7
350
59
  3
B8
350
5A
  3
B9
350
5B
  3
C0
350
5C
  3
C1
350
5D
  3
C2
350
5E
  3
C3
350
5F
  3
C4
350
60
  3
C5
350
61
  3
C6
350
62
  3
C7
350
63
  3
C8
350
64
  3
C9
350
65
  3
D0
350
66
  3
D1
350
67
  3
D2
350
68
  0
DICTIONARY
  5
14D
102
{ACAD_REACTORS
330
C
102
}
330
C
100
AcDbDictionary
281
     1
  0
XRECORD
  5
159
102
{ACAD_REACTORS
330
C
102
}
330
C
100
AcDbXrecord
280
     1
  1
DWGPROPS COOKIE
  2

  3

  4

  6

  7

  8
12016016
  9

300
=
301
=
302
=
303
=
304
=
305
=
306
=
307
=
308
=
309
=
 40
0.0
 41
2458268.399154317
 42
2458269.997891956
  1

 90
        0
  0
LAYOUT
  5
1E
102
{ACAD_REACTORS
330
1A
102
}
330
1A
100
AcDbPlotSettings
  1

  2
none_device
  4

  6

 40
0.0
 41
0.0
 42
0.0
 43
0.0
 44
0.0
 45
0.0
 46
0.0
 47
0.0
 48
0.0
 49
0.0
140
0.0
141
0.0
142
1.0
143
1.0
 70
   688
 72
     1
 73
     0
 74
     5
  7

 75
    16
147
1.0
148
0.0
149
0.0
100
AcDbLayout
  1
Layout1
 70
     1
 71
     1
 10
0.0
 20
0.0
 11
420.0
 21
297.0
 12
0.0
 22
0.0
 32
0.0
 14
1.000000000000000E+20
 24
1.000000000000000E+20
 34
1.000000000000000E+20
 15
-1.000000000000000E+20
 25
-1.000000000000000E+20
 35
-1.000000000000000E+20
146
0.0
 13
0.0
 23
0.0
 33
0.0
 16
1.0
 26
0.0
 36
0.0
 17
0.0
 27
1.0
 37
0.0
 76
     0
330
1B
  0
LAYOUT
  5
26
102
{ACAD_REACTORS
330
1A
102
}
330
1A
100
AcDbPlotSettings
  1

  2
none_device
  4

  6

 40
0.0
 41
0.0
 42
0.0
 43
0.0
 44
0.0
 45
0.0
 46
0.0
 47
0.0
 48
0.0
 49
0.0
140
0.0
141
0.0
142
1.0
143
1.0
 70
   688
 72
     1
 73
     0
 74
     5
  7

 75
    16
147
1.0
148
0.0
149
0.0
100
AcDbLayout
  1
Layout2
 70
     1
 71
     2
 10
0.0
 20
0.0
 11
0.0
 21
0.0
 12
0.0
 22
0.0
 32
0.0
 14
0.0
 24
0.0
 34
0.0
 15
0.0
 25
0.0
 35
0.0
146
0.0
 13
0.0
 23
0.0
 33
0.0
 16
1.0
 26
0.0
 36
0.0
 17
0.0
 27
1.0
 37
0.0
 76
     0
330
23
  0
LAYOUT
  5
22
102
{ACAD_REACTORS
330
1A
102
}
330
1A
100
AcDbPlotSettings
  1

  2
none_device
  4
ANSI_A_(11.00_x_8.50_Inches)
  6

 40
6.35
 41
19.05
 42
6.35000508
 43
19.05000254
 44
279.4
 45
215.9
 46
72.70922450773976
 47
68.24943074160393
 48
0.0
 49
0.0
140
0.0
141
0.0
142
0.0469004133949383
143
1.0
 70
  1696
 72
     0
 73
     0
 74
     0
  7

 75
     0
147
0.0235690232323232
148
0.0
149
0.0
100
AcDbLayout
  1
Model
 70
     1
 71
     0
 10
0.0
 20
0.0
 11
420.0
 21
297.0
 12
0.0
 22
0.0
 32
0.0
 14
-99.00390613132342
 24
-49.97073246008785
 34
0.0
 15
132.5503333333334
 25
85.20259975857405
 35
0.0
146
0.0
 13
0.0
 23
0.0
 33
0.0
 16
1.0
 26
0.0
 36
0.0
 17
0.0
 27
1.0
 37
0.0
 76
     0
330
1F
331
29
  0
MLINESTYLE
  5
18
102
{ACAD_REACTORS
330
17
102
}
330
17
100
AcDbMlineStyle
  2
Standard
 70
     0
  3

 62
   256
 51
90.0
 52
90.0
 71
     2
 49
0.5
 62
   256
  6
BYLAYER
 49
-0.5
 62
   256
  6
BYLAYER
  0
ACDBPLACEHOLDER
  5
F
102
{ACAD_REACTORS
330
E
102
}
330
E
  0
SCALE
  5
48
102
{ACAD_REACTORS
330
47
102
}
330
47
100
AcDbScale
 70
     0
300
1:1
140
1.0
141
1.0
290
     1
  0
SCALE
  5
49
102
{ACAD_REACTORS
330
47
102
}
330
47
100
AcDbScale
 70
     0
300
1:2
140
1.0
141
2.0
290
     0
  0
SCALE
  5
4A
102
{ACAD_REACTORS
330
47
102
}
330
47
100
AcDbScale
 70
     0
300
1:4
140
1.0
141
4.0
290
     0
  0
SCALE
  5
4B
102
{ACAD_REACTORS
330
47
102
}
330
47
100
AcDbScale
 70
     0
300
1:5
140
1.0
141
5.0
290
     0
  0
SCALE
  5
4C
102
{ACAD_REACTORS
330
47
102
}
330
47
100
AcDbScale
 70
     0
300
1:8
140
1.0
141
8.0
290
     0
  0
SCALE
  5
4D
102
{ACAD_REACTORS
330
47
102
}
330
47
100
AcDbScale
 70
     0
300
1:10
140
1.0
141
10.0
290
     0
  0
SCALE
  5
4E
102
{ACAD_REACTORS
330
47
102
}
330
47
100
AcDbScale
 70
     0
300
1:16
140
1.0
141
16.0
290
     0
  0
SCALE
  5
4F
102
{ACAD_REACTORS
330
47
102
}
330
47
100
AcDbScale
 70
     0
300
1:20
140
1.0
141
20.0
290
     0
  0
SCALE
  5
50
102
{ACAD_REACTORS
330
47
102
}
330
47
100
AcDbScale
 70
     0
300
1:30
140
1.0
141
30.0
290
     0
  0
SCALE
  5
51
102
{ACAD_REACTORS
330
47
102
}
330
47
100
AcDbScale
 70
     0
300
1:40
140
1.0
141
40.0
290
     0
  0
SCALE
  5
52
102
{ACAD_REACTORS
330
47
102
}
330
47
100
AcDbScale
 70
     0
300
1:50
140
1.0
141
50.0
290
     0
  0
SCALE
  5
53
102
{ACAD_REACTORS
330
47
102
}
330
47
100
AcDbScale
 70
     0
300
1:100
140
1.0
141
100.0
290
     0
  0
SCALE
  5
54
102
{ACAD_REACTORS
330
47
102
}
330
47
100
AcDbScale
 70
     0
300
2:1
140
2.0
141
1.0
290
     0
  0
SCALE
  5
55
102
{ACAD_REACTORS
330
47
102
}
330
47
100
AcDbScale
 70
     0
300
4:1
140
4.0
141
1.0
290
     0
  0
SCALE
  5
56
102
{ACAD_REACTORS
330
47
102
}
330
47
100
AcDbScale
 70
     0
300
8:1
140
8.0
141
1.0
290
     0
  0
SCALE
  5
57
102
{ACAD_REACTORS
330
47
102
}
330
47
100
AcDbScale
 70
     0
300
10:1
140
10.0
141
1.0
290
     0
  0
SCALE
  5
58
102
{ACAD_REACTORS
330
47
102
}
330
47
100
AcDbScale
 70
     0
300
100:1
140
100.0
141
1.0
290
     0
  0
SCALE
  5
59
102
{ACAD_REACTORS
330
47
102
}
330
47
100
AcDbScale
 70
     0
300
1/128" = 1'-0"
140
0.0078125
141
12.0
290
     0
  0
SCALE
  5
5A
102
{ACAD_REACTORS
330
47
102
}
330
47
100
AcDbScale
 70
     0
300
1/64" = 1'-0"
140
0.015625
141
12.0
290
     0
  0
SCALE
  5
5B
102
{ACAD_REACTORS
330
47
102
}
330
47
100
AcDbScale
 70
     0
300
1/32" = 1'-0"
140
0.03125
141
12.0
290
     0
  0
SCALE
  5
5C
102
{ACAD_REACTORS
330
47
102
}
330
47
100
AcDbScale
 70
     0
300
1/16" = 1'-0"
140
0.0625
141
12.0
290
     0
  0
SCALE
  5
5D
102
{ACAD_REACTORS
330
47
102
}
330
47
100
AcDbScale
 70
     0
300
3/32" = 1'-0"
140
0.09375
141
12.0
290
     0
  0
SCALE
  5
5E
102
{ACAD_REACTORS
330
47
102
}
330
47
100
AcDbScale
 70
     0
300
1/8" = 1'-0"
140
0.125
141
12.0
290
     0
  0
SCALE
  5
5F
102
{ACAD_REACTORS
330
47
102
}
330
47
100
AcDbScale
 70
     0
300
3/16" = 1'-0"
140
0.1875
141
12.0
290
     0
  0
SCALE
  5
60
102
{ACAD_REACTORS
330
47
102
}
330
47
100
AcDbScale
 70
     0
300
1/4" = 1'-0"
140
0.25
141
12.0
290
     0
  0
SCALE
  5
61
102
{ACAD_REACTORS
330
47
102
}
330
47
100
AcDbScale
 70
     0
300
3/8" = 1'-0"
140
0.375
141
12.0
290
     0
  0
SCALE
  5
62
102
{ACAD_REACTORS
330
47
102
}
330
47
100
AcDbScale
 70
     0
300
1/2" = 1'-0"
140
0.5
141
12.0
290
     0
  0
SCALE
  5
63
102
{ACAD_REACTORS
330
47
102
}
330
47
100
AcDbScale
 70
     0
300
3/4" = 1'-0"
140
0.75
141
12.0
290
     0
  0
SCALE
  5
64
102
{ACAD_REACTORS
330
47
102
}
330
47
100
AcDbScale
 70
     0
300
1" = 1'-0"
140
1.0
141
12.0
290
     0
  0
SCALE
  5
65
102
{ACAD_REACTORS
330
47
102
}
330
47
100
AcDbScale
 70
     0
300
1-1/2" = 1'-0"
140
1.5
141
12.0
290
     0
  0
SCALE
  5
66
102
{ACAD_REACTORS
330
47
102
}
330
47
100
AcDbScale
 70
     0
300
3" = 1'-0"
140
3.0
141
12.0
290
     0
  0
SCALE
  5
67
102
{ACAD_REACTORS
330
47
102
}
330
47
100
AcDbScale
 70
     0
300
6" = 1'-0"
140
6.0
141
12.0
290
     0
  0
SCALE
  5
68
102
{ACAD_REACTORS
330
47
102
}
330
47
100
AcDbScale
 70
     0
300
1'-0" = 1'-0"
140
12.0
141
12.0
290
     0
  0
ENDSEC
  0
EOF
