  0
SECTION
  2
HEADER
  9
$ACADVER
  1
AC1015
  9
$ACADMAINTVER
 70
     6
  9
$DWGCODEPAGE
  3
ANSI_949
  9
$INSBASE
 10
0.0
 20
0.0
 30
0.0
  9
$EXTMIN
 10
-69.00390613132352
 20
-49.97180738881178
 30
0.0
  9
$EXTMAX
 10
82.55033333333327
 20
85.24670816991298
 30
0.0
  9
$LIMMIN
 10
0.0
 20
0.0
  9
$LIMMAX
 10
420.0
 20
297.0
  9
$ORTHOMODE
 70
     1
  9
$REGENMODE
 70
     1
  9
$FILLMODE
 70
     1
  9
$QTEXTMODE
 70
     0
  9
$MIRRTEXT
 70
     1
  9
$LTSCALE
 40
1.0
  9
$ATTMODE
 70
     1
  9
$TEXTSIZE
 40
3.5
  9
$TRACEWID
 40
1.0
  9
$TEXTSTYLE
  7
Standard
  9
$CLAYER
  8
0
  9
$CELTYPE
  6
ByLayer
  9
$CECOLOR
 62
   256
  9
$CELTSCALE
 40
1.0
  9
$DISPSILH
 70
     0
  9
$DIMSCALE
 40
1.0
  9
$DIMASZ
 40
3.302
  9
$DIMEXO
 40
1.0
  9
$DIMDLI
 40
3.75
  9
$DIMRND
 40
0.0
  9
$DIMDLE
 40
0.0
  9
$DIMEXE
 40
1.0
  9
$DIMTP
 40
0.0
  9
$DIMTM
 40
0.0
  9
$DIMTXT
 40
3.5
  9
$DIMCEN
 40
2.5
  9
$DIMTSZ
 40
0.0
  9
$DIMTOL
 70
     0
  9
$DIMLIM
 70
     0
  9
$DIMTIH
 70
     1
  9
$DIMTOH
 70
     1
  9
$DIMSE1
 70
     0
  9
$DIMSE2
 70
     0
  9
$DIMTAD
 70
     1
  9
$DIMZIN
 70
     0
  9
$DIMBLK
  1

  9
$DIMASO
 70
     1
  9
$DIMSHO
 70
     1
  9
$DIMPOST
  1

  9
$DIMAPOST
  1

  9
$DIMALT
 70
     0
  9
$DIMALTD
 70
     3
  9
$DIMALTF
 40
0.0393700787401575
  9
$DIMLFAC
 40
1.0
  9
$DIMTOFL
 70
     1
  9
$DIMTVP
 40
0.0
  9
$DIMTIX
 70
     0
  9
$DIMSOXD
 70
     0
  9
$DIMSAH
 70
     0
  9
$DIMBLK1
  1

  9
$DIMBLK2
  1

  9
$DIMSTYLE
  2
ISO-25
  9
$DIMCLRD
 70
     0
  9
$DIMCLRE
 70
     0
  9
$DIMCLRT
 70
     0
  9
$DIMTFAC
 40
1.0
  9
$DIMGAP
 40
1.524
  9
$DIMJUST
 70
     0
  9
$DIMSD1
 70
     0
  9
$DIMSD2
 70
     0
  9
$DIMTOLJ
 70
     0
  9
$DIMTZIN
 70
     0
  9
$DIMALTZ
 70
     0
  9
$DIMALTTZ
 70
     0
  9
$DIMUPT
 70
     0
  9
$DIMDEC
 70
     2
  9
$DIMTDEC
 70
     2
  9
$DIMALTU
 70
     2
  9
$DIMALTTD
 70
     3
  9
$DIMTXSTY
  7
Standard
  9
$DIMAUNIT
 70
     0
  9
$DIMADEC
 70
     2
  9
$DIMALTRND
 40
0.0
  9
$DIMAZIN
 70
     0
  9
$DIMDSEP
 70
    44
  9
$DIMATFIT
 70
     3
  9
$DIMFRAC
 70
     0
  9
$DIMLDRBLK
  1

  9
$DIMLUNIT
 70
     2
  9
$DIMLWD
 70
    -2
  9
$DIMLWE
 70
    -2
  9
$DIMTMOVE
 70
     0
  9
$LUNITS
 70
     2
  9
$LUPREC
 70
     2
  9
$SKETCHINC
 40
1.0
  9
$FILLETRAD
 40
10.0
  9
$AUNITS
 70
     0
  9
$AUPREC
 70
     2
  9
$MENU
  1
.
  9
$ELEVATION
 40
0.0
  9
$PELEVATION
 40
0.0
  9
$THICKNESS
 40
0.0
  9
$LIMCHECK
 70
     0
  9
$CHAMFERA
 40
0.0
  9
$CHAMFERB
 40
0.0
  9
$CHAMFERC
 40
0.0
  9
$CHAMFERD
 40
0.0
  9
$SKPOLY
 70
     0
  9
$TDCREATE
 40
2458268.774341621
  9
$TDUCREATE
 40
2458268.399341621
  9
$TDUPDATE
 40
2458270.375330891
  9
$TDUUPDATE
 40
2458270.000330891
  9
$TDINDWG
 40
0.0007941319
  9
$TDUSRTIMER
 40
2458269.999536898
  9
$USRTIMER
 70
     1
  9
$ANGBASE
 50
0.0
  9
$ANGDIR
 70
     0
  9
$PDMODE
 70
     0
  9
$PDSIZE
 40
-1.0
  9
$PLINEWID
 40
0.0
  9
$SPLFRAME
 70
     0
  9
$SPLINETYPE
 70
     6
  9
$SPLINESEGS
 70
     8
  9
$HANDSEED
  5
146
  9
$SURFTAB1
 70
     6
  9
$SURFTAB2
 70
     6
  9
$SURFTYPE
 70
     6
  9
$SURFU
 70
     6
  9
$SURFV
 70
     6
  9
$UCSBASE
  2

  9
$UCSNAME
  2

  9
$UCSORG
 10
0.0
 20
0.0
 30
0.0
  9
$UCSXDIR
 10
1.0
 20
0.0
 30
0.0
  9
$UCSYDIR
 10
0.0
 20
1.0
 30
0.0
  9
$UCSORTHOREF
  2

  9
$UCSORTHOVIEW
 70
     0
  9
$UCSORGTOP
 10
0.0
 20
0.0
 30
0.0
  9
$UCSORGBOTTOM
 10
0.0
 20
0.0
 30
0.0
  9
$UCSORGLEFT
 10
0.0
 20
0.0
 30
0.0
  9
$UCSORGRIGHT
 10
0.0
 20
0.0
 30
0.0
  9
$UCSORGFRONT
 10
0.0
 20
0.0
 30
0.0
  9
$UCSORGBACK
 10
0.0
 20
0.0
 30
0.0
  9
$PUCSBASE
  2

  9
$PUCSNAME
  2

  9
$PUCSORG
 10
0.0
 20
0.0
 30
0.0
  9
$PUCSXDIR
 10
1.0
 20
0.0
 30
0.0
  9
$PUCSYDIR
 10
0.0
 20
1.0
 30
0.0
  9
$PUCSORTHOREF
  2

  9
$PUCSORTHOVIEW
 70
     0
  9
$PUCSORGTOP
 10
0.0
 20
0.0
 30
0.0
  9
$PUCSORGBOTTOM
 10
0.0
 20
0.0
 30
0.0
  9
$PUCSORGLEFT
 10
0.0
 20
0.0
 30
0.0
  9
$PUCSORGRIGHT
 10
0.0
 20
0.0
 30
0.0
  9
$PUCSORGFRONT
 10
0.0
 20
0.0
 30
0.0
  9
$PUCSORGBACK
 10
0.0
 20
0.0
 30
0.0
  9
$USERI1
 70
     0
  9
$USERI2
 70
     0
  9
$USERI3
 70
     0
  9
$USERI4
 70
     0
  9
$USERI5
 70
     0
  9
$USERR1
 40
0.0
  9
$USERR2
 40
0.0
  9
$USERR3
 40
0.0
  9
$USERR4
 40
0.0
  9
$USERR5
 40
0.0
  9
$WORLDVIEW
 70
     1
  9
$SHADEDGE
 70
     3
  9
$SHADEDIF
 70
    70
  9
$TILEMODE
 70
     1
  9
$MAXACTVP
 70
    64
  9
$PINSBASE
 10
0.0
 20
0.0
 30
0.0
  9
$PLIMCHECK
 70
     0
  9
$PEXTMIN
 10
1.000000000000000E+20
 20
1.000000000000000E+20
 30
1.000000000000000E+20
  9
$PEXTMAX
 10
-1.000000000000000E+20
 20
-1.000000000000000E+20
 30
-1.000000000000000E+20
  9
$PLIMMIN
 10
0.0
 20
0.0
  9
$PLIMMAX
 10
0.0
 20
0.0
  9
$UNITMODE
 70
     0
  9
$VISRETAIN
 70
     1
  9
$PLINEGEN
 70
     0
  9
$PSLTSCALE
 70
     1
  9
$TREEDEPTH
 70
  3020
  9
$CMLSTYLE
  2
Standard
  9
$CMLJUST
 70
     0
  9
$CMLSCALE
 40
20.0
  9
$PROXYGRAPHICS
 70
     1
  9
$MEASUREMENT
 70
     1
  9
$CELWEIGHT
370
    -1
  9
$ENDCAPS
280
     0
  9
$JOINSTYLE
280
     0
  9
$LWDISPLAY
290
     1
  9
$INSUNITS
 70
     4
  9
$HYPERLINKBASE
  1

  9
$STYLESHEET
  1

  9
$XEDIT
290
     1
  9
$CEPSNTYPE
380
     0
  9
$PSTYLEMODE
290
     1
  9
$FINGERPRINTGUID
  2
{DB45F805-32EA-441A-9028-C3FF9635C5E4}
  9
$VERSIONGUID
  2
{FAEB1C32-E019-11D5-929B-00C0DF256EC4}
  9
$EXTNAMES
290
     1
  9
$PSVPSCALE
 40
0.0
  9
$OLESTARTUP
290
     0
  0
ENDSEC
  0
SECTION
  2
CLASSES
  0
CLASS
  1
ACDBDICTIONARYWDFLT
  2
AcDbDictionaryWithDefault
  3
ObjectDBX Classes
 90
        0
280
     0
281
     0
  0
CLASS
  1
VISUALSTYLE
  2
AcDbVisualStyle
  3
ObjectDBX Classes
 90
     4095
280
     0
281
     0
  0
CLASS
  1
MATERIAL
  2
AcDbMaterial
  3
ObjectDBX Classes
 90
     1153
280
     0
281
     0
  0
CLASS
  1
SCALE
  2
AcDbScale
  3
ObjectDBX Classes
 90
     1153
280
     0
281
     0
  0
CLASS
  1
SUN
  2
AcDbSun
  3
SCENEOE
 90
     1153
280
     0
281
     0
  0
CLASS
  1
ACDBPLACEHOLDER
  2
AcDbPlaceHolder
  3
ObjectDBX Classes
 90
        0
280
     0
281
     0
  0
CLASS
  1
LAYOUT
  2
AcDbLayout
  3
ObjectDBX Classes
 90
        0
280
     0
281
     0
  0
CLASS
  1
TABLESTYLE
  2
AcDbTableStyle
  3
ObjectDBX Classes
 90
     4095
280
     0
281
     0
  0
CLASS
  1
MLEADERSTYLE
  2
AcDbMLeaderStyle
  3
ACDB_MLEADERSTYLE_CLASS
 90
     4095
280
     0
281
     0
  0
CLASS
  1
RASTERVARIABLES
  2
AcDbRasterVariables
  3
ISM
 90
        0
280
     0
281
     0
  0
ENDSEC
  0
SECTION
  2
TABLES
  0
TABLE
  2
VPORT
  5
8
330
0
100
AcDbSymbolTable
 70
     1
  0
VPORT
  5
29
330
8
100
AcDbSymbolTableRecord
100
AcDbViewportTableRecord
  2
*Active
 70
     0
 10
0.0
 20
0.0
 11
1.0
 21
1.0
 12
-5.874310806975227
 22
-13.98596701034236
 13
0.0
 23
0.0
 14
10.0
 24
10.0
 15
10.0
 25
10.0
 16
0.0
 26
0.0
 36
1.0
 17
0.0
 27
0.0
 37
0.0
 40
36.75794416644048
 41
1.627413127413127
 42
50.0
 43
0.0
 44
0.0
 50
0.0
 51
0.0
 71
    16
 72
  2000
 73
     1
 74
     3
 75
     0
 76
     0
 77
     0
 78
     0
281
     0
 65
     1
110
0.0
120
0.0
130
0.0
111
1.0
121
0.0
131
0.0
112
0.0
122
1.0
132
0.0
 79
     0
146
0.0
  0
ENDTAB
  0
TABLE
  2
LTYPE
  5
5
330
0
100
AcDbSymbolTable
 70
     6
  0
LTYPE
  5
14
330
5
100
AcDbSymbolTableRecord
100
AcDbLinetypeTableRecord
  2
ByBlock
 70
     0
  3

 72
    65
 73
     0
 40
0.0
  0
LTYPE
  5
15
330
5
100
AcDbSymbolTableRecord
100
AcDbLinetypeTableRecord
  2
ByLayer
 70
     0
  3

 72
    65
 73
     0
 40
0.0
  0
LTYPE
  5
16
330
5
100
AcDbSymbolTableRecord
100
AcDbLinetypeTableRecord
  2
Continuous
 70
     0
  3
Solid line
 72
    65
 73
     0
 40
0.0
  0
LTYPE
  5
6A
330
5
100
AcDbSymbolTableRecord
100
AcDbLinetypeTableRecord
  2
HIDDEN
 70
     0
  3
Hidden __ __ __ __ __ __ __ __ __ __ __ __ __ __
 72
    65
 73
     2
 40
1.905
 49
1.27
 74
     0
 49
-0.635
 74
     0
  0
LTYPE
  5
6B
330
5
100
AcDbSymbolTableRecord
100
AcDbLinetypeTableRecord
  2
PHANTOM
 70
     0
  3
Phantom ______  __  __  ______  __  __  ______
 72
    65
 73
     6
 40
12.7
 49
6.35
 74
     0
 49
-1.27
 74
     0
 49
1.27
 74
     0
 49
-1.27
 74
     0
 49
1.27
 74
     0
 49
-1.27
 74
     0
  0
LTYPE
  5
6C
330
5
100
AcDbSymbolTableRecord
100
AcDbLinetypeTableRecord
  2
CENTER
 70
     0
  3
Center ____ _ ____ _ ____ _ ____ _ ____ _ ____
 72
    65
 73
     4
 40
10.16
 49
6.35
 74
     0
 49
-1.27
 74
     0
 49
1.27
 74
     0
 49
-1.27
 74
     0
  0
LTYPE
  5
6D
330
5
100
AcDbSymbolTableRecord
100
AcDbLinetypeTableRecord
  2
CENTERX2
 70
     0
  3
Center (2x) ________  __  ________  __  _____
 72
    65
 73
     4
 40
20.32
 49
12.7
 74
     0
 49
-2.54
 74
     0
 49
2.54
 74
     0
 49
-2.54
 74
     0
  0
LTYPE
  5
6E
330
5
100
AcDbSymbolTableRecord
100
AcDbLinetypeTableRecord
  2
DOT2
 70
     0
  3
Dot (.5x) ........................................
 72
    65
 73
     2
 40
0.635
 49
0.0
 74
     0
 49
-0.635
 74
     0
  0
ENDTAB
  0
TABLE
  2
LAYER
  5
2
330
0
100
AcDbSymbolTable
 70
    17
  0
LAYER
  5
10
330
2
100
AcDbSymbolTableRecord
100
AcDbLayerTableRecord
  2
0
 70
     0
 62
     7
  6
Continuous
370
    -3
390
F
  0
LAYER
  5
6F
330
2
100
AcDbSymbolTableRecord
100
AcDbLayerTableRecord
  2
FORMAT
 70
     0
 62
     2
  6
Continuous
370
    -3
390
F
  0
LAYER
  5
70
330
2
100
AcDbSymbolTableRecord
100
AcDbLayerTableRecord
  2
외형선
 70
     0
 62
   100
  6
Continuous
370
    30
390
F
  0
LAYER
  5
71
330
2
100
AcDbSymbolTableRecord
100
AcDbLayerTableRecord
  2
숨은선
 70
     0
 62
     2
  6
HIDDEN
370
    15
390
F
  0
LAYER
  5
72
330
2
100
AcDbSymbolTableRecord
100
AcDbLayerTableRecord
  2
중심선
 70
     0
 62
     1
  6
CENTERX2
370
    -3
390
F
  0
LAYER
  5
73
330
2
100
AcDbSymbolTableRecord
100
AcDbLayerTableRecord
  2
파단선
 70
     0
 62
     4
  6
Continuous
370
    -3
390
F
  0
LAYER
  5
74
330
2
100
AcDbSymbolTableRecord
100
AcDbLayerTableRecord
  2
해칭선
 70
     0
 62
     4
  6
Continuous
370
    -3
390
F
  0
LAYER
  5
75
330
2
100
AcDbSymbolTableRecord
100
AcDbLayerTableRecord
  2
가는실선
 70
     0
 62
     4
  6
Continuous
370
    -3
390
F
  0
LAYER
  5
76
330
2
100
AcDbSymbolTableRecord
100
AcDbLayerTableRecord
  2
치수_보조선
 70
     0
 62
     4
  6
Continuous
370
    -3
390
F
  0
LAYER
  5
77
330
2
100
AcDbSymbolTableRecord
100
AcDbLayerTableRecord
  2
치수문자_일반주서
 70
     0
 62
     7
  6
Continuous
370
    15
390
F
  0
LAYER
  5
78
330
2
100
AcDbSymbolTableRecord
100
AcDbLayerTableRecord
  2
개별주서
 70
     0
 62
   100
  6
Continuous
370
    30
390
F
  0
LAYER
  5
79
330
2
100
AcDbSymbolTableRecord
100
AcDbLayerTableRecord
  2
중간선
 70
     0
 62
     2
  6
Continuous
370
    15
390
F
  0
LAYER
  5
7A
330
2
100
AcDbSymbolTableRecord
100
AcDbLayerTableRecord
  2
윤곽선
 70
     0
 62
     3
  6
Continuous
370
    40
390
F
  0
LAYER
  5
7B
330
2
100
AcDbSymbolTableRecord
100
AcDbLayerTableRecord
  2
중심마크
 70
     0
 62
   100
  6
Continuous
370
    30
390
F
  0
LAYER
  5
7C
330
2
100
AcDbSymbolTableRecord
100
AcDbLayerTableRecord
  2
가상선
 70
     0
 62
     4
  6
PHANTOM
370
    -3
390
F
  0
LAYER
  5
7D
330
2
100
AcDbSymbolTableRecord
100
AcDbLayerTableRecord
  2
특수지정선
 70
     0
 62
     5
  6
CENTERX2
370
    60
390
F
  0
LAYER
  5
13A
330
2
100
AcDbSymbolTableRecord
100
AcDbLayerTableRecord
  2
Defpoints
 70
     0
 62
     7
  6
Continuous
290
     0
370
    -3
390
F
  0
ENDTAB
  0
TABLE
  2
STYLE
  5
3
330
0
100
AcDbSymbolTable
 70
     2
  0
STYLE
  5
11
330
3
100
AcDbSymbolTableRecord
100
AcDbTextStyleTableRecord
  2
Standard
 70
     0
 40
0.0
 41
1.0
 50
0.0
 71
     0
 42
3.5
  3
txt
  4

  0
STYLE
  5
93
330
3
100
AcDbSymbolTableRecord
100
AcDbTextStyleTableRecord
  2
SLDTEXTSTYLE0
 70
     0
 40
0.0
 41
0.75
 50
0.0
 71
     0
 42
3.5
  3
TXT
  4

  0
ENDTAB
  0
TABLE
  2
VIEW
  5
6
330
0
100
AcDbSymbolTable
 70
     0
  0
ENDTAB
  0
TABLE
  2
UCS
  5
7
330
0
100
AcDbSymbolTable
 70
     0
  0
ENDTAB
  0
TABLE
  2
APPID
  5
9
330
0
100
AcDbSymbolTable
 70
     1
  0
APPID
  5
12
330
9
100
AcDbSymbolTableRecord
100
AcDbRegAppTableRecord
  2
ACAD
 70
     0
  0
ENDTAB
  0
TABLE
  2
DIMSTYLE
  5
A
330
0
100
AcDbSymbolTable
 70
     3
100
AcDbDimStyleTable
  0
DIMSTYLE
105
27
330
A
100
AcDbSymbolTableRecord
100
AcDbDimStyleTableRecord
  2
ISO-25
 70
     0
 41
2.5
 42
0.625
 43
3.75
 44
1.25
 73
     0
 74
     0
 77
     1
 78
     8
140
2.5
141
2.5
143
0.03937007874016
147
0.625
171
     3
172
     1
178
     0
271
     2
272
     2
274
     3
278
    44
283
     0
284
     8
340
11
  0
DIMSTYLE
105
E0
102
{ACAD_REACTORS
330
DF
330
ED
102
}
330
A
100
AcDbSymbolTableRecord
100
AcDbDimStyleTableRecord
  2
SLDDIMSTYLE0
 70
     0
 41
3.302
 44
0.0
 45
0.000000001
 73
     0
 74
     0
 77
     1
 78
    12
 79
     3
140
3.5
147
0.875
172
     1
173
     1
178
     0
271
     2
272
     2
276
     2
284
    12
289
     0
340
93
  0
DIMSTYLE
105
FB
102
{ACAD_REACTORS
330
FA
330
105
102
}
330
A
100
AcDbSymbolTableRecord
100
AcDbDimStyleTableRecord
  2
SLDDIMSTYLE1
 70
     0
 41
3.302
 44
0.0
 45
0.000000001
 73
     0
 74
     0
 77
     1
 78
    12
 79
     3
140
3.5
147
0.875
173
     1
178
     0
271
     2
272
     2
276
     2
284
    12
340
93
  0
ENDTAB
  0
TABLE
  2
BLOCK_RECORD
  5
1
330
0
100
AcDbSymbolTable
 70
     7
  0
BLOCK_RECORD
  5
1F
330
1
100
AcDbSymbolTableRecord
100
AcDbBlockTableRecord
  2
*Model_Space
340
22
  0
BLOCK_RECORD
  5
1B
330
1
100
AcDbSymbolTableRecord
100
AcDbBlockTableRecord
  2
*Paper_Space
340
1E
  0
BLOCK_RECORD
  5
23
330
1
100
AcDbSymbolTableRecord
100
AcDbBlockTableRecord
  2
*Paper_Space0
340
26
  0
BLOCK_RECORD
  5
7E
330
1
100
AcDbSymbolTableRecord
100
AcDbBlockTableRecord
  2
블럭10
340
0
102
{BLKREFS
331
D8
102
}
  0
BLOCK_RECORD
  5
E1
330
1
100
AcDbSymbolTableRecord
100
AcDbBlockTableRecord
  2
_D
340
0
  0
BLOCK_RECORD
  5
EE
330
1
100
AcDbSymbolTableRecord
100
AcDbBlockTableRecord
  2
_D_1
340
0
  0
BLOCK_RECORD
  5
FC
330
1
100
AcDbSymbolTableRecord
100
AcDbBlockTableRecord
  2
_D_2
340
0
  0
BLOCK_RECORD
  5
106
330
1
100
AcDbSymbolTableRecord
100
AcDbBlockTableRecord
  2
_D_3
340
0
  0
BLOCK_RECORD
  5
10F
330
1
100
AcDbSymbolTableRecord
100
AcDbBlockTableRecord
  2
SW_DOWELSYMBOL_0
340
0
102
{BLKREFS
331
115
102
}
  0
ENDTAB
  0
ENDSEC
  0
SECTION
  2
BLOCKS
  0
BLOCK
  5
20
330
1F
100
AcDbEntity
  8
0
100
AcDbBlockBegin
  2
*Model_Space
 70
     0
 10
0.0
 20
0.0
 30
0.0
  3
*Model_Space
  1
*Model_Space
  0
ENDBLK
  5
21
330
1F
100
AcDbEntity
  8
0
100
AcDbBlockEnd
  0
BLOCK
  5
1C
330
1B
100
AcDbEntity
 67
     1
  8
0
100
AcDbBlockBegin
  2
*Paper_Space
 70
     0
 10
0.0
 20
0.0
 30
0.0
  3
*Paper_Space
  1
*Paper_Space
  0
ENDBLK
  5
1D
330
1B
100
AcDbEntity
 67
     1
  8
0
100
AcDbBlockEnd
  0
BLOCK
  5
24
330
23
100
AcDbEntity
  8
0
100
AcDbBlockBegin
  2
*Paper_Space0
 70
     0
 10
0.0
 20
0.0
 30
0.0
  3
*Paper_Space0
  1
*Paper_Space0
  0
ENDBLK
  5
25
330
23
100
AcDbEntity
  8
0
100
AcDbBlockEnd
  0
BLOCK
  5
7F
330
7E
100
AcDbEntity
  8
0
100
AcDbBlockBegin
  2
블럭10
 70
     2
 10
0.0
 20
0.0
 30
0.0
  3
블럭10
  1
블럭10
  0
ELLIPSE
  5
81
330
7E
100
AcDbEntity
  8
중심선
100
AcDbEllipse
 10
20.54032771741204
 20
12.0471743016438
 30
0.0
 11
6.600054785286829
 21
-1.261213355974178E-13
 31
0.0
210
0.0
220
0.0
230
1.0
 40
0.636358354079598
 41
0.9219305317359503
 42
6.513795318482858
  0
ELLIPSE
  5
82
330
7E
100
AcDbEntity
  8
중심선
100
AcDbEllipse
 10
20.54032771746488
 20
12.04717430159265
 30
0.0
 11
3.960054785062283
 21
1.540847449632565E-10
 31
0.0
210
0.0
220
0.0
230
1.0
 40
0.3939339440162632
 41
1.131841032648279
 42
5.62031148352944
  0
LINE
  5
83
330
7E
100
AcDbEntity
  8
중심선
100
AcDbLine
 10
2.268634060543552
 20
16.24717430164393
 30
0.0
 11
5.714909304380834
 21
16.24717430164393
 31
0.0
  0
LINE
  5
84
330
7E
100
AcDbEntity
  8
중심선
100
AcDbLine
 10
5.245725140726316
 20
7.84717430164391
 30
0.0
 11
8.692000384563599
 21
7.84717430164391
 31
0.0
  0
LINE
  5
85
330
7E
100
AcDbEntity
  8
중심선
100
AcDbLine
 10
15.74043728645272
 20
16.24717430164393
 30
0.0
 11
8.692000384563599
 21
7.84717430164391
 31
0.0
  0
LINE
  5
86
330
7E
100
AcDbEntity
  8
중심선
100
AcDbLine
 10
0.1404042013395286
 20
13.71084872107135
 30
0.0
 11
3.58671253028996
 21
13.71088815037384
 31
0.0
  0
LINE
  5
87
330
7E
100
AcDbEntity
  8
중심선
100
AcDbLine
 10
2.750260043222114
 20
10.84717430164391
 30
0.0
 11
6.196535287059397
 21
10.84717430164391
 31
0.0
  0
LINE
  5
88
330
7E
100
AcDbEntity
  8
중심선
100
AcDbLine
 10
12.29416204261559
 20
16.24717430164393
 30
0.0
 11
5.245725140726316
 21
7.84717430164391
 31
0.0
  0
LINE
  5
89
330
7E
100
AcDbEntity
  8
중심선
100
AcDbLine
 10
10.72767329541681
 20
16.24717430164393
 30
0.0
 11
6.196535287059397
 21
10.84717430164391
 31
0.0
  0
LINE
  5
8A
330
7E
100
AcDbEntity
  8
중심선
100
AcDbLine
 10
7.28139805157953
 20
16.24717430164393
 30
0.0
 11
2.750260043222114
 21
10.84717430164391
 31
0.0
  0
LINE
  5
8B
330
7E
100
AcDbEntity
  8
중심선
100
AcDbLine
 10
5.714909304380834
 20
16.24717430164393
 30
0.0
 11
3.58671253028996
 21
13.71088815037384
 31
0.0
  0
LINE
  5
8C
330
7E
100
AcDbEntity
  8
중심선
100
AcDbLine
 10
2.268634060543552
 20
16.24717430164393
 30
0.0
 11
0.1404042013395286
 21
13.71084872107135
 31
0.0
  0
LINE
  5
8D
330
7E
100
AcDbEntity
  8
중심선
100
AcDbLine
 10
7.28139805157953
 20
16.24717430164393
 30
0.0
 11
10.72767329541681
 21
16.24717430164393
 31
0.0
  0
LINE
  5
8E
330
7E
100
AcDbEntity
  8
중심선
100
AcDbLine
 10
12.29416204261559
 20
16.24717430164393
 30
0.0
 11
15.74043728645272
 21
16.24717430164393
 31
0.0
  0
LINE
  5
8F
330
7E
100
AcDbEntity
  8
중심선
100
AcDbLine
 10
19.22036997980202
 20
11.08717430171403
 30
0.0
 11
23.66174974927406
 21
11.08717430171406
 31
0.0
  0
LINE
  5
90
330
7E
100
AcDbEntity
  8
중심선
100
AcDbLine
 10
19.22039502424796
 20
13.00717430171391
 30
0.0
 11
19.22036997980202
 21
11.08717430171403
 31
0.0
  0
LINE
  5
91
330
7E
100
AcDbEntity
  8
중심선
100
AcDbLine
 10
19.22039502424796
 20
13.00717430171391
 30
0.0
 11
26.96566020931264
 21
13.00717430171391
 31
0.0
  0
LINE
  5
92
330
7E
100
AcDbEntity
  8
중심선
100
AcDbLine
 10
22.22332737316547
 20
13.45928029700563
 30
0.0
 11
24.52862924686651
 21
15.39360700705356
 31
0.0
  0
ATTDEF
  5
94
330
7E
100
AcDbEntity
  8
FORMAT
 62
     2
100
AcDbText
 10
-16.11926103943555
 20
2.075366912832191
 30
0.0
 40
4.233333333333333
  1
SEME7520060E [ 6 FLUTE ]
 41
0.75
  7
SLDTEXTSTYLE0
 11
-16.11926103943555
 21
-0.0412997538344756
 31
0.0
100
AcDbAttributeDefinition
  3

  2
AUTOATTR0
 70
     0
 74
     1
  0
ENDBLK
  5
80
330
7E
100
AcDbEntity
  8
0
100
AcDbBlockEnd
  0
BLOCK
  5
E2
330
E1
100
AcDbEntity
  8
0
100
AcDbBlockBegin
  2
_D
 70
     0
 10
0.0
 20
0.0
 30
0.0
  3
_D
  1
_D
  0
LINE
  5
E4
330
E1
100
AcDbEntity
  8
치수문자_일반주서
 62
     0
370
    -2
100
AcDbLine
 10
-46.06250000000006
 20
9.999999999999973
 30
0.0
 11
-64.62890613132353
 21
9.9999999999999
 31
0.0
  0
LINE
  5
E5
330
E1
100
AcDbEntity
  8
치수문자_일반주서
 62
     0
370
    -2
100
AcDbLine
 10
-46.06250000000006
 20
-10.00000000000004
 30
0.0
 11
-64.62890613132346
 21
-10.00000000000012
 31
0.0
  0
LINE
  5
E6
330
E1
100
AcDbEntity
  8
치수문자_일반주서
 62
     0
370
    -2
100
AcDbLine
 10
-64.62890613132352
 20
6.697999999999901
 30
0.0
 11
-64.62890613132348
 21
-6.698000000000118
 31
0.0
  0
SOLID
  5
E7
330
E1
100
AcDbEntity
  8
치수문자_일반주서
 62
     0
100
AcDbTrace
 10
-64.07857279799019
 20
6.697999999999903
 30
0.0
 11
-65.17923946465685
 21
6.697999999999899
 31
0.0
 12
-64.62890613132353
 22
9.9999999999999
 32
0.0
 13
-64.62890613132353
 23
9.9999999999999
 33
0.0
  0
SOLID
  5
E8
330
E1
100
AcDbEntity
  8
치수문자_일반주서
 62
     0
100
AcDbTrace
 10
-65.1792394646568
 20
-6.698000000000119
 30
0.0
 11
-64.07857279799015
 21
-6.698000000000116
 31
0.0
 12
-64.62890613132346
 22
-10.00000000000012
 32
0.0
 13
-64.62890613132346
 23
-10.00000000000012
 33
0.0
  0
MTEXT
  5
E9
330
E1
100
AcDbEntity
  8
치수문자_일반주서
 62
     0
100
AcDbMText
 10
-69.0039061313235
 20
-0.0000000000000417
 30
0.0
 40
3.5
 41
0.0
 71
     2
 72
     1
  1
\A1;%%c20
  7
SLDTEXTSTYLE0
 11
-3.552713678800499E-15
 21
1.0
 31
0.0
 73
     1
 44
1.0
  0
POINT
  5
EA
330
E1
100
AcDbEntity
  8
Defpoints
 62
     0
100
AcDbPoint
 10
-46.00000000000006
 20
9.999999999999973
 30
0.0
  0
POINT
  5
EB
330
E1
100
AcDbEntity
  8
Defpoints
 62
     0
100
AcDbPoint
 10
-46.00000000000006
 20
-10.00000000000004
 30
0.0
  0
POINT
  5
EC
330
E1
100
AcDbEntity
  8
Defpoints
 62
     0
100
AcDbPoint
 10
-64.6289061313235
 20
-10.00000000000011
 30
0.0
  0
ENDBLK
  5
E3
330
E1
100
AcDbEntity
  8
0
100
AcDbBlockEnd
  0
BLOCK
  5
EF
330
EE
100
AcDbEntity
  8
0
100
AcDbBlockBegin
  2
_D_1
 70
     0
 10
0.0
 20
0.0
 30
0.0
  3
_D_1
  1
_D_1
  0
LINE
  5
F1
330
EE
100
AcDbEntity
  8
치수문자_일반주서
 62
     0
370
    -2
100
AcDbLine
 10
72.06249999999994
 20
9.999999999999966
 30
0.0
 11
81.99999999999989
 21
10.0
 31
0.0
  0
LINE
  5
F2
330
EE
100
AcDbEntity
  8
치수문자_일반주서
 62
     0
370
    -2
100
AcDbLine
 10
72.06249999999994
 20
-10.00000000000004
 30
0.0
 11
81.99999999999996
 21
-10.0
 31
0.0
  0
LINE
  5
F3
330
EE
100
AcDbEntity
  8
치수문자_일반주서
 62
     0
370
    -2
100
AcDbLine
 10
81.9999999999999
 20
6.698000000000004
 30
0.0
 11
81.99999999999994
 21
-6.698
 31
0.0
  0
SOLID
  5
F4
330
EE
100
AcDbEntity
  8
치수문자_일반주서
 62
     0
100
AcDbTrace
 10
82.55033333333323
 20
6.698000000000006
 30
0.0
 11
81.44966666666657
 21
6.698000000000002
 31
0.0
 12
81.99999999999989
 22
10.0
 32
0.0
 13
81.99999999999989
 23
10.0
 33
0.0
  0
SOLID
  5
F5
330
EE
100
AcDbEntity
  8
치수문자_일반주서
 62
     0
100
AcDbTrace
 10
81.44966666666662
 20
-6.698000000000002
 30
0.0
 11
82.55033333333327
 21
-6.697999999999999
 31
0.0
 12
81.99999999999996
 22
-10.0
 32
0.0
 13
81.99999999999996
 23
-10.0
 33
0.0
  0
MTEXT
  5
F6
330
EE
100
AcDbEntity
  8
치수문자_일반주서
 62
     0
100
AcDbMText
 10
77.62499999999991
 20
1.318861500191934
 30
0.0
 40
3.5
 41
0.0
 71
     2
 72
     1
  1
\A1;%%c20
  7
SLDTEXTSTYLE0
 11
-3.552713678800500E-15
 21
1.0
 31
0.0
 73
     1
 44
1.0
  0
POINT
  5
F7
330
EE
100
AcDbEntity
  8
Defpoints
 62
     0
100
AcDbPoint
 10
71.99999999999994
 20
9.999999999999966
 30
0.0
  0
POINT
  5
F8
330
EE
100
AcDbEntity
  8
Defpoints
 62
     0
100
AcDbPoint
 10
71.99999999999994
 20
-10.00000000000004
 30
0.0
  0
POINT
  5
F9
330
EE
100
AcDbEntity
  8
Defpoints
 62
     0
100
AcDbPoint
 10
81.99999999999996
 20
-10.0
 30
0.0
  0
ENDBLK
  5
F0
330
EE
100
AcDbEntity
  8
0
100
AcDbBlockEnd
  0
BLOCK
  5
FD
330
FC
100
AcDbEntity
  8
0
100
AcDbBlockBegin
  2
_D_2
 70
     0
 10
0.0
 20
0.0
 30
0.0
  3
_D_2
  1
_D_2
  0
LINE
  5
FF
330
FC
100
AcDbEntity
  8
치수문자_일반주서
 62
     0
370
    -2
100
AcDbLine
 10
11.99999999999993
 20
9.930938391051352
 30
0.0
 11
11.99999999999993
 21
53.36327900969315
 31
0.0
  0
LINE
  5
100
330
FC
100
AcDbEntity
  8
치수문자_일반주서
 62
     0
370
    -2
100
AcDbLine
 10
71.99999999999994
 20
9.989525509043343
 30
0.0
 11
71.99999999999994
 21
53.36327900969315
 31
0.0
  0
LINE
  5
101
330
FC
100
AcDbEntity
  8
치수문자_일반주서
 62
     0
370
    -2
100
AcDbLine
 10
15.30199999999993
 20
53.36327900969315
 30
0.0
 11
68.69799999999995
 21
53.36327900969315
 31
0.0
  0
SOLID
  5
102
330
FC
100
AcDbEntity
  8
치수문자_일반주서
 62
     0
100
AcDbTrace
 10
15.30199999999993
 20
53.91361234302649
 30
0.0
 11
15.30199999999993
 21
52.81294567635982
 31
0.0
 12
11.99999999999993
 22
53.36327900969315
 32
0.0
 13
11.99999999999993
 23
53.36327900969315
 33
0.0
  0
SOLID
  5
103
330
FC
100
AcDbEntity
  8
치수문자_일반주서
 62
     0
100
AcDbTrace
 10
68.69799999999995
 20
52.81294567635982
 30
0.0
 11
68.69799999999995
 21
53.91361234302649
 31
0.0
 12
71.99999999999994
 22
53.36327900969315
 32
0.0
 13
71.99999999999994
 23
53.36327900969315
 33
0.0
  0
MTEXT
  5
104
330
FC
100
AcDbEntity
  8
치수문자_일반주서
 62
     0
100
AcDbMText
 10
36.55499265847849
 20
57.73827900969315
 30
0.0
 40
3.5
 41
0.0
 71
     2
 72
     1
  1
\A1;60
  7
SLDTEXTSTYLE0
 73
     1
 44
1.0
  0
POINT
  5
13F
330
FC
100
AcDbEntity
  8
Defpoints
 62
     0
100
AcDbPoint
 10
11.99999999999993
 20
9.868438391051352
 30
0.0
  0
POINT
  5
140
330
FC
100
AcDbEntity
  8
Defpoints
 62
     0
100
AcDbPoint
 10
71.99999999999994
 20
9.927025509043343
 30
0.0
  0
POINT
  5
141
330
FC
100
AcDbEntity
  8
Defpoints
 62
     0
100
AcDbPoint
 10
71.99999999999994
 20
53.36327900969315
 30
0.0
  0
ENDBLK
  5
FE
330
FC
100
AcDbEntity
  8
0
100
AcDbBlockEnd
  0
BLOCK
  5
107
330
106
100
AcDbEntity
  8
0
100
AcDbBlockBegin
  2
_D_3
 70
     0
 10
0.0
 20
0.0
 30
0.0
  3
_D_3
  1
_D_3
  0
LINE
  5
109
330
106
100
AcDbEntity
  8
치수문자_일반주서
 62
     0
370
    -2
100
AcDbLine
 10
71.99999999999994
 20
9.989525509043343
 30
0.0
 11
71.99999999999994
 21
80.87170816991298
 31
0.0
  0
LINE
  5
10A
330
106
100
AcDbEntity
  8
치수문자_일반주서
 62
     0
370
    -2
100
AcDbLine
 10
-48.00000000000006
 20
8.062499999999968
 30
0.0
 11
-48.00000000000006
 21
80.87170816991298
 31
0.0
  0
LINE
  5
10B
330
106
100
AcDbEntity
  8
치수문자_일반주서
 62
     0
370
    -2
100
AcDbLine
 10
68.69799999999995
 20
80.87170816991298
 30
0.0
 11
-44.69800000000006
 21
80.87170816991298
 31
0.0
  0
SOLID
  5
10C
330
106
100
AcDbEntity
  8
치수문자_일반주서
 62
     0
100
AcDbTrace
 10
68.69799999999995
 20
80.32137483657965
 30
0.0
 11
68.69799999999995
 21
81.4220415032463
 31
0.0
 12
71.99999999999994
 22
80.87170816991298
 32
0.0
 13
71.99999999999994
 23
80.87170816991298
 33
0.0
  0
SOLID
  5
10D
330
106
100
AcDbEntity
  8
치수문자_일반주서
 62
     0
100
AcDbTrace
 10
-44.69800000000006
 20
81.4220415032463
 30
0.0
 11
-44.69800000000006
 21
80.32137483657965
 31
0.0
 12
-48.00000000000006
 22
80.87170816991298
 32
0.0
 13
-48.00000000000006
 23
80.87170816991298
 33
0.0
  0
MTEXT
  5
10E
330
106
100
AcDbEntity
  8
치수문자_일반주서
 62
     0
100
AcDbMText
 10
15.71779583811257
 20
85.24670816991298
 30
0.0
 40
3.5
 41
0.0
 71
     2
 72
     1
  1
\A1;120
  7
SLDTEXTSTYLE0
 73
     1
 44
1.0
  0
POINT
  5
142
330
106
100
AcDbEntity
  8
Defpoints
 62
     0
100
AcDbPoint
 10
71.99999999999994
 20
9.927025509043343
 30
0.0
  0
POINT
  5
143
330
106
100
AcDbEntity
  8
Defpoints
 62
     0
100
AcDbPoint
 10
-48.00000000000006
 20
7.999999999999968
 30
0.0
  0
POINT
  5
144
330
106
100
AcDbEntity
  8
Defpoints
 62
     0
100
AcDbPoint
 10
-48.00000000000006
 20
80.87170816991298
 30
0.0
  0
ENDBLK
  5
108
330
106
100
AcDbEntity
  8
0
100
AcDbBlockEnd
  0
BLOCK
  5
110
330
10F
100
AcDbEntity
  8
0
100
AcDbBlockBegin
  2
SW_DOWELSYMBOL_0
 70
     0
 10
0.0
 20
0.0
 30
0.0
  3
SW_DOWELSYMBOL_0
  1
SW_DOWELSYMBOL_0
  0
CIRCLE
  5
112
330
10F
100
AcDbEntity
  8
외형선
 62
     0
100
AcDbCircle
 10
0.0
 20
0.0
 30
0.0
 40
2.999999999999993
  0
HATCH
  5
113
330
10F
100
AcDbEntity
  8
0
  6
Continuous
 62
     0
370
    30
100
AcDbHatch
 10
0.0
 20
0.0
 30
0.0
210
0.0
220
0.0
230
1.0
  2
SOLID
 70
     1
 71
     0
 91
        1
 92
        0
 93
        3
 72
     2
 10
0.0
 20
0.0
 40
2.999999999999993
 50
0.0
 51
90.0
 73
     1
 72
     1
 10
0.0
 20
2.999999999999993
 11
0.0
 21
0.0
 72
     1
 10
0.0
 20
0.0
 11
2.999999999999994
 21
0.0
 97
        0
 75
     0
 76
     1
 98
        1
 10
0.0
 20
0.0
  0
HATCH
  5
114
330
10F
100
AcDbEntity
  8
0
  6
Continuous
 62
     0
370
    30
100
AcDbHatch
 10
0.0
 20
0.0
 30
0.0
210
0.0
220
0.0
230
1.0
  2
SOLID
 70
     1
 71
     0
 91
        1
 92
        0
 93
        3
 72
     2
 10
0.0
 20
0.0
 40
2.999999999999993
 50
180.0
 51
270.0000000000008
 73
     1
 72
     1
 10
0.0
 20
-2.999999999999993
 11
0.0
 21
0.0
 72
     1
 10
0.0
 20
0.0
 11
-2.999999999999994
 21
0.0
 97
        0
 75
     0
 76
     1
 98
        1
 10
0.0
 20
0.0
  0
ENDBLK
  5
111
330
10F
100
AcDbEntity
  8
0
100
AcDbBlockEnd
  0
ENDSEC
  0
SECTION
  2
ENTITIES
  0
LINE
  5
95
330
1F
100
AcDbEntity
  8
0
  6
Continuous
 62
     1
370
    15
100
AcDbLine
 10
70.79030098198741
 20
-10.00000000000004
 30
0.0
 11
71.99999999999994
 21
-10.00000000000004
 31
0.0
  0
LINE
  5
96
330
1F
100
AcDbEntity
  8
0
  6
Continuous
 62
     1
370
    15
100
AcDbLine
 10
41.79216183253
 20
9.999999999999966
 30
0.0
 11
39.37575783355445
 21
9.999999999999966
 31
0.0
  0
LINE
  5
97
330
1F
100
AcDbEntity
  8
0
  6
Continuous
 62
     1
370
    15
100
AcDbLine
 10
28.9035153314206
 20
-10.00000000000004
 30
0.0
 11
31.32090675081636
 21
-10.00000000000004
 31
0.0
  0
LINE
  5
98
330
1F
100
AcDbEntity
  8
0
  6
Continuous
 62
     1
370
    15
100
AcDbLine
 10
62.73748818947674
 20
9.999999999999966
 30
0.0
 11
60.31887351686852
 21
9.999999999999966
 31
0.0
  0
LINE
  5
99
330
1F
100
AcDbEntity
  8
0
  6
Continuous
 62
     1
370
    15
100
AcDbLine
 10
18.43077636607143
 20
-10.00000000000004
 30
0.0
 11
20.84942779370387
 21
-10.00000000000004
 31
0.0
  0
LINE
  5
9A
330
1F
100
AcDbEntity
  8
0
  6
Continuous
 62
     1
370
    15
100
AcDbLine
 10
52.26396441269038
 20
9.999999999999966
 30
0.0
 11
49.84762343894623
 21
9.999999999999966
 31
0.0
  0
LINE
  5
9B
330
1F
100
AcDbEntity
  8
0
  6
Continuous
 62
     1
370
    15
100
AcDbLine
 10
39.37575783355447
 20
-10.00000000000004
 30
0.0
 11
41.79216183252993
 21
-10.00000000000004
 31
0.0
  0
LINE
  5
9C
330
1F
100
AcDbEntity
  8
0
  6
Continuous
 62
     1
370
    15
100
AcDbLine
 10
71.99999999999994
 20
9.999999999999966
 30
0.0
 11
70.79030098198739
 21
9.999999999999966
 31
0.0
  0
LINE
  5
9D
330
1F
100
AcDbEntity
  8
0
  6
Continuous
 62
     1
370
    15
100
AcDbLine
 10
60.31887351686845
 20
-10.00000000000004
 30
0.0
 11
62.73748818947671
 21
-10.00000000000004
 31
0.0
  0
LINE
  5
9E
330
1F
100
AcDbEntity
  8
0
  6
Continuous
 62
     1
370
    15
100
AcDbLine
 10
31.32090675081635
 20
9.999999999999966
 30
0.0
 11
28.90351533142051
 21
9.999999999999966
 31
0.0
  0
LINE
  5
9F
330
1F
100
AcDbEntity
  8
0
  6
Continuous
 62
     1
370
    15
100
AcDbLine
 10
49.84762343894615
 20
-10.00000000000004
 30
0.0
 11
52.26396441269029
 21
-10.00000000000004
 31
0.0
  0
LINE
  5
A0
330
1F
100
AcDbEntity
  8
0
  6
Continuous
 62
     1
370
    15
100
AcDbLine
 10
20.84942779370379
 20
9.999999999999966
 30
0.0
 11
18.43077636607136
 21
9.999999999999966
 31
0.0
  0
LINE
  5
A1
330
1F
100
AcDbEntity
  8
0
  6
Continuous
 62
   131
370
    15
100
AcDbLine
 10
-46.00000000000006
 20
-10.00000000000003
 30
0.0
 11
11.00038635999345
 21
-10.00000000000003
 31
0.0
  0
LINE
  5
A2
330
1F
100
AcDbEntity
  8
0
  6
Continuous
 62
   131
370
    15
100
AcDbLine
 10
11.00038635999345
 20
9.999999999999963
 30
0.0
 11
-46.00000000000006
 21
9.999999999999963
 31
0.0
  0
LINE
  5
A3
330
1F
100
AcDbEntity
  8
0
  6
Continuous
 62
   131
370
    15
100
AcDbLine
 10
-46.00000000000006
 20
9.999999999999963
 30
0.0
 11
-48.00000000000006
 21
7.999999999999968
 31
0.0
  0
LINE
  5
A4
330
1F
100
AcDbEntity
  8
0
  6
Continuous
 62
   131
370
    15
100
AcDbLine
 10
-48.00000000000006
 20
-8.000000000000039
 30
0.0
 11
-46.00000000000006
 21
-10.00000000000003
 31
0.0
  0
LINE
  5
A5
330
1F
100
AcDbEntity
  8
0
  6
Continuous
 62
     1
370
    15
100
AcDbLine
 10
71.99999999999994
 20
5.985639555497283
 30
0.0
 11
71.99999999999994
 21
9.927025509043343
 31
0.0
  0
SPLINE
  5
A6
330
1F
100
AcDbEntity
  8
0
  6
Continuous
 62
     1
370
    15
100
AcDbSpline
210
0.0
220
0.0
230
1.0
 70
     8
 71
     3
 72
    22
 73
    18
 74
     0
 42
0.000000001
 43
0.00000001
 40
0.0
 40
0.0
 40
0.0
 40
0.0
 40
0.0709477391292816
 40
0.1418958446505478
 40
0.2127646139906262
 40
0.2836413656241493
 40
0.3490295804926128
 40
0.4143329939574545
 40
0.479599987094587
 40
0.5449788644680693
 40
0.6102975058959291
 40
0.6755604132123982
 40
0.7409250023330275
 40
0.8062611970869277
 40
0.8715223614629517
 40
0.9368679554150092
 40
1.0
 40
1.0
 40
1.0
 40
1.0
 10
11.99999999999995
 20
3.534061064628507
 30
0.0
 10
12.55231621021795
 20
3.008268652913779
 30
0.0
 10
13.65695148295391
 20
1.956681114159952
 30
0.0
 10
15.3136618914856
 20
0.3008223729871846
 30
0.0
 10
16.96835171535574
 20
-1.357192827813616
 30
0.0
 10
18.57972752275282
 20
-2.937673915379508
 30
0.0
 10
20.14987906224901
 20
-4.398675544026951
 30
0.0
 10
21.67457287409863
 20
-5.718814948651172
 30
0.0
 10
23.19836691773892
 20
-6.906583597507302
 30
0.0
 10
24.72479184082433
 20
-7.932365457821518
 30
0.0
 10
26.24980092527548
 20
-8.775025016536983
 30
0.0
 10
27.77350712219764
 20
-9.41437945743421
 30
0.0
 10
29.29959065291673
 20
-9.834128164664103
 30
0.0
 10
30.82501550730208
 20
-10.02720559874251
 30
0.0
 10
32.34864546350197
 20
-9.982939265911847
 30
0.0
 10
33.85708556763346
 20
-9.726707873263868
 30
0.0
 10
34.85719963439704
 20
-9.371186108635936
 30
0.0
 10
35.34864115349679
 20
-9.196487879815729
 30
0.0
  0
SPLINE
  5
A7
330
1F
100
AcDbEntity
  8
0
  6
Continuous
 62
     1
370
    15
100
AcDbSpline
210
0.0
220
0.0
230
1.0
 70
     8
 71
     3
 72
    14
 73
    10
 74
     0
 42
0.000000001
 43
0.00000001
 40
0.0
 40
0.0
 40
0.0
 40
0.0
 40
0.0122175975644666
 40
0.1768465348520667
 40
0.3413474616341291
 40
0.5061130235530147
 40
0.6707847043746206
 40
0.8352797245893507
 40
1.0
 40
1.0
 40
1.0
 40
1.0
 10
62.73748818947676
 20
9.992022804208144
 30
0.0
 10
62.77522958300354
 20
9.994646898779084
 30
0.0
 10
63.32152640040012
 20
10.03262998256839
 30
0.0
 10
64.37535101456446
 20
9.888863427902958
 30
0.0
 10
65.89908588326254
 20
9.544674455809941
 30
0.0
 10
67.42526659548427
 20
8.955140669541727
 30
0.0
 10
68.9505741776607
 20
8.161676377614516
 30
0.0
 10
70.47424135259371
 20
7.18600910293997
 30
0.0
 10
71.49118184769763
 20
6.400743412477902
 30
0.0
 10
71.99999999999997
 20
6.00784192059025
 30
0.0
  0
SPLINE
  5
A8
330
1F
100
AcDbEntity
  8
0
  6
Continuous
 62
   131
370
    15
100
AcDbSpline
210
0.0
220
0.0
230
1.0
 70
    24
 71
     3
 72
    18
 73
    14
 74
     0
 42
0.000000001
 43
0.00000001
 40
0.0
 40
0.0
 40
0.0
 40
0.0
 40
0.0092502844011982
 40
0.114530007219552
 40
0.2228628491317936
 40
0.3281425719501398
 40
0.4364754138623726
 40
0.541755136680719
 40
0.6500879785929518
 40
0.7553677014112983
 40
0.8637005433235314
 40
0.9689802661418786
 40
1.0
 40
1.0
 40
1.0
 40
1.0
 10
11.99999999999998
 20
9.19435027273662
 30
0.0
 10
11.99999999999997
 20
9.178301390427052
 30
0.0
 10
11.99999999999973
 20
8.979596299095755
 30
0.0
 10
12.00000000000011
 20
8.567401373346717
 30
0.0
 10
11.9999999999999
 20
7.932021122240613
 30
0.0
 10
11.99999999999993
 20
7.26155889217746
 30
0.0
 10
11.99999999999995
 20
6.5875586217748
 30
0.0
 10
11.99999999999989
 20
5.916668137706374
 30
0.0
 10
11.99999999999991
 20
5.280645619149376
 30
0.0
 10
12.00000000000001
 20
4.683564111563037
 30
0.0
 10
11.99999999999988
 20
4.162286601734992
 30
0.0
 10
11.99999999999993
 20
3.80168945718376
 30
0.0
 10
11.99999999999995
 20
3.653290542712315
 30
0.0
 10
11.99999999999995
 20
3.619517151798035
 30
0.0
  0
SPLINE
  5
A9
330
1F
100
AcDbEntity
  8
0
  6
Continuous
 62
     1
370
    15
100
AcDbSpline
210
0.0
220
0.0
230
1.0
 70
     8
 71
     3
 72
    11
 73
     7
 74
     0
 42
0.000000001
 43
0.00000001
 40
0.0
 40
0.0
 40
0.0
 40
0.0
 40
0.2913832371085314
 40
0.582368007252401
 40
0.8736652825773888
 40
1.0
 40
1.0
 40
1.0
 40
1.0
 10
71.99999999999994
 20
9.927025509043343
 30
0.0
 10
71.49117992851924
 20
9.966741662750675
 30
0.0
 10
70.47423559768299
 20
10.04611965827227
 30
0.0
 10
68.95059717086555
 20
9.8584771653311
 30
0.0
 10
67.7134678939891
 20
9.57220354988281
 30
0.0
 10
66.98423518242758
 20
9.266268039416818
 30
0.0
 10
66.76364047189226
 20
9.173721785931823
 30
0.0
  0
SPLINE
  5
AA
330
1F
100
AcDbEntity
  8
0
  6
Continuous
 62
     1
370
    15
100
AcDbSpline
210
0.0
220
0.0
230
1.0
 70
     8
 71
     3
 72
    25
 73
    21
 74
     0
 42
0.000000001
 43
0.00000001
 40
0.0
 40
0.0
 40
0.0
 40
0.0
 40
0.0338451287818033
 40
0.0895612455740428
 40
0.1452218022091592
 40
0.2009625850525114
 40
0.2566946379718905
 40
0.3123546824617049
 40
0.3680787189781807
 40
0.4238269725268009
 40
0.4794885035384036
 40
0.5351975691465654
 40
0.5909580088827445
 40
0.6466230246154984
 40
0.7023191025746168
 40
0.7580875060881984
 40
0.81853698146815
 40
0.8789796488971174
 40
0.9394899806930451
 40
1.0
 40
1.0
 40
1.0
 40
1.0
 10
39.37575783355447
 20
-9.972253580841311
 30
0.0
 10
39.066789273035
 20
-9.974862965153413
 30
0.0
 10
38.24919424180496
 20
-9.981767938412043
 30
0.0
 10
36.92383897946075
 20
-9.732703606767126
 30
0.0
 10
35.40019215905655
 20
-9.257232600863373
 30
0.0
 10
33.87430521348533
 20
-8.557475952256153
 30
0.0
 10
32.34867077991547
 20
-7.661896089350922
 30
0.0
 10
30.82500871889229
 20
-6.586577016715199
 30
0.0
 10
29.29959247371985
 20
-5.359544292767771
 30
0.0
 10
27.77350663508514
 20
-4.008737860334909
 30
0.0
 10
26.24980105583155
 20
-2.562963376026546
 30
0.0
 10
24.72479180579148
 20
-1.058667433855506
 30
0.0
 10
23.19836692711137
 20
0.4688471761020317
 30
0.0
 10
21.67457287158818
 20
1.987825018905253
 30
0.0
 10
20.14987906292105
 20
3.459975587772439
 30
0.0
 10
18.57972752255576
 20
4.889633482885886
 30
0.0
 10
16.9683517154103
 20
6.238228731769849
 30
0.0
 10
15.31366189147111
 20
7.447229506261498
 30
0.0
 10
13.65695148295755
 20
8.470076199543264
 30
0.0
 10
12.55231621021919
 20
8.952925997264082
 30
0.0
 10
11.99999999999998
 20
9.194350272736623
 30
0.0
  0
SPLINE
  5
AB
330
1F
100
AcDbEntity
  8
0
  6
Continuous
 62
     1
370
    15
100
AcDbSpline
210
0.0
220
0.0
230
1.0
 70
     8
 71
     3
 72
    31
 73
    27
 74
     0
 42
0.000000001
 43
0.00000001
 40
0.0
 40
0.0
 40
0.0
 40
0.0
 40
0.0290006350435059
 40
0.0720456411542959
 40
0.1150973898774792
 40
0.1580871753776545
 40
0.2011198731191275
 40
0.2441826225602092
 40
0.2871743471778664
 40
0.3301962666233666
 40
0.3732667572360347
 40
0.4162619639198666
 40
0.4592746385267285
 40
0.5023496076929497
 40
0.5453498382962588
 40
0.5883548044260497
 40
0.6314309877502287
 40
0.6744377825462795
 40
0.7174365789833477
 40
0.7605107115879273
 40
0.8035256087862181
 40
0.8465197762548314
 40
0.8895885940762764
 40
0.9326131293400134
 40
0.9756042100203679
 40
1.0
 40
1.0
 40
1.0
 40
1.0
 10
31.32090675081636
 20
9.974513227396182
 30
0.0
 10
31.6633342986953
 20
9.974398672537289
 30
0.0
 10
32.51401954054676
 20
9.974114086415502
 30
0.0
 10
33.87430081793091
 20
9.707723951580148
 30
0.0
 10
35.40018740139892
 20
9.217178565495859
 30
0.0
 10
36.923862368286
 20
8.502956493314189
 30
0.0
 10
38.44906424530416
 20
7.594228243564327
 30
0.0
 10
39.97533692745421
 20
6.509452506066072
 30
0.0
 10
41.49908616684464
 20
5.272042990065003
 30
0.0
 10
43.02390846789922
 20
3.91280989884757
 30
0.0
 10
44.55045786600773
 20
2.464367380398778
 30
0.0
 10
46.07433319241225
 20
0.9563763537838227
 30
0.0
 10
47.5988294501323
 20
-0.5733368557719845
 30
0.0
 10
49.12553884620327
 20
-2.087679058640776
 30
0.0
 10
50.64959389629971
 20
-3.555993355396186
 30
0.0
 10
52.17381729694094
 20
-4.941506039956325
 30
0.0
 10
53.70057006614172
 20
-6.210356981491073
 30
0.0
 10
55.22485831316077
 20
-7.33697983336432
 30
0.0
 10
56.74886217942645
 20
-8.29320460401272
 30
0.0
 10
58.2755418074392
 20
-9.055595917132198
 30
0.0
 10
59.80011610935841
 20
-9.609046631503418
 30
0.0
 10
61.32395565050136
 20
-9.938592203944445
 30
0.0
 10
62.8504391376256
 20
-10.03984490522765
 30
0.0
 10
64.3753764464024
 20
-9.898321643055644
 30
0.0
 10
65.67869718832391
 20
-9.612174567963292
 30
0.0
 10
66.47526303435347
 20
-9.290262338492498
 30
0.0
 10
66.76364047189226
 20
-9.173721785931894
 30
0.0
  0
SPLINE
  5
AC
330
1F
100
AcDbEntity
  8
0
  6
Continuous
 62
     1
370
    15
100
AcDbSpline
210
0.0
220
0.0
230
1.0
 70
     8
 71
     3
 72
    32
 73
    28
 74
     0
 42
0.000000001
 43
0.00000001
 40
0.0
 40
0.0
 40
0.0
 40
0.0
 40
0.0089259097939975
 40
0.0519161805786904
 40
0.09495262107306
 40
0.1380135971052735
 40
0.1810054115532855
 40
0.2240306811556804
 40
0.267100234071594
 40
0.3100951353605503
 40
0.3531107667329971
 40
0.3961856345227572
 40
0.4391851648591753
 40
0.4821926936910917
 40
0.5252696122354515
 40
0.5682753123698968
 40
0.6112762768970337
 40
0.6543519812627138
 40
0.6973653900057971
 40
0.7403613305277086
 40
0.7834325562633963
 40
0.8264552100029074
 40
0.8694476683992138
 40
0.912511152831189
 40
0.9555445850506359
 40
0.9985351042963633
 40
1.0
 40
1.0
 40
1.0
 40
1.0
 10
70.7903009819874
 20
-9.980897929743703
 30
0.0
 10
70.6848157494155
 20
-9.986821973737113
 30
0.0
 10
70.07127712881788
 20
-10.02127826388748
 30
0.0
 10
68.95063810015496
 20
-9.856587169463172
 30
0.0
 10
67.42524993997242
 20
-9.478644670346707
 30
0.0
 10
65.8990885028799
 20
-8.861192588603524
 30
0.0
 10
64.37535715344853
 20
-8.042388395243604
 30
0.0
 10
62.85044431507383
 20
-7.035830281590236
 30
0.0
 10
61.32395426530931
 20
-5.867586538947998
 30
0.0
 10
59.80011648043112
 20
-4.561127943345546
 30
0.0
 10
58.27554170783132
 20
-3.149212877950247
 30
0.0
 10
56.74886220608268
 20
-1.666145163224962
 30
0.0
 10
55.2248583060107
 20
-0.1419949032621718
 30
0.0
 10
53.70057006810504
 20
1.385222840243329
 30
0.0
 10
52.17381729625177
 20
2.878033837722892
 30
0.0
 10
50.64959389709379
 20
4.306351406736956
 30
0.0
 10
49.1255388437135
 20
5.634677160626241
 30
0.0
 10
47.59882945930886
 20
6.830264653123024
 30
0.0
 10
46.07433315826206
 20
7.868976356012562
 30
0.0
 10
44.55045799349111
 20
8.725114708404227
 30
0.0
 10
43.02390799141902
 20
9.377468597139556
 30
0.0
 10
41.49908794223195
 20
9.813440621473614
 30
0.0
 10
39.97533030195144
 20
10.01977336489014
 30
0.0
 10
38.44908901082957
 20
9.999929005837611
 30
0.0
 10
36.92377005771484
 20
9.723792256685726
 30
0.0
 10
35.89130922065477
 20
9.4448363332247
 30
0.0
 10
35.36595271147139
 20
9.204410399877709
 30
0.0
 10
35.3486411534968
 20
9.19648787981566
 30
0.0
  0
SPLINE
  5
AD
330
1F
100
AcDbEntity
  8
0
  6
Continuous
 62
     1
370
    15
100
AcDbSpline
210
0.0
220
0.0
230
1.0
 70
     8
 71
     3
 72
    29
 73
    25
 74
     0
 42
0.000000001
 43
0.00000001
 40
0.0
 40
0.0
 40
0.0
 40
0.0
 40
0.0489801968700186
 40
0.0979606466861041
 40
0.1468863251758415
 40
0.1958175144022027
 40
0.2409595820218685
 40
0.2860431052890964
 40
0.3311014850514972
 40
0.3762371063439359
 40
0.4213311425413249
 40
0.4663867015753569
 40
0.5115124586854232
 40
0.5566186131740465
 40
0.6016729689341309
 40
0.6467856123480085
 40
0.6919053222510344
 40
0.7369600925701947
 40
0.7820598363906892
 40
0.8271910754235421
 40
0.8722478780043605
 40
0.9173363258008382
 40
0.9624756778471375
 40
1.0
 40
1.0
 40
1.0
 40
1.0
 10
11.99999999999995
 20
9.868438391051354
 30
0.0
 10
12.55231621021913
 20
9.753069912163994
 30
0.0
 10
13.65695148295748
 20
9.522332358597408
 30
0.0
 10
15.31366189147131
 20
8.843717137822363
 30
0.0
 10
16.96835171540931
 20
7.942260105668099
 30
0.0
 10
18.57972752255932
 20
6.847418472025765
 30
0.0
 10
20.14987906290882
 20
5.615558851052297
 30
0.0
 10
21.67457287163359
 20
4.285901657594267
 30
0.0
 10
23.19836692694177
 20
2.856061354404065
 30
0.0
 10
24.72479180642537
 20
1.362186453502516
 30
0.0
 10
26.24980105346933
 20
-0.1645927813338327
 30
0.0
 10
27.77350664389862
 20
-1.688623183063908
 30
0.0
 10
29.2995924407754
 20
-3.171389269515535
 30
0.0
 10
30.82500884171723
 20
-4.581231441056007
 30
0.0
 10
32.34867032185708
 20
-5.885945395739314
 30
0.0
 10
33.87430692562507
 20
-7.052615295538924
 30
0.0
 10
35.40018577229477
 20
-8.05561576795949
 30
0.0
 10
36.92386278683773
 20
-8.872669186244364
 30
0.0
 10
38.44906420095538
 20
-9.483103663217138
 30
0.0
 10
39.97533668571423
 20
-9.872901831597686
 30
0.0
 10
41.49908717636942
 20
-10.03556814877032
 30
0.0
 10
43.02390466612756
 20
-9.958921019763448
 30
0.0
 10
44.46543578657372
 20
-9.6900034942944
 30
0.0
 10
45.3967133224656
 20
-9.342757093675944
 30
0.0
 10
45.81945715292172
 20
-9.185128172272867
 30
0.0
  0
SPLINE
  5
AE
330
1F
100
AcDbEntity
  8
0
  6
Continuous
 62
     1
370
    15
100
AcDbSpline
210
0.0
220
0.0
230
1.0
 70
     8
 71
     3
 72
    31
 73
    27
 74
     0
 42
0.000000001
 43
0.00000001
 40
0.0
 40
0.0
 40
0.0
 40
0.0
 40
0.0203670162904609
 40
0.0634424736829761
 40
0.1064556358100644
 40
0.1494513298161343
 40
0.1925223086043352
 40
0.2355447156748457
 40
0.2785369275752753
 40
0.3216001651041481
 40
0.3646333505927962
 40
0.4076236233537649
 40
0.4506758600400542
 40
0.493721354037526
 40
0.5367112312353248
 40
0.5797505336427694
 40
0.6228085404412638
 40
0.6657995657766486
 40
0.7088273051766278
 40
0.7518947241613947
 40
0.7948884409738657
 40
0.8379061491666733
 40
0.8809797190953659
 40
0.927668785679404
 40
0.9743525940395321
 40
0.9999999999999999
 40
0.9999999999999999
 40
0.9999999999999999
 40
0.9999999999999999
 10
49.84762343894615
 20
-9.971042126526104
 30
0.0
 10
49.60712423677724
 20
-9.97710925691638
 30
0.0
 10
48.85797845681716
 20
-9.996008135113701
 30
0.0
 10
47.59878707342788
 20
-9.778522977132132
 30
0.0
 10
46.07434453466008
 20
-9.33509755695097
 30
0.0
 10
44.55045482077942
 20
-8.661754472816442
 30
0.0
 10
43.02390928555938
 20
-7.792069147090833
 30
0.0
 10
41.49908594021915
 20
-6.739767449798209
 30
0.0
 10
39.97533701745893
 20
-5.530413341739384
 30
0.0
 10
38.44906411206898
 20
-4.194507692034771
 30
0.0
 10
36.92386281062064
 20
-2.760444208446584
 30
0.0
 10
35.40018576591287
 20
-1.261032408330786
 30
0.0
 10
33.87430692734221
 20
0.265776327962103
 30
0.0
 10
32.34867032137417
 20
1.786654273903944
 30
0.0
 10
30.82500884193437
 20
3.26766968571024
 30
0.0
 10
29.29959244038971
 20
4.671408669681839
 30
0.0
 10
27.77350664522404
 20
5.966278432309373
 30
0.0
 10
26.24980104856014
 20
7.124318492180691
 30
0.0
 10
24.724791824764
 20
8.116061475981963
 30
0.0
 10
23.19836685848416
 20
8.918783628350283
 30
0.0
 10
21.67457312668563
 20
9.515818403656597
 30
0.0
 10
20.14987810987546
 20
9.890669584503616
 30
0.0
 10
18.5797312107962
 20
10.04297682749362
 30
0.0
 10
16.96833665980494
 20
9.93093903000014
 30
0.0
 10
15.56276484621116
 20
9.640765701435775
 30
0.0
 10
14.70784705614147
 20
9.292326416529416
 30
0.0
 10
14.40470789512091
 20
9.168775832227611
 30
0.0
  0
LINE
  5
AF
330
1F
100
AcDbEntity
  8
0
  6
Continuous
 62
     1
370
    15
100
AcDbLine
 10
71.99999999999994
 20
-9.927025509043409
 30
0.0
 11
71.99999999999994
 21
-5.981250430916618
 31
0.0
  0
SPLINE
  5
B0
330
1F
100
AcDbEntity
  8
0
  6
Continuous
 62
     1
370
    15
100
AcDbSpline
210
0.0
220
0.0
230
1.0
 70
     8
 71
     3
 72
     9
 73
     5
 74
     0
 42
0.000000001
 43
0.00000001
 40
0.0
 40
0.0
 40
0.0
 40
0.0
 40
0.6890700808972559
 40
0.9999999999999999
 40
0.9999999999999999
 40
0.9999999999999999
 40
0.9999999999999999
 10
11.99999999999995
 20
-9.868438391051434
 30
0.0
 10
12.5523364878832
 20
-9.76433562681213
 30
0.0
 10
13.35390443168948
 20
-9.613258447399913
 30
0.0
 10
14.155475475358
 20
-9.274199426246092
 30
0.0
 10
14.40470789512098
 20
-9.16877583222768
 30
0.0
  0
SPLINE
  5
B1
330
1F
100
AcDbEntity
  8
0
  6
Continuous
 62
     1
370
    15
100
AcDbSpline
210
0.0
220
0.0
230
1.0
 70
     8
 71
     3
 72
    27
 73
    23
 74
     0
 42
0.000000001
 43
0.00000001
 40
0.0
 40
0.0
 40
0.0
 40
0.0
 40
0.0407690225515702
 40
0.0913041109439965
 40
0.1417508678606456
 40
0.1922181200867699
 40
0.2427584632161741
 40
0.29321111475374
 40
0.3436693225374951
 40
0.3942110902520117
 40
0.4446714436303439
 40
0.4951224124446178
 40
0.5456617740268905
 40
0.5961316340443988
 40
0.6465771716382079
 40
0.6971102973259816
 40
0.7475914657934825
 40
0.7980333816241011
 40
0.8485564441300519
 40
0.8990507193063526
 40
0.9494908239704443
 40
1.0
 40
1.0
 40
1.0
 40
1.0
 10
41.79216183253001
 20
9.981956561885355
 30
0.0
 10
42.20256769833536
 20
9.974575685091814
 30
0.0
 10
43.12169060976055
 20
9.95804587026074
 30
0.0
 10
44.55047960697662
 20
9.655741626478367
 30
0.0
 10
46.07432736886657
 20
9.133716103650007
 30
0.0
 10
47.59883101342913
 20
8.392699530865185
 30
0.0
 10
49.12553842784347
 20
7.460044752047822
 30
0.0
 10
50.64959400844386
 20
6.352200187783081
 30
0.0
 10
52.17381726638795
 20
5.096915895387505
 30
0.0
 10
53.70057007598472
 20
3.725411329538403
 30
0.0
 10
55.22485830432436
 20
2.265377486641142
 30
0.0
 10
56.74886220495566
 20
0.7524470544074386
 30
0.0
 10
58.27554171403845
 20
-0.775479746429941
 30
0.0
 10
59.8001164567747
 20
-2.287397683012547
 30
0.0
 10
61.32395435376033
 20
-3.746741424822816
 30
0.0
 10
62.85044398443064
 20
-5.116885583798011
 30
0.0
 10
64.37535838554909
 20
-6.369756533388514
 30
0.0
 10
65.89908390533274
 20
-7.475034910127361
 30
0.0
 10
67.42526712532772
 20
-8.406528044087532
 30
0.0
 10
68.95057403657879
 20
-9.139143905305998
 30
0.0
 10
70.47424138790471
 20
-9.676510799032968
 30
0.0
 10
71.49118185947336
 20
-9.843482523992167
 30
0.0
 10
71.99999999999997
 20
-9.927025509043409
 30
0.0
  0
SPLINE
  5
B2
330
1F
100
AcDbEntity
  8
0
  6
Continuous
 62
   131
370
    15
100
AcDbSpline
210
0.0
220
0.0
230
1.0
 70
    24
 71
     3
 72
    11
 73
     7
 74
     0
 42
0.000000001
 43
0.00000001
 40
0.0
 40
0.0
 40
0.0
 40
0.0
 40
0.2093203645103004
 40
0.5717631136388187
 40
0.94471672704568
 40
1.0
 40
1.0
 40
1.0
 40
1.0
 10
11.99999999999993
 20
-8.088206402075299
 30
0.0
 10
11.99999999999992
 20
-8.204327761287294
 30
0.0
 10
11.99999999999989
 20
-8.521515771437908
 30
0.0
 10
12.0
 20
-9.090015233632338
 30
0.0
 10
11.99999999999993
 20
-9.573139074170909
 30
0.0
 10
11.99999999999995
 20
-9.834675346380367
 30
0.0
 10
11.99999999999995
 20
-9.868438391051436
 30
0.0
  0
SPLINE
  5
B3
330
1F
100
AcDbEntity
  8
0
  6
Continuous
 62
     1
370
    15
100
AcDbSpline
210
0.0
220
0.0
230
1.0
 70
     8
 71
     3
 72
    25
 73
    21
 74
     0
 42
0.000000001
 43
0.00000001
 40
0.0
 40
0.0
 40
0.0
 40
0.0
 40
0.0582785121281122
 40
0.1164773283133035
 40
0.1747386475345947
 40
0.2330331821609279
 40
0.2912340881068051
 40
0.3494802845415496
 40
0.4077864302712509
 40
0.4659915150809834
 40
0.5242246635966786
 40
0.5825380044279784
 40
0.6407493558900819
 40
0.6989715354526082
 40
0.7572876525281096
 40
0.8155073564600795
 40
0.8737206494824592
 40
0.9320351228427545
 40
0.9902652624358399
 40
1.0
 40
1.0
 40
1.0
 40
1.0
 10
71.99999999999996
 20
-6.00784192059027
 30
0.0
 10
71.49118185947343
 20
-5.587995046669039
 30
0.0
 10
70.47424138790493
 20
-4.748875439985601
 30
0.0
 10
68.95057403657837
 20
-3.340743707488358
 30
0.0
 10
67.42526712532906
 20
-1.866266869352262
 30
0.0
 10
65.89908390532774
 20
-0.3466600670162482
 30
0.0
 10
64.37535838556784
 20
1.182452352167505
 30
0.0
 10
62.85044398436096
 20
2.683304439592581
 30
0.0
 10
61.32395435402053
 20
4.120452441049496
 30
0.0
 10
59.80011645580563
 20
5.464191898093869
 30
0.0
 10
58.27554171765914
 20
6.680403606329395
 30
0.0
 10
56.74886219143259
 20
7.740220724849173
 30
0.0
 10
55.22485835469655
 20
8.622071110438059
 30
0.0
 10
53.70056988781578
 20
9.303253717149675
 30
0.0
 10
52.17381796941216
 20
9.768180680521558
 30
0.0
 10
50.6495913898132
 20
10.00569853619595
 30
0.0
 10
49.12554820718753
 20
10.0158122747754
 30
0.0
 10
47.59879446788
 20
9.77432760520945
 30
0.0
 10
46.4972762601204
 20
9.488078997443674
 30
0.0
 10
45.90437895270436
 20
9.223083917464825
 30
0.0
 10
45.81945715292181
 20
9.1851281722728
 30
0.0
  0
SPLINE
  5
B4
330
1F
100
AcDbEntity
  8
0
  6
Continuous
 62
     1
370
    15
100
AcDbSpline
210
0.0
220
0.0
230
1.0
 70
     8
 71
     3
 72
    11
 73
     7
 74
     0
 42
0.000000001
 43
0.00000001
 40
0.0
 40
0.0
 40
0.0
 40
0.0
 40
0.2274770542236016
 40
0.4847931061144371
 40
0.7423972182200261
 40
1.0
 40
1.0
 40
1.0
 40
1.0
 10
18.43077636607144
 20
-9.985966713599632
 30
0.0
 10
17.94325203940006
 20
-9.971210933005327
 30
0.0
 10
16.90425303600586
 20
-9.939763802076579
 30
0.0
 10
15.31369058740277
 20
-9.554185249115069
 30
0.0
 10
13.65694430567379
 20
-8.9334068794764
 30
0.0
 10
12.55231381779538
 20
-8.312968635747492
 30
0.0
 10
11.99999999999998
 20
-8.002750314905787
 30
0.0
  0
SPLINE
  5
B5
330
1F
100
AcDbEntity
  8
0
  6
Continuous
 62
     1
370
    15
100
AcDbSpline
210
0.0
220
0.0
230
1.0
 70
     8
 71
     3
 72
    31
 73
    27
 74
     0
 42
0.000000001
 43
0.00000001
 40
0.0
 40
0.0
 40
0.0
 40
0.0
 40
0.0232884184846444
 40
0.066282672761091
 40
0.1093506301311832
 40
0.1523789074204536
 40
0.1953704701861674
 40
0.2384290152523245
 40
0.2814688556936095
 40
0.3244592703073848
 40
0.3675053024160984
 40
0.4105580772979186
 40
0.4535488874798084
 40
0.4965826109258293
 40
0.5396463867877552
 40
0.5826391361333466
 40
0.625662081026489
 40
0.6687335982445157
 40
0.7117298297392786
 40
0.7547435295734275
 40
0.7978195254517557
 40
0.8408207809857434
 40
0.8838267721590861
 40
0.9269039822243121
 40
0.9699118021075019
 40
1.0
 40
1.0
 40
1.0
 40
1.0
 10
20.8494277937038
 20
9.971148942279417
 30
0.0
 10
21.1245526871663
 20
9.975780648398143
 30
0.0
 10
21.90760342518992
 20
9.988963246486358
 30
0.0
 10
23.19832695385476
 20
9.755571579933058
 30
0.0
 10
24.72480251420816
 20
9.296443087355247
 30
0.0
 10
26.24979818831315
 20
8.6099396219164
 30
0.0
 10
27.77350741268895
 20
7.725838382735017
 30
0.0
 10
29.29959223471042
 20
6.662904094498971
 30
0.0
 10
30.82500889694278
 20
5.445232060457586
 30
0.0
 10
32.34867030669594
 20
4.099795183463078
 30
0.0
 10
33.87430693099684
 20
2.660671602991232
 30
0.0
 10
35.40018576598497
 20
1.160079394719012
 30
0.0
 10
36.92386280668888
 20
-0.3693330739714885
 30
0.0
 10
38.44906412774848
 20
-1.888909796693053
 30
0.0
 10
39.97533695867534
 20
-3.363691966417461
 30
0.0
 10
41.49908615932961
 20
-4.762521974422233
 30
0.0
 10
43.02390846673555
 20
-6.049886592317076
 30
0.0
 10
44.55045787819703
 20
-7.195668199601021
 30
0.0
 10
46.07433314491023
 20
-8.17619583047541
 30
0.0
 10
47.59882962817337
 20
-8.966320071464448
 30
0.0
 10
49.12553818101701
 20
-9.547735294029112
 30
0.0
 10
50.64959637404836
 20
-9.907865021831517
 30
0.0
 10
52.17380804173635
 20
-10.03972580082393
 30
0.0
 10
53.70060464716765
 20
-9.93087595405191
 30
0.0
 10
55.07227996344895
 20
-9.651622690695556
 30
0.0
 10
55.93558288591242
 20
-9.31579044683661
 30
0.0
 10
56.29094053688546
 20
-9.177553271688192
 30
0.0
  0
SPLINE
  5
B6
330
1F
100
AcDbEntity
  8
0
  6
Continuous
 62
     1
370
    15
100
AcDbSpline
210
0.0
220
0.0
230
1.0
 70
     8
 71
     3
 72
    31
 73
    27
 74
     0
 42
0.000000001
 43
0.00000001
 40
0.0
 40
0.0
 40
0.0
 40
0.0
 40
0.0146386871793913
 40
0.0576545410580998
 40
0.1007296316605329
 40
0.1437293844199272
 40
0.1867371357161935
 40
0.2298142770838342
 40
0.2728201996731701
 40
0.3158213866307018
 40
0.3588973138133822
 40
0.4019109450512303
 40
0.444907107977549
 40
0.4879785565070704
 40
0.531001432789168
 40
0.5739941135718697
 40
0.6170578207576353
 40
0.6600914755754221
 40
0.7030822171975142
 40
0.7461349234207187
 40
0.7891808868815687
 40
0.8321712329361768
 40
0.8752110047394727
 40
0.9182694811378124
 40
0.9612609753425285
 40
1.0
 40
1.0
 40
1.0
 40
1.0
 10
60.31887351686848
 20
-9.97392483565253
 30
0.0
 10
60.14599860755519
 20
-9.981058938702391
 30
0.0
 10
59.46512993164356
 20
-10.00915663845925
 30
0.0
 10
58.27557223186609
 20
-9.819632503067982
 30
0.0
 10
56.74885403844411
 20
-9.409041578169125
 30
0.0
 10
55.22486049325931
 20
-8.76333394725954
 30
0.0
 10
53.70056948085831
 20
-7.918285446726503
 30
0.0
 10
52.1738174535859
 20
-6.889861830926251
 30
0.0
 10
50.64959385436075
 20
-5.700231057669865
 30
0.0
 10
49.12553885747317
 20
-4.377881753883619
 30
0.0
 10
47.59882944707545
 20
-2.956207990236076
 30
0.0
 10
46.07433319337825
 20
-1.463988260541511
 30
0.0
 10
44.55045786519657
 20
0.0627682008712891
 30
0.0
 10
43.02390847017963
 20
1.58563082286912
 30
0.0
 10
41.49908615854843
 20
3.073339986956392
 30
0.0
 10
39.97533695836096
 20
4.49046167834074
 30
0.0
 10
38.44906412979187
 20
5.801341538175342
 30
0.0
 10
36.92386279884062
 20
6.978544748610725
 30
0.0
 10
35.40018579532311
 20
7.994518193892034
 30
0.0
 10
33.87430682131638
 20
8.823687627955387
 30
0.0
 10
32.34867071572
 20
9.448491903262063
 30
0.0
 10
30.82500737189497
 20
9.854046124856666
 30
0.0
 10
29.29959793484539
 20
10.03181518132542
 30
0.0
 10
27.77348614394602
 20
9.971768989131906
 30
0.0
 10
26.30050598074617
 20
9.708443098276016
 30
0.0
 10
25.33478459553445
 20
9.356993970817847
 30
0.0
 10
24.87704732584885
 20
9.190412422040383
 30
0.0
  0
LINE
  5
B7
330
1F
100
AcDbEntity
  8
0
  6
Continuous
 62
     1
370
    15
100
AcDbLine
 10
71.99999999999994
 20
-3.919183588453027
 30
0.0
 11
71.99999999999994
 21
3.919183588453144
 31
0.0
  0
SPLINE
  5
B8
330
1F
100
AcDbEntity
  8
0
  6
Continuous
 62
     1
370
    15
100
AcDbSpline
210
0.0
220
0.0
230
1.0
 70
     8
 71
     3
 72
    16
 73
    12
 74
     0
 42
0.000000001
 43
0.00000001
 40
0.0
 40
0.0
 40
0.0
 40
0.0
 40
0.1286473655346507
 40
0.2572953954366835
 40
0.3857995674677433
 40
0.5143182135473798
 40
0.6328846637694661
 40
0.7512973461998866
 40
0.8696439887639322
 40
0.9881935075919421
 40
1.0
 40
1.0
 40
1.0
 40
1.0
 10
11.99999999999993
 20
-6.334377326422766
 30
0.0
 10
12.55231619919137
 20
-6.744799494368855
 30
0.0
 10
13.65695144987414
 20
-7.565645949784426
 30
0.0
 10
15.31366202374372
 20
-8.54291593370684
 30
0.0
 10
16.96835121998373
 20
-9.2993736455745
 30
0.0
 10
18.57972931190814
 20
-9.7853787547861
 30
0.0
 10
20.14987296113368
 20
-10.01325786699053
 30
0.0
 10
21.67459566671945
 20
-10.00836473175001
 30
0.0
 10
23.19828182566415
 20
-9.749025343592482
 30
0.0
 10
24.26692026087258
 20
-9.466566908770423
 30
0.0
 10
24.82637671738366
 20
-9.21334685107379
 30
0.0
 10
24.87704732584893
 20
-9.19041242204045
 30
0.0
  0
SPLINE
  5
B9
330
1F
100
AcDbEntity
  8
0
  6
Continuous
 62
     1
370
    15
100
AcDbSpline
210
0.0
220
0.0
230
1.0
 70
     8
 71
     3
 72
    20
 73
    16
 74
     0
 42
0.000000001
 43
0.00000001
 40
0.0
 40
0.0
 40
0.0
 40
0.0
 40
0.0727727187430447
 40
0.1500079000436075
 40
0.2272287172254525
 40
0.3045848293667058
 40
0.3818345616355271
 40
0.4590470657305784
 40
0.5363936331419605
 40
0.61366067425083
 40
0.6908676348346309
 40
0.7681987994273541
 40
0.8454859018113166
 40
0.9226900902033728
 40
1.0
 40
1.0
 40
1.0
 40
1.0
 10
52.26396441269038
 20
9.9935168510564
 30
0.0
 10
52.74306162422936
 20
9.976321044619578
 30
0.0
 10
53.7306345479987
 20
9.94087497557478
 30
0.0
 10
55.22488508204589
 20
9.599145727448416
 30
0.0
 10
56.7488550161203
 20
9.04650583147584
 30
0.0
 10
58.27554363877864
 20
8.279917460846006
 30
0.0
 10
59.80011594164708
 20
7.321590443128591
 30
0.0
 10
61.32395449203199
 20
6.192283375238183
 30
0.0
 10
62.85044394739532
 20
4.921284817490331
 30
0.0
 10
64.37535839545926
 20
3.53482026193545
 30
0.0
 10
65.89908390267347
 20
2.065423021176606
 30
0.0
 10
67.42526712604004
 20
0.5497421385797062
 30
0.0
 10
68.95057403638911
 20
-0.9777682842458009
 30
0.0
 10
70.47424138795219
 20
-2.490426420500013
 30
0.0
 10
71.4911818594892
 20
-3.442714008206916
 30
0.0
 10
71.99999999999997
 20
-3.919183588453025
 30
0.0
  0
SPLINE
  5
BA
330
1F
100
AcDbEntity
  8
0
  6
Continuous
 62
   131
370
    15
100
AcDbSpline
210
0.0
220
0.0
230
1.0
 70
    24
 71
     3
 72
    24
 73
    20
 74
     0
 42
0.000000001
 43
0.00000001
 40
0.0
 40
0.0
 40
0.0
 40
0.0
 40
0.004851677784609
 40
0.0714125461934014
 40
0.1360975452475451
 40
0.2026584136563324
 40
0.2673434127104764
 40
0.3339042811192634
 40
0.3985892801734075
 40
0.4651501485821948
 40
0.5298351476363394
 40
0.596396016045127
 40
0.6610810150992722
 40
0.7276418835080606
 40
0.7923268825621708
 40
0.8588877509709919
 40
0.9235727500251355
 40
0.990133618433922
 40
1.0
 40
1.0
 40
1.0
 40
1.0
 10
11.99999999999995
 20
1.186235487612359
 30
0.0
 10
11.99999999999995
 20
1.186058352549243
 30
0.0
 10
11.99999999999994
 20
1.183451075965988
 30
0.0
 10
11.99999999999997
 20
1.072610263643947
 30
0.0
 10
11.99999999999993
 20
0.8468368778457368
 30
0.0
 10
11.99999999999994
 20
0.5082452409797739
 30
0.0
 10
11.9999999999999
 20
0.075645750249573
 30
0.0
 10
11.99999999999992
 20
-0.4350275568530867
 30
0.0
 10
12.00000000000001
 20
-1.017411524212286
 30
0.0
 10
11.99999999999988
 20
-1.644834108349345
 30
0.0
 10
11.99999999999993
 20
-2.310749420077972
 30
0.0
 10
11.99999999999995
 20
-2.984345671021869
 30
0.0
 10
11.99999999999993
 20
-3.65867067997331
 30
0.0
 10
11.99999999999993
 20
-4.302517351087833
 30
0.0
 10
12.00000000000001
 20
-4.909194214702305
 30
0.0
 10
11.99999999999989
 20
-5.450815692198738
 30
0.0
 10
11.99999999999992
 20
-5.921031480026775
 30
0.0
 10
11.99999999999995
 20
-6.194639688382806
 30
0.0
 10
11.99999999999994
 20
-6.318400424866704
 30
0.0
 10
11.99999999999991
 20
-6.334377326422765
 30
0.0
  0
SPLINE
  5
BB
330
1F
100
AcDbEntity
  8
0
  6
Continuous
 62
     1
370
    15
100
AcDbSpline
210
0.0
220
0.0
230
1.0
 70
     8
 71
     3
 72
    18
 73
    14
 74
     0
 42
0.000000001
 43
0.00000001
 40
0.0
 40
0.0
 40
0.0
 40
0.0
 40
0.0971280663349179
 40
0.194123309909817
 40
0.2912227222222964
 40
0.3883774919546286
 40
0.48537621836406
 40
0.582450426755553
 40
0.6796245477715227
 40
0.7766302387541889
 40
0.8736827012379598
 40
0.9708688137458157
 40
1.0
 40
1.0
 40
1.0
 40
1.0
 10
71.99999999999994
 20
3.919183588453144
 30
0.0
 10
71.49118186000052
 20
4.37809179148323
 30
0.0
 10
70.47424138948553
 20
5.295280639964815
 30
0.0
 10
68.950574030263
 20
6.525578750426831
 30
0.0
 10
67.42526714904702
 20
7.60976290793463
 30
0.0
 10
65.89908381678751
 20
8.515244601804751
 30
0.0
 10
64.37535871552333
 20
9.224603250700548
 30
0.0
 10
62.85044275128072
 20
9.719372869601512
 30
0.0
 10
61.32395895773477
 20
9.98732398458371
 30
0.0
 10
59.80009930477961
 20
10.02793706382469
 30
0.0
 10
58.27560580133416
 20
9.81984989350389
 30
0.0
 10
57.10452836496228
 20
9.530712869663954
 30
0.0
 10
56.44340762944912
 20
9.243735698779725
 30
0.0
 10
56.2909405368855
 20
9.177553271688119
 30
0.0
  0
SPLINE
  5
BC
330
1F
100
AcDbEntity
  8
0
  6
Continuous
 62
     1
370
    15
100
AcDbSpline
210
0.0
220
0.0
230
1.0
 70
     8
 71
     3
 72
    18
 73
    14
 74
     0
 42
0.000000001
 43
0.00000001
 40
0.0
 40
0.0
 40
0.0
 40
0.0
 40
0.0668558976150475
 40
0.157002827298614
 40
0.2472267418917883
 40
0.3375338597282398
 40
0.4276864331105489
 40
0.517889313487384
 40
0.6082093291020401
 40
0.706110599646486
 40
0.8040008443375734
 40
0.9020006752153784
 40
1.0
 40
1.0
 40
1.0
 40
1.0
 10
28.90351533142059
 20
-9.977656343852562
 30
0.0
 10
28.52663336377616
 20
-9.974293445120868
 30
0.0
 10
27.64157256003458
 20
-9.966396092342285
 30
0.0
 10
26.24980813020243
 20
-9.682380123781012
 30
0.0
 10
24.72478990748544
 20
-9.176034845393588
 30
0.0
 10
23.19836743497175
 20
-8.449622082175743
 30
0.0
 10
21.67457273555349
 20
-7.527947181819908
 30
0.0
 10
20.14987909933471
 20
-6.431193791291889
 30
0.0
 10
18.57972751187743
 20
-5.151318847735201
 30
0.0
 10
16.9683517183669
 20
-3.701002585680416
 30
0.0
 10
15.31366189068173
 20
-2.11123955717595
 30
0.0
 10
13.656951483155
 20
-0.4622592335871986
 30
0.0
 10
12.552316210285
 20
0.6403145096838375
 30
0.0
 10
11.99999999999998
 20
1.191599957830938
 30
0.0
  0
LINE
  5
BD
330
1F
100
AcDbEntity
  8
0
  6
Continuous
 62
   131
370
    15
100
AcDbLine
 10
71.99999999999994
 20
-10.00000000000004
 30
0.0
 11
71.99999999999994
 21
-9.927025509043409
 31
0.0
  0
LINE
  5
BE
330
1F
100
AcDbEntity
  8
0
  6
Continuous
 62
   131
370
    15
100
AcDbLine
 10
11.99999999999998
 20
1.191599957830946
 30
0.0
 11
11.99999999999995
 21
3.534061064628507
 31
0.0
  0
LINE
  5
BF
330
1F
100
AcDbEntity
  8
0
  6
Continuous
 62
     1
370
    15
100
AcDbLine
 10
71.99999999999994
 20
3.919183588453144
 30
0.0
 11
71.99999999999994
 21
6.007841920590248
 31
0.0
  0
LINE
  5
C0
330
1F
100
AcDbEntity
  8
0
  6
Continuous
 62
     1
370
    15
100
AcDbLine
 10
71.99999999999994
 20
-6.007841920590268
 30
0.0
 11
71.99999999999994
 21
-3.919183588453027
 31
0.0
  0
LINE
  5
C1
330
1F
100
AcDbEntity
  8
0
  6
Continuous
 62
   131
370
    15
100
AcDbLine
 10
11.99999999999998
 20
-8.002750314905771
 30
0.0
 11
11.99999999999991
 21
-6.334377326422765
 31
0.0
  0
LINE
  5
C2
330
1F
100
AcDbEntity
  8
0
  6
Continuous
 62
   131
370
    15
100
AcDbLine
 10
71.99999999999994
 20
9.927025509043343
 30
0.0
 11
71.99999999999994
 21
9.999999999999966
 31
0.0
  0
LINE
  5
C3
330
1F
100
AcDbEntity
  8
0
  6
Continuous
 62
   131
370
    15
100
AcDbLine
 10
11.99999999999998
 20
9.19435027273662
 30
0.0
 11
11.99999999999995
 21
9.868438391051352
 31
0.0
  0
SPLINE
  5
C4
330
1F
100
AcDbEntity
  8
0
  6
Continuous
 62
   131
370
    15
100
AcDbSpline
210
0.0
220
0.0
230
1.0
 70
     8
 71
     3
 72
     8
 73
     4
 74
     0
 42
0.000000001
 43
0.00000001
 40
0.0
 40
0.0
 40
0.0
 40
0.0
 40
1.0
 40
1.0
 40
1.0
 40
1.0
 10
11.99999999999993
 20
-6.334377326422763
 30
0.0
 10
11.66557540289317
 20
-6.075776678890701
 30
0.0
 10
11.33426208840441
 20
-5.807397094365784
 30
0.0
 10
11.00038635999344
 20
-5.52908115561049
 30
0.0
  0
SPLINE
  5
C5
330
1F
100
AcDbEntity
  8
0
  6
Continuous
 62
   131
370
    15
100
AcDbSpline
210
0.0
220
0.0
230
1.0
 70
     8
 71
     3
 72
     8
 73
     4
 74
     0
 42
0.000000001
 43
0.00000001
 40
0.0
 40
0.0
 40
0.0
 40
0.0
 40
1.0
 40
1.0
 40
1.0
 40
1.0
 10
11.99999999999995
 20
-8.002750314905779
 30
0.0
 10
11.66557540289317
 20
-7.802353854249898
 30
0.0
 10
11.33426208840442
 20
-7.589211058408216
 30
0.0
 10
11.00038635999346
 20
-7.363205078948774
 30
0.0
  0
LINE
  5
C6
330
1F
100
AcDbEntity
  8
0
  6
Continuous
 62
   131
370
    15
100
AcDbLine
 10
11.00038635999345
 20
-10.00000000000003
 30
0.0
 11
11.00038635999345
 21
-7.36317160406408
 31
0.0
  0
SPLINE
  5
C7
330
1F
100
AcDbEntity
  8
0
  6
Continuous
 62
   131
370
    15
100
AcDbSpline
210
0.0
220
0.0
230
1.0
 70
     8
 71
     3
 72
     8
 73
     4
 74
     0
 42
0.000000001
 43
0.00000001
 40
0.0
 40
0.0
 40
0.0
 40
0.0
 40
1.0
 40
1.0
 40
1.0
 40
1.0
 10
11.99999999999993
 20
-9.868438391051434
 30
0.0
 10
11.66557540289317
 20
-9.922470372249359
 30
0.0
 10
11.33426208840441
 20
-9.959850407657457
 30
0.0
 10
11.00038635999344
 20
-9.980629974494088
 30
0.0
  0
LINE
  5
C8
330
1F
100
AcDbEntity
  8
0
  6
Continuous
 62
   131
370
    15
100
AcDbLine
 10
11.00038635999345
 20
9.980626971905897
 30
0.0
 11
11.00038635999345
 21
9.999999999999963
 31
0.0
  0
SPLINE
  5
C9
330
1F
100
AcDbEntity
  8
0
  6
Continuous
 62
   131
370
    15
100
AcDbSpline
210
0.0
220
0.0
230
1.0
 70
     8
 71
     3
 72
     8
 73
     4
 74
     0
 42
0.000000001
 43
0.00000001
 40
0.0
 40
0.0
 40
0.0
 40
0.0
 40
1.0
 40
1.0
 40
1.0
 40
1.0
 10
11.99999999999993
 20
9.868438391051352
 30
0.0
 10
11.66557540289317
 20
9.922470372249279
 30
0.0
 10
11.33426208840441
 20
9.959850407657378
 30
0.0
 10
11.00038635999344
 20
9.980629974494015
 30
0.0
  0
SPLINE
  5
CA
330
1F
100
AcDbEntity
  8
0
  6
Continuous
 62
   131
370
    15
100
AcDbSpline
210
0.0
220
0.0
230
1.0
 70
     8
 71
     3
 72
     8
 73
     4
 74
     0
 42
0.000000001
 43
0.00000001
 40
0.0
 40
0.0
 40
0.0
 40
0.0
 40
1.0
 40
1.0
 40
1.0
 40
1.0
 10
11.99999999999995
 20
9.194350272736619
 30
0.0
 10
11.66557540289317
 20
9.325771124392121
 30
0.0
 10
11.33426208840442
 20
9.441426003596268
 30
0.0
 10
11.00038635999346
 20
9.541415524886688
 30
0.0
  0
LINE
  5
CB
330
1F
100
AcDbEntity
  8
0
  6
Continuous
 62
   131
370
    15
100
AcDbLine
 10
11.00038635999345
 20
4.45150560205752
 30
0.0
 11
11.00038635999345
 21
9.541430334682007
 31
0.0
  0
SPLINE
  5
CC
330
1F
100
AcDbEntity
  8
0
  6
Continuous
 62
   131
370
    15
100
AcDbSpline
210
0.0
220
0.0
230
1.0
 70
     8
 71
     3
 72
     8
 73
     4
 74
     0
 42
0.000000001
 43
0.00000001
 40
0.0
 40
0.0
 40
0.0
 40
0.0
 40
1.0
 40
1.0
 40
1.0
 40
1.0
 10
11.99999999999993
 20
3.53406106462853
 30
0.0
 10
11.66557540289317
 20
3.846693693358518
 30
0.0
 10
11.33426208840441
 20
4.152453313291532
 30
0.0
 10
11.00038635999344
 20
4.451548818883459
 30
0.0
  0
SPLINE
  5
CD
330
1F
100
AcDbEntity
  8
0
  6
Continuous
 62
   131
370
    15
100
AcDbSpline
210
0.0
220
0.0
230
1.0
 70
     8
 71
     3
 72
     8
 73
     4
 74
     0
 42
0.000000001
 43
0.00000001
 40
0.0
 40
0.0
 40
0.0
 40
0.0
 40
1.0
 40
1.0
 40
1.0
 40
1.0
 10
11.99999999999995
 20
1.191599957830938
 30
0.0
 10
11.66557540289317
 20
1.523417270142319
 30
0.0
 10
11.33426208840442
 20
1.852214945188144
 30
0.0
 10
11.00038635999346
 20
2.178210445938002
 30
0.0
  0
LINE
  5
CE
330
1F
100
AcDbEntity
  8
0
  6
Continuous
 62
   131
370
    15
100
AcDbLine
 10
-46.00000000000006
 20
-0.0000000000000355
 30
0.0
 11
-46.00000000000006
 21
9.999999999999963
 31
0.0
  0
LINE
  5
CF
330
1F
100
AcDbEntity
  8
0
  6
Continuous
 62
   131
370
    15
100
AcDbLine
 10
-46.00000000000006
 20
-10.00000000000003
 30
0.0
 11
-46.00000000000006
 21
-0.0000000000000355
 31
0.0
  0
LINE
  5
D0
330
1F
100
AcDbEntity
  8
0
  6
Continuous
 62
   131
370
    15
100
AcDbLine
 10
11.00038635999345
 20
-5.529121369848315
 30
0.0
 11
11.00038635999345
 21
2.178258730618013
 31
0.0
  0
LINE
  5
D1
330
1F
100
AcDbEntity
  8
0
  6
Continuous
 62
   131
370
    15
100
AcDbLine
 10
-48.00000000000006
 20
-0.0000000000000355
 30
0.0
 11
-48.00000000000006
 21
7.999999999999966
 31
0.0
  0
LINE
  5
D2
330
1F
100
AcDbEntity
  8
0
  6
Continuous
 62
   131
370
    15
100
AcDbLine
 10
-48.00000000000006
 20
-8.000000000000039
 30
0.0
 11
-48.00000000000006
 21
-0.0000000000000355
 31
0.0
  0
SPLINE
  5
D3
330
1F
100
AcDbEntity
  8
0
  6
Continuous
 62
   131
370
    15
100
AcDbSpline
210
0.0
220
0.0
230
1.0
 70
    24
 71
     3
 72
    23
 73
    19
 74
     0
 42
0.000000001
 43
0.00000001
 40
0.0
 40
0.0
 40
0.0
 40
0.0
 40
0.0364080805246396
 40
0.1040955697171541
 40
0.1737460006817282
 40
0.241433489874243
 40
0.3110839208388178
 40
0.3787714100313328
 40
0.4484218409959071
 40
0.516109330188423
 40
0.585759761152998
 40
0.6534472503455133
 40
0.7230976813100879
 40
0.7907851705025988
 40
0.8604356014671685
 40
0.9281230906596886
 40
0.9958105798522051
 40
1.0
 40
1.0
 40
1.0
 40
1.0
 10
11.99999999999993
 20
-6.334377326422763
 30
0.0
 10
11.99999999999992
 20
-6.27604026909401
 30
0.0
 10
11.99999999999993
 20
-6.109246822948197
 30
0.0
 10
11.99999999999998
 20
-5.756993497900355
 30
0.0
 10
11.99999999999993
 20
-5.262621895965301
 30
0.0
 10
12.00000000000005
 20
-4.691961740175977
 30
0.0
 10
12.0
 20
-4.073217466535432
 30
0.0
 10
11.99999999999991
 20
-3.41228854112309
 30
0.0
 10
11.99999999999995
 20
-2.739904299396129
 30
0.0
 10
11.99999999999994
 20
-2.062966456677676
 30
0.0
 10
11.99999999999992
 20
-1.412806266063494
 30
0.0
 10
11.99999999999995
 20
-0.796205517108019
 30
0.0
 10
11.99999999999992
 20
-0.2414053192944222
 30
0.0
 10
11.99999999999995
 20
0.2447166822585515
 30
0.0
 10
11.99999999999984
 20
0.6439712036696678
 30
0.0
 10
11.99999999999998
 20
0.933318162561209
 30
0.0
 10
11.99999999999995
 20
1.091554762245325
 30
0.0
 10
11.99999999999997
 20
1.119909005009224
 30
0.0
 10
11.99999999999997
 20
1.121561661432556
 30
0.0
  0
SPLINE
  5
D4
330
1F
100
AcDbEntity
  8
0
  6
Continuous
 62
   131
370
    15
100
AcDbSpline
210
0.0
220
0.0
230
1.0
 70
    24
 71
     3
 72
    17
 73
    13
 74
     0
 42
0.000000001
 43
0.00000001
 40
0.0
 40
0.0
 40
0.0
 40
0.0
 40
0.0701633740873855
 40
0.1769495027253822
 40
0.2837356313633781
 40
0.3905217600013741
 40
0.4973078886393629
 40
0.6040940172773516
 40
0.7093590804735007
 40
0.8161452091114983
 40
0.9229313377494958
 40
0.9999999999999999
 40
0.9999999999999999
 40
0.9999999999999999
 40
0.9999999999999999
 10
11.99999999999995
 20
3.619527151798057
 30
0.0
 10
11.99999999999995
 20
3.702464042705921
 30
0.0
 10
11.99999999999994
 20
3.911627894852733
 30
0.0
 10
11.99999999999991
 20
4.347420154563475
 30
0.0
 10
11.99999999999992
 20
4.900080404848209
 30
0.0
 10
11.99999999999991
 20
5.512534488436416
 30
0.0
 10
11.99999999999992
 20
6.16473591946753
 30
0.0
 10
11.99999999999983
 20
6.834812086668774
 30
0.0
 10
11.99999999999999
 20
7.507564019493138
 30
0.0
 10
11.99999999999991
 20
8.162491434813466
 30
0.0
 10
11.99999999999989
 20
8.731640120645173
 30
0.0
 10
11.99999999999992
 20
9.057680103756393
 30
0.0
 10
11.99999999999993
 20
9.194350272736637
 30
0.0
  0
SPLINE
  5
D5
330
1F
100
AcDbEntity
  8
0
  6
Continuous
 62
   131
370
    15
100
AcDbSpline
210
0.0
220
0.0
230
1.0
 70
    24
 71
     3
 72
    11
 73
     7
 74
     0
 42
0.000000001
 43
0.00000001
 40
0.0
 40
0.0
 40
0.0
 40
0.0
 40
0.1951714678147412
 40
0.5580213194968958
 40
0.9313938414590325
 40
1.0
 40
1.0
 40
1.0
 40
1.0
 10
11.99999999999993
 20
-9.868438391051434
 30
0.0
 10
11.99999999999994
 20
-9.749190947745875
 30
0.0
 10
11.99999999999993
 20
-9.408246564814037
 30
0.0
 10
12.00000000000006
 20
-8.845019401836495
 30
0.0
 10
11.99999999999996
 20
-8.364400944570589
 30
0.0
 10
11.99999999999995
 20
-8.125318053502431
 30
0.0
 10
11.99999999999996
 20
-8.088206402075299
 30
0.0
  0
LINE
  5
D6
330
1F
100
AcDbEntity
  8
중심선
 62
     1
100
AcDbLine
 10
-55.20259277488962
 20
-0.0000000000000447
 30
0.0
 11
78.99999999999996
 21
0.0000000000000641
 31
0.0
  0
CIRCLE
  5
D7
330
1F
100
AcDbEntity
  8
외형선
100
AcDbCircle
 10
0.0
 20
0.0
 30
0.0
 40
2.999999999999995
  0
INSERT
  5
D8
330
1F
100
AcDbEntity
  8
0
  6
Continuous
 62
     7
100
AcDbBlockReference
 66
     1
  2
블럭10
 10
-26.94078629968149
 20
-52.04717430164397
 30
0.0
  0
ATTRIB
  5
D9
330
D8
100
AcDbEntity
  8
FORMAT
 62
     2
100
AcDbText
 10
-43.06004733911705
 20
-49.97180738881178
 30
0.0
 40
4.233333333333333
  1
SEME7520060E [ 6 FLUTE ]
 41
0.75
  7
SLDTEXTSTYLE0
 11
-43.06004733911705
 21
-52.08847405547845
 31
0.0
100
AcDbAttribute
  2
AUTOATTR0
 70
     0
 74
     1
  0
SEQEND
  5
DA
330
D8
100
AcDbEntity
  8
0
  6
Continuous
 62
     7
  0
HATCH
  5
DB
330
1F
100
AcDbEntity
  8
중심선
100
AcDbHatch
 10
0.0
 20
0.0
 30
0.0
210
0.0
220
0.0
230
1.0
  2
SOLID
 70
     1
 71
     0
 91
        1
 92
        0
 93
        4
 72
     1
 10
-21.22587699530064
 20
-35.80000000000003
 11
-24.67215223913792
 21
-35.80000000000003
 72
     1
 10
-24.67215223913792
 20
-35.80000000000003
 11
-26.80038209834195
 21
-38.33632558057263
 72
     1
 10
-26.80038209834195
 20
-38.33632558057263
 11
-23.35407376939151
 21
-38.33628615127014
 72
     1
 10
-23.35407376939151
 20
-38.33628615127014
 11
-21.22587699530064
 21
-35.80000000000003
 97
        0
 75
     0
 76
     1
 98
        1
 10
-4.001342611615598
 20
-0.0010749287239287
  0
HATCH
  5
DC
330
1F
100
AcDbEntity
  8
중심선
100
AcDbHatch
 10
0.0
 20
0.0
 30
0.0
210
0.0
220
0.0
230
1.0
  2
SOLID
 70
     1
 71
     0
 91
        1
 92
        0
 93
        4
 72
     1
 10
-16.21311300426469
 20
-35.80000000000003
 11
-19.65938824810197
 21
-35.80000000000003
 72
     1
 10
-19.65938824810197
 20
-35.80000000000003
 11
-24.19052625645936
 21
-41.20000000000005
 72
     1
 10
-24.19052625645936
 20
-41.20000000000005
 11
-20.74425101262208
 21
-41.20000000000005
 72
     1
 10
-20.74425101262208
 20
-41.20000000000005
 11
-16.21311300426469
 21
-35.80000000000003
 97
        0
 75
     0
 76
     1
 98
        1
 10
-4.001342611615598
 20
-0.0010749287239287
  0
HATCH
  5
DD
330
1F
100
AcDbEntity
  8
중심선
100
AcDbHatch
 10
0.0
 20
0.0
 30
0.0
210
0.0
220
0.0
230
1.0
  2
SOLID
 70
     1
 71
     0
 91
        1
 92
        0
 93
        4
 72
     1
 10
-11.20034901322879
 20
-35.80000000000006
 11
-14.64662425706591
 21
-35.80000000000003
 72
     1
 10
-14.64662425706591
 20
-35.80000000000003
 11
-21.69506115895516
 21
-44.20000000000005
 72
     1
 10
-21.69506115895516
 20
-44.20000000000005
 11
-18.24878591511788
 21
-44.20000000000005
 72
     1
 10
-18.24878591511788
 20
-44.20000000000005
 11
-11.2003490132288
 21
-35.80000000000006
 97
        0
 75
     0
 76
     1
 98
        1
 10
-4.001342611615598
 20
-0.0010749287239287
  0
HATCH
  5
DE
330
1F
100
AcDbEntity
  8
중심선
100
AcDbHatch
 10
0.0
 20
0.0
 30
0.0
210
0.0
220
0.0
230
1.0
  2
SOLID
 70
     1
 71
     0
 91
        1
 92
        0
 93
        6
 72
     3
 10
-6.400458582216594
 20
-40.00000000005131
 11
3.960054785062283
 21
1.540882976769353E-10
 40
0.3939339440162628
 50
17.09539180608437
 51
320.0019657685079
 73
     0
 72
     1
 10
-4.717458926515999
 20
-38.58789400463834
 11
-2.412157052814961
 21
-36.65356729459042
 72
     3
 10
-6.40045858226944
 20
-40.00000000000018
 11
6.600054785286829
 21
-1.278976924368180E-13
 40
0.636358354079598
 50
39.99873849337411
 51
368.4976242363725
 73
     1
 72
     1
 10
0.024873909631169
 20
-39.03999999993006
 11
-7.720391275433518
 21
-39.03999999993003
 72
     1
 10
-7.720391275433518
 20
-39.03999999993003
 11
-7.720416319879452
 21
-40.95999999992995
 72
     1
 10
-7.720416319879452
 20
-40.95999999992995
 11
-3.279036550407415
 21
-40.95999999992992
 97
        0
 75
     0
 76
     1
 98
        1
 10
-4.001342611615598
 20
-0.0010749287239287
  0
DIMENSION
  5
DF
330
1F
100
AcDbEntity
  8
치수문자_일반주서
100
AcDbDimension
  2
_D
 10
-64.62890613132346
 20
-10.00000000000012
 30
0.0
 11
-64.6289061313235
 21
-0.0000000000000263
 31
0.0
 70
   160
  1
%%c<>
 71
     2
 42
20.00000000000002
 52
-270.0
  3
SLDDIMSTYLE0
100
AcDbAlignedDimension
 13
-46.00000000000006
 23
9.999999999999973
 33
0.0
 14
-46.00000000000006
 24
-10.00000000000004
 34
0.0
 50
90.0000000000002
100
AcDbRotatedDimension
  0
DIMENSION
  5
ED
330
1F
100
AcDbEntity
  8
치수문자_일반주서
100
AcDbDimension
  2
_D_1
 10
81.99999999999996
 20
-10.0
 30
0.0
 11
81.99999999999991
 21
1.31886150019195
 31
0.0
 70
   160
  1
%%c<>
 71
     2
 42
20.0
 52
-270.0
  3
SLDDIMSTYLE0
100
AcDbAlignedDimension
 13
71.99999999999994
 23
9.999999999999966
 33
0.0
 14
71.99999999999994
 24
-10.00000000000004
 34
0.0
 50
90.0000000000002
100
AcDbRotatedDimension
  0
DIMENSION
  5
FA
330
1F
100
AcDbEntity
  8
치수문자_일반주서
100
AcDbDimension
  2
_D_2
 10
71.99999999999994
 20
53.36327900969315
 30
0.0
 11
36.55499265847849
 21
53.36327900969315
 31
0.0
 70
   160
  1
<>
 71
     2
 42
60.00000000000001
  3
SLDDIMSTYLE1
100
AcDbAlignedDimension
 13
11.99999999999993
 23
9.868438391051352
 33
0.0
 14
71.99999999999994
 24
9.927025509043343
 34
0.0
100
AcDbRotatedDimension
  0
DIMENSION
  5
105
330
1F
100
AcDbEntity
  8
치수문자_일반주서
100
AcDbDimension
  2
_D_3
 10
-48.00000000000006
 20
80.87170816991298
 30
0.0
 11
15.71779583811257
 21
80.87170816991298
 31
0.0
 70
   160
  1
<>
 71
     2
 42
120.0
  3
SLDDIMSTYLE1
100
AcDbAlignedDimension
 13
71.99999999999994
 23
9.927025509043343
 33
0.0
 14
-48.00000000000006
 24
7.999999999999968
 34
0.0
100
AcDbRotatedDimension
  0
INSERT
  5
115
330
1F
100
AcDbEntity
  8
외형선
100
AcDbBlockReference
  2
SW_DOWELSYMBOL_0
 10
0.0
 20
0.0
 30
0.0
  0
ENDSEC
  0
SECTION
  2
OBJECTS
  0
DICTIONARY
  5
C
330
0
100
AcDbDictionary
281
     1
  3
ACAD_GROUP
350
D
  3
ACAD_IMAGE_VARS
350
139
  3
ACAD_LAYOUT
350
1A
  3
ACAD_MLINESTYLE
350
17
  3
ACAD_PLOTSETTINGS
350
19
  3
ACAD_PLOTSTYLENAME
350
E
  3
ACAD_SCALELIST
350
47
  3
APPDATA
350
137
  3
DWGPROPS
350
145
  0
DICTIONARY
  5
D
102
{ACAD_REACTORS
330
C
102
}
330
C
100
AcDbDictionary
281
     1
  0
RASTERVARIABLES
  5
139
102
{ACAD_REACTORS
330
C
102
}
330
C
100
AcDbRasterVariables
 90
        0
 70
     1
 71
     1
 72
     1
  0
DICTIONARY
  5
1A
102
{ACAD_REACTORS
330
C
102
}
330
C
100
AcDbDictionary
281
     1
  3
Layout1
350
1E
  3
Layout2
350
26
  3
Model
350
22
  0
DICTIONARY
  5
17
102
{ACAD_REACTORS
330
C
102
}
330
C
100
AcDbDictionary
281
     1
  3
Standard
350
18
  0
DICTIONARY
  5
19
102
{ACAD_REACTORS
330
C
102
}
330
C
100
AcDbDictionary
281
     1
  0
ACDBDICTIONARYWDFLT
  5
E
102
{ACAD_REACTORS
330
C
102
}
330
C
100
AcDbDictionary
281
     1
  3
Normal
350
F
100
AcDbDictionaryWithDefault
340
F
  0
DICTIONARY
  5
47
102
{ACAD_REACTORS
330
C
102
}
330
C
100
AcDbDictionary
281
     1
  3
A0
350
48
  3
A1
350
49
  3
A2
350
4A
  3
A3
350
4B
  3
A4
350
4C
  3
A5
350
4D
  3
A6
350
4E
  3
A7
350
4F
  3
A8
350
50
  3
A9
350
51
  3
B0
350
52
  3
B1
350
53
  3
B2
350
54
  3
B3
350
55
  3
B4
350
56
  3
B5
350
57
  3
B6
350
58
  3
B7
350
59
  3
B8
350
5A
  3
B9
350
5B
  3
C0
350
5C
  3
C1
350
5D
  3
C2
350
5E
  3
C3
350
5F
  3
C4
350
60
  3
C5
350
61
  3
C6
350
62
  3
C7
350
63
  3
C8
350
64
  3
C9
350
65
  3
D0
350
66
  3
D1
350
67
  3
D2
350
68
  0
DICTIONARY
  5
137
102
{ACAD_REACTORS
330
C
102
}
330
C
100
AcDbDictionary
281
     1
  0
XRECORD
  5
145
102
{ACAD_REACTORS
330
C
102
}
330
C
100
AcDbXrecord
280
     1
  1
DWGPROPS COOKIE
  2

  3

  4

  6

  7

  8
12016016
  9

300
=
301
=
302
=
303
=
304
=
305
=
306
=
307
=
308
=
309
=
 40
0.0
 41
2458268.399341621
 42
2458270.000330891
  1

 90
        0
  0
LAYOUT
  5
1E
102
{ACAD_REACTORS
330
1A
102
}
330
1A
100
AcDbPlotSettings
  1

  2
none_device
  4

  6

 40
0.0
 41
0.0
 42
0.0
 43
0.0
 44
0.0
 45
0.0
 46
0.0
 47
0.0
 48
0.0
 49
0.0
140
0.0
141
0.0
142
1.0
143
1.0
 70
   688
 72
     1
 73
     0
 74
     5
  7

 75
    16
147
1.0
148
0.0
149
0.0
100
AcDbLayout
  1
Layout1
 70
     1
 71
     1
 10
0.0
 20
0.0
 11
420.0
 21
297.0
 12
0.0
 22
0.0
 32
0.0
 14
1.000000000000000E+20
 24
1.000000000000000E+20
 34
1.000000000000000E+20
 15
-1.000000000000000E+20
 25
-1.000000000000000E+20
 35
-1.000000000000000E+20
146
0.0
 13
0.0
 23
0.0
 33
0.0
 16
1.0
 26
0.0
 36
0.0
 17
0.0
 27
1.0
 37
0.0
 76
     0
330
1B
  0
LAYOUT
  5
26
102
{ACAD_REACTORS
330
1A
102
}
330
1A
100
AcDbPlotSettings
  1

  2
none_device
  4

  6

 40
0.0
 41
0.0
 42
0.0
 43
0.0
 44
0.0
 45
0.0
 46
0.0
 47
0.0
 48
0.0
 49
0.0
140
0.0
141
0.0
142
1.0
143
1.0
 70
   688
 72
     1
 73
     0
 74
     5
  7

 75
    16
147
1.0
148
0.0
149
0.0
100
AcDbLayout
  1
Layout2
 70
     1
 71
     2
 10
0.0
 20
0.0
 11
0.0
 21
0.0
 12
0.0
 22
0.0
 32
0.0
 14
0.0
 24
0.0
 34
0.0
 15
0.0
 25
0.0
 35
0.0
146
0.0
 13
0.0
 23
0.0
 33
0.0
 16
1.0
 26
0.0
 36
0.0
 17
0.0
 27
1.0
 37
0.0
 76
     0
330
23
  0
LAYOUT
  5
22
102
{ACAD_REACTORS
330
1A
102
}
330
1A
100
AcDbPlotSettings
  1

  2
none_device
  4
ANSI_A_(11.00_x_8.50_Inches)
  6

 40
6.35
 41
19.05
 42
6.35000508
 43
19.05000254
 44
279.4
 45
215.9
 46
116.2250441191364
 47
61.67588061230472
 48
0.0
 49
0.0
140
0.0
141
0.0
142
0.0618298922697917
143
1.0
 70
  1696
 72
     0
 73
     0
 74
     0
  7

 75
     0
147
0.0235690232323232
148
0.0
149
0.0
100
AcDbLayout
  1
Model
 70
     1
 71
     0
 10
0.0
 20
0.0
 11
420.0
 21
297.0
 12
0.0
 22
0.0
 32
0.0
 14
-69.00390613132352
 24
-49.97180738881178
 34
0.0
 15
82.55033333333327
 25
85.24670816991298
 35
0.0
146
0.0
 13
0.0
 23
0.0
 33
0.0
 16
1.0
 26
0.0
 36
0.0
 17
0.0
 27
1.0
 37
0.0
 76
     0
330
1F
331
29
  0
MLINESTYLE
  5
18
102
{ACAD_REACTORS
330
17
102
}
330
17
100
AcDbMlineStyle
  2
Standard
 70
     0
  3

 62
   256
 51
90.0
 52
90.0
 71
     2
 49
0.5
 62
   256
  6
BYLAYER
 49
-0.5
 62
   256
  6
BYLAYER
  0
ACDBPLACEHOLDER
  5
F
102
{ACAD_REACTORS
330
E
102
}
330
E
  0
SCALE
  5
48
102
{ACAD_REACTORS
330
47
102
}
330
47
100
AcDbScale
 70
     0
300
1:1
140
1.0
141
1.0
290
     1
  0
SCALE
  5
49
102
{ACAD_REACTORS
330
47
102
}
330
47
100
AcDbScale
 70
     0
300
1:2
140
1.0
141
2.0
290
     0
  0
SCALE
  5
4A
102
{ACAD_REACTORS
330
47
102
}
330
47
100
AcDbScale
 70
     0
300
1:4
140
1.0
141
4.0
290
     0
  0
SCALE
  5
4B
102
{ACAD_REACTORS
330
47
102
}
330
47
100
AcDbScale
 70
     0
300
1:5
140
1.0
141
5.0
290
     0
  0
SCALE
  5
4C
102
{ACAD_REACTORS
330
47
102
}
330
47
100
AcDbScale
 70
     0
300
1:8
140
1.0
141
8.0
290
     0
  0
SCALE
  5
4D
102
{ACAD_REACTORS
330
47
102
}
330
47
100
AcDbScale
 70
     0
300
1:10
140
1.0
141
10.0
290
     0
  0
SCALE
  5
4E
102
{ACAD_REACTORS
330
47
102
}
330
47
100
AcDbScale
 70
     0
300
1:16
140
1.0
141
16.0
290
     0
  0
SCALE
  5
4F
102
{ACAD_REACTORS
330
47
102
}
330
47
100
AcDbScale
 70
     0
300
1:20
140
1.0
141
20.0
290
     0
  0
SCALE
  5
50
102
{ACAD_REACTORS
330
47
102
}
330
47
100
AcDbScale
 70
     0
300
1:30
140
1.0
141
30.0
290
     0
  0
SCALE
  5
51
102
{ACAD_REACTORS
330
47
102
}
330
47
100
AcDbScale
 70
     0
300
1:40
140
1.0
141
40.0
290
     0
  0
SCALE
  5
52
102
{ACAD_REACTORS
330
47
102
}
330
47
100
AcDbScale
 70
     0
300
1:50
140
1.0
141
50.0
290
     0
  0
SCALE
  5
53
102
{ACAD_REACTORS
330
47
102
}
330
47
100
AcDbScale
 70
     0
300
1:100
140
1.0
141
100.0
290
     0
  0
SCALE
  5
54
102
{ACAD_REACTORS
330
47
102
}
330
47
100
AcDbScale
 70
     0
300
2:1
140
2.0
141
1.0
290
     0
  0
SCALE
  5
55
102
{ACAD_REACTORS
330
47
102
}
330
47
100
AcDbScale
 70
     0
300
4:1
140
4.0
141
1.0
290
     0
  0
SCALE
  5
56
102
{ACAD_REACTORS
330
47
102
}
330
47
100
AcDbScale
 70
     0
300
8:1
140
8.0
141
1.0
290
     0
  0
SCALE
  5
57
102
{ACAD_REACTORS
330
47
102
}
330
47
100
AcDbScale
 70
     0
300
10:1
140
10.0
141
1.0
290
     0
  0
SCALE
  5
58
102
{ACAD_REACTORS
330
47
102
}
330
47
100
AcDbScale
 70
     0
300
100:1
140
100.0
141
1.0
290
     0
  0
SCALE
  5
59
102
{ACAD_REACTORS
330
47
102
}
330
47
100
AcDbScale
 70
     0
300
1/128" = 1'-0"
140
0.0078125
141
12.0
290
     0
  0
SCALE
  5
5A
102
{ACAD_REACTORS
330
47
102
}
330
47
100
AcDbScale
 70
     0
300
1/64" = 1'-0"
140
0.015625
141
12.0
290
     0
  0
SCALE
  5
5B
102
{ACAD_REACTORS
330
47
102
}
330
47
100
AcDbScale
 70
     0
300
1/32" = 1'-0"
140
0.03125
141
12.0
290
     0
  0
SCALE
  5
5C
102
{ACAD_REACTORS
330
47
102
}
330
47
100
AcDbScale
 70
     0
300
1/16" = 1'-0"
140
0.0625
141
12.0
290
     0
  0
SCALE
  5
5D
102
{ACAD_REACTORS
330
47
102
}
330
47
100
AcDbScale
 70
     0
300
3/32" = 1'-0"
140
0.09375
141
12.0
290
     0
  0
SCALE
  5
5E
102
{ACAD_REACTORS
330
47
102
}
330
47
100
AcDbScale
 70
     0
300
1/8" = 1'-0"
140
0.125
141
12.0
290
     0
  0
SCALE
  5
5F
102
{ACAD_REACTORS
330
47
102
}
330
47
100
AcDbScale
 70
     0
300
3/16" = 1'-0"
140
0.1875
141
12.0
290
     0
  0
SCALE
  5
60
102
{ACAD_REACTORS
330
47
102
}
330
47
100
AcDbScale
 70
     0
300
1/4" = 1'-0"
140
0.25
141
12.0
290
     0
  0
SCALE
  5
61
102
{ACAD_REACTORS
330
47
102
}
330
47
100
AcDbScale
 70
     0
300
3/8" = 1'-0"
140
0.375
141
12.0
290
     0
  0
SCALE
  5
62
102
{ACAD_REACTORS
330
47
102
}
330
47
100
AcDbScale
 70
     0
300
1/2" = 1'-0"
140
0.5
141
12.0
290
     0
  0
SCALE
  5
63
102
{ACAD_REACTORS
330
47
102
}
330
47
100
AcDbScale
 70
     0
300
3/4" = 1'-0"
140
0.75
141
12.0
290
     0
  0
SCALE
  5
64
102
{ACAD_REACTORS
330
47
102
}
330
47
100
AcDbScale
 70
     0
300
1" = 1'-0"
140
1.0
141
12.0
290
     0
  0
SCALE
  5
65
102
{ACAD_REACTORS
330
47
102
}
330
47
100
AcDbScale
 70
     0
300
1-1/2" = 1'-0"
140
1.5
141
12.0
290
     0
  0
SCALE
  5
66
102
{ACAD_REACTORS
330
47
102
}
330
47
100
AcDbScale
 70
     0
300
3" = 1'-0"
140
3.0
141
12.0
290
     0
  0
SCALE
  5
67
102
{ACAD_REACTORS
330
47
102
}
330
47
100
AcDbScale
 70
     0
300
6" = 1'-0"
140
6.0
141
12.0
290
     0
  0
SCALE
  5
68
102
{ACAD_REACTORS
330
47
102
}
330
47
100
AcDbScale
 70
     0
300
1'-0" = 1'-0"
140
12.0
141
12.0
290
     0
  0
ENDSEC
  0
EOF
