  0
SECTION
  2
HEADER
  9
$ACADVER
  1
AC1015
  9
$ACADMAINTVER
 70
     6
  9
$DWGCODEPAGE
  3
ANSI_949
  9
$INSBASE
 10
0.0
 20
0.0
 30
0.0
  9
$EXTMIN
 10
-69.00390613132343
 20
-49.97073246008785
 30
0.0
  9
$EXTMAX
 10
92.55033333333337
 20
85.24670816991298
 30
0.0
  9
$LIMMIN
 10
0.0
 20
0.0
  9
$LIMMAX
 10
420.0
 20
297.0
  9
$ORTHOMODE
 70
     1
  9
$REGENMODE
 70
     1
  9
$FILLMODE
 70
     1
  9
$QTEXTMODE
 70
     0
  9
$MIRRTEXT
 70
     1
  9
$LTSCALE
 40
1.0
  9
$ATTMODE
 70
     1
  9
$TEXTSIZE
 40
3.5
  9
$TRACEWID
 40
1.0
  9
$TEXTSTYLE
  7
Standard
  9
$CLAYER
  8
0
  9
$CELTYPE
  6
ByLayer
  9
$CECOLOR
 62
   256
  9
$CELTSCALE
 40
1.0
  9
$DISPSILH
 70
     0
  9
$DIMSCALE
 40
1.0
  9
$DIMASZ
 40
3.302
  9
$DIMEXO
 40
1.0
  9
$DIMDLI
 40
3.75
  9
$DIMRND
 40
0.0
  9
$DIMDLE
 40
0.0
  9
$DIMEXE
 40
1.0
  9
$DIMTP
 40
0.0
  9
$DIMTM
 40
0.0
  9
$DIMTXT
 40
3.5
  9
$DIMCEN
 40
2.5
  9
$DIMTSZ
 40
0.0
  9
$DIMTOL
 70
     0
  9
$DIMLIM
 70
     0
  9
$DIMTIH
 70
     1
  9
$DIMTOH
 70
     1
  9
$DIMSE1
 70
     0
  9
$DIMSE2
 70
     0
  9
$DIMTAD
 70
     1
  9
$DIMZIN
 70
     0
  9
$DIMBLK
  1

  9
$DIMASO
 70
     1
  9
$DIMSHO
 70
     1
  9
$DIMPOST
  1

  9
$DIMAPOST
  1

  9
$DIMALT
 70
     0
  9
$DIMALTD
 70
     3
  9
$DIMALTF
 40
0.0393700787401575
  9
$DIMLFAC
 40
1.0
  9
$DIMTOFL
 70
     1
  9
$DIMTVP
 40
0.0
  9
$DIMTIX
 70
     0
  9
$DIMSOXD
 70
     0
  9
$DIMSAH
 70
     0
  9
$DIMBLK1
  1

  9
$DIMBLK2
  1

  9
$DIMSTYLE
  2
ISO-25
  9
$DIMCLRD
 70
     0
  9
$DIMCLRE
 70
     0
  9
$DIMCLRT
 70
     0
  9
$DIMTFAC
 40
1.0
  9
$DIMGAP
 40
1.524
  9
$DIMJUST
 70
     0
  9
$DIMSD1
 70
     0
  9
$DIMSD2
 70
     0
  9
$DIMTOLJ
 70
     0
  9
$DIMTZIN
 70
     0
  9
$DIMALTZ
 70
     0
  9
$DIMALTTZ
 70
     0
  9
$DIMUPT
 70
     0
  9
$DIMDEC
 70
     2
  9
$DIMTDEC
 70
     2
  9
$DIMALTU
 70
     2
  9
$DIMALTTD
 70
     3
  9
$DIMTXSTY
  7
Standard
  9
$DIMAUNIT
 70
     0
  9
$DIMADEC
 70
     2
  9
$DIMALTRND
 40
0.0
  9
$DIMAZIN
 70
     0
  9
$DIMDSEP
 70
    44
  9
$DIMATFIT
 70
     3
  9
$DIMFRAC
 70
     0
  9
$DIMLDRBLK
  1

  9
$DIMLUNIT
 70
     2
  9
$DIMLWD
 70
    -2
  9
$DIMLWE
 70
    -2
  9
$DIMTMOVE
 70
     0
  9
$LUNITS
 70
     2
  9
$LUPREC
 70
     2
  9
$SKETCHINC
 40
1.0
  9
$FILLETRAD
 40
10.0
  9
$AUNITS
 70
     0
  9
$AUPREC
 70
     2
  9
$MENU
  1
.
  9
$ELEVATION
 40
0.0
  9
$PELEVATION
 40
0.0
  9
$THICKNESS
 40
0.0
  9
$LIMCHECK
 70
     0
  9
$CHAMFERA
 40
0.0
  9
$CHAMFERB
 40
0.0
  9
$CHAMFERC
 40
0.0
  9
$CHAMFERD
 40
0.0
  9
$SKPOLY
 70
     0
  9
$TDCREATE
 40
2458268.774529294
  9
$TDUCREATE
 40
2458268.399529294
  9
$TDUPDATE
 40
2458270.374535069
  9
$TDUUPDATE
 40
2458269.999535069
  9
$TDINDWG
 40
0.00081125
  9
$TDUSRTIMER
 40
2458269.998724421
  9
$USRTIMER
 70
     1
  9
$ANGBASE
 50
0.0
  9
$ANGDIR
 70
     0
  9
$PDMODE
 70
     0
  9
$PDSIZE
 40
-1.0
  9
$PLINEWID
 40
0.0
  9
$SPLFRAME
 70
     0
  9
$SPLINETYPE
 70
     6
  9
$SPLINESEGS
 70
     8
  9
$HANDSEED
  5
14D
  9
$SURFTAB1
 70
     6
  9
$SURFTAB2
 70
     6
  9
$SURFTYPE
 70
     6
  9
$SURFU
 70
     6
  9
$SURFV
 70
     6
  9
$UCSBASE
  2

  9
$UCSNAME
  2

  9
$UCSORG
 10
0.0
 20
0.0
 30
0.0
  9
$UCSXDIR
 10
1.0
 20
0.0
 30
0.0
  9
$UCSYDIR
 10
0.0
 20
1.0
 30
0.0
  9
$UCSORTHOREF
  2

  9
$UCSORTHOVIEW
 70
     0
  9
$UCSORGTOP
 10
0.0
 20
0.0
 30
0.0
  9
$UCSORGBOTTOM
 10
0.0
 20
0.0
 30
0.0
  9
$UCSORGLEFT
 10
0.0
 20
0.0
 30
0.0
  9
$UCSORGRIGHT
 10
0.0
 20
0.0
 30
0.0
  9
$UCSORGFRONT
 10
0.0
 20
0.0
 30
0.0
  9
$UCSORGBACK
 10
0.0
 20
0.0
 30
0.0
  9
$PUCSBASE
  2

  9
$PUCSNAME
  2

  9
$PUCSORG
 10
0.0
 20
0.0
 30
0.0
  9
$PUCSXDIR
 10
1.0
 20
0.0
 30
0.0
  9
$PUCSYDIR
 10
0.0
 20
1.0
 30
0.0
  9
$PUCSORTHOREF
  2

  9
$PUCSORTHOVIEW
 70
     0
  9
$PUCSORGTOP
 10
0.0
 20
0.0
 30
0.0
  9
$PUCSORGBOTTOM
 10
0.0
 20
0.0
 30
0.0
  9
$PUCSORGLEFT
 10
0.0
 20
0.0
 30
0.0
  9
$PUCSORGRIGHT
 10
0.0
 20
0.0
 30
0.0
  9
$PUCSORGFRONT
 10
0.0
 20
0.0
 30
0.0
  9
$PUCSORGBACK
 10
0.0
 20
0.0
 30
0.0
  9
$USERI1
 70
     0
  9
$USERI2
 70
     0
  9
$USERI3
 70
     0
  9
$USERI4
 70
     0
  9
$USERI5
 70
     0
  9
$USERR1
 40
0.0
  9
$USERR2
 40
0.0
  9
$USERR3
 40
0.0
  9
$USERR4
 40
0.0
  9
$USERR5
 40
0.0
  9
$WORLDVIEW
 70
     1
  9
$SHADEDGE
 70
     3
  9
$SHADEDIF
 70
    70
  9
$TILEMODE
 70
     1
  9
$MAXACTVP
 70
    64
  9
$PINSBASE
 10
0.0
 20
0.0
 30
0.0
  9
$PLIMCHECK
 70
     0
  9
$PEXTMIN
 10
1.000000000000000E+20
 20
1.000000000000000E+20
 30
1.000000000000000E+20
  9
$PEXTMAX
 10
-1.000000000000000E+20
 20
-1.000000000000000E+20
 30
-1.000000000000000E+20
  9
$PLIMMIN
 10
0.0
 20
0.0
  9
$PLIMMAX
 10
0.0
 20
0.0
  9
$UNITMODE
 70
     0
  9
$VISRETAIN
 70
     1
  9
$PLINEGEN
 70
     0
  9
$PSLTSCALE
 70
     1
  9
$TREEDEPTH
 70
  3020
  9
$CMLSTYLE
  2
Standard
  9
$CMLJUST
 70
     0
  9
$CMLSCALE
 40
20.0
  9
$PROXYGRAPHICS
 70
     1
  9
$MEASUREMENT
 70
     1
  9
$CELWEIGHT
370
    -1
  9
$ENDCAPS
280
     0
  9
$JOINSTYLE
280
     0
  9
$LWDISPLAY
290
     1
  9
$INSUNITS
 70
     4
  9
$HYPERLINKBASE
  1

  9
$STYLESHEET
  1

  9
$XEDIT
290
     1
  9
$CEPSNTYPE
380
     0
  9
$PSTYLEMODE
290
     1
  9
$FINGERPRINTGUID
  2
{F337FE1A-1537-4BB5-8969-DB967DFC9FFF}
  9
$VERSIONGUID
  2
{FAEB1C32-E019-11D5-929B-00C0DF256EC4}
  9
$EXTNAMES
290
     1
  9
$PSVPSCALE
 40
0.0
  9
$OLESTARTUP
290
     0
  0
ENDSEC
  0
SECTION
  2
CLASSES
  0
CLASS
  1
ACDBDICTIONARYWDFLT
  2
AcDbDictionaryWithDefault
  3
ObjectDBX Classes
 90
        0
280
     0
281
     0
  0
CLASS
  1
VISUALSTYLE
  2
AcDbVisualStyle
  3
ObjectDBX Classes
 90
     4095
280
     0
281
     0
  0
CLASS
  1
MATERIAL
  2
AcDbMaterial
  3
ObjectDBX Classes
 90
     1153
280
     0
281
     0
  0
CLASS
  1
SCALE
  2
AcDbScale
  3
ObjectDBX Classes
 90
     1153
280
     0
281
     0
  0
CLASS
  1
SUN
  2
AcDbSun
  3
SCENEOE
 90
     1153
280
     0
281
     0
  0
CLASS
  1
ACDBPLACEHOLDER
  2
AcDbPlaceHolder
  3
ObjectDBX Classes
 90
        0
280
     0
281
     0
  0
CLASS
  1
LAYOUT
  2
AcDbLayout
  3
ObjectDBX Classes
 90
        0
280
     0
281
     0
  0
CLASS
  1
TABLESTYLE
  2
AcDbTableStyle
  3
ObjectDBX Classes
 90
     4095
280
     0
281
     0
  0
CLASS
  1
MLEADERSTYLE
  2
AcDbMLeaderStyle
  3
ACDB_MLEADERSTYLE_CLASS
 90
     4095
280
     0
281
     0
  0
CLASS
  1
RASTERVARIABLES
  2
AcDbRasterVariables
  3
ISM
 90
        0
280
     0
281
     0
  0
ENDSEC
  0
SECTION
  2
TABLES
  0
TABLE
  2
VPORT
  5
8
330
0
100
AcDbSymbolTable
 70
     1
  0
VPORT
  5
29
330
8
100
AcDbSymbolTableRecord
100
AcDbViewportTableRecord
  2
*Active
 70
     0
 10
0.0
 20
0.0
 11
1.0
 21
1.0
 12
30.97430173644189
 22
0.1008021222427899
 13
0.0
 23
0.0
 14
10.0
 24
10.0
 15
10.0
 25
10.0
 16
0.0
 26
0.0
 36
1.0
 17
0.0
 27
0.0
 37
0.0
 40
140.220429101717
 41
1.627413127413127
 42
50.0
 43
0.0
 44
0.0
 50
0.0
 51
0.0
 71
    16
 72
  2000
 73
     1
 74
     3
 75
     0
 76
     0
 77
     0
 78
     0
281
     0
 65
     1
110
0.0
120
0.0
130
0.0
111
1.0
121
0.0
131
0.0
112
0.0
122
1.0
132
0.0
 79
     0
146
0.0
  0
ENDTAB
  0
TABLE
  2
LTYPE
  5
5
330
0
100
AcDbSymbolTable
 70
     6
  0
LTYPE
  5
14
330
5
100
AcDbSymbolTableRecord
100
AcDbLinetypeTableRecord
  2
ByBlock
 70
     0
  3

 72
    65
 73
     0
 40
0.0
  0
LTYPE
  5
15
330
5
100
AcDbSymbolTableRecord
100
AcDbLinetypeTableRecord
  2
ByLayer
 70
     0
  3

 72
    65
 73
     0
 40
0.0
  0
LTYPE
  5
16
330
5
100
AcDbSymbolTableRecord
100
AcDbLinetypeTableRecord
  2
Continuous
 70
     0
  3
Solid line
 72
    65
 73
     0
 40
0.0
  0
LTYPE
  5
6A
330
5
100
AcDbSymbolTableRecord
100
AcDbLinetypeTableRecord
  2
HIDDEN
 70
     0
  3
Hidden __ __ __ __ __ __ __ __ __ __ __ __ __ __
 72
    65
 73
     2
 40
1.905
 49
1.27
 74
     0
 49
-0.635
 74
     0
  0
LTYPE
  5
6B
330
5
100
AcDbSymbolTableRecord
100
AcDbLinetypeTableRecord
  2
PHANTOM
 70
     0
  3
Phantom ______  __  __  ______  __  __  ______
 72
    65
 73
     6
 40
12.7
 49
6.35
 74
     0
 49
-1.27
 74
     0
 49
1.27
 74
     0
 49
-1.27
 74
     0
 49
1.27
 74
     0
 49
-1.27
 74
     0
  0
LTYPE
  5
6C
330
5
100
AcDbSymbolTableRecord
100
AcDbLinetypeTableRecord
  2
CENTER
 70
     0
  3
Center ____ _ ____ _ ____ _ ____ _ ____ _ ____
 72
    65
 73
     4
 40
10.16
 49
6.35
 74
     0
 49
-1.27
 74
     0
 49
1.27
 74
     0
 49
-1.27
 74
     0
  0
LTYPE
  5
6D
330
5
100
AcDbSymbolTableRecord
100
AcDbLinetypeTableRecord
  2
CENTERX2
 70
     0
  3
Center (2x) ________  __  ________  __  _____
 72
    65
 73
     4
 40
20.32
 49
12.7
 74
     0
 49
-2.54
 74
     0
 49
2.54
 74
     0
 49
-2.54
 74
     0
  0
LTYPE
  5
6E
330
5
100
AcDbSymbolTableRecord
100
AcDbLinetypeTableRecord
  2
DOT2
 70
     0
  3
Dot (.5x) ........................................
 72
    65
 73
     2
 40
0.635
 49
0.0
 74
     0
 49
-0.635
 74
     0
  0
ENDTAB
  0
TABLE
  2
LAYER
  5
2
330
0
100
AcDbSymbolTable
 70
    17
  0
LAYER
  5
10
330
2
100
AcDbSymbolTableRecord
100
AcDbLayerTableRecord
  2
0
 70
     0
 62
     7
  6
Continuous
370
    -3
390
F
  0
LAYER
  5
6F
330
2
100
AcDbSymbolTableRecord
100
AcDbLayerTableRecord
  2
FORMAT
 70
     0
 62
     2
  6
Continuous
370
    -3
390
F
  0
LAYER
  5
70
330
2
100
AcDbSymbolTableRecord
100
AcDbLayerTableRecord
  2
외형선
 70
     0
 62
   100
  6
Continuous
370
    30
390
F
  0
LAYER
  5
71
330
2
100
AcDbSymbolTableRecord
100
AcDbLayerTableRecord
  2
숨은선
 70
     0
 62
     2
  6
HIDDEN
370
    15
390
F
  0
LAYER
  5
72
330
2
100
AcDbSymbolTableRecord
100
AcDbLayerTableRecord
  2
중심선
 70
     0
 62
     1
  6
CENTERX2
370
    -3
390
F
  0
LAYER
  5
73
330
2
100
AcDbSymbolTableRecord
100
AcDbLayerTableRecord
  2
파단선
 70
     0
 62
     4
  6
Continuous
370
    -3
390
F
  0
LAYER
  5
74
330
2
100
AcDbSymbolTableRecord
100
AcDbLayerTableRecord
  2
해칭선
 70
     0
 62
     4
  6
Continuous
370
    -3
390
F
  0
LAYER
  5
75
330
2
100
AcDbSymbolTableRecord
100
AcDbLayerTableRecord
  2
가는실선
 70
     0
 62
     4
  6
Continuous
370
    -3
390
F
  0
LAYER
  5
76
330
2
100
AcDbSymbolTableRecord
100
AcDbLayerTableRecord
  2
치수_보조선
 70
     0
 62
     4
  6
Continuous
370
    -3
390
F
  0
LAYER
  5
77
330
2
100
AcDbSymbolTableRecord
100
AcDbLayerTableRecord
  2
치수문자_일반주서
 70
     0
 62
     7
  6
Continuous
370
    15
390
F
  0
LAYER
  5
78
330
2
100
AcDbSymbolTableRecord
100
AcDbLayerTableRecord
  2
개별주서
 70
     0
 62
   100
  6
Continuous
370
    30
390
F
  0
LAYER
  5
79
330
2
100
AcDbSymbolTableRecord
100
AcDbLayerTableRecord
  2
중간선
 70
     0
 62
     2
  6
Continuous
370
    15
390
F
  0
LAYER
  5
7A
330
2
100
AcDbSymbolTableRecord
100
AcDbLayerTableRecord
  2
윤곽선
 70
     0
 62
     3
  6
Continuous
370
    40
390
F
  0
LAYER
  5
7B
330
2
100
AcDbSymbolTableRecord
100
AcDbLayerTableRecord
  2
중심마크
 70
     0
 62
   100
  6
Continuous
370
    30
390
F
  0
LAYER
  5
7C
330
2
100
AcDbSymbolTableRecord
100
AcDbLayerTableRecord
  2
가상선
 70
     0
 62
     4
  6
PHANTOM
370
    -3
390
F
  0
LAYER
  5
7D
330
2
100
AcDbSymbolTableRecord
100
AcDbLayerTableRecord
  2
특수지정선
 70
     0
 62
     5
  6
CENTERX2
370
    60
390
F
  0
LAYER
  5
143
330
2
100
AcDbSymbolTableRecord
100
AcDbLayerTableRecord
  2
Defpoints
 70
     0
 62
     7
  6
Continuous
290
     0
370
    -3
390
F
  0
ENDTAB
  0
TABLE
  2
STYLE
  5
3
330
0
100
AcDbSymbolTable
 70
     2
  0
STYLE
  5
11
330
3
100
AcDbSymbolTableRecord
100
AcDbTextStyleTableRecord
  2
Standard
 70
     0
 40
0.0
 41
1.0
 50
0.0
 71
     0
 42
3.5
  3
txt
  4

  0
STYLE
  5
93
330
3
100
AcDbSymbolTableRecord
100
AcDbTextStyleTableRecord
  2
SLDTEXTSTYLE0
 70
     0
 40
0.0
 41
0.75
 50
0.0
 71
     0
 42
3.5
  3
TXT
  4

  0
ENDTAB
  0
TABLE
  2
VIEW
  5
6
330
0
100
AcDbSymbolTable
 70
     0
  0
ENDTAB
  0
TABLE
  2
UCS
  5
7
330
0
100
AcDbSymbolTable
 70
     0
  0
ENDTAB
  0
TABLE
  2
APPID
  5
9
330
0
100
AcDbSymbolTable
 70
     1
  0
APPID
  5
12
330
9
100
AcDbSymbolTableRecord
100
AcDbRegAppTableRecord
  2
ACAD
 70
     0
  0
ENDTAB
  0
TABLE
  2
DIMSTYLE
  5
A
330
0
100
AcDbSymbolTable
 70
     3
100
AcDbDimStyleTable
  0
DIMSTYLE
105
27
330
A
100
AcDbSymbolTableRecord
100
AcDbDimStyleTableRecord
  2
ISO-25
 70
     0
 41
2.5
 42
0.625
 43
3.75
 44
1.25
 73
     0
 74
     0
 77
     1
 78
     8
140
2.5
141
2.5
143
0.03937007874016
147
0.625
171
     3
172
     1
178
     0
271
     2
272
     2
274
     3
278
    44
283
     0
284
     8
340
11
  0
DIMSTYLE
105
E9
102
{ACAD_REACTORS
330
E8
330
F6
102
}
330
A
100
AcDbSymbolTableRecord
100
AcDbDimStyleTableRecord
  2
SLDDIMSTYLE0
 70
     0
 41
3.302
 44
0.0
 45
0.000000001
 73
     0
 74
     0
 77
     1
 78
    12
 79
     3
140
3.5
147
0.875
172
     1
173
     1
178
     0
271
     2
272
     2
276
     2
284
    12
289
     0
340
93
  0
DIMSTYLE
105
104
102
{ACAD_REACTORS
330
103
330
10E
102
}
330
A
100
AcDbSymbolTableRecord
100
AcDbDimStyleTableRecord
  2
SLDDIMSTYLE1
 70
     0
 41
3.302
 44
0.0
 45
0.000000001
 73
     0
 74
     0
 77
     1
 78
    12
 79
     3
140
3.5
147
0.875
173
     1
178
     0
271
     2
272
     2
276
     2
284
    12
340
93
  0
ENDTAB
  0
TABLE
  2
BLOCK_RECORD
  5
1
330
0
100
AcDbSymbolTable
 70
     7
  0
BLOCK_RECORD
  5
1F
330
1
100
AcDbSymbolTableRecord
100
AcDbBlockTableRecord
  2
*Model_Space
340
22
  0
BLOCK_RECORD
  5
1B
330
1
100
AcDbSymbolTableRecord
100
AcDbBlockTableRecord
  2
*Paper_Space
340
1E
  0
BLOCK_RECORD
  5
23
330
1
100
AcDbSymbolTableRecord
100
AcDbBlockTableRecord
  2
*Paper_Space0
340
26
  0
BLOCK_RECORD
  5
7E
330
1
100
AcDbSymbolTableRecord
100
AcDbBlockTableRecord
  2
블럭10
340
0
102
{BLKREFS
331
E1
102
}
  0
BLOCK_RECORD
  5
EA
330
1
100
AcDbSymbolTableRecord
100
AcDbBlockTableRecord
  2
_D
340
0
  0
BLOCK_RECORD
  5
F7
330
1
100
AcDbSymbolTableRecord
100
AcDbBlockTableRecord
  2
_D_1
340
0
  0
BLOCK_RECORD
  5
105
330
1
100
AcDbSymbolTableRecord
100
AcDbBlockTableRecord
  2
_D_2
340
0
  0
BLOCK_RECORD
  5
10F
330
1
100
AcDbSymbolTableRecord
100
AcDbBlockTableRecord
  2
_D_3
340
0
  0
BLOCK_RECORD
  5
118
330
1
100
AcDbSymbolTableRecord
100
AcDbBlockTableRecord
  2
SW_DOWELSYMBOL_0
340
0
102
{BLKREFS
331
11E
102
}
  0
ENDTAB
  0
ENDSEC
  0
SECTION
  2
BLOCKS
  0
BLOCK
  5
20
330
1F
100
AcDbEntity
  8
0
100
AcDbBlockBegin
  2
*Model_Space
 70
     0
 10
0.0
 20
0.0
 30
0.0
  3
*Model_Space
  1
*Model_Space
  0
ENDBLK
  5
21
330
1F
100
AcDbEntity
  8
0
100
AcDbBlockEnd
  0
BLOCK
  5
1C
330
1B
100
AcDbEntity
 67
     1
  8
0
100
AcDbBlockBegin
  2
*Paper_Space
 70
     0
 10
0.0
 20
0.0
 30
0.0
  3
*Paper_Space
  1
*Paper_Space
  0
ENDBLK
  5
1D
330
1B
100
AcDbEntity
 67
     1
  8
0
100
AcDbBlockEnd
  0
BLOCK
  5
24
330
23
100
AcDbEntity
  8
0
100
AcDbBlockBegin
  2
*Paper_Space0
 70
     0
 10
0.0
 20
0.0
 30
0.0
  3
*Paper_Space0
  1
*Paper_Space0
  0
ENDBLK
  5
25
330
23
100
AcDbEntity
  8
0
100
AcDbBlockEnd
  0
BLOCK
  5
7F
330
7E
100
AcDbEntity
  8
0
100
AcDbBlockBegin
  2
블럭10
 70
     2
 10
0.0
 20
0.0
 30
0.0
  3
블럭10
  1
블럭10
  0
ELLIPSE
  5
81
330
7E
100
AcDbEntity
  8
중심선
100
AcDbEllipse
 10
20.54032771741204
 20
12.0471743016438
 30
0.0
 11
6.600054785286829
 21
-1.261213355974178E-13
 31
0.0
210
0.0
220
0.0
230
1.0
 40
0.636358354079598
 41
0.9219305317359503
 42
6.513795318482858
  0
ELLIPSE
  5
82
330
7E
100
AcDbEntity
  8
중심선
100
AcDbEllipse
 10
20.54032771746488
 20
12.04717430159265
 30
0.0
 11
3.960054785062283
 21
1.540847449632565E-10
 31
0.0
210
0.0
220
0.0
230
1.0
 40
0.3939339440162632
 41
1.131841032648279
 42
5.62031148352944
  0
LINE
  5
83
330
7E
100
AcDbEntity
  8
중심선
100
AcDbLine
 10
2.268634060543552
 20
16.24717430164393
 30
0.0
 11
5.714909304380834
 21
16.24717430164393
 31
0.0
  0
LINE
  5
84
330
7E
100
AcDbEntity
  8
중심선
100
AcDbLine
 10
5.245725140726316
 20
7.84717430164391
 30
0.0
 11
8.692000384563599
 21
7.84717430164391
 31
0.0
  0
LINE
  5
85
330
7E
100
AcDbEntity
  8
중심선
100
AcDbLine
 10
15.74043728645272
 20
16.24717430164393
 30
0.0
 11
8.692000384563599
 21
7.84717430164391
 31
0.0
  0
LINE
  5
86
330
7E
100
AcDbEntity
  8
중심선
100
AcDbLine
 10
0.1404042013395286
 20
13.71084872107135
 30
0.0
 11
3.58671253028996
 21
13.71088815037384
 31
0.0
  0
LINE
  5
87
330
7E
100
AcDbEntity
  8
중심선
100
AcDbLine
 10
2.750260043222114
 20
10.84717430164391
 30
0.0
 11
6.196535287059397
 21
10.84717430164391
 31
0.0
  0
LINE
  5
88
330
7E
100
AcDbEntity
  8
중심선
100
AcDbLine
 10
12.29416204261559
 20
16.24717430164393
 30
0.0
 11
5.245725140726316
 21
7.84717430164391
 31
0.0
  0
LINE
  5
89
330
7E
100
AcDbEntity
  8
중심선
100
AcDbLine
 10
10.72767329541681
 20
16.24717430164393
 30
0.0
 11
6.196535287059397
 21
10.84717430164391
 31
0.0
  0
LINE
  5
8A
330
7E
100
AcDbEntity
  8
중심선
100
AcDbLine
 10
7.28139805157953
 20
16.24717430164393
 30
0.0
 11
2.750260043222114
 21
10.84717430164391
 31
0.0
  0
LINE
  5
8B
330
7E
100
AcDbEntity
  8
중심선
100
AcDbLine
 10
5.714909304380834
 20
16.24717430164393
 30
0.0
 11
3.58671253028996
 21
13.71088815037384
 31
0.0
  0
LINE
  5
8C
330
7E
100
AcDbEntity
  8
중심선
100
AcDbLine
 10
2.268634060543552
 20
16.24717430164393
 30
0.0
 11
0.1404042013395286
 21
13.71084872107135
 31
0.0
  0
LINE
  5
8D
330
7E
100
AcDbEntity
  8
중심선
100
AcDbLine
 10
7.28139805157953
 20
16.24717430164393
 30
0.0
 11
10.72767329541681
 21
16.24717430164393
 31
0.0
  0
LINE
  5
8E
330
7E
100
AcDbEntity
  8
중심선
100
AcDbLine
 10
12.29416204261559
 20
16.24717430164393
 30
0.0
 11
15.74043728645272
 21
16.24717430164393
 31
0.0
  0
LINE
  5
8F
330
7E
100
AcDbEntity
  8
중심선
100
AcDbLine
 10
19.22036997980202
 20
11.08717430171403
 30
0.0
 11
23.66174974927406
 21
11.08717430171406
 31
0.0
  0
LINE
  5
90
330
7E
100
AcDbEntity
  8
중심선
100
AcDbLine
 10
19.22039502424796
 20
13.00717430171391
 30
0.0
 11
19.22036997980202
 21
11.08717430171403
 31
0.0
  0
LINE
  5
91
330
7E
100
AcDbEntity
  8
중심선
100
AcDbLine
 10
19.22039502424796
 20
13.00717430171391
 30
0.0
 11
26.96566020931264
 21
13.00717430171391
 31
0.0
  0
LINE
  5
92
330
7E
100
AcDbEntity
  8
중심선
100
AcDbLine
 10
22.22332737316547
 20
13.45928029700563
 30
0.0
 11
24.52862924686651
 21
15.39360700705356
 31
0.0
  0
ATTDEF
  5
94
330
7E
100
AcDbEntity
  8
FORMAT
 62
     2
100
AcDbText
 10
-16.11926103943555
 20
2.075366912832191
 30
0.0
 40
4.233333333333333
  1
SEME7520070E [ 6 FLUTE ]
 41
0.75
  7
SLDTEXTSTYLE0
 11
-16.11926103943555
 21
-0.0412997538344756
 31
0.0
100
AcDbAttributeDefinition
  3

  2
AUTOATTR0
 70
     0
 74
     1
  0
ENDBLK
  5
80
330
7E
100
AcDbEntity
  8
0
100
AcDbBlockEnd
  0
BLOCK
  5
EB
330
EA
100
AcDbEntity
  8
0
100
AcDbBlockBegin
  2
_D
 70
     0
 10
0.0
 20
0.0
 30
0.0
  3
_D
  1
_D
  0
LINE
  5
ED
330
EA
100
AcDbEntity
  8
치수문자_일반주서
 62
     0
370
    -2
100
AcDbLine
 10
-46.06249999999998
 20
9.999999999999977
 30
0.0
 11
-64.62890613132345
 21
9.999999999999904
 31
0.0
  0
LINE
  5
EE
330
EA
100
AcDbEntity
  8
치수문자_일반주서
 62
     0
370
    -2
100
AcDbLine
 10
-46.06249999999998
 20
-10.00000000000004
 30
0.0
 11
-64.62890613132338
 21
-10.00000000000011
 31
0.0
  0
LINE
  5
EF
330
EA
100
AcDbEntity
  8
치수문자_일반주서
 62
     0
370
    -2
100
AcDbLine
 10
-64.62890613132343
 20
6.697999999999904
 30
0.0
 11
-64.62890613132339
 21
-6.698000000000114
 31
0.0
  0
SOLID
  5
F0
330
EA
100
AcDbEntity
  8
치수문자_일반주서
 62
     0
100
AcDbTrace
 10
-64.0785727979901
 20
6.697999999999906
 30
0.0
 11
-65.17923946465676
 21
6.697999999999903
 31
0.0
 12
-64.62890613132345
 22
9.999999999999904
 32
0.0
 13
-64.62890613132345
 23
9.999999999999904
 33
0.0
  0
SOLID
  5
F1
330
EA
100
AcDbEntity
  8
치수문자_일반주서
 62
     0
100
AcDbTrace
 10
-65.17923946465672
 20
-6.698000000000116
 30
0.0
 11
-64.07857279799006
 21
-6.698000000000112
 31
0.0
 12
-64.62890613132338
 22
-10.00000000000011
 32
0.0
 13
-64.62890613132338
 23
-10.00000000000011
 33
0.0
  0
MTEXT
  5
F2
330
EA
100
AcDbEntity
  8
치수문자_일반주서
 62
     0
100
AcDbMText
 10
-69.00390613132342
 20
-0.0000000000000388
 30
0.0
 40
3.5
 41
0.0
 71
     2
 72
     1
  1
\A1;%%c20
  7
SLDTEXTSTYLE0
 11
-3.552713678800499E-15
 21
1.0
 31
0.0
 73
     1
 44
1.0
  0
POINT
  5
F3
330
EA
100
AcDbEntity
  8
Defpoints
 62
     0
100
AcDbPoint
 10
-45.99999999999998
 20
9.999999999999977
 30
0.0
  0
POINT
  5
F4
330
EA
100
AcDbEntity
  8
Defpoints
 62
     0
100
AcDbPoint
 10
-45.99999999999998
 20
-10.00000000000004
 30
0.0
  0
POINT
  5
F5
330
EA
100
AcDbEntity
  8
Defpoints
 62
     0
100
AcDbPoint
 10
-64.62890613132342
 20
-10.00000000000011
 30
0.0
  0
ENDBLK
  5
EC
330
EA
100
AcDbEntity
  8
0
100
AcDbBlockEnd
  0
BLOCK
  5
F8
330
F7
100
AcDbEntity
  8
0
100
AcDbBlockBegin
  2
_D_1
 70
     0
 10
0.0
 20
0.0
 30
0.0
  3
_D_1
  1
_D_1
  0
LINE
  5
FA
330
F7
100
AcDbEntity
  8
치수문자_일반주서
 62
     0
370
    -2
100
AcDbLine
 10
82.06250000000003
 20
9.99999999999997
 30
0.0
 11
91.99999999999999
 21
10.00000000000001
 31
0.0
  0
LINE
  5
FB
330
F7
100
AcDbEntity
  8
치수문자_일반주서
 62
     0
370
    -2
100
AcDbLine
 10
82.06250000000003
 20
-10.00000000000003
 30
0.0
 11
92.00000000000006
 21
-9.999999999999996
 31
0.0
  0
LINE
  5
FC
330
F7
100
AcDbEntity
  8
치수문자_일반주서
 62
     0
370
    -2
100
AcDbLine
 10
92.0
 20
6.698000000000008
 30
0.0
 11
92.00000000000004
 21
-6.697999999999997
 31
0.0
  0
SOLID
  5
FD
330
F7
100
AcDbEntity
  8
치수문자_일반주서
 62
     0
100
AcDbTrace
 10
92.55033333333333
 20
6.698000000000009
 30
0.0
 11
91.44966666666667
 21
6.698000000000006
 31
0.0
 12
91.99999999999999
 22
10.00000000000001
 32
0.0
 13
91.99999999999999
 23
10.00000000000001
 33
0.0
  0
SOLID
  5
FE
330
F7
100
AcDbEntity
  8
치수문자_일반주서
 62
     0
100
AcDbTrace
 10
91.44966666666672
 20
-6.697999999999999
 30
0.0
 11
92.55033333333337
 21
-6.697999999999995
 31
0.0
 12
92.00000000000006
 22
-9.999999999999996
 32
0.0
 13
92.00000000000006
 23
-9.999999999999996
 33
0.0
  0
MTEXT
  5
FF
330
F7
100
AcDbEntity
  8
치수문자_일반주서
 62
     0
100
AcDbMText
 10
87.62500000000001
 20
1.318861500191937
 30
0.0
 40
3.5
 41
0.0
 71
     2
 72
     1
  1
\A1;%%c20
  7
SLDTEXTSTYLE0
 11
-3.552713678800500E-15
 21
1.0
 31
0.0
 73
     1
 44
1.0
  0
POINT
  5
100
330
F7
100
AcDbEntity
  8
Defpoints
 62
     0
100
AcDbPoint
 10
82.00000000000003
 20
9.99999999999997
 30
0.0
  0
POINT
  5
101
330
F7
100
AcDbEntity
  8
Defpoints
 62
     0
100
AcDbPoint
 10
82.00000000000003
 20
-10.00000000000003
 30
0.0
  0
POINT
  5
102
330
F7
100
AcDbEntity
  8
Defpoints
 62
     0
100
AcDbPoint
 10
92.00000000000006
 20
-9.999999999999996
 30
0.0
  0
ENDBLK
  5
F9
330
F7
100
AcDbEntity
  8
0
100
AcDbBlockEnd
  0
BLOCK
  5
106
330
105
100
AcDbEntity
  8
0
100
AcDbBlockBegin
  2
_D_2
 70
     0
 10
0.0
 20
0.0
 30
0.0
  3
_D_2
  1
_D_2
  0
LINE
  5
108
330
105
100
AcDbEntity
  8
치수문자_일반주서
 62
     0
370
    -2
100
AcDbLine
 10
12.00000000000002
 20
9.844038066759378
 30
0.0
 11
12.00000000000003
 21
53.27637868540118
 31
0.0
  0
LINE
  5
109
330
105
100
AcDbEntity
  8
치수문자_일반주서
 62
     0
370
    -2
100
AcDbLine
 10
82.00000000000003
 20
9.989525509043347
 30
0.0
 11
82.00000000000003
 21
53.27637868540118
 31
0.0
  0
LINE
  5
10A
330
105
100
AcDbEntity
  8
치수문자_일반주서
 62
     0
370
    -2
100
AcDbLine
 10
15.30200000000003
 20
53.27637868540118
 30
0.0
 11
78.69800000000004
 21
53.27637868540118
 31
0.0
  0
SOLID
  5
10B
330
105
100
AcDbEntity
  8
치수문자_일반주서
 62
     0
100
AcDbTrace
 10
15.30200000000003
 20
53.82671201873452
 30
0.0
 11
15.30200000000003
 21
52.72604535206785
 31
0.0
 12
12.00000000000003
 22
53.27637868540118
 32
0.0
 13
12.00000000000003
 23
53.27637868540118
 33
0.0
  0
SOLID
  5
10C
330
105
100
AcDbEntity
  8
치수문자_일반주서
 62
     0
100
AcDbTrace
 10
78.69800000000004
 20
52.72604535206785
 30
0.0
 11
78.69800000000004
 21
53.82671201873452
 31
0.0
 12
82.00000000000003
 22
53.27637868540118
 32
0.0
 13
82.00000000000003
 23
53.27637868540118
 33
0.0
  0
MTEXT
  5
10D
330
105
100
AcDbEntity
  8
치수문자_일반주서
 62
     0
100
AcDbMText
 10
40.64749143489168
 20
57.65137868540118
 30
0.0
 40
3.5
 41
0.0
 71
     2
 72
     1
  1
\A1;70
  7
SLDTEXTSTYLE0
 73
     1
 44
1.0
  0
POINT
  5
145
330
105
100
AcDbEntity
  8
Defpoints
 62
     0
100
AcDbPoint
 10
12.00000000000002
 20
9.781538066759378
 30
0.0
  0
POINT
  5
146
330
105
100
AcDbEntity
  8
Defpoints
 62
     0
100
AcDbPoint
 10
82.00000000000003
 20
9.927025509043347
 30
0.0
  0
POINT
  5
147
330
105
100
AcDbEntity
  8
Defpoints
 62
     0
100
AcDbPoint
 10
82.00000000000003
 20
53.27637868540118
 30
0.0
  0
ENDBLK
  5
107
330
105
100
AcDbEntity
  8
0
100
AcDbBlockEnd
  0
BLOCK
  5
110
330
10F
100
AcDbEntity
  8
0
100
AcDbBlockBegin
  2
_D_3
 70
     0
 10
0.0
 20
0.0
 30
0.0
  3
_D_3
  1
_D_3
  0
LINE
  5
112
330
10F
100
AcDbEntity
  8
치수문자_일반주서
 62
     0
370
    -2
100
AcDbLine
 10
82.00000000000003
 20
9.989525509043347
 30
0.0
 11
82.00000000000003
 21
80.87170816991298
 31
0.0
  0
LINE
  5
113
330
10F
100
AcDbEntity
  8
치수문자_일반주서
 62
     0
370
    -2
100
AcDbLine
 10
-47.99999999999998
 20
8.062499999999972
 30
0.0
 11
-47.99999999999999
 21
80.87170816991298
 31
0.0
  0
LINE
  5
114
330
10F
100
AcDbEntity
  8
치수문자_일반주서
 62
     0
370
    -2
100
AcDbLine
 10
78.69800000000004
 20
80.87170816991298
 30
0.0
 11
-44.69799999999999
 21
80.87170816991298
 31
0.0
  0
SOLID
  5
115
330
10F
100
AcDbEntity
  8
치수문자_일반주서
 62
     0
100
AcDbTrace
 10
78.69800000000004
 20
80.32137483657965
 30
0.0
 11
78.69800000000004
 21
81.4220415032463
 31
0.0
 12
82.00000000000003
 22
80.87170816991298
 32
0.0
 13
82.00000000000003
 23
80.87170816991298
 33
0.0
  0
SOLID
  5
116
330
10F
100
AcDbEntity
  8
치수문자_일반주서
 62
     0
100
AcDbTrace
 10
-44.69799999999999
 20
81.4220415032463
 30
0.0
 11
-44.69799999999999
 21
80.32137483657965
 31
0.0
 12
-47.99999999999999
 22
80.87170816991298
 32
0.0
 13
-47.99999999999999
 23
80.87170816991298
 33
0.0
  0
MTEXT
  5
117
330
10F
100
AcDbEntity
  8
치수문자_일반주서
 62
     0
100
AcDbMText
 10
21.02761215795535
 20
85.24670816991298
 30
0.0
 40
3.5
 41
0.0
 71
     2
 72
     1
  1
\A1;130
  7
SLDTEXTSTYLE0
 73
     1
 44
1.0
  0
POINT
  5
148
330
10F
100
AcDbEntity
  8
Defpoints
 62
     0
100
AcDbPoint
 10
82.00000000000003
 20
9.927025509043347
 30
0.0
  0
POINT
  5
149
330
10F
100
AcDbEntity
  8
Defpoints
 62
     0
100
AcDbPoint
 10
-47.99999999999998
 20
7.999999999999972
 30
0.0
  0
POINT
  5
14A
330
10F
100
AcDbEntity
  8
Defpoints
 62
     0
100
AcDbPoint
 10
-47.99999999999998
 20
80.87170816991298
 30
0.0
  0
ENDBLK
  5
111
330
10F
100
AcDbEntity
  8
0
100
AcDbBlockEnd
  0
BLOCK
  5
119
330
118
100
AcDbEntity
  8
0
100
AcDbBlockBegin
  2
SW_DOWELSYMBOL_0
 70
     0
 10
0.0
 20
0.0
 30
0.0
  3
SW_DOWELSYMBOL_0
  1
SW_DOWELSYMBOL_0
  0
CIRCLE
  5
11B
330
118
100
AcDbEntity
  8
외형선
 62
     0
100
AcDbCircle
 10
0.0
 20
0.0
 30
0.0
 40
2.999999999999993
  0
HATCH
  5
11C
330
118
100
AcDbEntity
  8
0
  6
Continuous
 62
     0
370
    30
100
AcDbHatch
 10
0.0
 20
0.0
 30
0.0
210
0.0
220
0.0
230
1.0
  2
SOLID
 70
     1
 71
     0
 91
        1
 92
        0
 93
        3
 72
     2
 10
0.0
 20
0.0
 40
2.999999999999993
 50
0.0
 51
90.0
 73
     1
 72
     1
 10
0.0
 20
2.999999999999993
 11
0.0
 21
0.0
 72
     1
 10
0.0
 20
0.0
 11
2.999999999999994
 21
0.0
 97
        0
 75
     0
 76
     1
 98
        1
 10
0.0
 20
0.0
  0
HATCH
  5
11D
330
118
100
AcDbEntity
  8
0
  6
Continuous
 62
     0
370
    30
100
AcDbHatch
 10
0.0
 20
0.0
 30
0.0
210
0.0
220
0.0
230
1.0
  2
SOLID
 70
     1
 71
     0
 91
        1
 92
        0
 93
        3
 72
     2
 10
0.0
 20
0.0
 40
2.999999999999993
 50
180.0
 51
270.0000000000008
 73
     1
 72
     1
 10
0.0
 20
-2.999999999999993
 11
0.0
 21
0.0
 72
     1
 10
0.0
 20
0.0
 11
-2.999999999999994
 21
0.0
 97
        0
 75
     0
 76
     1
 98
        1
 10
0.0
 20
0.0
  0
ENDBLK
  5
11A
330
118
100
AcDbEntity
  8
0
100
AcDbBlockEnd
  0
ENDSEC
  0
SECTION
  2
ENTITIES
  0
LINE
  5
95
330
1F
100
AcDbEntity
  8
0
  6
Continuous
 62
   131
370
    15
100
AcDbLine
 10
63.1424765805101
 20
1.929700460436674
 30
0.0
 11
63.07008307949683
 21
1.999845364401338
 31
0.0
  0
LINE
  5
96
330
1F
100
AcDbEntity
  8
0
  6
Continuous
 62
     1
370
    15
100
AcDbLine
 10
58.97508291133317
 20
-1.934060387210591
 30
0.0
 11
59.04339855048909
 21
-2.000026924924187
 31
0.0
  0
LINE
  5
97
330
1F
100
AcDbEntity
  8
0
  6
Continuous
 62
     1
370
    15
100
AcDbLine
 10
31.72857059662915
 20
1.927834326128474
 30
0.0
 11
31.65394861154424
 21
2.000048689389008
 31
0.0
  0
LINE
  5
98
330
1F
100
AcDbEntity
  8
0
  6
Continuous
 62
     1
370
    15
100
AcDbLine
 10
42.19969467640828
 20
1.927522098999967
 30
0.0
 11
42.1248062285193
 21
1.999970258318787
 31
0.0
  0
LINE
  5
99
330
1F
100
AcDbEntity
  8
0
  6
Continuous
 62
     1
370
    15
100
AcDbLine
 10
52.66804040563396
 20
1.932319620636577
 30
0.0
 11
52.5984646361477
 21
1.999880441607794
 31
0.0
  0
LINE
  5
9A
330
1F
100
AcDbEntity
  8
0
  6
Continuous
 62
     1
370
    15
100
AcDbLine
 10
49.37615695068421
 20
-10.00000000000003
 30
0.0
 11
51.79324325045076
 21
-10.00000000000003
 31
0.0
  0
LINE
  5
9B
330
1F
100
AcDbEntity
  8
0
  6
Continuous
 62
     1
370
    15
100
AcDbLine
 10
20.37582626815248
 20
9.99999999999997
 30
0.0
 11
17.96016391005196
 21
9.99999999999997
 31
0.0
  0
LINE
  5
9C
330
1F
100
AcDbEntity
  8
0
  6
Continuous
 62
   131
370
    15
100
AcDbLine
 10
82.00000000000003
 20
9.99999999999997
 30
0.0
 11
80.79018595969669
 21
9.99999999999997
 31
0.0
  0
LINE
  5
9D
330
1F
100
AcDbEntity
  8
0
  6
Continuous
 62
     1
370
    15
100
AcDbLine
 10
80.79018595969669
 20
-10.00000000000003
 30
0.0
 11
82.00000000000003
 21
-10.00000000000003
 31
0.0
  0
LINE
  5
9E
330
1F
100
AcDbEntity
  8
0
  6
Continuous
 62
     1
370
    15
100
AcDbLine
 10
17.96016391005196
 20
-10.00000000000003
 30
0.0
 11
20.37582626815255
 21
-10.00000000000003
 31
0.0
  0
LINE
  5
9F
330
1F
100
AcDbEntity
  8
0
  6
Continuous
 62
     1
370
    15
100
AcDbLine
 10
51.79324325045086
 20
9.99999999999997
 30
0.0
 11
49.37615695068423
 21
9.99999999999997
 31
0.0
  0
LINE
  5
A0
330
1F
100
AcDbEntity
  8
0
  6
Continuous
 62
     1
370
    15
100
AcDbLine
 10
28.43101410419978
 20
-10.00000000000003
 30
0.0
 11
30.84827351374945
 21
-10.00000000000003
 31
0.0
  0
LINE
  5
A1
330
1F
100
AcDbEntity
  8
0
  6
Continuous
 62
     1
370
    15
100
AcDbLine
 10
62.26455296318483
 20
9.99999999999997
 30
0.0
 11
59.84768381590128
 21
9.99999999999997
 31
0.0
  0
LINE
  5
A2
330
1F
100
AcDbEntity
  8
0
  6
Continuous
 62
     1
370
    15
100
AcDbLine
 10
38.90332536530647
 20
-10.00000000000003
 30
0.0
 11
41.32149873805679
 21
-10.00000000000003
 31
0.0
  0
LINE
  5
A3
330
1F
100
AcDbEntity
  8
0
  6
Continuous
 62
     1
370
    15
100
AcDbLine
 10
72.73682255247807
 20
9.99999999999997
 30
0.0
 11
70.31854270322108
 21
9.99999999999997
 31
0.0
  0
LINE
  5
A4
330
1F
100
AcDbEntity
  8
0
  6
Continuous
 62
     1
370
    15
100
AcDbLine
 10
59.84768381590117
 20
-10.00000000000003
 30
0.0
 11
62.26455296318473
 21
-10.00000000000003
 31
0.0
  0
LINE
  5
A5
330
1F
100
AcDbEntity
  8
0
  6
Continuous
 62
     1
370
    15
100
AcDbLine
 10
30.84827351374939
 20
9.99999999999997
 30
0.0
 11
28.43101410419975
 21
9.99999999999997
 31
0.0
  0
LINE
  5
A6
330
1F
100
AcDbEntity
  8
0
  6
Continuous
 62
     1
370
    15
100
AcDbLine
 10
70.31854270322104
 20
-10.00000000000003
 30
0.0
 11
72.73682255247806
 21
-10.00000000000003
 31
0.0
  0
LINE
  5
A7
330
1F
100
AcDbEntity
  8
0
  6
Continuous
 62
     1
370
    15
100
AcDbLine
 10
41.3214987380568
 20
9.99999999999997
 30
0.0
 11
38.90332536530639
 21
9.99999999999997
 31
0.0
  0
LINE
  5
A8
330
1F
100
AcDbEntity
  8
0
  6
Continuous
 62
   131
370
    15
100
AcDbLine
 10
-45.99999999999998
 20
-10.00000000000003
 30
0.0
 11
10.99973778465121
 21
-10.00000000000003
 31
0.0
  0
LINE
  5
A9
330
1F
100
AcDbEntity
  8
0
  6
Continuous
 62
   131
370
    15
100
AcDbLine
 10
10.99973778465121
 20
9.999999999999966
 30
0.0
 11
-45.99999999999998
 21
9.999999999999966
 31
0.0
  0
LINE
  5
AA
330
1F
100
AcDbEntity
  8
0
  6
Continuous
 62
   131
370
    15
100
AcDbLine
 10
-45.99999999999998
 20
9.999999999999966
 30
0.0
 11
-47.99999999999998
 21
7.999999999999972
 31
0.0
  0
LINE
  5
AB
330
1F
100
AcDbEntity
  8
0
  6
Continuous
 62
   131
370
    15
100
AcDbLine
 10
-47.99999999999998
 20
-8.000000000000036
 30
0.0
 11
-45.99999999999998
 21
-10.00000000000003
 31
0.0
  0
SPLINE
  5
AC
330
1F
100
AcDbEntity
  8
0
  6
Continuous
 62
     1
370
    15
100
AcDbSpline
210
0.0
220
0.0
230
1.0
 70
     8
 71
     3
 72
     9
 73
     5
 74
     0
 42
0.000000001
 43
0.00000001
 40
0.0
 40
0.0
 40
0.0
 40
0.0
 40
0.8144840514394494
 40
1.0
 40
1.0
 40
1.0
 40
1.0
 10
12.0
 20
-9.781538066759456
 30
0.0
 10
12.52469839231801
 20
-9.663866787567283
 30
0.0
 10
13.168907927656
 20
-9.519393388752153
 30
0.0
 10
13.81309557830911
 20
-9.233068267528298
 30
0.0
 10
13.93260266137101
 20
-9.179950391067742
 30
0.0
  0
SPLINE
  5
AD
330
1F
100
AcDbEntity
  8
0
  6
Continuous
 62
     1
370
    15
100
AcDbSpline
210
0.0
220
0.0
230
1.0
 70
     8
 71
     3
 72
    28
 73
    24
 74
     0
 42
0.000000001
 43
0.00000001
 40
0.0
 40
0.0
 40
0.0
 40
0.0
 40
0.0459810908975638
 40
0.0960336099027228
 40
0.1461016183201153
 40
0.1962128543575694
 40
0.246310222176062
 40
0.2963710363785581
 40
0.3464244251368217
 40
0.3964995868703337
 40
0.4466168489983228
 40
0.4967038916183973
 40
0.5467606372009175
 40
0.5968162524010087
 40
0.6468999145688039
 40
0.6970180940737457
 40
0.7470961534013345
 40
0.7971501855755037
 40
0.847209382926382
 40
0.8973028889166923
 40
0.9474168765954603
 40
0.9974872984768711
 40
1.0
 40
1.0
 40
1.0
 40
1.0
 10
41.3214987380568
 20
9.988222283595425
 30
0.0
 10
41.86469464751229
 20
9.967404877110694
 30
0.0
 10
42.99918413114844
 20
9.923926772208945
 30
0.0
 10
44.72474121648596
 20
9.471124157459968
 30
0.0
 10
46.49929835835364
 20
8.735254016321212
 30
0.0
 10
48.27559380265533
 20
7.717897227026425
 30
0.0
 10
50.05134496328408
 20
6.459811924848276
 30
0.0
 10
51.82556891182597
 20
4.998060787226137
 30
0.0
 10
53.59947630626142
 20
3.379582178034987
 30
0.0
 10
55.37431958600403
 20
1.654479881503025
 30
0.0
 10
57.15085829169441
 20
-0.121726400565019
 30
0.0
 10
58.92619197866566
 20
-1.894865364767713
 30
0.0
 10
60.70023998650857
 20
-3.608280235556732
 30
0.0
 10
62.47423973272492
 20
-5.208299695456075
 30
0.0
 10
64.24943542143119
 20
-6.644823471824711
 30
0.0
 10
66.02601038058967
 20
-7.872008046144291
 30
0.0
 10
67.80097477462449
 20
-8.852255505506045
 30
0.0
 10
69.57490830724264
 20
-9.554721804573393
 30
0.0
 10
71.34906167881877
 20
-9.954726889641135
 30
0.0
 10
73.12465869213602
 20
-10.05042529187188
 30
0.0
 10
74.90106045561532
 20
-9.798424735623014
 30
0.0
 10
76.11416651349283
 20
-9.49713174090698
 30
0.0
 10
76.73524659845633
 20
-9.206974218888925
 30
0.0
 10
76.7649251107704
 20
-9.193108948050732
 30
0.0
  0
SPLINE
  5
AE
330
1F
100
AcDbEntity
  8
0
  6
Continuous
 62
   131
370
    15
100
AcDbSpline
210
0.0
220
0.0
230
1.0
 70
    24
 71
     3
 72
    10
 73
     6
 74
     0
 42
0.000000001
 43
0.00000001
 40
0.0
 40
0.0
 40
0.0
 40
0.0
 40
0.0485767503473488
 40
0.5204955771725045
 40
1.0
 40
1.0
 40
1.0
 40
1.0
 10
12.00000000000002
 20
-8.36706845479807
 30
0.0
 10
12.00000000000002
 20
-8.388265057433813
 30
0.0
 10
12.00000000000002
 20
-8.61538477713713
 30
0.0
 10
12.00000000000007
 20
-9.092829310815478
 30
0.0
 10
12.00000000000003
 20
-9.550751493219524
 30
0.0
 10
12.0
 20
-9.78153806675945
 30
0.0
  0
SPLINE
  5
AF
330
1F
100
AcDbEntity
  8
0
  6
Continuous
 62
     1
370
    15
100
AcDbSpline
210
0.0
220
0.0
230
1.0
 70
     8
 71
     3
 72
    28
 73
    24
 74
     0
 42
0.000000001
 43
0.00000001
 40
0.0
 40
0.0
 40
0.0
 40
0.0
 40
0.0159805876648946
 40
0.0660468508715898
 40
0.1161016551274497
 40
0.1661742068482353
 40
0.2162903262195318
 40
0.2663859630311422
 40
0.3164472897439392
 40
0.3665034510603167
 40
0.4165836405521534
 40
0.4667039519279314
 40
0.5167897444983012
 40
0.566847488907937
 40
0.6169063637480858
 40
0.6669955369145286
 40
0.7171149308743314
 40
0.7671922226488369
 40
0.8172477405219402
 40
0.8673106841551306
 40
0.9174101829591937
 40
0.9675235505721299
 40
1.0
 40
1.0
 40
1.0
 40
1.0
 10
80.79018595969671
 20
-9.965796465884782
 30
0.0
 10
80.60133316338637
 20
-9.975406807578846
 30
0.0
 10
79.82081540420582
 20
-10.01512579776887
 30
0.0
 10
78.44961627920564
 20
-9.76440104999691
 30
0.0
 10
76.67570135703741
 20
-9.216785443639656
 30
0.0
 10
74.90106835407205
 20
-8.356959548499013
 30
0.0
 10
73.12465657588781
 20
-7.240980040311289
 30
0.0
 10
71.34906224533624
 20
-5.895541438080047
 30
0.0
 10
69.57490815551085
 20
-4.365223216045921
 30
0.0
 10
67.80097481529238
 20
-2.697760525549709
 30
0.0
 10
66.02601036970849
 20
-0.9451948365595165
 30
0.0
 10
64.24943542424131
 20
0.8361886158798179
 30
0.0
 10
62.47423973236133
 20
2.592127519773265
 30
0.0
 10
60.70023998515625
 20
4.266352832452855
 30
0.0
 10
58.92619198444022
 20
5.806555436600673
 30
0.0
 10
57.15085826992868
 20
7.164410513091301
 30
0.0
 10
55.37431966731137
 20
8.29659814791161
 30
0.0
 10
53.59947600315042
 20
9.168832465059095
 30
0.0
 10
51.82557004260869
 20
9.751897116892556
 30
0.0
 10
50.05134074107578
 20
10.0317250589246
 30
0.0
 10
48.27560957474674
 20
9.984574036800204
 30
0.0
 10
46.70719982368388
 20
9.704558991760665
 30
0.0
 10
45.73168192152323
 20
9.318724413573943
 30
0.0
 10
45.3480830839105
 20
9.1670042909853
 30
0.0
  0
SPLINE
  5
B0
330
1F
100
AcDbEntity
  8
0
  6
Continuous
 62
     1
370
    15
100
AcDbSpline
210
0.0
220
0.0
230
1.0
 70
     8
 71
     3
 72
    11
 73
     7
 74
     0
 42
0.000000001
 43
0.00000001
 40
0.0
 40
0.0
 40
0.0
 40
0.0
 40
0.2071139468929519
 40
0.4716820313653018
 40
0.7358350467464991
 40
1.0
 40
1.0
 40
1.0
 40
1.0
 10
17.96016391005196
 20
-9.978984799096782
 30
0.0
 10
17.54876089499032
 20
-9.972848558745527
 30
0.0
 10
16.61183022100544
 20
-9.958873863379788
 30
0.0
 10
15.14845348584049
 20
-9.640592191948386
 30
0.0
 10
13.57417215885106
 20
-9.101637627965113
 30
0.0
 10
12.52473195733361
 20
-8.551051443358206
 30
0.0
 10
12.0
 20
-8.275752130532307
 30
0.0
  0
LINE
  5
B1
330
1F
100
AcDbEntity
  8
0
  6
Continuous
 62
     1
370
    15
100
AcDbLine
 10
82.00000000000003
 20
5.977247308635555
 30
0.0
 11
82.00000000000003
 21
9.927025509043347
 31
0.0
  0
SPLINE
  5
B2
330
1F
100
AcDbEntity
  8
0
  6
Continuous
 62
     1
370
    15
100
AcDbSpline
210
0.0
220
0.0
230
1.0
 70
     8
 71
     3
 72
    27
 73
    23
 74
     0
 42
0.000000001
 43
0.00000001
 40
0.0
 40
0.0
 40
0.0
 40
0.0
 40
0.0472184992393836
 40
0.0944348646286595
 40
0.1417254220684834
 40
0.1889663763620569
 40
0.2361731902418364
 40
0.2893976104311616
 40
0.3426623982323652
 40
0.3958875363530068
 40
0.4490847446921912
 40
0.5022850399943523
 40
0.5555194097973165
 40
0.6087816923395653
 40
0.661998199484881
 40
0.7151934478744182
 40
0.7683984728013026
 40
0.8216442170740196
 40
0.8748985655974038
 40
0.9281078744597011
 40
0.9813026049377939
 40
1.0
 40
1.0
 40
1.0
 40
1.0
 10
12.0
 20
9.781538066759392
 30
0.0
 10
12.52473031669323
 20
9.64902970900202
 30
0.0
 10
13.57416723700405
 20
9.384018981669412
 30
0.0
 10
15.14847318507939
 20
8.688611738464843
 30
0.0
 10
16.72546509593995
 20
7.796536704520062
 30
0.0
 10
18.30068825448764
 20
6.705857185408281
 30
0.0
 10
19.94108272495397
 20
5.397224808828289
 30
0.0
 10
21.64979432006541
 20
3.87957559608898
 30
0.0
 10
23.42631414885629
 20
2.181738594786014
 30
0.0
 10
25.20142327171061
 20
0.4144969157991011
 30
0.0
 10
26.97538602970628
 20
-1.365465397149956
 30
0.0
 10
28.74947874145327
 20
-3.102604178026807
 30
0.0
 10
30.52492462299259
 20
-4.742317460963532
 30
0.0
 10
32.30141674232723
 20
-6.232448587116094
 30
0.0
 10
34.07616917138233
 20
-7.527447277455964
 30
0.0
 10
35.85006174843317
 20
-8.58549978744911
 30
0.0
 10
37.62434623202459
 20
-9.374281501715416
 30
0.0
 10
39.40022413142871
 20
-9.866965589079376
 30
0.0
 10
41.17641212802118
 20
-10.05483149959483
 30
0.0
 10
42.95090625842234
 20
-9.907375812568487
 30
0.0
 10
44.34111914655405
 20
-9.6044442609339
 30
0.0
 10
45.14024886175181
 20
-9.257290539104677
 30
0.0
 10
45.34808308391048
 20
-9.167004290985364
 30
0.0
  0
SPLINE
  5
B3
330
1F
100
AcDbEntity
  8
0
  6
Continuous
 62
     1
370
    15
100
AcDbSpline
210
0.0
220
0.0
230
1.0
 70
     8
 71
     3
 72
    13
 73
     9
 74
     0
 42
0.000000001
 43
0.00000001
 40
0.0
 40
0.0
 40
0.0
 40
0.0
 40
0.0418496114829984
 40
0.2336052185746087
 40
0.4251941259820073
 40
0.6167151275747917
 40
0.8082799737050562
 40
1.0
 40
1.0
 40
1.0
 40
1.0
 10
72.73682255247807
 20
9.973142224798044
 30
0.0
 10
72.86605392509442
 20
9.981406644933296
 30
0.0
 10
73.58742556934484
 20
10.02753877385095
 30
0.0
 10
74.9011034274343
 20
9.801656035922923
 30
0.0
 10
76.67569871608909
 20
9.288154228746835
 30
0.0
 10
78.44959180352899
 20
8.452736832721365
 30
0.0
 10
80.22395815718437
 20
7.372148940334256
 30
0.0
 10
81.40782628189187
 20
6.462733658524815
 30
0.0
 10
82.00000000000006
 20
6.007841920590254
 30
0.0
  0
SPLINE
  5
B4
330
1F
100
AcDbEntity
  8
0
  6
Continuous
 62
     1
370
    15
100
AcDbSpline
210
0.0
220
0.0
230
1.0
 70
     8
 71
     3
 72
    10
 73
     6
 74
     0
 42
0.000000001
 43
0.00000001
 40
0.0
 40
0.0
 40
0.0
 40
0.0
 40
0.3392126277220288
 40
0.678150693248086
 40
1.0
 40
1.0
 40
1.0
 40
1.0
 10
82.00000000000003
 20
9.927025509043347
 30
0.0
 10
81.40782587632482
 20
9.966977051482225
 30
0.0
 10
80.22395694081159
 20
10.04684779916988
 30
0.0
 10
78.47927575676022
 20
9.79375097833111
 30
0.0
 10
77.32643739574459
 20
9.389841092471205
 30
0.0
 10
76.76492511077039
 20
9.193108948050666
 30
0.0
  0
SPLINE
  5
B5
330
1F
100
AcDbEntity
  8
0
  6
Continuous
 62
     1
370
    15
100
AcDbSpline
210
0.0
220
0.0
230
1.0
 70
     8
 71
     3
 72
    28
 73
    24
 74
     0
 42
0.000000001
 43
0.00000001
 40
0.0
 40
0.0
 40
0.0
 40
0.0
 40
0.0310426628568371
 40
0.0811533830522655
 40
0.1312208760726137
 40
0.1812728798401765
 40
0.2313386007059284
 40
0.2814467003048023
 40
0.3315467039892314
 40
0.3816083940130284
 40
0.4316608850940019
 40
0.4817333789706423
 40
0.5318489438492268
 40
0.5819382450637343
 40
0.6319954848874391
 40
0.682049820124897
 40
0.7321304350617563
 40
0.7822483571894413
 40
0.8323282966101241
 40
0.8767461478696282
 40
0.92119612253881
 40
0.9656927698171148
 40
1.0
 40
1.0
 40
1.0
 40
1.0
 10
49.37615695068421
 20
-9.962888229137738
 30
0.0
 10
49.00935020585458
 20
-9.965792516838832
 30
0.0
 10
48.05042447172558
 20
-9.973385060474282
 30
0.0
 10
46.4992764035741
 20
-9.631823320255878
 30
0.0
 10
44.72476085105712
 20
-8.987522855713944
 30
0.0
 10
42.95087926321617
 20
-8.047642235703345
 30
0.0
 10
41.17641936907223
 20
-6.858210421921783
 30
0.0
 10
39.40022219079979
 20
-5.452736455918439
 30
0.0
 10
37.62434675153997
 20
-3.876036775778099
 30
0.0
 10
35.8500616093016
 20
-2.177206641372981
 30
0.0
 10
34.07616920868808
 20
-0.4102279899461722
 30
0.0
 10
32.30141673227172
 20
1.370052911551806
 30
0.0
 10
30.5249246258659
 20
3.106441660126455
 30
0.0
 10
28.74947874001465
 20
4.74587905534152
 30
0.0
 10
26.97538603258809
 20
6.236068768252615
 30
0.0
 10
25.20142326161933
 20
7.530273961978676
 30
0.0
 10
23.42631418637271
 20
8.587954483888266
 30
0.0
 10
21.64979418003132
 20
9.37554575342115
 30
0.0
 10
19.94108322215176
 20
9.849759299490916
 30
0.0
 10
18.30068663031991
 20
10.0368445403374
 30
0.0
 10
16.72547118934758
 20
9.96039376572699
 30
0.0
 10
15.26810565891513
 20
9.687285604795838
 30
0.0
 10
14.33766817351197
 20
9.333827992655877
 30
0.0
 10
13.93260266137102
 20
9.179950391067678
 30
0.0
  0
SPLINE
  5
B6
330
1F
100
AcDbEntity
  8
0
  6
Continuous
 62
     1
370
    15
100
AcDbSpline
210
0.0
220
0.0
230
1.0
 70
     8
 71
     3
 72
    28
 73
    24
 74
     0
 42
0.000000001
 43
0.00000001
 40
0.0
 40
0.0
 40
0.0
 40
0.0
 40
0.0359336832763537
 40
0.0860508386643101
 40
0.1361306874321929
 40
0.1861842569027194
 40
0.2362407309150561
 40
0.2863292658276988
 40
0.3364440640026162
 40
0.3865157918345221
 40
0.4365675171767778
 40
0.4866284413211241
 40
0.5367276785399542
 40
0.586835011549371
 40
0.6368999664740065
 40
0.686951204510306
 40
0.7370179315624265
 40
0.7871278851283059
 40
0.837223970830146
 40
0.887283503851488
 40
0.9373356116186332
 40
0.987409491803802
 40
1.0
 40
1.0
 40
1.0
 40
1.0
 10
20.37582626815248
 20
9.968104494555396
 30
0.0
 10
20.80033839749897
 20
9.965152070641688
 30
0.0
 10
21.81692287820757
 20
9.958081864342123
 30
0.0
 10
23.42634309264696
 20
9.582265120072893
 30
0.0
 10
25.20141552319737
 20
8.907557353281428
 30
0.0
 10
26.97538810571084
 20
7.941917001926122
 30
0.0
 10
28.74947818415386
 20
6.729670062214254
 30
0.0
 10
30.52492477482054
 20
5.305044105168045
 30
0.0
 10
32.30141669283448
 20
3.714540411652977
 30
0.0
 10
34.07616921758335
 20
2.006476121209904
 30
0.0
 10
35.85006161312329
 20
0.235762690563264
 30
0.0
 10
37.62434672734417
 20
-1.54261441380069
 30
0.0
 10
39.40022228384552
 20
-3.272243934011694
 30
0.0
 10
41.17641902117833
 20
-4.898870215608456
 30
0.0
 10
42.95088056038271
 20
-6.372056097718376
 30
0.0
 10
44.72475601062422
 20
-7.644748742613944
 30
0.0
 10
46.49929448134823
 20
-8.677331948163806
 30
0.0
 10
48.27559449998893
 20
-9.43733830210218
 30
0.0
 10
50.05134605057265
 20
-9.899360252758342
 30
0.0
 10
51.8255638704937
 20
-10.05640442419825
 30
0.0
 10
53.5994953861763
 20
-9.874644953398965
 30
0.0
 10
54.93097371710348
 20
-9.569320959443461
 30
0.0
 10
55.67165517469329
 20
-9.239096661958083
 30
0.0
 10
55.82047264827657
 20
-9.172748105282315
 30
0.0
  0
SPLINE
  5
B7
330
1F
100
AcDbEntity
  8
0
  6
Continuous
 62
     1
370
    15
100
AcDbSpline
210
0.0
220
0.0
230
1.0
 70
     8
 71
     3
 72
    28
 73
    24
 74
     0
 42
0.000000001
 43
0.00000001
 40
0.0
 40
0.0
 40
0.0
 40
0.0
 40
0.0259974387140928
 40
0.076085033940146
 40
0.1262028490075249
 40
0.1762785632159359
 40
0.2263325042088795
 40
0.2763938707279796
 40
0.3264917912663685
 40
0.3766035801767267
 40
0.4266721409900958
 40
0.4767252122203389
 40
0.5267920008413167
 40
0.5769011690992308
 40
0.627002241270038
 40
0.6770649989630948
 40
0.7271185575171415
 40
0.7771921192934563
 40
0.8273087529902936
 40
0.8773991224629266
 40
0.9274574298609817
 40
0.9775128326108434
 40
1.0
 40
1.0
 40
1.0
 40
1.0
 10
59.84768381590118
 20
-9.960720353391407
 30
0.0
 10
59.54061949276728
 20
-9.96771299268369
 30
0.0
 10
58.64195406251522
 20
-9.988177900928514
 30
0.0
 10
57.15084951192647
 20
-9.679233981766034
 30
0.0
 10
55.37432194206619
 20
-9.06689861289733
 30
0.0
 10
53.59947565648724
 20
-8.153385308906582
 30
0.0
 10
51.82556915681759
 20
-6.988106430334932
 30
0.0
 10
50.05134463287716
 20
-5.601966152089428
 30
0.0
 10
48.27559488010106
 20
-4.040198286982891
 30
0.0
 10
46.49929437959618
 20
-2.351767470038663
 30
0.0
 10
44.72475603781776
 20
-0.5887913837644619
 30
0.0
 10
42.9508805532862
 20
1.192303495431319
 30
0.0
 10
41.17641902236849
 20
2.936290322059776
 30
0.0
 10
39.40022228619132
 20
4.587446914586476
 30
0.0
 10
37.62434671677665
 20
6.094680889319511
 30
0.0
 10
35.85006165301169
 20
7.410611011245164
 30
0.0
 10
34.07616906858919
 20
8.493429916201237
 30
0.0
 10
32.30141724937748
 20
9.309844264272767
 30
0.0
 10
30.52492269626243
 20
9.832234320146231
 30
0.0
 10
28.74948593458888
 20
10.05029226593497
 30
0.0
 10
26.9753592015689
 20
9.936002208637483
 30
0.0
 10
25.52741982372012
 20
9.638038505512732
 30
0.0
 10
24.67031790577002
 20
9.27630145563534
 30
0.0
 10
24.40462847318477
 20
9.16416810309677
 30
0.0
  0
LINE
  5
B8
330
1F
100
AcDbEntity
  8
0
  6
Continuous
 62
     1
370
    15
100
AcDbLine
 10
82.00000000000003
 20
-9.927025509043405
 30
0.0
 11
82.00000000000003
 21
-5.977191282773902
 31
0.0
  0
SPLINE
  5
B9
330
1F
100
AcDbEntity
  8
0
  6
Continuous
 62
     1
370
    15
100
AcDbSpline
210
0.0
220
0.0
230
1.0
 70
     8
 71
     3
 72
    15
 73
    11
 74
     0
 42
0.000000001
 43
0.00000001
 40
0.0
 40
0.0
 40
0.0
 40
0.0
 40
0.1269352280220001
 40
0.2538647197170439
 40
0.3809936583450788
 40
0.5079892512128438
 40
0.6348930660427772
 40
0.7779737234524845
 40
0.9211628991781277
 40
1.0
 40
1.0
 40
1.0
 40
1.0
 10
12.0
 20
-6.691084224228858
 30
0.0
 10
12.52473032469323
 20
-7.065215996984483
 30
0.0
 10
13.5741672610037
 20
-7.813462635115437
 30
0.0
 10
15.148473089023
 20
-8.698733611698906
 30
0.0
 10
16.7254654566241
 20
-9.379648022218603
 30
0.0
 10
18.30068690998681
 20
-9.824977530552808
 30
0.0
 10
19.94108800905663
 20
-10.03951622437923
 30
0.0
 10
21.64977177311619
 20
-9.962463828170682
 30
0.0
 10
23.16055528172427
 20
-9.672648238975727
 30
0.0
 10
24.07863624215118
 20
-9.297408313615996
 30
0.0
 10
24.40462847318484
 20
-9.164168103096834
 30
0.0
  0
SPLINE
  5
BA
330
1F
100
AcDbEntity
  8
0
  6
Continuous
 62
     1
370
    15
100
AcDbSpline
210
0.0
220
0.0
230
1.0
 70
     8
 71
     3
 72
    25
 73
    21
 74
     0
 42
0.000000001
 43
0.00000001
 40
0.0
 40
0.0
 40
0.0
 40
0.0
 40
0.0010729422082143
 40
0.0598036678101083
 40
0.1185599409856345
 40
0.1773656131484643
 40
0.2361358269003616
 40
0.2948704912710222
 40
0.3536038292943184
 40
0.4123700765532338
 40
0.4711768251309763
 40
0.5299364982321989
 40
0.5886679787936258
 40
0.6474055199751928
 40
0.7061833175976969
 40
0.7649851476474655
 40
0.8237358592624252
 40
0.882465747568847
 40
0.9412090807965443
 40
1.0
 40
1.0
 40
1.0
 40
1.0
 10
51.79324325045085
 20
9.997183160950584
 30
0.0
 10
51.80404470216668
 20
9.998120119199847
 30
0.0
 10
52.40609616899805
 20
10.05034431120368
 30
0.0
 10
53.59945231885057
 20
9.86540096818695
 30
0.0
 10
55.37432602074554
 20
9.420681664114529
 30
0.0
 10
57.15085656803181
 20
8.642657759215185
 30
0.0
 10
58.92619244005139
 20
7.602815841555374
 30
0.0
 10
60.70023986306429
 20
6.321424583760935
 30
0.0
 10
62.47423976527444
 20
4.842165312742866
 30
0.0
 10
64.24943541474357
 20
3.210299904248859
 30
0.0
 10
66.02601037475213
 20
1.478416044182938
 30
0.0
 10
67.80097480462229
 20
-0.3008105729973765
 30
0.0
 10
69.5749081931351
 20
-2.070231180328554
 30
0.0
 10
71.34906210544533
 20
-3.774712906306702
 30
0.0
 10
73.12465709829847
 20
-5.360652814762929
 30
0.0
 10
74.90106640432457
 20
-6.777301034218647
 30
0.0
 10
76.67570862534114
 20
-7.983180002161694
 30
0.0
 10
78.44958916085322
 20
-8.931926148086848
 30
0.0
 10
80.22395881854082
 20
-9.622514306165836
 30
0.0
 10
81.40782650240351
 20
-9.825494381303908
 30
0.0
 10
82.00000000000006
 20
-9.927025509043405
 30
0.0
  0
SPLINE
  5
BB
330
1F
100
AcDbEntity
  8
0
  6
Continuous
 62
   131
370
    15
100
AcDbSpline
210
0.0
220
0.0
230
1.0
 70
    24
 71
     3
 72
    23
 73
    19
 74
     0
 42
0.000000001
 43
0.00000001
 40
0.0
 40
0.0
 40
0.0
 40
0.0
 40
0.0055725461627399
 40
0.0707871445945862
 40
0.1378929707989067
 40
0.2031075692307532
 40
0.2702133954350738
 40
0.335427993866919
 40
0.4025338200712381
 40
0.4677484185030918
 40
0.5348542447074043
 40
0.600068843139251
 40
0.6671746693435721
 40
0.7323892677754158
 40
0.799495093979737
 40
0.8647096924115828
 40
0.931815518615903
 40
1.0
 40
1.0
 40
1.0
 40
1.0
 10
12.00000000000002
 20
0.744161518084251
 30
0.0
 10
12.00000000000002
 20
0.7448035324290101
 30
0.0
 10
12.00000000000002
 20
0.752958935888586
 30
0.0
 10
12.00000000000003
 20
0.6490003466402094
 30
0.0
 10
12.00000000000006
 20
0.4447393666260567
 30
0.0
 10
11.99999999999997
 20
0.1184779505133144
 30
0.0
 10
12.0
 20
-0.295907533254876
 30
0.0
 10
12.00000000000002
 20
-0.7991848634226918
 30
0.0
 10
11.99999999999998
 20
-1.366703620233577
 30
0.0
 10
12.00000000000003
 20
-1.992975366398024
 30
0.0
 10
12.00000000000002
 20
-2.648908380433911
 30
0.0
 10
12.00000000000009
 20
-3.327755657636576
 30
0.0
 10
11.99999999999992
 20
-3.998123929912097
 30
0.0
 10
12.00000000000011
 20
-4.65293216768425
 30
0.0
 10
11.99999999999995
 20
-5.262506890665613
 30
0.0
 10
12.00000000000002
 20
-5.818147074841461
 30
0.0
 10
12.00000000000007
 20
-6.310425160795564
 30
0.0
 10
12.00000000000002
 20
-6.563525223158404
 30
0.0
 10
12.00000000000001
 20
-6.691084224228858
 30
0.0
  0
SPLINE
  5
BC
330
1F
100
AcDbEntity
  8
0
  6
Continuous
 62
     1
370
    15
100
AcDbSpline
210
0.0
220
0.0
230
1.0
 70
     8
 71
     3
 72
    22
 73
    18
 74
     0
 42
0.000000001
 43
0.00000001
 40
0.0
 40
0.0
 40
0.0
 40
0.0
 40
0.0678356920427061
 40
0.1356164771773246
 40
0.2033817489375731
 40
0.2711710475979689
 40
0.3390193290817063
 40
0.4068398808351189
 40
0.4746139828380077
 40
0.5423810918160046
 40
0.6101807306553025
 40
0.6780346873649674
 40
0.7458419117726266
 40
0.813611163976363
 40
0.8813819465812679
 40
0.9491937477126802
 40
1.0
 40
1.0
 40
1.0
 40
1.0
 10
82.00000000000003
 20
-6.007841920590266
 30
0.0
 10
81.40782650240395
 20
-5.51652826723233
 30
0.0
 10
80.22395881854217
 20
-4.534298634849762
 30
0.0
 10
78.44958916084786
 20
-2.867309003412873
 30
0.0
 10
76.67570862536135
 20
-1.124057562295424
 30
0.0
 10
74.901066404249
 20
0.6585521535038772
 30
0.0
 10
73.12465709858101
 20
2.418713690724064
 30
0.0
 10
71.34906210439182
 20
4.103674496364174
 30
0.0
 10
69.57490819706405
 20
5.65960600420394
 30
0.0
 10
67.80097478995772
 20
7.03762703954024
 30
0.0
 10
66.02601042952917
 20
8.194654418767884
 30
0.0
 10
64.2494352101935
 20
9.093889868071633
 30
0.0
 10
62.47424052787864
 20
9.707081922695027
 30
0.0
 10
60.70023701867422
 20
10.01770507793188
 30
0.0
 10
58.92620305865655
 20
10.00389740303483
 30
0.0
 10
57.29958190792566
 20
9.736285338681355
 30
0.0
 10
56.26402174764036
 20
9.341739294203204
 30
0.0
 10
55.82047264827666
 20
9.172748105282247
 30
0.0
  0
SPLINE
  5
BD
330
1F
100
AcDbEntity
  8
0
  6
Continuous
 62
     1
370
    15
100
AcDbSpline
210
0.0
220
0.0
230
1.0
 70
     8
 71
     3
 72
    17
 73
    13
 74
     0
 42
0.000000001
 43
0.00000001
 40
0.0
 40
0.0
 40
0.0
 40
0.0
 40
0.0886007021423551
 40
0.196562281557731
 40
0.3045805433331957
 40
0.4126792725292341
 40
0.5206960772921746
 40
0.6165003938106901
 40
0.712373996916043
 40
0.80834826759739
 40
0.9041719685175158
 40
1.0
 40
1.0
 40
1.0
 40
1.0
 10
28.43101410419978
 20
-9.976855275985526
 30
0.0
 10
27.94578671736337
 20
-9.96574123461042
 30
0.0
 10
26.86930086652196
 20
-9.941084530123943
 30
0.0
 10
25.20143173782677
 20
-9.526893356576998
 30
0.0
 10
23.42631187727461
 20
-8.820634404991178
 30
0.0
 10
21.64979493084045
 20
-7.828596742910657
 30
0.0
 10
19.94108258181273
 20
-6.638893204472446
 30
0.0
 10
18.3006882909089
 20
-5.31397884318625
 30
0.0
 10
16.72546508616936
 20
-3.911146624353658
 30
0.0
 10
15.14847318768149
 20
-2.413280829383878
 30
0.0
 10
13.57416723635395
 20
-0.8522801625478764
 30
0.0
 10
12.52473031647654
 20
0.1982983890817719
 30
0.0
 10
12.0
 20
0.7235995343325596
 30
0.0
  0
SPLINE
  5
BE
330
1F
100
AcDbEntity
  8
0
  6
Continuous
 62
     1
370
    15
100
AcDbSpline
210
0.0
220
0.0
230
1.0
 70
     8
 71
     3
 72
    28
 73
    24
 74
     0
 42
0.000000001
 43
0.00000001
 40
0.0
 40
0.0
 40
0.0
 40
0.0
 40
0.0409904024570074
 40
0.0910616446341784
 40
0.1411128845157069
 40
0.1911733231101054
 40
0.2412720744073821
 40
0.2913789214167229
 40
0.3414433907523152
 40
0.3914941433326142
 40
0.4415603847785032
 40
0.4916698523188894
 40
0.5417654521297434
 40
0.5918244996146301
 40
0.6418761219173389
 40
0.6919495164268967
 40
0.7420650098451486
 40
0.7921502848219755
 40
0.8422052638304738
 40
0.8922591124964359
 40
0.9423410071402845
 40
0.9924574179031137
 40
1.0
 40
1.0
 40
1.0
 40
1.0
 10
30.84827351374939
 20
9.976558329821158
 30
0.0
 10
31.33279597542766
 20
9.965681002084867
 30
0.0
 10
32.40917994772212
 20
9.941516629609369
 30
0.0
 10
34.07617438363882
 20
9.528218568520115
 30
0.0
 10
35.85006022883527
 20
8.822848965992335
 30
0.0
 10
37.62434709873306
 20
7.83102551235107
 30
0.0
 10
39.40022218380702
 20
6.595700877008506
 30
0.0
 10
41.17641904972245
 20
5.152687088179739
 30
0.0
 10
42.95088054617094
 20
3.54742465288014
 30
0.0
 10
44.72475603894373
 20
1.8309783797704
 30
0.0
 10
46.49929438221076
 20
0.056619061546835
 30
0.0
 10
48.27559486850537
 20
-1.718836827583981
 30
0.0
 10
50.05134467661448
 20
-3.440661406141558
 30
0.0
 10
51.82556899359852
 20
-5.054498419990875
 30
0.0
 10
53.59947626569082
 20
-6.509332120877485
 30
0.0
 10
55.37431966655324
 20
-7.759915844771616
 30
0.0
 10
57.15085800992212
 20
-8.765987179046425
 30
0.0
 10
58.92619302415707
 20
-9.497553293116656
 30
0.0
 10
60.70023608863949
 20
-9.928615708276155
 30
0.0
 10
62.47425428279603
 20
-10.05495047890681
 30
0.0
 10
64.24938107009899
 20
-9.838255352089009
 30
0.0
 10
65.52329885333985
 20
-9.53367428082224
 30
0.0
 10
66.20450615347018
 20
-9.222230394122663
 30
0.0
 10
66.29361735245926
 20
-9.181489289092951
 30
0.0
  0
SPLINE
  5
BF
330
1F
100
AcDbEntity
  8
0
  6
Continuous
 62
     1
370
    15
100
AcDbSpline
210
0.0
220
0.0
230
1.0
 70
     8
 71
     3
 72
    28
 73
    24
 74
     0
 42
0.000000001
 43
0.00000001
 40
0.0
 40
0.0
 40
0.0
 40
0.0
 40
0.0209872460263734
 40
0.0710430601408904
 40
0.1211229022642014
 40
0.1712428659931584
 40
0.221328311156138
 40
0.2713857083529327
 40
0.3214442359723995
 40
0.3715330617080034
 40
0.4216521080273485
 40
0.4717290524534275
 40
0.5217842231291333
 40
0.5718468195134194
 40
0.6219459708150227
 40
0.6720589908293014
 40
0.7221287816845999
 40
0.7721830825762376
 40
0.8222511011956071
 40
0.87236150049306
 40
0.9224638035045082
 40
0.9725277910969282
 40
1.0
 40
1.0
 40
1.0
 40
1.0
 10
70.31854270322103
 20
-9.961687842995628
 30
0.0
 10
70.0706429911205
 20
-9.97089072454626
 30
0.0
 10
69.23148790933715
 20
-10.00204301897544
 30
0.0
 10
67.8009882995963
 20
-9.723569201366045
 30
0.0
 10
66.02600675253022
 20
-9.143048501251995
 30
0.0
 10
64.24943639316113
 20
-8.256736137298613
 30
0.0
 10
62.4742394726156
 20
-7.11561624007725
 30
0.0
 10
60.70024005609059
 20
-5.749670089749907
 30
0.0
 10
58.92619196037401
 20
-4.20341089581324
 30
0.0
 10
57.15085829523608
 20
-2.524785936477493
 30
0.0
 10
55.37431959014941
 20
-0.7675978375846633
 30
0.0
 10
53.59947628616526
 20
1.014593249115546
 30
0.0
 10
51.82556898804025
 20
2.764505769004555
 30
0.0
 10
50.05134467837534
 20
4.427751394562573
 30
0.0
 10
48.27559486702346
 20
5.951697064795686
 30
0.0
 10
46.49929438637598
 20
7.288389769860981
 30
0.0
 10
44.72475602378115
 20
8.396458391094395
 30
0.0
 10
42.95088060264931
 20
9.240710195271756
 30
0.0
 10
41.17641883882623
 20
9.793715693794693
 30
0.0
 10
39.4002229715568
 20
10.04256038558743
 30
0.0
 10
37.62434416037601
 20
9.96199987143629
 30
0.0
 10
36.1167958050961
 20
9.671652957598024
 30
0.0
 10
35.20101382921301
 20
9.29692773040163
 30
0.0
 10
34.87653887572991
 20
9.164157099546799
 30
0.0
  0
LINE
  5
C0
330
1F
100
AcDbEntity
  8
0
  6
Continuous
 62
     1
370
    15
100
AcDbLine
 10
82.00000000000003
 20
-3.919183588453024
 30
0.0
 11
82.00000000000003
 21
3.919183588453147
 31
0.0
  0
SPLINE
  5
C1
330
1F
100
AcDbEntity
  8
0
  6
Continuous
 62
     1
370
    15
100
AcDbSpline
210
0.0
220
0.0
230
1.0
 70
     8
 71
     3
 72
    21
 73
    17
 74
     0
 42
0.000000001
 43
0.00000001
 40
0.0
 40
0.0
 40
0.0
 40
0.0
 40
0.0688318703387761
 40
0.1376606300980907
 40
0.2065975419097942
 40
0.2754621456772762
 40
0.3442769819050575
 40
0.4218638694246113
 40
0.4995096020635877
 40
0.5770975361338807
 40
0.6546447560957879
 40
0.7321964760193365
 40
0.809797867399177
 40
0.8874399480445001
 40
0.9650153004744594
 40
1.0
 40
1.0
 40
1.0
 40
1.0
 10
12.00000000000002
 20
3.090453842530591
 30
0.0
 10
12.52473031669364
 20
2.583816805182803
 30
0.0
 10
13.57416723700525
 20
1.570565625909871
 30
0.0
 10
15.1484731850746
 20
-0.0101590130003309
 30
0.0
 10
16.7254650959579
 20
-1.582971860762722
 30
0.0
 10
18.3006882544206
 20
-3.11964019038674
 30
0.0
 10
19.94108272521742
 20
-4.640248340828686
 30
0.0
 10
21.64979431894124
 20
-6.091605909392255
 30
0.0
 10
23.4263141530373
 20
-7.407490081187374
 30
0.0
 10
25.20142325612816
 20
-8.491147097683372
 30
0.0
 10
26.97538608782837
 20
-9.3080782923117
 30
0.0
 10
28.74947852446213
 20
-9.831403286661475
 30
0.0
 10
30.52492543357104
 20
-10.05015165973709
 30
0.0
 10
32.3014137166055
 20
-9.936698347620219
 30
0.0
 10
33.75167068977882
 20
-9.638889286738475
 30
0.0
 10
34.60981860885288
 20
-9.27672201803626
 30
0.0
 10
34.87653887572998
 20
-9.164157099546866
 30
0.0
  0
SPLINE
  5
C2
330
1F
100
AcDbEntity
  8
0
  6
Continuous
 62
     1
370
    15
100
AcDbSpline
210
0.0
220
0.0
230
1.0
 70
     8
 71
     3
 72
    19
 73
    15
 74
     0
 42
0.000000001
 43
0.00000001
 40
0.0
 40
0.0
 40
0.0
 40
0.0
 40
0.0106147424854949
 40
0.1005633859218384
 40
0.190574021383465
 40
0.2805126022993348
 40
0.370408031221876
 40
0.4603127366353524
 40
0.5502790592597411
 40
0.64028216633663
 40
0.7302070306452614
 40
0.8201000224345093
 40
0.9100135932548553
 40
1.0
 40
1.0
 40
1.0
 40
1.0
 10
62.26455296318483
 20
9.983633263069342
 30
0.0
 10
62.33436354976973
 20
9.988940719163754
 30
0.0
 10
62.99574454603617
 20
10.03922321600388
 30
0.0
 10
64.24945406723161
 20
9.835401335567116
 30
0.0
 10
66.02600537975468
 20
9.35568006768486
 30
0.0
 10
67.8009761418533
 20
8.550132655365498
 30
0.0
 10
69.57490783486514
 20
7.484488496605525
 30
0.0
 10
71.3490622015198
 20
6.181335180668491
 30
0.0
 10
73.12465707253553
 20
4.684484737649832
 30
0.0
 10
74.90106641122219
 20
3.040953498805855
 30
0.0
 10
76.67570862349494
 20
1.300531631372323
 30
0.0
 10
78.44958916134557
 20
-0.4780045297941886
 30
0.0
 10
80.22395881841759
 20
-2.250661870442681
 30
0.0
 10
81.40782650236243
 20
-3.362859584322557
 30
0.0
 10
82.00000000000006
 20
-3.919183588453023
 30
0.0
  0
SPLINE
  5
C3
330
1F
100
AcDbEntity
  8
0
  6
Continuous
 62
   131
370
    15
100
AcDbSpline
210
0.0
220
0.0
230
1.0
 70
    24
 71
     3
 72
    17
 73
    13
 74
     0
 42
0.000000001
 43
0.00000001
 40
0.0
 40
0.0
 40
0.0
 40
0.0
 40
0.1219141890987613
 40
0.2216119164554081
 40
0.3242008846594013
 40
0.4238986120160485
 40
0.5264875802200424
 40
0.6261853075766872
 40
0.7287742757806791
 40
0.828472003137337
 40
0.9310609713413185
 40
1.0
 40
1.0
 40
1.0
 40
1.0
 10
12.00000000000001
 20
8.999351664864792
 30
0.0
 10
12.00000000000002
 20
8.774220307846184
 30
0.0
 10
12.00000000000002
 20
8.364983353133038
 30
0.0
 10
12.00000000000007
 20
7.685104513900992
 30
0.0
 10
12.00000000000001
 20
7.025252917741144
 30
0.0
 10
12.00000000000005
 20
6.345013413156382
 30
0.0
 10
11.99999999999998
 20
5.677592185332273
 30
0.0
 10
12.00000000000003
 20
5.029707463734393
 30
0.0
 10
11.99999999999996
 20
4.430290868565477
 30
0.0
 10
12.00000000000007
 20
3.889959742972223
 30
0.0
 10
11.99999999999999
 20
3.46524260906622
 30
0.0
 10
12.00000000000005
 20
3.263038335599208
 30
0.0
 10
12.00000000000006
 20
3.181770166796355
 30
0.0
  0
SPLINE
  5
C4
330
1F
100
AcDbEntity
  8
0
  6
Continuous
 62
     1
370
    15
100
AcDbSpline
210
0.0
220
0.0
230
1.0
 70
     8
 71
     3
 72
    16
 73
    12
 74
     0
 42
0.000000001
 43
0.00000001
 40
0.0
 40
0.0
 40
0.0
 40
0.0
 40
0.1130653989554667
 40
0.2260392816120442
 40
0.338987307292604
 40
0.4519753799008063
 40
0.5650617623552242
 40
0.6781019261756502
 40
0.7910646696968765
 40
0.9040157575671395
 40
1.0
 40
1.0
 40
1.0
 40
1.0
 10
82.00000000000003
 20
3.919183588453147
 30
0.0
 10
81.40782650037424
 20
4.451682821975657
 30
0.0
 10
80.2239588124548
 20
5.516250278654432
 30
0.0
 10
78.44958918517204
 20
6.907347430296671
 30
0.0
 10
76.67570853415296
 20
8.0899556605276
 30
0.0
 10
74.90106674502337
 20
9.016343342110744
 30
0.0
 10
73.12465582576417
 20
9.659142260865595
 30
0.0
 10
71.34906685094047
 20
10.0005890761098
 30
0.0
 10
69.57489049677564
 20
10.01989158646191
 30
0.0
 10
67.89012644011638
 20
9.767133233823836
 30
0.0
 10
66.79617517103733
 20
9.36584147700266
 30
0.0
 10
66.29361735245934
 20
9.181489289092882
 30
0.0
  0
SPLINE
  5
C5
330
1F
100
AcDbEntity
  8
0
  6
Continuous
 62
     1
370
    15
100
AcDbSpline
210
0.0
220
0.0
230
1.0
 70
     8
 71
     3
 72
    23
 73
    19
 74
     0
 42
0.000000001
 43
0.00000001
 40
0.0
 40
0.0
 40
0.0
 40
0.0
 40
0.0475376235453386
 40
0.113487500171778
 40
0.1794252583670575
 40
0.2453893676884336
 40
0.3114102175485937
 40
0.3773964683889279
 40
0.4433404824456679
 40
0.5092806700813554
 40
0.5752554778613582
 40
0.6412794330958531
 40
0.7072533509696527
 40
0.7657681915430206
 40
0.8243253506019219
 40
0.8829439948566294
 40
0.9414706749296258
 40
1.0
 40
1.0
 40
1.0
 40
1.0
 10
38.90332536530649
 20
-9.968279895842885
 30
0.0
 10
38.47686596136749
 20
-9.965158907661145
 30
0.0
 10
37.45877107003107
 20
-9.957708111420278
 30
0.0
 10
35.85007280879859
 20
-9.580904978306917
 30
0.0
 10
34.076166206759
 20
-8.905560015176224
 30
0.0
 10
32.30141753760579
 20
-7.939097206382725
 30
0.0
 10
30.52492440994067
 20
-6.7266654829054
 30
0.0
 10
28.74947879848708
 20
-5.301618582447617
 30
0.0
 10
26.9753860144295
 20
-3.710232472752183
 30
0.0
 10
25.20142327580629
 20
-2.002289655551404
 30
0.0
 10
23.42631414775735
 20
-0.2311287173643094
 30
0.0
 10
21.6497943203609
 20
1.546420715308983
 30
0.0
 10
19.94108272488471
 20
3.211387337959038
 30
0.0
 10
18.3006882545053
 20
4.721451322849918
 30
0.0
 10
16.72546509593525
 20
6.054468620840035
 30
0.0
 10
15.14847318508063
 20
7.232102427564387
 30
0.0
 10
13.57416723700377
 20
8.248160419737086
 30
0.0
 10
12.52473031669313
 20
8.74895081120249
 30
0.0
 10
12.0
 20
8.999351664864793
 30
0.0
  0
LINE
  5
C6
330
1F
100
AcDbEntity
  8
0
  6
Continuous
 62
   131
370
    15
100
AcDbLine
 10
82.00000000000003
 20
9.927025509043347
 30
0.0
 11
82.00000000000003
 21
9.99999999999997
 31
0.0
  0
LINE
  5
C7
330
1F
100
AcDbEntity
  8
0
  6
Continuous
 62
   131
370
    15
100
AcDbLine
 10
82.00000000000003
 20
-10.00000000000003
 30
0.0
 11
82.00000000000003
 21
-9.927025509043405
 31
0.0
  0
LINE
  5
C8
330
1F
100
AcDbEntity
  8
0
  6
Continuous
 62
   131
370
    15
100
AcDbLine
 10
12.0
 20
-8.275752130532302
 30
0.0
 11
12.0
 21
-6.691084224228858
 31
0.0
  0
LINE
  5
C9
330
1F
100
AcDbEntity
  8
0
  6
Continuous
 62
     1
370
    15
100
AcDbLine
 10
82.00000000000003
 20
-6.007841920590264
 30
0.0
 11
82.00000000000003
 21
-3.919183588453024
 31
0.0
  0
LINE
  5
CA
330
1F
100
AcDbEntity
  8
0
  6
Continuous
 62
   131
370
    15
100
AcDbLine
 10
12.0
 20
0.7235995343325613
 30
0.0
 11
12.00000000000002
 21
3.090453842530588
 31
0.0
  0
LINE
  5
CB
330
1F
100
AcDbEntity
  8
0
  6
Continuous
 62
   131
370
    15
100
AcDbLine
 10
12.0
 20
8.99935166486479
 30
0.0
 11
12.0
 21
9.781538066759387
 31
0.0
  0
LINE
  5
CC
330
1F
100
AcDbEntity
  8
0
  6
Continuous
 62
     1
370
    15
100
AcDbLine
 10
82.00000000000003
 20
3.919183588453147
 30
0.0
 11
82.00000000000003
 21
6.007841920590252
 31
0.0
  0
LINE
  5
CD
330
1F
100
AcDbEntity
  8
0
  6
Continuous
 62
   131
370
    15
100
AcDbLine
 10
10.99973778465121
 20
4.023303418731146
 30
0.0
 11
10.99973778465121
 21
9.389276263666511
 31
0.0
  0
SPLINE
  5
CE
330
1F
100
AcDbEntity
  8
0
  6
Continuous
 62
   131
370
    15
100
AcDbSpline
210
0.0
220
0.0
230
1.0
 70
     8
 71
     3
 72
     8
 73
     4
 74
     0
 42
0.000000001
 43
0.00000001
 40
0.0
 40
0.0
 40
0.0
 40
0.0
 40
1.0
 40
1.0
 40
1.0
 40
1.0
 10
12.00000000000002
 20
3.090453842530588
 30
0.0
 10
11.66745791626724
 20
3.406795686854464
 30
0.0
 10
11.33320623615026
 20
3.718536703082108
 30
0.0
 10
10.99973778465119
 20
4.023334741946309
 30
0.0
  0
SPLINE
  5
CF
330
1F
100
AcDbEntity
  8
0
  6
Continuous
 62
   131
370
    15
100
AcDbSpline
210
0.0
220
0.0
230
1.0
 70
     8
 71
     3
 72
     8
 73
     4
 74
     0
 42
0.000000001
 43
0.00000001
 40
0.0
 40
0.0
 40
0.0
 40
0.0
 40
1.0
 40
1.0
 40
1.0
 40
1.0
 10
12.00000000000002
 20
0.7235995343325462
 30
0.0
 10
11.66745791626724
 20
1.055352311697686
 30
0.0
 10
11.33320623615027
 20
1.386468417130961
 30
0.0
 10
10.9997377846512
 20
1.714471938394224
 30
0.0
  0
SPLINE
  5
D0
330
1F
100
AcDbEntity
  8
0
  6
Continuous
 62
   131
370
    15
100
AcDbSpline
210
0.0
220
0.0
230
1.0
 70
     8
 71
     3
 72
     8
 73
     4
 74
     0
 42
0.000000001
 43
0.00000001
 40
0.0
 40
0.0
 40
0.0
 40
0.0
 40
1.0
 40
1.0
 40
1.0
 40
1.0
 10
12.00000000000002
 20
-6.691084224228863
 30
0.0
 10
11.66745791626724
 20
-6.443889236765667
 30
0.0
 10
11.33320623615026
 20
-6.185139454952548
 30
0.0
 10
10.99973778465119
 20
-5.916736198831183
 30
0.0
  0
SPLINE
  5
D1
330
1F
100
AcDbEntity
  8
0
  6
Continuous
 62
   131
370
    15
100
AcDbSpline
210
0.0
220
0.0
230
1.0
 70
     8
 71
     3
 72
     8
 73
     4
 74
     0
 42
0.000000001
 43
0.00000001
 40
0.0
 40
0.0
 40
0.0
 40
0.0
 40
1.0
 40
1.0
 40
1.0
 40
1.0
 10
12.00000000000002
 20
-8.27575213053231
 30
0.0
 10
11.66745791626724
 20
-8.089031627852675
 30
0.0
 10
11.33320623615027
 20
-7.888223264528843
 30
0.0
 10
10.9997377846512
 20
-7.674788379065454
 30
0.0
  0
LINE
  5
D2
330
1F
100
AcDbEntity
  8
0
  6
Continuous
 62
   131
370
    15
100
AcDbLine
 10
10.99973778465121
 20
-10.00000000000003
 30
0.0
 11
10.99973778465121
 21
-7.674758671914097
 31
0.0
  0
SPLINE
  5
D3
330
1F
100
AcDbEntity
  8
0
  6
Continuous
 62
   131
370
    15
100
AcDbSpline
210
0.0
220
0.0
230
1.0
 70
     8
 71
     3
 72
     8
 73
     4
 74
     0
 42
0.000000001
 43
0.00000001
 40
0.0
 40
0.0
 40
0.0
 40
0.0
 40
1.0
 40
1.0
 40
1.0
 40
1.0
 10
12.00000000000002
 20
-9.781538066759442
 30
0.0
 10
11.66745791626724
 20
-9.850684923620124
 30
0.0
 10
11.33320623615026
 20
-9.903676158034653
 30
0.0
 10
10.99973778465119
 20
-9.940070940777492
 30
0.0
  0
LINE
  5
D4
330
1F
100
AcDbEntity
  8
0
  6
Continuous
 62
   131
370
    15
100
AcDbLine
 10
10.99973778465121
 20
9.940067200535232
 30
0.0
 11
10.99973778465121
 21
9.999999999999966
 31
0.0
  0
SPLINE
  5
D5
330
1F
100
AcDbEntity
  8
0
  6
Continuous
 62
   131
370
    15
100
AcDbSpline
210
0.0
220
0.0
230
1.0
 70
     8
 71
     3
 72
     8
 73
     4
 74
     0
 42
0.000000001
 43
0.00000001
 40
0.0
 40
0.0
 40
0.0
 40
0.0
 40
1.0
 40
1.0
 40
1.0
 40
1.0
 10
12.00000000000002
 20
9.781538066759378
 30
0.0
 10
11.66745791626724
 20
9.85068492362006
 30
0.0
 10
11.33320623615026
 20
9.903676158034589
 30
0.0
 10
10.99973778465119
 20
9.940070940777428
 30
0.0
  0
SPLINE
  5
D6
330
1F
100
AcDbEntity
  8
0
  6
Continuous
 62
   131
370
    15
100
AcDbSpline
210
0.0
220
0.0
230
1.0
 70
     8
 71
     3
 72
     8
 73
     4
 74
     0
 42
0.000000001
 43
0.00000001
 40
0.0
 40
0.0
 40
0.0
 40
0.0
 40
1.0
 40
1.0
 40
1.0
 40
1.0
 10
12.00000000000002
 20
8.999351664864783
 30
0.0
 10
11.66745791626724
 20
9.144383939550284
 30
0.0
 10
11.33320623615027
 20
9.274691681659723
 30
0.0
 10
10.9997377846512
 20
9.389260317459593
 30
0.0
  0
LINE
  5
D7
330
1F
100
AcDbEntity
  8
0
  6
Continuous
 62
   131
370
    15
100
AcDbLine
 10
-45.99999999999998
 20
-0.0000000000000326
 30
0.0
 11
-45.99999999999998
 21
9.999999999999966
 31
0.0
  0
LINE
  5
D8
330
1F
100
AcDbEntity
  8
0
  6
Continuous
 62
   131
370
    15
100
AcDbLine
 10
-45.99999999999998
 20
-10.00000000000003
 30
0.0
 11
-45.99999999999998
 21
-0.0000000000000326
 31
0.0
  0
LINE
  5
D9
330
1F
100
AcDbEntity
  8
0
  6
Continuous
 62
   131
370
    15
100
AcDbLine
 10
10.99973778465121
 20
-5.916763781804152
 30
0.0
 11
10.99973778465121
 21
1.714517591752498
 31
0.0
  0
LINE
  5
DA
330
1F
100
AcDbEntity
  8
0
  6
Continuous
 62
   131
370
    15
100
AcDbLine
 10
-47.99999999999998
 20
-0.0000000000000326
 30
0.0
 11
-47.99999999999998
 21
7.999999999999972
 31
0.0
  0
LINE
  5
DB
330
1F
100
AcDbEntity
  8
0
  6
Continuous
 62
   131
370
    15
100
AcDbLine
 10
-47.99999999999998
 20
-8.000000000000036
 30
0.0
 11
-47.99999999999998
 21
-0.0000000000000326
 31
0.0
  0
SPLINE
  5
DC
330
1F
100
AcDbEntity
  8
0
  6
Continuous
 62
   131
370
    15
100
AcDbSpline
210
0.0
220
0.0
230
1.0
 70
    24
 71
     3
 72
    22
 73
    18
 74
     0
 42
0.000000001
 43
0.00000001
 40
0.0
 40
0.0
 40
0.0
 40
0.0
 40
0.1004568611111221
 40
0.1666594764244788
 40
0.2347819720668053
 40
0.3009845873801612
 40
0.3691070830224887
 40
0.4353096983358343
 40
0.5034321939781712
 40
0.5696348092915281
 40
0.6377573049338559
 40
0.7039599202472112
 40
0.7720824158895373
 40
0.8382850312028705
 40
0.906407526845173
 40
0.972610142158552
 40
1.0
 40
1.0
 40
1.0
 40
1.0
 10
12.00000000000002
 20
-6.691084224228865
 30
0.0
 10
12.00000000000001
 20
-6.499475887787913
 30
0.0
 10
11.99999999999998
 20
-6.18159471295715
 30
0.0
 10
12.00000000000009
 20
-5.572436590313078
 30
0.0
 10
11.99999999999994
 20
-4.994201344542798
 30
0.0
 10
12.0000000000001
 20
-4.358550559814702
 30
0.0
 10
12.0
 20
-3.697699147333966
 30
0.0
 10
12.0
 20
-3.017710552643859
 30
0.0
 10
11.99999999999996
 20
-2.35027339722373
 30
0.0
 10
12.0
 20
-1.702200726543162
 30
0.0
 10
12.00000000000014
 20
-1.103560922297945
 30
0.0
 10
12.0
 20
-0.5603471388195389
 30
0.0
 10
12.00000000000002
 20
-0.098357322554104
 30
0.0
 10
12.0
 20
0.28005721862354
 30
0.0
 10
12.00000000000006
 20
0.5483973733246071
 30
0.0
 10
12.00000000000001
 20
0.6994288031695173
 30
0.0
 10
12.00000000000003
 20
0.7181273890611766
 30
0.0
 10
12.00000000000003
 20
0.723599534332532
 30
0.0
  0
SPLINE
  5
DD
330
1F
100
AcDbEntity
  8
0
  6
Continuous
 62
   131
370
    15
100
AcDbSpline
210
0.0
220
0.0
230
1.0
 70
    24
 71
     3
 72
    18
 73
    14
 74
     0
 42
0.000000001
 43
0.00000001
 40
0.0
 40
0.0
 40
0.0
 40
0.0
 40
0.0140158441239458
 40
0.1152547578174499
 40
0.2164936715109557
 40
0.3177325852044616
 40
0.4189714988979651
 40
0.5202104125914686
 40
0.6214493262849373
 40
0.722688239978406
 40
0.8239271536719478
 40
0.9251660673654897
 40
0.9999999999999999
 40
0.9999999999999999
 40
0.9999999999999999
 40
0.9999999999999999
 10
12.0
 20
3.181780166796354
 30
0.0
 10
12.0
 20
3.196361361869925
 30
0.0
 10
11.99999999999995
 20
3.316265100241429
 30
0.0
 10
11.99999999999996
 20
3.633455223121913
 30
0.0
 10
12.00000000000005
 20
4.128000915097548
 30
0.0
 10
12.00000000000012
 20
4.699978330393026
 30
0.0
 10
12.00000000000005
 20
5.32359257198652
 30
0.0
 10
11.99999999999998
 20
5.982580225513686
 30
0.0
 10
12.00000000000006
 20
6.658338416583669
 30
0.0
 10
12.00000000000005
 20
7.332006056495757
 30
0.0
 10
12.00000000000002
 20
7.982475983461807
 30
0.0
 10
12.00000000000005
 20
8.544385758775432
 30
0.0
 10
12.00000000000002
 20
8.86365629581951
 30
0.0
 10
12.0
 20
8.999351664864806
 30
0.0
  0
SPLINE
  5
DE
330
1F
100
AcDbEntity
  8
0
  6
Continuous
 62
   131
370
    15
100
AcDbSpline
210
0.0
220
0.0
230
1.0
 70
    24
 71
     3
 72
    10
 73
     6
 74
     0
 42
0.000000001
 43
0.00000001
 40
0.0
 40
0.0
 40
0.0
 40
0.0
 40
0.3451673106380877
 40
0.695903025712437
 40
1.0
 40
1.0
 40
1.0
 40
1.0
 10
12.00000000000002
 20
-9.781538066759442
 30
0.0
 10
12.00000000000003
 20
-9.614679774778113
 30
0.0
 10
12.00000000000007
 20
-9.2782713529019
 30
0.0
 10
12.0
 20
-8.799806760227494
 30
0.0
 10
12.00000000000002
 20
-8.504298967449635
 30
0.0
 10
12.00000000000003
 20
-8.367068454798067
 30
0.0
  0
LINE
  5
DF
330
1F
100
AcDbEntity
  8
중심선
 62
     1
100
AcDbLine
 10
-55.20259277488953
 20
-0.0000000000000413
 30
0.0
 11
89.00000000000003
 21
0.0000000000000665
 31
0.0
  0
CIRCLE
  5
E0
330
1F
100
AcDbEntity
  8
외형선
100
AcDbCircle
 10
0.0
 20
0.0
 30
0.0
 40
2.999999999999995
  0
INSERT
  5
E1
330
1F
100
AcDbEntity
  8
0
  6
Continuous
 62
     7
100
AcDbBlockReference
 66
     1
  2
블럭10
 10
-22.93944368806589
 20
-52.04609937292004
 30
0.0
  0
ATTRIB
  5
E2
330
E1
100
AcDbEntity
  8
FORMAT
 62
     2
100
AcDbText
 10
-39.05870472750145
 20
-49.97073246008785
 30
0.0
 40
4.233333333333333
  1
SEME7520070E [ 6 FLUTE ]
 41
0.75
  7
SLDTEXTSTYLE0
 11
-39.05870472750145
 21
-52.08739912675452
 31
0.0
100
AcDbAttribute
  2
AUTOATTR0
 70
     0
 74
     1
  0
SEQEND
  5
E3
330
E1
100
AcDbEntity
  8
0
  6
Continuous
 62
     7
  0
HATCH
  5
E4
330
1F
100
AcDbEntity
  8
중심선
100
AcDbHatch
 10
0.0
 20
0.0
 30
0.0
210
0.0
220
0.0
230
1.0
  2
SOLID
 70
     1
 71
     0
 91
        1
 92
        0
 93
        4
 72
     1
 10
-17.22453438368504
 20
-35.7989250712761
 11
-20.67080962752232
 21
-35.7989250712761
 72
     1
 10
-20.67080962752232
 20
-35.7989250712761
 11
-22.79903948672635
 21
-38.3352506518487
 72
     1
 10
-22.79903948672635
 20
-38.3352506518487
 11
-19.35273115777591
 21
-38.33521122254621
 72
     1
 10
-19.35273115777591
 20
-38.33521122254621
 11
-17.22453438368504
 21
-35.7989250712761
 97
        0
 75
     0
 76
     1
 98
        1
 10
0.0
 20
0.0
  0
HATCH
  5
E5
330
1F
100
AcDbEntity
  8
중심선
100
AcDbHatch
 10
0.0
 20
0.0
 30
0.0
210
0.0
220
0.0
230
1.0
  2
SOLID
 70
     1
 71
     0
 91
        1
 92
        0
 93
        4
 72
     1
 10
-12.21177039264909
 20
-35.7989250712761
 11
-15.65804563648637
 21
-35.7989250712761
 72
     1
 10
-15.65804563648637
 20
-35.7989250712761
 11
-20.18918364484376
 21
-41.19892507127612
 72
     1
 10
-20.18918364484376
 20
-41.19892507127612
 11
-16.74290840100648
 21
-41.19892507127612
 72
     1
 10
-16.74290840100648
 20
-41.19892507127612
 11
-12.21177039264909
 21
-35.7989250712761
 97
        0
 75
     0
 76
     1
 98
        1
 10
0.0
 20
0.0
  0
HATCH
  5
E6
330
1F
100
AcDbEntity
  8
중심선
100
AcDbHatch
 10
0.0
 20
0.0
 30
0.0
210
0.0
220
0.0
230
1.0
  2
SOLID
 70
     1
 71
     0
 91
        1
 92
        0
 93
        4
 72
     1
 10
-7.199006401613195
 20
-35.79892507127613
 11
-10.64528164545031
 21
-35.7989250712761
 72
     1
 10
-10.64528164545031
 20
-35.7989250712761
 11
-17.69371854733956
 21
-44.19892507127612
 72
     1
 10
-17.69371854733956
 20
-44.19892507127612
 11
-14.24744330350228
 21
-44.19892507127612
 72
     1
 10
-14.24744330350228
 20
-44.19892507127612
 11
-7.199006401613195
 21
-35.79892507127613
 97
        0
 75
     0
 76
     1
 98
        1
 10
0.0
 20
0.0
  0
HATCH
  5
E7
330
1F
100
AcDbEntity
  8
중심선
100
AcDbHatch
 10
0.0
 20
0.0
 30
0.0
210
0.0
220
0.0
230
1.0
  2
SOLID
 70
     1
 71
     0
 91
        1
 92
        0
 93
        6
 72
     3
 10
-2.399115970600996
 20
-39.99892507132738
 11
3.960054785062284
 21
1.540850780301639E-10
 40
0.3939339440162633
 50
17.09539180608433
 51
320.0019657685079
 73
     0
 72
     1
 10
-0.7161163149004002
 20
-38.58681907591441
 11
1.589185558800638
 21
-36.65249236586649
 72
     3
 10
-2.399115970653842
 20
-39.99892507127625
 11
6.600054785286829
 21
-1.249000902703301E-13
 40
0.6363583540795982
 50
39.99873849337408
 51
368.4976242363725
 73
     1
 72
     1
 10
4.026216521246767
 20
-39.03892507120613
 11
-3.71904866381792
 21
-39.0389250712061
 72
     1
 10
-3.71904866381792
 20
-39.0389250712061
 11
-3.719073708263854
 21
-40.95892507120602
 72
     1
 10
-3.719073708263854
 20
-40.95892507120602
 11
0.7223060612081831
 21
-40.95892507120599
 97
        0
 75
     0
 76
     1
 98
        1
 10
0.0
 20
0.0
  0
DIMENSION
  5
E8
330
1F
100
AcDbEntity
  8
치수문자_일반주서
100
AcDbDimension
  2
_D
 10
-64.62890613132338
 20
-10.00000000000011
 30
0.0
 11
-64.62890613132342
 21
-0.0000000000000234
 31
0.0
 70
   160
  1
%%c<>
 71
     2
 42
20.00000000000002
 52
-270.0
  3
SLDDIMSTYLE0
100
AcDbAlignedDimension
 13
-45.99999999999998
 23
9.999999999999977
 33
0.0
 14
-45.99999999999998
 24
-10.00000000000004
 34
0.0
 50
90.0000000000002
100
AcDbRotatedDimension
  0
DIMENSION
  5
F6
330
1F
100
AcDbEntity
  8
치수문자_일반주서
100
AcDbDimension
  2
_D_1
 10
92.00000000000006
 20
-9.999999999999996
 30
0.0
 11
92.00000000000001
 21
1.318861500191953
 31
0.0
 70
   160
  1
%%c<>
 71
     2
 42
20.0
 52
-270.0
  3
SLDDIMSTYLE0
100
AcDbAlignedDimension
 13
82.00000000000003
 23
9.99999999999997
 33
0.0
 14
82.00000000000003
 24
-10.00000000000003
 34
0.0
 50
90.0000000000002
100
AcDbRotatedDimension
  0
DIMENSION
  5
103
330
1F
100
AcDbEntity
  8
치수문자_일반주서
100
AcDbDimension
  2
_D_2
 10
82.00000000000003
 20
53.27637868540118
 30
0.0
 11
40.64749143489168
 21
53.27637868540118
 31
0.0
 70
   160
  1
<>
 71
     2
 42
70.0
  3
SLDDIMSTYLE1
100
AcDbAlignedDimension
 13
12.00000000000002
 23
9.781538066759378
 33
0.0
 14
82.00000000000003
 24
9.927025509043347
 34
0.0
100
AcDbRotatedDimension
  0
DIMENSION
  5
10E
330
1F
100
AcDbEntity
  8
치수문자_일반주서
100
AcDbDimension
  2
_D_3
 10
-47.99999999999999
 20
80.87170816991298
 30
0.0
 11
21.02761215795535
 21
80.87170816991298
 31
0.0
 70
   160
  1
<>
 71
     2
 42
130.0
  3
SLDDIMSTYLE1
100
AcDbAlignedDimension
 13
82.00000000000003
 23
9.927025509043347
 33
0.0
 14
-47.99999999999998
 24
7.999999999999972
 34
0.0
100
AcDbRotatedDimension
  0
INSERT
  5
11E
330
1F
100
AcDbEntity
  8
외형선
100
AcDbBlockReference
  2
SW_DOWELSYMBOL_0
 10
0.0
 20
0.0
 30
0.0
  0
ENDSEC
  0
SECTION
  2
OBJECTS
  0
DICTIONARY
  5
C
330
0
100
AcDbDictionary
281
     1
  3
ACAD_GROUP
350
D
  3
ACAD_IMAGE_VARS
350
142
  3
ACAD_LAYOUT
350
1A
  3
ACAD_MLINESTYLE
350
17
  3
ACAD_PLOTSETTINGS
350
19
  3
ACAD_PLOTSTYLENAME
350
E
  3
ACAD_SCALELIST
350
47
  3
APPDATA
350
140
  3
DWGPROPS
350
14C
  0
DICTIONARY
  5
D
102
{ACAD_REACTORS
330
C
102
}
330
C
100
AcDbDictionary
281
     1
  0
RASTERVARIABLES
  5
142
102
{ACAD_REACTORS
330
C
102
}
330
C
100
AcDbRasterVariables
 90
        0
 70
     1
 71
     1
 72
     1
  0
DICTIONARY
  5
1A
102
{ACAD_REACTORS
330
C
102
}
330
C
100
AcDbDictionary
281
     1
  3
Layout1
350
1E
  3
Layout2
350
26
  3
Model
350
22
  0
DICTIONARY
  5
17
102
{ACAD_REACTORS
330
C
102
}
330
C
100
AcDbDictionary
281
     1
  3
Standard
350
18
  0
DICTIONARY
  5
19
102
{ACAD_REACTORS
330
C
102
}
330
C
100
AcDbDictionary
281
     1
  0
ACDBDICTIONARYWDFLT
  5
E
102
{ACAD_REACTORS
330
C
102
}
330
C
100
AcDbDictionary
281
     1
  3
Normal
350
F
100
AcDbDictionaryWithDefault
340
F
  0
DICTIONARY
  5
47
102
{ACAD_REACTORS
330
C
102
}
330
C
100
AcDbDictionary
281
     1
  3
A0
350
48
  3
A1
350
49
  3
A2
350
4A
  3
A3
350
4B
  3
A4
350
4C
  3
A5
350
4D
  3
A6
350
4E
  3
A7
350
4F
  3
A8
350
50
  3
A9
350
51
  3
B0
350
52
  3
B1
350
53
  3
B2
350
54
  3
B3
350
55
  3
B4
350
56
  3
B5
350
57
  3
B6
350
58
  3
B7
350
59
  3
B8
350
5A
  3
B9
350
5B
  3
C0
350
5C
  3
C1
350
5D
  3
C2
350
5E
  3
C3
350
5F
  3
C4
350
60
  3
C5
350
61
  3
C6
350
62
  3
C7
350
63
  3
C8
350
64
  3
C9
350
65
  3
D0
350
66
  3
D1
350
67
  3
D2
350
68
  0
DICTIONARY
  5
140
102
{ACAD_REACTORS
330
C
102
}
330
C
100
AcDbDictionary
281
     1
  0
XRECORD
  5
14C
102
{ACAD_REACTORS
330
C
102
}
330
C
100
AcDbXrecord
280
     1
  1
DWGPROPS COOKIE
  2

  3

  4

  6

  7

  8
12016016
  9

300
=
301
=
302
=
303
=
304
=
305
=
306
=
307
=
308
=
309
=
 40
0.0
 41
2458268.399529294
 42
2458269.999535069
  1

 90
        0
  0
LAYOUT
  5
1E
102
{ACAD_REACTORS
330
1A
102
}
330
1A
100
AcDbPlotSettings
  1

  2
none_device
  4

  6

 40
0.0
 41
0.0
 42
0.0
 43
0.0
 44
0.0
 45
0.0
 46
0.0
 47
0.0
 48
0.0
 49
0.0
140
0.0
141
0.0
142
1.0
143
1.0
 70
   688
 72
     1
 73
     0
 74
     5
  7

 75
    16
147
1.0
148
0.0
149
0.0
100
AcDbLayout
  1
Layout1
 70
     1
 71
     1
 10
0.0
 20
0.0
 11
420.0
 21
297.0
 12
0.0
 22
0.0
 32
0.0
 14
1.000000000000000E+20
 24
1.000000000000000E+20
 34
1.000000000000000E+20
 15
-1.000000000000000E+20
 25
-1.000000000000000E+20
 35
-1.000000000000000E+20
146
0.0
 13
0.0
 23
0.0
 33
0.0
 16
1.0
 26
0.0
 36
0.0
 17
0.0
 27
1.0
 37
0.0
 76
     0
330
1B
  0
LAYOUT
  5
26
102
{ACAD_REACTORS
330
1A
102
}
330
1A
100
AcDbPlotSettings
  1

  2
none_device
  4

  6

 40
0.0
 41
0.0
 42
0.0
 43
0.0
 44
0.0
 45
0.0
 46
0.0
 47
0.0
 48
0.0
 49
0.0
140
0.0
141
0.0
142
1.0
143
1.0
 70
   688
 72
     1
 73
     0
 74
     5
  7

 75
    16
147
1.0
148
0.0
149
0.0
100
AcDbLayout
  1
Layout2
 70
     1
 71
     2
 10
0.0
 20
0.0
 11
0.0
 21
0.0
 12
0.0
 22
0.0
 32
0.0
 14
0.0
 24
0.0
 34
0.0
 15
0.0
 25
0.0
 35
0.0
146
0.0
 13
0.0
 23
0.0
 33
0.0
 16
1.0
 26
0.0
 36
0.0
 17
0.0
 27
1.0
 37
0.0
 76
     0
330
23
  0
LAYOUT
  5
22
102
{ACAD_REACTORS
330
1A
102
}
330
1A
100
AcDbPlotSettings
  1

  2
none_device
  4
ANSI_A_(11.00_x_8.50_Inches)
  6

 40
6.35
 41
19.05
 42
6.35000508
 43
19.05000254
 44
279.4
 45
215.9
 46
108.3726478008728
 47
61.67588061230472
 48
0.0
 49
0.0
140
0.0
141
0.0
142
0.0618298922697917
143
1.0
 70
  1696
 72
     0
 73
     0
 74
     0
  7

 75
     0
147
0.0235690232323232
148
0.0
149
0.0
100
AcDbLayout
  1
Model
 70
     1
 71
     0
 10
0.0
 20
0.0
 11
420.0
 21
297.0
 12
0.0
 22
0.0
 32
0.0
 14
-69.00390613132343
 24
-49.97073246008785
 34
0.0
 15
92.55033333333337
 25
85.24670816991298
 35
0.0
146
0.0
 13
0.0
 23
0.0
 33
0.0
 16
1.0
 26
0.0
 36
0.0
 17
0.0
 27
1.0
 37
0.0
 76
     0
330
1F
331
29
  0
MLINESTYLE
  5
18
102
{ACAD_REACTORS
330
17
102
}
330
17
100
AcDbMlineStyle
  2
Standard
 70
     0
  3

 62
   256
 51
90.0
 52
90.0
 71
     2
 49
0.5
 62
   256
  6
BYLAYER
 49
-0.5
 62
   256
  6
BYLAYER
  0
ACDBPLACEHOLDER
  5
F
102
{ACAD_REACTORS
330
E
102
}
330
E
  0
SCALE
  5
48
102
{ACAD_REACTORS
330
47
102
}
330
47
100
AcDbScale
 70
     0
300
1:1
140
1.0
141
1.0
290
     1
  0
SCALE
  5
49
102
{ACAD_REACTORS
330
47
102
}
330
47
100
AcDbScale
 70
     0
300
1:2
140
1.0
141
2.0
290
     0
  0
SCALE
  5
4A
102
{ACAD_REACTORS
330
47
102
}
330
47
100
AcDbScale
 70
     0
300
1:4
140
1.0
141
4.0
290
     0
  0
SCALE
  5
4B
102
{ACAD_REACTORS
330
47
102
}
330
47
100
AcDbScale
 70
     0
300
1:5
140
1.0
141
5.0
290
     0
  0
SCALE
  5
4C
102
{ACAD_REACTORS
330
47
102
}
330
47
100
AcDbScale
 70
     0
300
1:8
140
1.0
141
8.0
290
     0
  0
SCALE
  5
4D
102
{ACAD_REACTORS
330
47
102
}
330
47
100
AcDbScale
 70
     0
300
1:10
140
1.0
141
10.0
290
     0
  0
SCALE
  5
4E
102
{ACAD_REACTORS
330
47
102
}
330
47
100
AcDbScale
 70
     0
300
1:16
140
1.0
141
16.0
290
     0
  0
SCALE
  5
4F
102
{ACAD_REACTORS
330
47
102
}
330
47
100
AcDbScale
 70
     0
300
1:20
140
1.0
141
20.0
290
     0
  0
SCALE
  5
50
102
{ACAD_REACTORS
330
47
102
}
330
47
100
AcDbScale
 70
     0
300
1:30
140
1.0
141
30.0
290
     0
  0
SCALE
  5
51
102
{ACAD_REACTORS
330
47
102
}
330
47
100
AcDbScale
 70
     0
300
1:40
140
1.0
141
40.0
290
     0
  0
SCALE
  5
52
102
{ACAD_REACTORS
330
47
102
}
330
47
100
AcDbScale
 70
     0
300
1:50
140
1.0
141
50.0
290
     0
  0
SCALE
  5
53
102
{ACAD_REACTORS
330
47
102
}
330
47
100
AcDbScale
 70
     0
300
1:100
140
1.0
141
100.0
290
     0
  0
SCALE
  5
54
102
{ACAD_REACTORS
330
47
102
}
330
47
100
AcDbScale
 70
     0
300
2:1
140
2.0
141
1.0
290
     0
  0
SCALE
  5
55
102
{ACAD_REACTORS
330
47
102
}
330
47
100
AcDbScale
 70
     0
300
4:1
140
4.0
141
1.0
290
     0
  0
SCALE
  5
56
102
{ACAD_REACTORS
330
47
102
}
330
47
100
AcDbScale
 70
     0
300
8:1
140
8.0
141
1.0
290
     0
  0
SCALE
  5
57
102
{ACAD_REACTORS
330
47
102
}
330
47
100
AcDbScale
 70
     0
300
10:1
140
10.0
141
1.0
290
     0
  0
SCALE
  5
58
102
{ACAD_REACTORS
330
47
102
}
330
47
100
AcDbScale
 70
     0
300
100:1
140
100.0
141
1.0
290
     0
  0
SCALE
  5
59
102
{ACAD_REACTORS
330
47
102
}
330
47
100
AcDbScale
 70
     0
300
1/128" = 1'-0"
140
0.0078125
141
12.0
290
     0
  0
SCALE
  5
5A
102
{ACAD_REACTORS
330
47
102
}
330
47
100
AcDbScale
 70
     0
300
1/64" = 1'-0"
140
0.015625
141
12.0
290
     0
  0
SCALE
  5
5B
102
{ACAD_REACTORS
330
47
102
}
330
47
100
AcDbScale
 70
     0
300
1/32" = 1'-0"
140
0.03125
141
12.0
290
     0
  0
SCALE
  5
5C
102
{ACAD_REACTORS
330
47
102
}
330
47
100
AcDbScale
 70
     0
300
1/16" = 1'-0"
140
0.0625
141
12.0
290
     0
  0
SCALE
  5
5D
102
{ACAD_REACTORS
330
47
102
}
330
47
100
AcDbScale
 70
     0
300
3/32" = 1'-0"
140
0.09375
141
12.0
290
     0
  0
SCALE
  5
5E
102
{ACAD_REACTORS
330
47
102
}
330
47
100
AcDbScale
 70
     0
300
1/8" = 1'-0"
140
0.125
141
12.0
290
     0
  0
SCALE
  5
5F
102
{ACAD_REACTORS
330
47
102
}
330
47
100
AcDbScale
 70
     0
300
3/16" = 1'-0"
140
0.1875
141
12.0
290
     0
  0
SCALE
  5
60
102
{ACAD_REACTORS
330
47
102
}
330
47
100
AcDbScale
 70
     0
300
1/4" = 1'-0"
140
0.25
141
12.0
290
     0
  0
SCALE
  5
61
102
{ACAD_REACTORS
330
47
102
}
330
47
100
AcDbScale
 70
     0
300
3/8" = 1'-0"
140
0.375
141
12.0
290
     0
  0
SCALE
  5
62
102
{ACAD_REACTORS
330
47
102
}
330
47
100
AcDbScale
 70
     0
300
1/2" = 1'-0"
140
0.5
141
12.0
290
     0
  0
SCALE
  5
63
102
{ACAD_REACTORS
330
47
102
}
330
47
100
AcDbScale
 70
     0
300
3/4" = 1'-0"
140
0.75
141
12.0
290
     0
  0
SCALE
  5
64
102
{ACAD_REACTORS
330
47
102
}
330
47
100
AcDbScale
 70
     0
300
1" = 1'-0"
140
1.0
141
12.0
290
     0
  0
SCALE
  5
65
102
{ACAD_REACTORS
330
47
102
}
330
47
100
AcDbScale
 70
     0
300
1-1/2" = 1'-0"
140
1.5
141
12.0
290
     0
  0
SCALE
  5
66
102
{ACAD_REACTORS
330
47
102
}
330
47
100
AcDbScale
 70
     0
300
3" = 1'-0"
140
3.0
141
12.0
290
     0
  0
SCALE
  5
67
102
{ACAD_REACTORS
330
47
102
}
330
47
100
AcDbScale
 70
     0
300
6" = 1'-0"
140
6.0
141
12.0
290
     0
  0
SCALE
  5
68
102
{ACAD_REACTORS
330
47
102
}
330
47
100
AcDbScale
 70
     0
300
1'-0" = 1'-0"
140
12.0
141
12.0
290
     0
  0
ENDSEC
  0
EOF
