  0
SECTION
  2
HEADER
  9
$ACADVER
  1
AC1015
  9
$ACADMAINTVER
 70
     6
  9
$DWGCODEPAGE
  3
ANSI_949
  9
$INSBASE
 10
0.0
 20
0.0
 30
0.0
  9
$EXTMIN
 10
-66.00390613132342
 20
-49.97073246008785
 30
0.0
  9
$EXTMAX
 10
65.55033333333337
 20
85.09039064062851
 30
0.0
  9
$LIMMIN
 10
0.0
 20
0.0
  9
$LIMMAX
 10
420.0
 20
297.0
  9
$ORTHOMODE
 70
     1
  9
$REGENMODE
 70
     1
  9
$FILLMODE
 70
     1
  9
$QTEXTMODE
 70
     0
  9
$MIRRTEXT
 70
     1
  9
$LTSCALE
 40
1.0
  9
$ATTMODE
 70
     1
  9
$TEXTSIZE
 40
3.5
  9
$TRACEWID
 40
1.0
  9
$TEXTSTYLE
  7
Standard
  9
$CLAYER
  8
0
  9
$CELTYPE
  6
ByLayer
  9
$CECOLOR
 62
   256
  9
$CELTSCALE
 40
1.0
  9
$DISPSILH
 70
     0
  9
$DIMSCALE
 40
1.0
  9
$DIMASZ
 40
3.302
  9
$DIMEXO
 40
1.0
  9
$DIMDLI
 40
3.75
  9
$DIMRND
 40
0.0
  9
$DIMDLE
 40
0.0
  9
$DIMEXE
 40
1.0
  9
$DIMTP
 40
0.0
  9
$DIMTM
 40
0.0
  9
$DIMTXT
 40
3.5
  9
$DIMCEN
 40
2.5
  9
$DIMTSZ
 40
0.0
  9
$DIMTOL
 70
     0
  9
$DIMLIM
 70
     0
  9
$DIMTIH
 70
     1
  9
$DIMTOH
 70
     1
  9
$DIMSE1
 70
     0
  9
$DIMSE2
 70
     0
  9
$DIMTAD
 70
     1
  9
$DIMZIN
 70
     0
  9
$DIMBLK
  1

  9
$DIMASO
 70
     1
  9
$DIMSHO
 70
     1
  9
$DIMPOST
  1

  9
$DIMAPOST
  1

  9
$DIMALT
 70
     0
  9
$DIMALTD
 70
     3
  9
$DIMALTF
 40
0.0393700787401575
  9
$DIMLFAC
 40
1.0
  9
$DIMTOFL
 70
     1
  9
$DIMTVP
 40
0.0
  9
$DIMTIX
 70
     0
  9
$DIMSOXD
 70
     0
  9
$DIMSAH
 70
     0
  9
$DIMBLK1
  1

  9
$DIMBLK2
  1

  9
$DIMSTYLE
  2
ISO-25
  9
$DIMCLRD
 70
     0
  9
$DIMCLRE
 70
     0
  9
$DIMCLRT
 70
     0
  9
$DIMTFAC
 40
1.0
  9
$DIMGAP
 40
1.524
  9
$DIMJUST
 70
     0
  9
$DIMSD1
 70
     0
  9
$DIMSD2
 70
     0
  9
$DIMTOLJ
 70
     0
  9
$DIMTZIN
 70
     0
  9
$DIMALTZ
 70
     0
  9
$DIMALTTZ
 70
     0
  9
$DIMUPT
 70
     0
  9
$DIMDEC
 70
     2
  9
$DIMTDEC
 70
     2
  9
$DIMALTU
 70
     2
  9
$DIMALTTD
 70
     3
  9
$DIMTXSTY
  7
Standard
  9
$DIMAUNIT
 70
     0
  9
$DIMADEC
 70
     2
  9
$DIMALTRND
 40
0.0
  9
$DIMAZIN
 70
     0
  9
$DIMDSEP
 70
    44
  9
$DIMATFIT
 70
     3
  9
$DIMFRAC
 70
     0
  9
$DIMLDRBLK
  1

  9
$DIMLUNIT
 70
     2
  9
$DIMLWD
 70
    -2
  9
$DIMLWE
 70
    -2
  9
$DIMTMOVE
 70
     0
  9
$LUNITS
 70
     2
  9
$LUPREC
 70
     2
  9
$SKETCHINC
 40
1.0
  9
$FILLETRAD
 40
10.0
  9
$AUNITS
 70
     0
  9
$AUPREC
 70
     2
  9
$MENU
  1
.
  9
$ELEVATION
 40
0.0
  9
$PELEVATION
 40
0.0
  9
$THICKNESS
 40
0.0
  9
$LIMCHECK
 70
     0
  9
$CHAMFERA
 40
0.0
  9
$CHAMFERB
 40
0.0
  9
$CHAMFERC
 40
0.0
  9
$CHAMFERD
 40
0.0
  9
$SKPOLY
 70
     0
  9
$TDCREATE
 40
2458268.774716956
  9
$TDUCREATE
 40
2458268.399716956
  9
$TDUPDATE
 40
2458270.352349294
  9
$TDUUPDATE
 40
2458269.977349294
  9
$TDINDWG
 40
0.0016619907
  9
$TDUSRTIMER
 40
2458269.975687454
  9
$USRTIMER
 70
     1
  9
$ANGBASE
 50
0.0
  9
$ANGDIR
 70
     0
  9
$PDMODE
 70
     0
  9
$PDSIZE
 40
-1.0
  9
$PLINEWID
 40
0.0
  9
$SPLFRAME
 70
     0
  9
$SPLINETYPE
 70
     6
  9
$SPLINESEGS
 70
     8
  9
$HANDSEED
  5
142
  9
$SURFTAB1
 70
     6
  9
$SURFTAB2
 70
     6
  9
$SURFTYPE
 70
     6
  9
$SURFU
 70
     6
  9
$SURFV
 70
     6
  9
$UCSBASE
  2

  9
$UCSNAME
  2

  9
$UCSORG
 10
0.0
 20
0.0
 30
0.0
  9
$UCSXDIR
 10
1.0
 20
0.0
 30
0.0
  9
$UCSYDIR
 10
0.0
 20
1.0
 30
0.0
  9
$UCSORTHOREF
  2

  9
$UCSORTHOVIEW
 70
     0
  9
$UCSORGTOP
 10
0.0
 20
0.0
 30
0.0
  9
$UCSORGBOTTOM
 10
0.0
 20
0.0
 30
0.0
  9
$UCSORGLEFT
 10
0.0
 20
0.0
 30
0.0
  9
$UCSORGRIGHT
 10
0.0
 20
0.0
 30
0.0
  9
$UCSORGFRONT
 10
0.0
 20
0.0
 30
0.0
  9
$UCSORGBACK
 10
0.0
 20
0.0
 30
0.0
  9
$PUCSBASE
  2

  9
$PUCSNAME
  2

  9
$PUCSORG
 10
0.0
 20
0.0
 30
0.0
  9
$PUCSXDIR
 10
1.0
 20
0.0
 30
0.0
  9
$PUCSYDIR
 10
0.0
 20
1.0
 30
0.0
  9
$PUCSORTHOREF
  2

  9
$PUCSORTHOVIEW
 70
     0
  9
$PUCSORGTOP
 10
0.0
 20
0.0
 30
0.0
  9
$PUCSORGBOTTOM
 10
0.0
 20
0.0
 30
0.0
  9
$PUCSORGLEFT
 10
0.0
 20
0.0
 30
0.0
  9
$PUCSORGRIGHT
 10
0.0
 20
0.0
 30
0.0
  9
$PUCSORGFRONT
 10
0.0
 20
0.0
 30
0.0
  9
$PUCSORGBACK
 10
0.0
 20
0.0
 30
0.0
  9
$USERI1
 70
     0
  9
$USERI2
 70
     0
  9
$USERI3
 70
     0
  9
$USERI4
 70
     0
  9
$USERI5
 70
     0
  9
$USERR1
 40
0.0
  9
$USERR2
 40
0.0
  9
$USERR3
 40
0.0
  9
$USERR4
 40
0.0
  9
$USERR5
 40
0.0
  9
$WORLDVIEW
 70
     1
  9
$SHADEDGE
 70
     3
  9
$SHADEDIF
 70
    70
  9
$TILEMODE
 70
     1
  9
$MAXACTVP
 70
    64
  9
$PINSBASE
 10
0.0
 20
0.0
 30
0.0
  9
$PLIMCHECK
 70
     0
  9
$PEXTMIN
 10
1.000000000000000E+20
 20
1.000000000000000E+20
 30
1.000000000000000E+20
  9
$PEXTMAX
 10
-1.000000000000000E+20
 20
-1.000000000000000E+20
 30
-1.000000000000000E+20
  9
$PLIMMIN
 10
0.0
 20
0.0
  9
$PLIMMAX
 10
0.0
 20
0.0
  9
$UNITMODE
 70
     0
  9
$VISRETAIN
 70
     1
  9
$PLINEGEN
 70
     0
  9
$PSLTSCALE
 70
     1
  9
$TREEDEPTH
 70
  3020
  9
$CMLSTYLE
  2
Standard
  9
$CMLJUST
 70
     0
  9
$CMLSCALE
 40
20.0
  9
$PROXYGRAPHICS
 70
     1
  9
$MEASUREMENT
 70
     1
  9
$CELWEIGHT
370
    -1
  9
$ENDCAPS
280
     0
  9
$JOINSTYLE
280
     0
  9
$LWDISPLAY
290
     1
  9
$INSUNITS
 70
     4
  9
$HYPERLINKBASE
  1

  9
$STYLESHEET
  1

  9
$XEDIT
290
     1
  9
$CEPSNTYPE
380
     0
  9
$PSTYLEMODE
290
     1
  9
$FINGERPRINTGUID
  2
{402457BE-2CEA-4301-87DE-0BB58E18CFDB}
  9
$VERSIONGUID
  2
{FAEB1C32-E019-11D5-929B-00C0DF256EC4}
  9
$EXTNAMES
290
     1
  9
$PSVPSCALE
 40
0.0
  9
$OLESTARTUP
290
     0
  0
ENDSEC
  0
SECTION
  2
CLASSES
  0
CLASS
  1
ACDBDICTIONARYWDFLT
  2
AcDbDictionaryWithDefault
  3
ObjectDBX Classes
 90
        0
280
     0
281
     0
  0
CLASS
  1
VISUALSTYLE
  2
AcDbVisualStyle
  3
ObjectDBX Classes
 90
     4095
280
     0
281
     0
  0
CLASS
  1
MATERIAL
  2
AcDbMaterial
  3
ObjectDBX Classes
 90
     1153
280
     0
281
     0
  0
CLASS
  1
SCALE
  2
AcDbScale
  3
ObjectDBX Classes
 90
     1153
280
     0
281
     0
  0
CLASS
  1
SUN
  2
AcDbSun
  3
SCENEOE
 90
     1153
280
     0
281
     0
  0
CLASS
  1
ACDBPLACEHOLDER
  2
AcDbPlaceHolder
  3
ObjectDBX Classes
 90
        0
280
     0
281
     0
  0
CLASS
  1
LAYOUT
  2
AcDbLayout
  3
ObjectDBX Classes
 90
        0
280
     0
281
     0
  0
CLASS
  1
TABLESTYLE
  2
AcDbTableStyle
  3
ObjectDBX Classes
 90
     4095
280
     0
281
     0
  0
CLASS
  1
MLEADERSTYLE
  2
AcDbMLeaderStyle
  3
ACDB_MLEADERSTYLE_CLASS
 90
     4095
280
     0
281
     0
  0
CLASS
  1
RASTERVARIABLES
  2
AcDbRasterVariables
  3
ISM
 90
        0
280
     0
281
     0
  0
ENDSEC
  0
SECTION
  2
TABLES
  0
TABLE
  2
VPORT
  5
8
330
0
100
AcDbSymbolTable
 70
     1
  0
VPORT
  5
29
330
8
100
AcDbSymbolTableRecord
100
AcDbViewportTableRecord
  2
*Active
 70
     0
 10
0.0
 20
0.0
 11
1.0
 21
1.0
 12
-14.01963256110678
 22
-14.86740705290699
 13
0.0
 23
0.0
 14
10.0
 24
10.0
 15
10.0
 25
10.0
 16
0.0
 26
0.0
 36
1.0
 17
0.0
 27
0.0
 37
0.0
 40
427.9187899832664
 41
1.330935251798561
 42
50.0
 43
0.0
 44
0.0
 50
0.0
 51
0.0
 71
    16
 72
  2000
 73
     1
 74
     3
 75
     0
 76
     0
 77
     0
 78
     0
281
     0
 65
     1
110
0.0
120
0.0
130
0.0
111
1.0
121
0.0
131
0.0
112
0.0
122
1.0
132
0.0
 79
     0
146
0.0
  0
ENDTAB
  0
TABLE
  2
LTYPE
  5
5
330
0
100
AcDbSymbolTable
 70
     6
  0
LTYPE
  5
14
330
5
100
AcDbSymbolTableRecord
100
AcDbLinetypeTableRecord
  2
ByBlock
 70
     0
  3

 72
    65
 73
     0
 40
0.0
  0
LTYPE
  5
15
330
5
100
AcDbSymbolTableRecord
100
AcDbLinetypeTableRecord
  2
ByLayer
 70
     0
  3

 72
    65
 73
     0
 40
0.0
  0
LTYPE
  5
16
330
5
100
AcDbSymbolTableRecord
100
AcDbLinetypeTableRecord
  2
Continuous
 70
     0
  3
Solid line
 72
    65
 73
     0
 40
0.0
  0
LTYPE
  5
6A
330
5
100
AcDbSymbolTableRecord
100
AcDbLinetypeTableRecord
  2
HIDDEN
 70
     0
  3
Hidden __ __ __ __ __ __ __ __ __ __ __ __ __ __
 72
    65
 73
     2
 40
1.905
 49
1.27
 74
     0
 49
-0.635
 74
     0
  0
LTYPE
  5
6B
330
5
100
AcDbSymbolTableRecord
100
AcDbLinetypeTableRecord
  2
PHANTOM
 70
     0
  3
Phantom ______  __  __  ______  __  __  ______
 72
    65
 73
     6
 40
12.7
 49
6.35
 74
     0
 49
-1.27
 74
     0
 49
1.27
 74
     0
 49
-1.27
 74
     0
 49
1.27
 74
     0
 49
-1.27
 74
     0
  0
LTYPE
  5
6C
330
5
100
AcDbSymbolTableRecord
100
AcDbLinetypeTableRecord
  2
CENTER
 70
     0
  3
Center ____ _ ____ _ ____ _ ____ _ ____ _ ____
 72
    65
 73
     4
 40
10.16
 49
6.35
 74
     0
 49
-1.27
 74
     0
 49
1.27
 74
     0
 49
-1.27
 74
     0
  0
LTYPE
  5
6D
330
5
100
AcDbSymbolTableRecord
100
AcDbLinetypeTableRecord
  2
CENTERX2
 70
     0
  3
Center (2x) ________  __  ________  __  _____
 72
    65
 73
     4
 40
20.32
 49
12.7
 74
     0
 49
-2.54
 74
     0
 49
2.54
 74
     0
 49
-2.54
 74
     0
  0
LTYPE
  5
6E
330
5
100
AcDbSymbolTableRecord
100
AcDbLinetypeTableRecord
  2
DOT2
 70
     0
  3
Dot (.5x) ........................................
 72
    65
 73
     2
 40
0.635
 49
0.0
 74
     0
 49
-0.635
 74
     0
  0
ENDTAB
  0
TABLE
  2
LAYER
  5
2
330
0
100
AcDbSymbolTable
 70
    17
  0
LAYER
  5
10
330
2
100
AcDbSymbolTableRecord
100
AcDbLayerTableRecord
  2
0
 70
     0
 62
     7
  6
Continuous
370
    -3
390
F
  0
LAYER
  5
6F
330
2
100
AcDbSymbolTableRecord
100
AcDbLayerTableRecord
  2
FORMAT
 70
     0
 62
     2
  6
Continuous
370
    -3
390
F
  0
LAYER
  5
70
330
2
100
AcDbSymbolTableRecord
100
AcDbLayerTableRecord
  2
외형선
 70
     0
 62
   100
  6
Continuous
370
    30
390
F
  0
LAYER
  5
71
330
2
100
AcDbSymbolTableRecord
100
AcDbLayerTableRecord
  2
숨은선
 70
     0
 62
     2
  6
HIDDEN
370
    15
390
F
  0
LAYER
  5
72
330
2
100
AcDbSymbolTableRecord
100
AcDbLayerTableRecord
  2
중심선
 70
     0
 62
     1
  6
CENTERX2
370
    -3
390
F
  0
LAYER
  5
73
330
2
100
AcDbSymbolTableRecord
100
AcDbLayerTableRecord
  2
파단선
 70
     0
 62
     4
  6
Continuous
370
    -3
390
F
  0
LAYER
  5
74
330
2
100
AcDbSymbolTableRecord
100
AcDbLayerTableRecord
  2
해칭선
 70
     0
 62
     4
  6
Continuous
370
    -3
390
F
  0
LAYER
  5
75
330
2
100
AcDbSymbolTableRecord
100
AcDbLayerTableRecord
  2
가는실선
 70
     0
 62
     4
  6
Continuous
370
    -3
390
F
  0
LAYER
  5
76
330
2
100
AcDbSymbolTableRecord
100
AcDbLayerTableRecord
  2
치수_보조선
 70
     0
 62
     4
  6
Continuous
370
    -3
390
F
  0
LAYER
  5
77
330
2
100
AcDbSymbolTableRecord
100
AcDbLayerTableRecord
  2
치수문자_일반주서
 70
     0
 62
     7
  6
Continuous
370
    15
390
F
  0
LAYER
  5
78
330
2
100
AcDbSymbolTableRecord
100
AcDbLayerTableRecord
  2
개별주서
 70
     0
 62
   100
  6
Continuous
370
    30
390
F
  0
LAYER
  5
79
330
2
100
AcDbSymbolTableRecord
100
AcDbLayerTableRecord
  2
중간선
 70
     0
 62
     2
  6
Continuous
370
    15
390
F
  0
LAYER
  5
7A
330
2
100
AcDbSymbolTableRecord
100
AcDbLayerTableRecord
  2
윤곽선
 70
     0
 62
     3
  6
Continuous
370
    40
390
F
  0
LAYER
  5
7B
330
2
100
AcDbSymbolTableRecord
100
AcDbLayerTableRecord
  2
중심마크
 70
     0
 62
   100
  6
Continuous
370
    30
390
F
  0
LAYER
  5
7C
330
2
100
AcDbSymbolTableRecord
100
AcDbLayerTableRecord
  2
가상선
 70
     0
 62
     4
  6
PHANTOM
370
    -3
390
F
  0
LAYER
  5
7D
330
2
100
AcDbSymbolTableRecord
100
AcDbLayerTableRecord
  2
특수지정선
 70
     0
 62
     5
  6
CENTERX2
370
    60
390
F
  0
LAYER
  5
139
330
2
100
AcDbSymbolTableRecord
100
AcDbLayerTableRecord
  2
Defpoints
 70
     0
 62
     7
  6
Continuous
290
     0
370
    -3
390
F
  0
ENDTAB
  0
TABLE
  2
STYLE
  5
3
330
0
100
AcDbSymbolTable
 70
     2
  0
STYLE
  5
11
330
3
100
AcDbSymbolTableRecord
100
AcDbTextStyleTableRecord
  2
Standard
 70
     0
 40
0.0
 41
1.0
 50
0.0
 71
     0
 42
3.5
  3
txt
  4

  0
STYLE
  5
93
330
3
100
AcDbSymbolTableRecord
100
AcDbTextStyleTableRecord
  2
SLDTEXTSTYLE0
 70
     0
 40
0.0
 41
0.75
 50
0.0
 71
     0
 42
3.5
  3
TXT
  4

  0
ENDTAB
  0
TABLE
  2
VIEW
  5
6
330
0
100
AcDbSymbolTable
 70
     0
  0
ENDTAB
  0
TABLE
  2
UCS
  5
7
330
0
100
AcDbSymbolTable
 70
     0
  0
ENDTAB
  0
TABLE
  2
APPID
  5
9
330
0
100
AcDbSymbolTable
 70
     1
  0
APPID
  5
12
330
9
100
AcDbSymbolTableRecord
100
AcDbRegAppTableRecord
  2
ACAD
 70
     0
  0
ENDTAB
  0
TABLE
  2
DIMSTYLE
  5
A
330
0
100
AcDbSymbolTable
 70
     3
100
AcDbDimStyleTable
  0
DIMSTYLE
105
27
330
A
100
AcDbSymbolTableRecord
100
AcDbDimStyleTableRecord
  2
ISO-25
 70
     0
 41
2.5
 42
0.625
 43
3.75
 44
1.25
 73
     0
 74
     0
 77
     1
 78
     8
140
2.5
141
2.5
143
0.03937007874016
147
0.625
171
     3
172
     1
178
     0
271
     2
272
     2
274
     3
278
    44
283
     0
284
     8
340
11
  0
DIMSTYLE
105
DF
102
{ACAD_REACTORS
330
DE
330
EC
102
}
330
A
100
AcDbSymbolTableRecord
100
AcDbDimStyleTableRecord
  2
SLDDIMSTYLE0
 70
     0
 41
3.302
 44
0.0
 45
0.000000001
 73
     0
 74
     0
 77
     1
 78
    12
 79
     3
140
3.5
147
0.875
172
     1
173
     1
178
     0
271
     2
272
     2
276
     2
284
    12
289
     0
340
93
  0
DIMSTYLE
105
FA
102
{ACAD_REACTORS
330
F9
330
104
102
}
330
A
100
AcDbSymbolTableRecord
100
AcDbDimStyleTableRecord
  2
SLDDIMSTYLE1
 70
     0
 41
3.302
 44
0.0
 45
0.000000001
 73
     0
 74
     0
 77
     1
 78
    12
 79
     3
140
3.5
147
0.875
173
     1
178
     0
271
     2
272
     2
276
     2
284
    12
340
93
  0
ENDTAB
  0
TABLE
  2
BLOCK_RECORD
  5
1
330
0
100
AcDbSymbolTable
 70
     7
  0
BLOCK_RECORD
  5
1F
330
1
100
AcDbSymbolTableRecord
100
AcDbBlockTableRecord
  2
*Model_Space
340
22
  0
BLOCK_RECORD
  5
1B
330
1
100
AcDbSymbolTableRecord
100
AcDbBlockTableRecord
  2
*Paper_Space
340
1E
  0
BLOCK_RECORD
  5
23
330
1
100
AcDbSymbolTableRecord
100
AcDbBlockTableRecord
  2
*Paper_Space0
340
26
  0
BLOCK_RECORD
  5
7E
330
1
100
AcDbSymbolTableRecord
100
AcDbBlockTableRecord
  2
블럭10
340
0
102
{BLKREFS
331
D7
102
}
  0
BLOCK_RECORD
  5
E0
330
1
100
AcDbSymbolTableRecord
100
AcDbBlockTableRecord
  2
_D
340
0
  0
BLOCK_RECORD
  5
ED
330
1
100
AcDbSymbolTableRecord
100
AcDbBlockTableRecord
  2
_D_1
340
0
  0
BLOCK_RECORD
  5
FB
330
1
100
AcDbSymbolTableRecord
100
AcDbBlockTableRecord
  2
_D_2
340
0
  0
BLOCK_RECORD
  5
105
330
1
100
AcDbSymbolTableRecord
100
AcDbBlockTableRecord
  2
_D_3
340
0
  0
BLOCK_RECORD
  5
10E
330
1
100
AcDbSymbolTableRecord
100
AcDbBlockTableRecord
  2
SW_DOWELSYMBOL_0
340
0
102
{BLKREFS
331
114
102
}
  0
ENDTAB
  0
ENDSEC
  0
SECTION
  2
BLOCKS
  0
BLOCK
  5
20
330
1F
100
AcDbEntity
  8
0
100
AcDbBlockBegin
  2
*Model_Space
 70
     0
 10
0.0
 20
0.0
 30
0.0
  3
*Model_Space
  1
*Model_Space
  0
ENDBLK
  5
21
330
1F
100
AcDbEntity
  8
0
100
AcDbBlockEnd
  0
BLOCK
  5
1C
330
1B
100
AcDbEntity
 67
     1
  8
0
100
AcDbBlockBegin
  2
*Paper_Space
 70
     0
 10
0.0
 20
0.0
 30
0.0
  3
*Paper_Space
  1
*Paper_Space
  0
ENDBLK
  5
1D
330
1B
100
AcDbEntity
 67
     1
  8
0
100
AcDbBlockEnd
  0
BLOCK
  5
24
330
23
100
AcDbEntity
  8
0
100
AcDbBlockBegin
  2
*Paper_Space0
 70
     0
 10
0.0
 20
0.0
 30
0.0
  3
*Paper_Space0
  1
*Paper_Space0
  0
ENDBLK
  5
25
330
23
100
AcDbEntity
  8
0
100
AcDbBlockEnd
  0
BLOCK
  5
7F
330
7E
100
AcDbEntity
  8
0
100
AcDbBlockBegin
  2
블럭10
 70
     2
 10
0.0
 20
0.0
 30
0.0
  3
블럭10
  1
블럭10
  0
ELLIPSE
  5
81
330
7E
100
AcDbEntity
  8
중심선
100
AcDbEllipse
 10
20.54032771741204
 20
12.0471743016438
 30
0.0
 11
6.600054785286829
 21
-1.261213355974178E-13
 31
0.0
210
0.0
220
0.0
230
1.0
 40
0.636358354079598
 41
0.9219305317359503
 42
6.513795318482858
  0
ELLIPSE
  5
82
330
7E
100
AcDbEntity
  8
중심선
100
AcDbEllipse
 10
20.54032771746488
 20
12.04717430159265
 30
0.0
 11
3.960054785062283
 21
1.540847449632565E-10
 31
0.0
210
0.0
220
0.0
230
1.0
 40
0.3939339440162632
 41
1.131841032648279
 42
5.62031148352944
  0
LINE
  5
83
330
7E
100
AcDbEntity
  8
중심선
100
AcDbLine
 10
2.268634060543552
 20
16.24717430164393
 30
0.0
 11
5.714909304380834
 21
16.24717430164393
 31
0.0
  0
LINE
  5
84
330
7E
100
AcDbEntity
  8
중심선
100
AcDbLine
 10
5.245725140726316
 20
7.84717430164391
 30
0.0
 11
8.692000384563599
 21
7.84717430164391
 31
0.0
  0
LINE
  5
85
330
7E
100
AcDbEntity
  8
중심선
100
AcDbLine
 10
15.74043728645272
 20
16.24717430164393
 30
0.0
 11
8.692000384563599
 21
7.84717430164391
 31
0.0
  0
LINE
  5
86
330
7E
100
AcDbEntity
  8
중심선
100
AcDbLine
 10
0.1404042013395286
 20
13.71084872107135
 30
0.0
 11
3.58671253028996
 21
13.71088815037384
 31
0.0
  0
LINE
  5
87
330
7E
100
AcDbEntity
  8
중심선
100
AcDbLine
 10
2.750260043222114
 20
10.84717430164391
 30
0.0
 11
6.196535287059397
 21
10.84717430164391
 31
0.0
  0
LINE
  5
88
330
7E
100
AcDbEntity
  8
중심선
100
AcDbLine
 10
12.29416204261559
 20
16.24717430164393
 30
0.0
 11
5.245725140726316
 21
7.84717430164391
 31
0.0
  0
LINE
  5
89
330
7E
100
AcDbEntity
  8
중심선
100
AcDbLine
 10
10.72767329541681
 20
16.24717430164393
 30
0.0
 11
6.196535287059397
 21
10.84717430164391
 31
0.0
  0
LINE
  5
8A
330
7E
100
AcDbEntity
  8
중심선
100
AcDbLine
 10
7.28139805157953
 20
16.24717430164393
 30
0.0
 11
2.750260043222114
 21
10.84717430164391
 31
0.0
  0
LINE
  5
8B
330
7E
100
AcDbEntity
  8
중심선
100
AcDbLine
 10
5.714909304380834
 20
16.24717430164393
 30
0.0
 11
3.58671253028996
 21
13.71088815037384
 31
0.0
  0
LINE
  5
8C
330
7E
100
AcDbEntity
  8
중심선
100
AcDbLine
 10
2.268634060543552
 20
16.24717430164393
 30
0.0
 11
0.1404042013395286
 21
13.71084872107135
 31
0.0
  0
LINE
  5
8D
330
7E
100
AcDbEntity
  8
중심선
100
AcDbLine
 10
7.28139805157953
 20
16.24717430164393
 30
0.0
 11
10.72767329541681
 21
16.24717430164393
 31
0.0
  0
LINE
  5
8E
330
7E
100
AcDbEntity
  8
중심선
100
AcDbLine
 10
12.29416204261559
 20
16.24717430164393
 30
0.0
 11
15.74043728645272
 21
16.24717430164393
 31
0.0
  0
LINE
  5
8F
330
7E
100
AcDbEntity
  8
중심선
100
AcDbLine
 10
19.22036997980202
 20
11.08717430171403
 30
0.0
 11
23.66174974927406
 21
11.08717430171406
 31
0.0
  0
LINE
  5
90
330
7E
100
AcDbEntity
  8
중심선
100
AcDbLine
 10
19.22039502424796
 20
13.00717430171391
 30
0.0
 11
19.22036997980202
 21
11.08717430171403
 31
0.0
  0
LINE
  5
91
330
7E
100
AcDbEntity
  8
중심선
100
AcDbLine
 10
19.22039502424796
 20
13.00717430171391
 30
0.0
 11
26.96566020931264
 21
13.00717430171391
 31
0.0
  0
LINE
  5
92
330
7E
100
AcDbEntity
  8
중심선
100
AcDbLine
 10
22.22332737316547
 20
13.45928029700563
 30
0.0
 11
24.52862924686651
 21
15.39360700705356
 31
0.0
  0
ATTDEF
  5
94
330
7E
100
AcDbEntity
  8
FORMAT
 62
     2
100
AcDbText
 10
-12.95993919485777
 20
2.075366912832191
 30
0.0
 40
4.233333333333333
  1
SEME75200E [ 6 FLUTE ]
 41
0.75
  7
SLDTEXTSTYLE0
 11
-12.95993919485777
 21
-0.0412997538344756
 31
0.0
100
AcDbAttributeDefinition
  3

  2
AUTOATTR0
 70
     0
 74
     1
  0
ENDBLK
  5
80
330
7E
100
AcDbEntity
  8
0
100
AcDbBlockEnd
  0
BLOCK
  5
E1
330
E0
100
AcDbEntity
  8
0
100
AcDbBlockBegin
  2
_D
 70
     0
 10
0.0
 20
0.0
 30
0.0
  3
_D
  1
_D
  0
LINE
  5
E3
330
E0
100
AcDbEntity
  8
치수문자_일반주서
 62
     0
370
    -2
100
AcDbLine
 10
-43.06249999999998
 20
9.843682470715514
 30
0.0
 11
-61.62890613132345
 21
9.843682470715441
 31
0.0
  0
LINE
  5
E4
330
E0
100
AcDbEntity
  8
치수문자_일반주서
 62
     0
370
    -2
100
AcDbLine
 10
-43.06249999999998
 20
-10.1563175292845
 30
0.0
 11
-61.62890613132338
 21
-10.15631752928458
 31
0.0
  0
LINE
  5
E5
330
E0
100
AcDbEntity
  8
치수문자_일반주서
 62
     0
370
    -2
100
AcDbLine
 10
-61.62890613132344
 20
6.541682470715442
 30
0.0
 11
-61.6289061313234
 21
-6.854317529284577
 31
0.0
  0
SOLID
  5
E6
330
E0
100
AcDbEntity
  8
치수문자_일반주서
 62
     0
100
AcDbTrace
 10
-61.07857279799011
 20
6.541682470715443
 30
0.0
 11
-62.17923946465677
 21
6.54168247071544
 31
0.0
 12
-61.62890613132345
 22
9.843682470715441
 32
0.0
 13
-61.62890613132345
 23
9.843682470715441
 33
0.0
  0
SOLID
  5
E7
330
E0
100
AcDbEntity
  8
치수문자_일반주서
 62
     0
100
AcDbTrace
 10
-62.17923946465673
 20
-6.854317529284579
 30
0.0
 11
-61.07857279799006
 21
-6.854317529284575
 31
0.0
 12
-61.62890613132338
 22
-10.15631752928458
 32
0.0
 13
-61.62890613132338
 23
-10.15631752928458
 33
0.0
  0
MTEXT
  5
E8
330
E0
100
AcDbEntity
  8
치수문자_일반주서
 62
     0
100
AcDbMText
 10
-66.00390613132342
 20
-0.1563175292845004
 30
0.0
 40
3.5
 41
0.0
 71
     2
 72
     1
  1
\A1;%%c20
  7
SLDTEXTSTYLE0
 11
-3.552713678800499E-15
 21
1.0
 31
0.0
 73
     1
 44
1.0
  0
POINT
  5
E9
330
E0
100
AcDbEntity
  8
Defpoints
 62
     0
100
AcDbPoint
 10
-42.99999999999998
 20
9.843682470715514
 30
0.0
  0
POINT
  5
EA
330
E0
100
AcDbEntity
  8
Defpoints
 62
     0
100
AcDbPoint
 10
-42.99999999999998
 20
-10.1563175292845
 30
0.0
  0
POINT
  5
EB
330
E0
100
AcDbEntity
  8
Defpoints
 62
     0
100
AcDbPoint
 10
-61.62890613132342
 20
-10.15631752928457
 30
0.0
  0
ENDBLK
  5
E2
330
E0
100
AcDbEntity
  8
0
100
AcDbBlockEnd
  0
BLOCK
  5
EE
330
ED
100
AcDbEntity
  8
0
100
AcDbBlockBegin
  2
_D_1
 70
     0
 10
0.0
 20
0.0
 30
0.0
  3
_D_1
  1
_D_1
  0
LINE
  5
F0
330
ED
100
AcDbEntity
  8
치수문자_일반주서
 62
     0
370
    -2
100
AcDbLine
 10
55.06250000000003
 20
9.843682470715507
 30
0.0
 11
64.99999999999999
 21
9.843682470715544
 31
0.0
  0
LINE
  5
F1
330
ED
100
AcDbEntity
  8
치수문자_일반주서
 62
     0
370
    -2
100
AcDbLine
 10
55.06250000000003
 20
-10.1563175292845
 30
0.0
 11
65.00000000000006
 21
-10.15631752928446
 31
0.0
  0
LINE
  5
F2
330
ED
100
AcDbEntity
  8
치수문자_일반주서
 62
     0
370
    -2
100
AcDbLine
 10
65.0
 20
6.541682470715545
 30
0.0
 11
65.00000000000004
 21
-6.85431752928446
 31
0.0
  0
SOLID
  5
F3
330
ED
100
AcDbEntity
  8
치수문자_일반주서
 62
     0
100
AcDbTrace
 10
65.55033333333333
 20
6.541682470715546
 30
0.0
 11
64.44966666666667
 21
6.541682470715543
 31
0.0
 12
64.99999999999999
 22
9.843682470715544
 32
0.0
 13
64.99999999999999
 23
9.843682470715544
 33
0.0
  0
SOLID
  5
F4
330
ED
100
AcDbEntity
  8
치수문자_일반주서
 62
     0
100
AcDbTrace
 10
64.44966666666672
 20
-6.854317529284462
 30
0.0
 11
65.55033333333337
 21
-6.854317529284458
 31
0.0
 12
65.00000000000006
 22
-10.15631752928446
 32
0.0
 13
65.00000000000006
 23
-10.15631752928446
 33
0.0
  0
MTEXT
  5
F5
330
ED
100
AcDbEntity
  8
치수문자_일반주서
 62
     0
100
AcDbMText
 10
60.62500000000001
 20
1.162543970907476
 30
0.0
 40
3.5
 41
0.0
 71
     2
 72
     1
  1
\A1;%%c20
  7
SLDTEXTSTYLE0
 11
-3.552713678800500E-15
 21
1.0
 31
0.0
 73
     1
 44
1.0
  0
POINT
  5
F6
330
ED
100
AcDbEntity
  8
Defpoints
 62
     0
100
AcDbPoint
 10
55.00000000000003
 20
9.843682470715507
 30
0.0
  0
POINT
  5
F7
330
ED
100
AcDbEntity
  8
Defpoints
 62
     0
100
AcDbPoint
 10
55.00000000000003
 20
-10.1563175292845
 30
0.0
  0
POINT
  5
F8
330
ED
100
AcDbEntity
  8
Defpoints
 62
     0
100
AcDbPoint
 10
65.00000000000006
 20
-10.15631752928446
 30
0.0
  0
ENDBLK
  5
EF
330
ED
100
AcDbEntity
  8
0
100
AcDbBlockEnd
  0
BLOCK
  5
FC
330
FB
100
AcDbEntity
  8
0
100
AcDbBlockBegin
  2
_D_2
 70
     0
 10
0.0
 20
0.0
 30
0.0
  3
_D_2
  1
_D_2
  0
LINE
  5
FE
330
FB
100
AcDbEntity
  8
치수문자_일반주서
 62
     0
370
    -2
100
AcDbLine
 10
10.00000000000002
 20
9.725526085602983
 30
0.0
 11
10.00000000000002
 21
53.15786670424478
 31
0.0
  0
LINE
  5
FF
330
FB
100
AcDbEntity
  8
치수문자_일반주서
 62
     0
370
    -2
100
AcDbLine
 10
55.00000000000003
 20
9.833207979758885
 30
0.0
 11
55.00000000000003
 21
53.15786670424478
 31
0.0
  0
LINE
  5
100
330
FB
100
AcDbEntity
  8
치수문자_일반주서
 62
     0
370
    -2
100
AcDbLine
 10
13.30200000000002
 20
53.15786670424478
 30
0.0
 11
51.69800000000003
 21
53.15786670424478
 31
0.0
  0
SOLID
  5
101
330
FB
100
AcDbEntity
  8
치수문자_일반주서
 62
     0
100
AcDbTrace
 10
13.30200000000002
 20
53.70820003757812
 30
0.0
 11
13.30200000000002
 21
52.60753337091145
 31
0.0
 12
10.00000000000002
 22
53.15786670424478
 32
0.0
 13
10.00000000000002
 23
53.15786670424478
 33
0.0
  0
SOLID
  5
102
330
FB
100
AcDbEntity
  8
치수문자_일반주서
 62
     0
100
AcDbTrace
 10
51.69800000000003
 20
52.60753337091145
 30
0.0
 11
51.69800000000003
 21
53.70820003757812
 31
0.0
 12
55.00000000000003
 22
53.15786670424478
 32
0.0
 13
55.00000000000003
 23
53.15786670424478
 33
0.0
  0
MTEXT
  5
103
330
FB
100
AcDbEntity
  8
치수문자_일반주서
 62
     0
100
AcDbMText
 10
32.50000000000003
 20
57.53286670424478
 30
0.0
 40
3.5
 41
0.0
 71
     2
 72
     1
  1
\A1;45
  7
SLDTEXTSTYLE0
 73
     1
 44
1.0
  0
POINT
  5
13A
330
FB
100
AcDbEntity
  8
Defpoints
 62
     0
100
AcDbPoint
 10
10.00000000000002
 20
9.663026085602983
 30
0.0
  0
POINT
  5
13B
330
FB
100
AcDbEntity
  8
Defpoints
 62
     0
100
AcDbPoint
 10
55.00000000000003
 20
9.770707979758885
 30
0.0
  0
POINT
  5
13C
330
FB
100
AcDbEntity
  8
Defpoints
 62
     0
100
AcDbPoint
 10
55.00000000000003
 20
53.15786670424478
 30
0.0
  0
ENDBLK
  5
FD
330
FB
100
AcDbEntity
  8
0
100
AcDbBlockEnd
  0
BLOCK
  5
106
330
105
100
AcDbEntity
  8
0
100
AcDbBlockBegin
  2
_D_3
 70
     0
 10
0.0
 20
0.0
 30
0.0
  3
_D_3
  1
_D_3
  0
LINE
  5
108
330
105
100
AcDbEntity
  8
치수문자_일반주서
 62
     0
370
    -2
100
AcDbLine
 10
55.00000000000003
 20
9.833207979758885
 30
0.0
 11
55.00000000000002
 21
80.71539064062851
 31
0.0
  0
LINE
  5
109
330
105
100
AcDbEntity
  8
치수문자_일반주서
 62
     0
370
    -2
100
AcDbLine
 10
-44.99999999999998
 20
7.90618247071551
 30
0.0
 11
-44.99999999999999
 21
80.71539064062851
 31
0.0
  0
LINE
  5
10A
330
105
100
AcDbEntity
  8
치수문자_일반주서
 62
     0
370
    -2
100
AcDbLine
 10
51.69800000000002
 20
80.71539064062851
 30
0.0
 11
-41.69799999999999
 21
80.71539064062851
 31
0.0
  0
SOLID
  5
10B
330
105
100
AcDbEntity
  8
치수문자_일반주서
 62
     0
100
AcDbTrace
 10
51.69800000000002
 20
80.16505730729519
 30
0.0
 11
51.69800000000002
 21
81.26572397396184
 31
0.0
 12
55.00000000000002
 22
80.71539064062851
 32
0.0
 13
55.00000000000002
 23
80.71539064062851
 33
0.0
  0
SOLID
  5
10C
330
105
100
AcDbEntity
  8
치수문자_일반주서
 62
     0
100
AcDbTrace
 10
-41.69799999999999
 20
81.26572397396184
 30
0.0
 11
-41.69799999999999
 21
80.16505730729519
 31
0.0
 12
-44.99999999999999
 22
80.71539064062851
 32
0.0
 13
-44.99999999999999
 23
80.71539064062851
 33
0.0
  0
MTEXT
  5
10D
330
105
100
AcDbEntity
  8
치수문자_일반주서
 62
     0
100
AcDbMText
 10
8.098163198427201
 20
85.09039064062851
 30
0.0
 40
3.5
 41
0.0
 71
     2
 72
     1
  1
\A1;100
  7
SLDTEXTSTYLE0
 73
     1
 44
1.0
  0
POINT
  5
13E
330
105
100
AcDbEntity
  8
Defpoints
 62
     0
100
AcDbPoint
 10
55.00000000000003
 20
9.770707979758885
 30
0.0
  0
POINT
  5
13F
330
105
100
AcDbEntity
  8
Defpoints
 62
     0
100
AcDbPoint
 10
-44.99999999999998
 20
7.84368247071551
 30
0.0
  0
POINT
  5
140
330
105
100
AcDbEntity
  8
Defpoints
 62
     0
100
AcDbPoint
 10
-44.99999999999998
 20
80.71539064062851
 30
0.0
  0
ENDBLK
  5
107
330
105
100
AcDbEntity
  8
0
100
AcDbBlockEnd
  0
BLOCK
  5
10F
330
10E
100
AcDbEntity
  8
0
100
AcDbBlockBegin
  2
SW_DOWELSYMBOL_0
 70
     0
 10
0.0
 20
0.0
 30
0.0
  3
SW_DOWELSYMBOL_0
  1
SW_DOWELSYMBOL_0
  0
CIRCLE
  5
111
330
10E
100
AcDbEntity
  8
외형선
 62
     0
100
AcDbCircle
 10
0.0
 20
0.0
 30
0.0
 40
2.999999999999993
  0
HATCH
  5
112
330
10E
100
AcDbEntity
  8
0
  6
Continuous
 62
     0
370
    30
100
AcDbHatch
 10
0.0
 20
0.0
 30
0.0
210
0.0
220
0.0
230
1.0
  2
SOLID
 70
     1
 71
     0
 91
        1
 92
        0
 93
        3
 72
     2
 10
0.0
 20
0.0
 40
2.999999999999993
 50
0.0
 51
90.0
 73
     1
 72
     1
 10
0.0
 20
2.999999999999993
 11
0.0
 21
0.0
 72
     1
 10
0.0
 20
0.0
 11
2.999999999999994
 21
0.0
 97
        0
 75
     0
 76
     1
 98
        1
 10
0.0
 20
0.0
  0
HATCH
  5
113
330
10E
100
AcDbEntity
  8
0
  6
Continuous
 62
     0
370
    30
100
AcDbHatch
 10
0.0
 20
0.0
 30
0.0
210
0.0
220
0.0
230
1.0
  2
SOLID
 70
     1
 71
     0
 91
        1
 92
        0
 93
        3
 72
     2
 10
0.0
 20
0.0
 40
2.999999999999993
 50
180.0
 51
270.0000000000008
 73
     1
 72
     1
 10
0.0
 20
-2.999999999999993
 11
0.0
 21
0.0
 72
     1
 10
0.0
 20
0.0
 11
-2.999999999999993
 21
0.0
 97
        0
 75
     0
 76
     1
 98
        1
 10
0.0
 20
0.0
  0
ENDBLK
  5
110
330
10E
100
AcDbEntity
  8
0
100
AcDbBlockEnd
  0
ENDSEC
  0
SECTION
  2
ENTITIES
  0
LINE
  5
95
330
1F
100
AcDbEntity
  8
0
  6
Continuous
 62
   131
370
    15
100
AcDbLine
 10
42.44310031871593
 20
-2.087392558937546
 30
0.0
 11
42.51412150590028
 21
-2.156291109886313
 31
0.0
  0
LINE
  5
96
330
1F
100
AcDbEntity
  8
0
  6
Continuous
 62
   131
370
    15
100
AcDbLine
 10
21.51621226645727
 20
-2.104376833573817
 30
0.0
 11
21.56980090577307
 21
-2.156314407132658
 31
0.0
  0
LINE
  5
97
330
1F
100
AcDbEntity
  8
0
  6
Continuous
 62
   131
370
    15
100
AcDbLine
 10
52.92486562817196
 20
-2.097311249735843
 30
0.0
 11
52.98558823391019
 21
-2.156177754866
 31
0.0
  0
LINE
  5
98
330
1F
100
AcDbEntity
  8
0
  6
Continuous
 62
   131
370
    15
100
AcDbLine
 10
11.05433032603068
 20
-2.113587941057517
 30
0.0
 11
11.09824218953951
 21
-2.156337283148128
 31
0.0
  0
LINE
  5
99
330
1F
100
AcDbEntity
  8
0
  6
Continuous
 62
     1
370
    15
100
AcDbLine
 10
32.847634471568
 20
-10.1563175292845
 30
0.0
 11
35.26402559390699
 21
-10.1563175292845
 31
0.0
  0
LINE
  5
9A
330
1F
100
AcDbEntity
  8
0
  6
Continuous
 62
     1
370
    15
100
AcDbLine
 10
35.26402559390707
 20
9.843682470715507
 30
0.0
 11
32.84763447156806
 21
9.843682470715507
 31
0.0
  0
LINE
  5
9B
330
1F
100
AcDbEntity
  8
0
  6
Continuous
 62
     1
370
    15
100
AcDbLine
 10
53.79019959867586
 20
-10.1563175292845
 30
0.0
 11
55.00000000000003
 21
-10.1563175292845
 31
0.0
  0
LINE
  5
9C
330
1F
100
AcDbEntity
  8
0
  6
Continuous
 62
     1
370
    15
100
AcDbLine
 10
24.79340144754538
 20
9.843682470715507
 30
0.0
 11
22.37430294614454
 21
9.843682470715507
 31
0.0
  0
LINE
  5
9D
330
1F
100
AcDbEntity
  8
0
  6
Continuous
 62
     1
370
    15
100
AcDbLine
 10
43.32007455875695
 20
-10.1563175292845
 30
0.0
 11
45.73668069836418
 21
-10.1563175292845
 31
0.0
  0
LINE
  5
9E
330
1F
100
AcDbEntity
  8
0
  6
Continuous
 62
     1
370
    15
100
AcDbLine
 10
14.32139824367396
 20
9.843682470715507
 30
0.0
 11
11.90316478816566
 21
9.843682470715507
 31
0.0
  0
LINE
  5
9F
330
1F
100
AcDbEntity
  8
0
  6
Continuous
 62
     1
370
    15
100
AcDbLine
 10
22.37430294614455
 20
-10.1563175292845
 30
0.0
 11
24.7934014475453
 21
-10.1563175292845
 31
0.0
  0
LINE
  5
A0
330
1F
100
AcDbEntity
  8
0
  6
Continuous
 62
     1
370
    15
100
AcDbLine
 10
55.00000000000003
 20
9.843682470715507
 30
0.0
 11
53.79019959867585
 21
9.843682470715507
 31
0.0
  0
LINE
  5
A1
330
1F
100
AcDbEntity
  8
0
  6
Continuous
 62
     1
370
    15
100
AcDbLine
 10
11.90316478816574
 20
-10.1563175292845
 30
0.0
 11
14.32139824367396
 21
-10.1563175292845
 31
0.0
  0
LINE
  5
A2
330
1F
100
AcDbEntity
  8
0
  6
Continuous
 62
     1
370
    15
100
AcDbLine
 10
45.73668069836415
 20
9.843682470715507
 30
0.0
 11
43.32007455875703
 21
9.843682470715507
 31
0.0
  0
LINE
  5
A3
330
1F
100
AcDbEntity
  8
0
  6
Continuous
 62
   131
370
    15
100
AcDbLine
 10
-42.99999999999998
 20
-10.15631752928449
 30
0.0
 11
9.00000171298263
 21
-10.15631752928449
 31
0.0
  0
LINE
  5
A4
330
1F
100
AcDbEntity
  8
0
  6
Continuous
 62
   131
370
    15
100
AcDbLine
 10
9.00000171298263
 20
9.843682470715503
 30
0.0
 11
-42.99999999999998
 21
9.843682470715503
 31
0.0
  0
LINE
  5
A5
330
1F
100
AcDbEntity
  8
0
  6
Continuous
 62
   131
370
    15
100
AcDbLine
 10
-42.99999999999998
 20
9.843682470715503
 30
0.0
 11
-44.99999999999998
 21
7.84368247071551
 31
0.0
  0
LINE
  5
A6
330
1F
100
AcDbEntity
  8
0
  6
Continuous
 62
   131
370
    15
100
AcDbLine
 10
-44.99999999999998
 20
-8.156317529284497
 30
0.0
 11
-42.99999999999998
 21
-10.15631752928449
 31
0.0
  0
SPLINE
  5
A7
330
1F
100
AcDbEntity
  8
0
  6
Continuous
 62
     1
370
    15
100
AcDbSpline
210
0.0
220
0.0
230
1.0
 70
     8
 71
     3
 72
    30
 73
    26
 74
     0
 42
0.000000001
 43
0.00000001
 40
0.0
 40
0.0
 40
0.0
 40
0.0
 40
0.0050437274083524
 40
0.0473758471157725
 40
0.0896657793214286
 40
0.1320269249189896
 40
0.1743607157382792
 40
0.2206798509835653
 40
0.2670316151138463
 40
0.3134266862152829
 40
0.3597609379345595
 40
0.406082777325136
 40
0.4524536122343558
 40
0.4988353523308605
 40
0.545160272484181
 40
0.5914892017083313
 40
0.6378789418292468
 40
0.6842399229867285
 40
0.7305598939038168
 40
0.7769002909219394
 40
0.8232975322312152
 40
0.8696415656674797
 40
0.9159609750739821
 40
0.96231720535598
 40
1.0
 40
1.0
 40
1.0
 40
1.0
 10
14.32139824367395
 20
9.831886983424322
 30
0.0
 10
14.38100564135675
 20
9.835711447565714
 30
0.0
 10
14.94089929360146
 20
9.871634726877435
 30
0.0
 10
16.0002910303871
 20
9.726194887422718
 30
0.0
 10
17.49899451074255
 20
9.381854401988928
 30
0.0
 10
19.00031793468425
 20
8.801520443985488
 30
0.0
 10
20.54800280785749
 20
8.00113235436179
 30
0.0
 10
22.14220271119266
 20
6.969138489918981
 30
0.0
 10
23.78503090033896
 20
5.715139504516324
 30
0.0
 10
25.42950607890274
 20
4.303993569719403
 30
0.0
 10
27.0716837907557
 20
2.771414906392649
 30
0.0
 10
28.71341850660941
 20
1.16004216403174
 30
0.0
 10
30.35696136698441
 20
-0.486098312698867
 30
0.0
 10
32.00092297121697
 20
-2.123024126722263
 30
0.0
 10
33.64277103657277
 20
-3.708086941028844
 30
0.0
 10
35.28476170670593
 20
-5.197466371857307
 30
0.0
 10
36.92903203779709
 20
-6.549905510309671
 30
0.0
 10
38.5721991537619
 20
-7.730953685923979
 30
0.0
 10
40.2138648616309
 20
-8.70816105327377
 30
0.0
 10
41.85626354027028
 20
-9.45513189623054
 30
0.0
 10
43.50082394052449
 20
-9.950687163966037
 30
0.0
 10
45.14336200904053
 20
-10.18491463740679
 30
0.0
 10
46.78498271194745
 20
-10.14160717834477
 30
0.0
 10
48.3251533536088
 20
-9.874519675421503
 30
0.0
 10
49.31851854244739
 20
-9.503676090154883
 30
0.0
 10
49.76393989818627
 20
-9.337391168584741
 30
0.0
  0
SPLINE
  5
A8
330
1F
100
AcDbEntity
  8
0
  6
Continuous
 62
     1
370
    15
100
AcDbSpline
210
0.0
220
0.0
230
1.0
 70
     8
 71
     3
 72
    30
 73
    26
 74
     0
 42
0.000000001
 43
0.00000001
 40
0.0
 40
0.0
 40
0.0
 40
0.0
 40
0.0122515758662747
 40
0.0585748574418681
 40
0.1049063500182636
 40
0.1512991919630779
 40
0.1976554676190782
 40
0.2439749223635425
 40
0.2903190011618726
 40
0.3367162878852929
 40
0.3830567302619209
 40
0.4293767465175211
 40
0.4757377730536567
 40
0.5221275585813745
 40
0.5684565331528053
 40
0.614781498649482
 40
0.6611632841449594
 40
0.7075341644424774
 40
0.7538560491733948
 40
0.8001903462451613
 40
0.846585462758619
 40
0.8929372722585315
 40
0.9392564528415115
 40
0.9815902850975946
 40
1.0
 40
1.0
 40
1.0
 40
1.0
 10
53.79019959867586
 20
-10.13009602830262
 30
0.0
 10
53.64540880657002
 20
-10.13788492043863
 30
0.0
 10
52.95316316412659
 20
-10.17512366029349
 30
0.0
 10
51.71449857816386
 20
-9.97238925636453
 30
0.0
 10
50.0723669235057
 20
-9.51774275434136
 30
0.0
 10
48.42799214511822
 20
-8.790565509956245
 30
0.0
 10
46.7850011583056
 20
-7.83609170716338
 30
0.0
 10
45.14335706526363
 20
-6.673098742511596
 30
0.0
 10
43.5008252672522
 20
-5.334869525154408
 30
0.0
 10
41.8562631850821
 20
-3.858439498997765
 30
0.0
 10
40.21386495670736
 20
-2.28092903529947
 30
0.0
 10
38.57219912825515
 20
-0.6462711380514957
 30
0.0
 10
36.92903204468103
 20
1.001239900853502
 30
0.0
 10
35.28476170470728
 20
2.616726471645212
 30
0.0
 10
33.64277103769042
 20
4.15891279520361
 30
0.0
 10
32.00092296874244
 20
5.584760321286857
 30
0.0
 10
30.35696137577507
 20
6.855105271581563
 30
0.0
 10
28.71341847394865
 20
7.937009918421187
 30
0.0
 10
27.07168391248571
 20
8.80128817629684
 30
0.0
 10
25.42950562420514
 20
9.424491355683411
 30
0.0
 10
23.78503259908963
 20
9.788317818904915
 30
0.0
 10
22.14219638012075
 20
9.88839206767435
 30
0.0
 10
20.54802555936442
 20
9.709290229035371
 30
0.0
 10
19.28320062373072
 20
9.409844687411187
 30
0.0
 10
18.56531849366425
 20
9.109320578046027
 30
0.0
 10
18.34774797027067
 20
9.018239904731438
 30
0.0
  0
LINE
  5
A9
330
1F
100
AcDbEntity
  8
0
  6
Continuous
 62
     1
370
    15
100
AcDbLine
 10
55.00000000000003
 20
-10.08334303832787
 30
0.0
 11
55.00000000000003
 21
-6.158930314931516
 31
0.0
  0
SPLINE
  5
AA
330
1F
100
AcDbEntity
  8
0
  6
Continuous
 62
     1
370
    15
100
AcDbSpline
210
0.0
220
0.0
230
1.0
 70
     8
 71
     3
 72
    26
 73
    22
 74
     0
 42
0.000000001
 43
0.00000001
 40
0.0
 40
0.0
 40
0.0
 40
0.0
 40
0.0210616945999193
 40
0.0754277384630714
 40
0.1297792183874198
 40
0.1841881869387951
 40
0.2386099510327393
 40
0.2929650457534048
 40
0.3473248444956634
 40
0.4017559953750175
 40
0.456153402080041
 40
0.5105026896411194
 40
0.564875944057463
 40
0.6193158964156431
 40
0.6736934176035624
 40
0.728042046319229
 40
0.7824338786101771
 40
0.8368686157165035
 40
0.8912313689433878
 40
0.9455844878462843
 40
0.9999999999999999
 40
0.9999999999999999
 40
0.9999999999999999
 40
0.9999999999999999
 10
24.7934014475454
 20
9.811662683805878
 30
0.0
 10
25.00558711182251
 20
9.819839333597695
 30
0.0
 10
25.76548250935467
 20
9.849122172121227
 30
0.0
 10
27.07166748229452
 20
9.618475491902295
 30
0.0
 10
28.71342288106814
 20
9.129008033129182
 30
0.0
 10
30.3569601940078
 20
8.372624273245062
 30
0.0
 10
32.00092328498842
 20
7.391465158913851
 30
0.0
 10
33.64277095301166
 20
6.205110737882586
 30
0.0
 10
35.28476172735726
 20
4.847603310900458
 30
0.0
 10
36.92903203888966
 20
3.356515736036359
 30
0.0
 10
38.57219912877254
 20
1.770086423160363
 30
0.0
 10
40.2138649604185
 20
0.131425241729425
 30
0.0
 10
41.85626316970319
 20
-1.515098033966817
 30
0.0
 10
43.50082532510314
 20
-3.123498691588186
 30
0.0
 10
45.14335684958565
 20
-4.653450608548626
 30
0.0
 10
46.78500196307818
 20
-6.062268021568113
 30
0.0
 10
48.42798913793695
 20
-7.311460785207166
 30
0.0
 10
50.07237814975717
 20
-8.368684166423265
 30
0.0
 10
51.71445674720238
 20
-9.200561483985382
 30
0.0
 10
53.35624329098191
 20
-9.807818846717161
 30
0.0
 10
54.4518716008942
 20
-9.991466525682206
 30
0.0
 10
55.00000000000001
 20
-10.08334303832787
 30
0.0
  0
SPLINE
  5
AB
330
1F
100
AcDbEntity
  8
0
  6
Continuous
 62
     1
370
    15
100
AcDbSpline
210
0.0
220
0.0
230
1.0
 70
     8
 71
     3
 72
    23
 73
    19
 74
     0
 42
0.000000001
 43
0.00000001
 40
0.0
 40
0.0
 40
0.0
 40
0.0
 40
0.0627853138074532
 40
0.1254986374842038
 40
0.1882230773671794
 40
0.2510305731708099
 40
0.3137885648497744
 40
0.3764967076910772
 40
0.4392381870363535
 40
0.5020517002642663
 40
0.5647882565539328
 40
0.6274971595794973
 40
0.690261583088711
 40
0.7530649410577981
 40
0.8157859720186291
 40
0.8785015754191893
 40
0.94129410279523
 40
0.9999999999999999
 40
0.9999999999999999
 40
0.9999999999999999
 40
0.9999999999999999
 10
55.00000000000004
 20
-6.164159449874727
 30
0.0
 10
54.45187160089406
 20
-5.710703144023817
 30
0.0
 10
53.35624329098137
 20
-4.804310468860439
 30
0.0
 10
51.71445674720452
 20
-3.275177305907679
 30
0.0
 10
50.07237814974912
 20
-1.673503326283352
 30
0.0
 10
48.427989137967
 20
-0.029370958764569
 30
0.0
 10
46.78500196296599
 20
1.611609553343266
 30
0.0
 10
45.14335685000427
 20
3.205385116063259
 30
0.0
 10
43.50082532353911
 20
4.708589699003975
 30
0.0
 10
41.85626317554441
 20
6.079543210596849
 30
0.0
 10
40.21386493865364
 20
7.283881274444197
 30
0.0
 10
38.57219920999367
 20
8.287634049154196
 30
0.0
 10
36.92903173538469
 20
9.063865295494796
 30
0.0
 10
35.28476286017529
 20
9.591194277111317
 30
0.0
 10
33.6427667316965
 20
9.857942881929326
 30
0.0
 10
32.00093904646278
 20
9.849191743001963
 30
0.0
 10
30.39245521989039
 20
9.597604063773346
 30
0.0
 10
29.33204280388706
 20
9.219065847152002
 30
0.0
 10
28.81967021549069
 20
9.036162853061992
 30
0.0
  0
SPLINE
  5
AC
330
1F
100
AcDbEntity
  8
0
  6
Continuous
 62
     1
370
    15
100
AcDbSpline
210
0.0
220
0.0
230
1.0
 70
     8
 71
     3
 72
    26
 73
    22
 74
     0
 42
0.000000001
 43
0.00000001
 40
0.0
 40
0.0
 40
0.0
 40
0.0
 40
0.0512165610751575
 40
0.1023844018895808
 40
0.1536397623418141
 40
0.2048583072010522
 40
0.256025808491801
 40
0.3072794724016926
 40
0.3585000391752323
 40
0.4145425601450945
 40
0.4706245595068106
 40
0.5267589569071837
 40
0.5828197676250327
 40
0.638865560398618
 40
0.6949706339071836
 40
0.7510889018371015
 40
0.8071384220919915
 40
0.8631927930081658
 40
0.9193207403402018
 40
0.975413891581966
 40
1.0
 40
1.0
 40
1.0
 40
1.0
 10
10.0
 20
8.011058861309294
 30
0.0
 10
10.50016893716174
 20
7.704886704571996
 30
0.0
 10
11.50003102083241
 20
7.092833640392408
 30
0.0
 10
12.99871205901772
 20
5.96114050021554
 30
0.0
 10
14.50004114850638
 20
4.707207976493128
 30
0.0
 10
16.00027503443979
 20
3.339716325236961
 30
0.0
 10
17.49899880223812
 20
1.89318600252632
 30
0.0
 10
19.00031678824609
 20
0.4028119318360134
 30
0.0
 10
20.54800314727708
 20
-1.148846299955482
 30
0.0
 10
22.14220261682494
 20
-2.725274809706036
 30
0.0
 10
23.78503092535301
 20
-4.279089832254455
 30
0.0
 10
25.4295060733525
 20
-5.720829186129724
 30
0.0
 10
27.07168378797534
 20
-7.014065552048302
 30
0.0
 10
28.71341852327985
 20
-8.122428198709681
 30
0.0
 10
30.35696130299953
 20
-9.015762668703378
 30
0.0
 10
32.00092321039471
 20
-9.670774144361722
 30
0.0
 10
33.64277014502221
 20
-10.06892513877853
 30
0.0
 10
35.28476503635061
 20
-10.20378193842168
 30
0.0
 10
36.92901959648734
 20
-10.05373952016213
 30
0.0
 10
38.26504101765073
 20
-9.758749733556098
 30
0.0
 10
39.05251947865185
 20
-9.426909607104143
 30
0.0
 10
39.29249479449733
 20
-9.325785013735231
 30
0.0
  0
SPLINE
  5
AD
330
1F
100
AcDbEntity
  8
0
  6
Continuous
 62
   131
370
    15
100
AcDbSpline
210
0.0
220
0.0
230
1.0
 70
    24
 71
     3
 72
    10
 73
     6
 74
     0
 42
0.000000001
 43
0.00000001
 40
0.0
 40
0.0
 40
0.0
 40
0.0
 40
0.3154748719131311
 40
0.7242251933525089
 40
1.0
 40
1.0
 40
1.0
 40
1.0
 10
9.999999999999986
 20
9.663026085602972
 30
0.0
 10
10.0
 20
9.492181201945996
 30
0.0
 10
10.00000000000004
 20
9.099978272598797
 30
0.0
 10
10.00000000000001
 20
8.562398382925476
 30
0.0
 10
10.00000000000003
 20
8.219972630273126
 30
0.0
 10
10.00000000000004
 20
8.08201948311439
 30
0.0
  0
SPLINE
  5
AE
330
1F
100
AcDbEntity
  8
0
  6
Continuous
 62
     1
370
    15
100
AcDbSpline
210
0.0
220
0.0
230
1.0
 70
     8
 71
     3
 72
    28
 73
    24
 74
     0
 42
0.000000001
 43
0.00000001
 40
0.0
 40
0.0
 40
0.0
 40
0.0
 40
0.0439200707457436
 40
0.093211527681607
 40
0.1424812577367291
 40
0.1917946096558919
 40
0.2411385519734711
 40
0.2904178108206447
 40
0.3396928052904092
 40
0.3890282381241674
 40
0.4383520713039726
 40
0.4876237888211453
 40
0.5369087091118149
 40
0.5862583218986547
 40
0.6355618698297507
 40
0.684830710995625
 40
0.7298604121068344
 40
0.7749192100096541
 40
0.819902259492818
 40
0.8649301830720244
 40
0.9099904724615533
 40
0.954973820431254
 40
0.9999999999999999
 40
0.9999999999999999
 40
0.9999999999999999
 40
0.9999999999999999
 10
43.32007455875696
 20
-10.14310747950629
 30
0.0
 10
42.83195231667378
 20
-10.1278610486764
 30
0.0
 10
41.79601090976352
 20
-10.09550356187787
 30
0.0
 10
40.21384757050854
 20
-9.716938196467002
 30
0.0
 10
38.5722037905255
 20
-9.091362943456005
 30
0.0
 10
36.92903079400331
 20
-8.218574510748827
 30
0.0
 10
35.28476203957808
 20
-7.131117424168818
 30
0.0
 10
33.64277094745029
 20
-5.854388758531756
 30
0.0
 10
32.00092299509681
 20
-4.424254360236739
 30
0.0
 10
30.35696136070517
 20
-2.88017629919574
 30
0.0
 10
28.71341850783757
 20
-1.262471317351484
 30
0.0
 10
27.07168379211227
 20
0.3857084385946514
 30
0.0
 10
25.42950607224225
 20
2.019399331959745
 30
0.0
 10
23.78503092565044
 20
3.592998273119228
 30
0.0
 10
22.1422026167451
 20
5.066836763734935
 30
0.0
 10
20.54800314729644
 20
6.361665451107538
 30
0.0
 10
19.0003167882411
 20
7.458178021603241
 30
0.0
 10
17.49899880223947
 20
8.349508178752266
 30
0.0
 10
16.00027503443944
 20
9.050798476364221
 30
0.0
 10
14.50004114850648
 20
9.545596365359089
 30
0.0
 10
12.9987120590177
 20
9.818266501068798
 30
0.0
 10
11.50003102083242
 20
9.882935211783593
 30
0.0
 10
10.50016893716175
 20
9.736352378450501
 30
0.0
 10
9.999999999999993
 20
9.66302608560298
 30
0.0
  0
LINE
  5
AF
330
1F
100
AcDbEntity
  8
0
  6
Continuous
 62
     1
370
    15
100
AcDbLine
 10
55.00000000000003
 20
-4.075501117737486
 30
0.0
 11
55.00000000000003
 21
3.762866059168686
 31
0.0
  0
SPLINE
  5
B0
330
1F
100
AcDbEntity
  8
0
  6
Continuous
 62
     1
370
    15
100
AcDbSpline
210
0.0
220
0.0
230
1.0
 70
     8
 71
     3
 72
    20
 73
    16
 74
     0
 42
0.000000001
 43
0.00000001
 40
0.0
 40
0.0
 40
0.0
 40
0.0
 40
0.0010302056939606
 40
0.0843412910619529
 40
0.1676007283618276
 40
0.2507865155910299
 40
0.3340089859454783
 40
0.4173335426573974
 40
0.5005625436356752
 40
0.5837473224510289
 40
0.6669982276791138
 40
0.7503148020447958
 40
0.8335211995167612
 40
0.9167128509108787
 40
1.0
 40
1.0
 40
1.0
 40
1.0
 10
35.26402559390707
 20
9.84203661773945
 30
0.0
 10
35.27080107538646
 20
9.842584489722991
 30
0.0
 10
35.82549889824585
 20
9.887437892009274
 30
0.0
 10
36.92912629353395
 20
9.72974318485436
 30
0.0
 10
38.57217390523965
 20
9.350165357379254
 30
0.0
 10
40.21387171957559
 20
8.681832318129132
 30
0.0
 10
41.85626135570992
 20
7.7840194424647
 30
0.0
 10
43.50082581079979
 20
6.671097617698662
 30
0.0
 10
45.14335671958735
 20
5.373938937888269
 30
0.0
 10
46.78500199793326
 20
3.927624573570011
 30
0.0
 10
48.42798912858601
 20
2.371669869079639
 30
0.0
 10
50.07237815225907
 20
0.7481833694265588
 30
0.0
 10
51.71445674653572
 20
-0.8991260276548353
 30
0.0
 10
53.35624329114876
 20
-2.53389452849533
 30
0.0
 10
54.45187160094986
 20
-3.561435777546726
 30
0.0
 10
55.00000000000003
 20
-4.075501117737485
 30
0.0
  0
SPLINE
  5
B1
330
1F
100
AcDbEntity
  8
0
  6
Continuous
 62
     1
370
    15
100
AcDbSpline
210
0.0
220
0.0
230
1.0
 70
     8
 71
     3
 72
    17
 73
    13
 74
     0
 42
0.000000001
 43
0.00000001
 40
0.0
 40
0.0
 40
0.0
 40
0.0
 40
0.1046444612640696
 40
0.2091689363723511
 40
0.313711938893194
 40
0.4183933709534414
 40
0.5229922943481765
 40
0.627508134543268
 40
0.7320795367844366
 40
0.836770998102866
 40
0.9413341950732347
 40
1.0
 40
1.0
 40
1.0
 40
1.0
 10
55.00000000000004
 20
3.762866059168686
 30
0.0
 10
54.45187160120716
 20
4.256534470845414
 30
0.0
 10
53.35624329192029
 20
5.243305250146125
 30
0.0
 10
51.71445674345353
 20
6.55083964804284
 30
0.0
 10
50.07237816382649
 20
7.685262232324098
 30
0.0
 10
48.42798908535185
 20
8.605554519310651
 30
0.0
 10
46.78500215908655
 20
9.291332673248519
 30
0.0
 10
45.1433561185371
 20
9.721694246161704
 30
0.0
 10
43.50082805643027
 20
9.889083355157496
 30
0.0
 10
41.85625296866768
 20
9.77436568924411
 30
0.0
 10
40.4538987079639
 20
9.485192715382201
 30
0.0
 10
39.59955333455004
 20
9.137951291818968
 30
0.0
 10
39.2924947944974
 20
9.013149955166242
 30
0.0
  0
SPLINE
  5
B2
330
1F
100
AcDbEntity
  8
0
  6
Continuous
 62
     1
370
    15
100
AcDbSpline
210
0.0
220
0.0
230
1.0
 70
     8
 71
     3
 72
     9
 73
     5
 74
     0
 42
0.000000001
 43
0.00000001
 40
0.0
 40
0.0
 40
0.0
 40
0.0
 40
0.2118038868239862
 40
1.0
 40
1.0
 40
1.0
 40
1.0
 10
11.90316478816574
 20
-10.13423096304444
 30
0.0
 10
11.76885614289035
 20
-10.14100785617603
 30
0.0
 10
11.13473819874239
 20
-10.17300393157016
 30
0.0
 10
10.50016674968193
 20
-10.06264534956447
 30
0.0
 10
9.999999999999993
 20
-9.975661144171951
 30
0.0
  0
SPLINE
  5
B3
330
1F
100
AcDbEntity
  8
0
  6
Continuous
 62
     1
370
    15
100
AcDbSpline
210
0.0
220
0.0
230
1.0
 70
     8
 71
     3
 72
    20
 73
    16
 74
     0
 42
0.000000001
 43
0.00000001
 40
0.0
 40
0.0
 40
0.0
 40
0.0
 40
0.0797139180659819
 40
0.1593520074782867
 40
0.2391263132450497
 40
0.3188433188904858
 40
0.398480879865078
 40
0.4782525451180234
 40
0.557972697689133
 40
0.645197783306402
 40
0.732484313449183
 40
0.8198523963724049
 40
0.9071059483185696
 40
0.9943361262006924
 40
1.0
 40
1.0
 40
1.0
 40
1.0
 10
10.00000000000004
 20
-1.069675678657501
 30
0.0
 10
10.5001689371953
 20
-1.565557656278888
 30
0.0
 10
11.50003102093301
 20
-2.556849898881536
 30
0.0
 10
12.99871205861558
 20
-3.986606585631025
 30
0.0
 10
14.50004115001692
 20
-5.329391055242313
 30
0.0
 10
16.00027502880761
 20
-6.556679404787364
 30
0.0
 10
17.49899882325032
 20
-7.641256225549146
 30
0.0
 10
19.00031670969903
 20
-8.556041096166076
 30
0.0
 10
20.54800345184649
 20
-9.305923553831487
 30
0.0
 10
22.14220135999648
 20
-9.851134882310372
 30
0.0
 10
23.78503560740974
 20
-10.1493250257344
 30
0.0
 10
25.42948859536645
 20
-10.18562516162114
 30
0.0
 10
27.07174891101022
 20
-9.925107682739188
 30
0.0
 10
28.20120682892651
 20
-9.63333846350152
 30
0.0
 10
28.78412869456367
 20
-9.365149734873196
 30
0.0
 10
28.81967021549062
 20
-9.348797911630985
 30
0.0
  0
SPLINE
  5
B4
330
1F
100
AcDbEntity
  8
0
  6
Continuous
 62
   131
370
    15
100
AcDbSpline
210
0.0
220
0.0
230
1.0
 70
    24
 71
     3
 72
    23
 73
    19
 74
     0
 42
0.000000001
 43
0.00000001
 40
0.0
 40
0.0
 40
0.0
 40
0.0
 40
0.0493699674072838
 40
0.1133369956678916
 40
0.1791590720814926
 40
0.2431261003420863
 40
0.3089481767556722
 40
0.3729152050162672
 40
0.438737281429854
 40
0.5027043096904478
 40
0.5685263861040334
 40
0.6324934143646088
 40
0.6983154907781745
 40
0.762282519038789
 40
0.8281045954523971
 40
0.8920716237129921
 40
0.9578937001265786
 40
0.9999999999999999
 40
0.9999999999999999
 40
0.9999999999999999
 40
0.9999999999999999
 10
9.999999999999993
 20
6.392063596365634
 30
0.0
 10
10.00000000000001
 20
6.302568692132638
 30
0.0
 10
10.00000000000005
 20
6.097118210675424
 30
0.0
 10
9.999999999999972
 20
5.679908540578676
 30
0.0
 10
10.00000000000008
 20
5.156319820208316
 30
0.0
 10
9.999999999999993
 20
4.562102166716463
 30
0.0
 10
10.00000000000006
 20
3.926897771865796
 30
0.0
 10
10.00000000000001
 20
3.25668228210178
 30
0.0
 10
9.999999999999986
 20
2.582641225121554
 30
0.0
 10
10.00000000000002
 20
1.911681864568769
 30
0.0
 10
10.00000000000003
 20
1.274878460012983
 30
0.0
 10
10.0000000000001
 20
0.6788071857666371
 30
0.0
 10
9.999999999999986
 20
0.1510100297568985
 30
0.0
 10
10.00000000000002
 20
-0.3028536251616569
 30
0.0
 10
10.00000000000001
 20
-0.6625869691180424
 30
0.0
 10
10.00000000000006
 20
-0.9214211534759981
 30
0.0
 10
9.999999999999936
 20
-1.061020765211468
 30
0.0
 10
10.0
 20
-1.081108930124536
 30
0.0
 10
10.00000000000001
 20
-1.088945963579825
 30
0.0
  0
SPLINE
  5
B5
330
1F
100
AcDbEntity
  8
0
  6
Continuous
 62
     1
370
    15
100
AcDbSpline
210
0.0
220
0.0
230
1.0
 70
     8
 71
     3
 72
    22
 73
    18
 74
     0
 42
0.000000001
 43
0.00000001
 40
0.0
 40
0.0
 40
0.0
 40
0.0
 40
0.0370507551729318
 40
0.1089983549736249
 40
0.1809290385902998
 40
0.2527837201001102
 40
0.3246576556796481
 40
0.3966259346054833
 40
0.4685270355293115
 40
0.5403775223546888
 40
0.6060459218924197
 40
0.671756754306443
 40
0.7373571201314472
 40
0.8030229274316352
 40
0.8687359349332718
 40
0.9343367360517083
 40
1.0
 40
1.0
 40
1.0
 40
1.0
 10
32.847634471568
 20
-10.12265192005101
 30
0.0
 10
32.56556313981446
 20
-10.12873645551049
 30
0.0
 10
31.73574709415347
 20
-10.14663634318528
 30
0.0
 10
30.35693679871676
 20
-9.883019572928148
 30
0.0
 10
28.71342508073047
 20
-9.358083594721744
 30
0.0
 10
27.07168203124361
 20
-8.571326498527391
 30
0.0
 10
25.42950654483136
 20
-7.561408338223963
 30
0.0
 10
23.78503079905177
 20
-6.352214330653211
 30
0.0
 10
22.14220265072868
 20
-4.975568465884934
 30
0.0
 10
20.54800313906112
 20
-3.512263138791154
 30
0.0
 10
19.00031679036495
 20
-2.012881788315458
 30
0.0
 10
17.4989988016713
 20
-0.5189725593966941
 30
0.0
 10
16.00027503459174
 20
0.9853761438677113
 30
0.0
 10
14.50004114846562
 20
2.463361533773482
 30
0.0
 10
12.99871205902854
 20
3.878717590764635
 30
0.0
 10
11.50003102082971
 20
5.216330066079007
 30
0.0
 10
10.50016893716084
 20
6.000028110391122
 30
0.0
 10
9.999999999999993
 20
6.392063596365648
 30
0.0
  0
LINE
  5
B6
330
1F
100
AcDbEntity
  8
0
  6
Continuous
 62
   131
370
    15
100
AcDbLine
 10
9.999999999999986
 20
6.392063596365634
 30
0.0
 11
10.00000000000001
 21
8.01105886130929
 31
0.0
  0
LINE
  5
B7
330
1F
100
AcDbEntity
  8
0
  6
Continuous
 62
     1
370
    15
100
AcDbLine
 10
55.00000000000003
 20
-6.164159449874727
 30
0.0
 11
55.00000000000003
 21
-4.075501117737486
 31
0.0
  0
LINE
  5
B8
330
1F
100
AcDbEntity
  8
0
  6
Continuous
 62
   131
370
    15
100
AcDbLine
 10
55.00000000000003
 20
-10.1563175292845
 30
0.0
 11
55.00000000000003
 21
-10.08334303832787
 31
0.0
  0
LINE
  5
B9
330
1F
100
AcDbEntity
  8
0
  6
Continuous
 62
   131
370
    15
100
AcDbLine
 10
55.00000000000003
 20
9.770707979758885
 30
0.0
 11
55.00000000000003
 21
9.843682470715507
 31
0.0
  0
SPLINE
  5
BA
330
1F
100
AcDbEntity
  8
0
  6
Continuous
 62
     1
370
    15
100
AcDbSpline
210
0.0
220
0.0
230
1.0
 70
     8
 71
     3
 72
    11
 73
     7
 74
     0
 42
0.000000001
 43
0.00000001
 40
0.0
 40
0.0
 40
0.0
 40
0.0
 40
0.3139032583819886
 40
0.6274465928386438
 40
0.941045504199247
 40
0.9999999999999999
 40
0.9999999999999999
 40
0.9999999999999999
 40
0.9999999999999999
 10
55.00000000000004
 20
9.770707979758885
 30
0.0
 10
54.45187487340278
 20
9.8120596133598
 30
0.0
 10
53.35625310475523
 20
9.894715466455889
 30
0.0
 10
51.71441754172028
 20
9.65604759294294
 30
0.0
 10
50.51748904103709
 20
9.36272657537543
 30
0.0
 10
49.86689307580571
 20
9.0709311122441
 30
0.0
 10
49.76393989818626
 20
9.024756110015751
 30
0.0
  0
SPLINE
  5
BB
330
1F
100
AcDbEntity
  8
0
  6
Continuous
 62
     1
370
    15
100
AcDbSpline
210
0.0
220
0.0
230
1.0
 70
     8
 71
     3
 72
    16
 73
    12
 74
     0
 42
0.000000001
 43
0.00000001
 40
0.0
 40
0.0
 40
0.0
 40
0.0
 40
0.0187765447635417
 40
0.1514293562069856
 40
0.2726685879305292
 40
0.3939861606728541
 40
0.5150997862430524
 40
0.6363342320895176
 40
0.7576558205525397
 40
0.8787702497762712
 40
1.0
 40
1.0
 40
1.0
 40
1.0
 10
22.37430294614455
 20
-10.13995291062168
 30
0.0
 10
22.29684278944459
 20
-10.14521267060646
 30
0.0
 10
21.67214097084684
 20
-10.1876316608056
 30
0.0
 10
20.54805593619058
 20
-10.01549856126718
 30
0.0
 10
19.0003031742233
 20
-9.631180667893211
 30
0.0
 10
17.49900244413958
 20
-9.023780835008864
 30
0.0
 10
16.0002740582498
 20
-8.222012578491807
 30
0.0
 10
14.50004141031969
 20
-7.238479218481501
 30
0.0
 10
12.99871198931499
 20
-6.095885912327235
 30
0.0
 10
11.50003103826503
 20
-4.822917804866753
 30
0.0
 10
10.50016894297444
 20
-3.892640173454866
 30
0.0
 10
9.999999999999993
 20
-3.427280018521848
 30
0.0
  0
LINE
  5
BC
330
1F
100
AcDbEntity
  8
0
  6
Continuous
 62
   131
370
    15
100
AcDbLine
 10
9.999999999999986
 20
-3.427280018521857
 30
0.0
 11
10.00000000000001
 21
-1.069675678657514
 31
0.0
  0
LINE
  5
BD
330
1F
100
AcDbEntity
  8
0
  6
Continuous
 62
     1
370
    15
100
AcDbLine
 10
55.00000000000003
 20
5.831609737434397
 30
0.0
 11
55.00000000000003
 21
9.770707979758885
 31
0.0
  0
SPLINE
  5
BE
330
1F
100
AcDbEntity
  8
0
  6
Continuous
 62
     1
370
    15
100
AcDbSpline
210
0.0
220
0.0
230
1.0
 70
     8
 71
     3
 72
    13
 73
     9
 74
     0
 42
0.000000001
 43
0.00000001
 40
0.0
 40
0.0
 40
0.0
 40
0.0
 40
0.1797039637569341
 40
0.3592369823393897
 40
0.5390770817857469
 40
0.7187880060619956
 40
0.8983198333549766
 40
1.0
 40
1.0
 40
1.0
 40
1.0
 10
10.00000000000001
 20
-9.237052069251277
 30
0.0
 10
10.50016884339543
 20
-9.426797856829186
 30
0.0
 10
11.50003073962265
 20
-9.806108934426216
 30
0.0
 10
12.99871318340932
 20
-10.10363332332918
 30
0.0
 10
14.50003692513082
 20
-10.19453655465704
 30
0.0
 10
16.00029078160249
 20
-10.04667299531629
 30
0.0
 10
17.28166974266531
 20
-9.761626728684817
 30
0.0
 10
18.06464211698164
 20
-9.445264642159952
 30
0.0
 10
18.3477479702707
 20
-9.330874963300428
 30
0.0
  0
SPLINE
  5
BF
330
1F
100
AcDbEntity
  8
0
  6
Continuous
 62
     1
370
    15
100
AcDbSpline
210
0.0
220
0.0
230
1.0
 70
     8
 71
     3
 72
    13
 73
     9
 74
     0
 42
0.000000001
 43
0.00000001
 40
0.0
 40
0.0
 40
0.0
 40
0.0
 40
0.1131755961595223
 40
0.2905412646107258
 40
0.4680468408557799
 40
0.6453176857384735
 40
0.8225571141705309
 40
1.0
 40
1.0
 40
1.0
 40
1.0
 10
45.73668069836416
 20
9.812581062294662
 30
0.0
 10
46.08600022300268
 20
9.814229436965338
 30
0.0
 10
46.98276365863452
 20
9.818461098892662
 30
0.0
 10
48.42799139006637
 20
9.519907281220355
 30
0.0
 10
50.0723775471938
 20
8.96239768402333
 30
0.0
 10
51.71445690775823
 20
8.144625604654916
 30
0.0
 10
53.35624325079213
 20
7.117730025282867
 30
0.0
 10
54.45187158749253
 20
6.273754313339185
 30
0.0
 10
55.00000000000001
 20
5.851524391305792
 30
0.0
  0
SPLINE
  5
C0
330
1F
100
AcDbEntity
  8
0
  6
Continuous
 62
   131
370
    15
100
AcDbSpline
210
0.0
220
0.0
230
1.0
 70
    24
 71
     3
 72
    17
 73
    13
 74
     0
 42
0.000000001
 43
0.00000001
 40
0.0
 40
0.0
 40
0.0
 40
0.0
 40
0.0253772398305794
 40
0.1282474016313589
 40
0.2311175634321385
 40
0.3339877252328876
 40
0.4368578870336366
 40
0.5397280488344505
 40
0.6425982106352642
 40
0.7454683724360455
 40
0.8483385342368264
 40
1.0
 40
1.0
 40
1.0
 40
1.0
 10
10.00000000000001
 20
-3.498250640326958
 30
0.0
 10
10.00000000000001
 20
-3.525129818054497
 30
0.0
 10
9.999999999999986
 20
-3.660967471186121
 30
0.0
 10
9.999999999999979
 20
-4.001935374088907
 30
0.0
 10
10.00000000000006
 20
-4.507532616742205
 30
0.0
 10
10.00000000000001
 20
-5.089423945207975
 30
0.0
 10
10.00000000000001
 20
-5.718712289272905
 30
0.0
 10
10.00000000000002
 20
-6.381796514138117
 30
0.0
 10
10.00000000000002
 20
-7.058658177530186
 30
0.0
 10
9.999999999999993
 20
-7.728660096134321
 30
0.0
 10
9.999999999999986
 20
-8.483004952651815
 30
0.0
 10
10.0
 20
-8.955511361551775
 30
0.0
 10
10.00000000000001
 20
-9.237052069251277
 30
0.0
  0
LINE
  5
C1
330
1F
100
AcDbEntity
  8
0
  6
Continuous
 62
     1
370
    15
100
AcDbLine
 10
55.00000000000003
 20
3.762866059168686
 30
0.0
 11
55.00000000000003
 21
5.85152439130579
 31
0.0
  0
LINE
  5
C2
330
1F
100
AcDbEntity
  8
0
  6
Continuous
 62
   131
370
    15
100
AcDbLine
 10
9.999999999999986
 20
-9.975661144171948
 30
0.0
 11
10.00000000000001
 21
-9.237052069251277
 31
0.0
  0
SPLINE
  5
C3
330
1F
100
AcDbEntity
  8
0
  6
Continuous
 62
   131
370
    15
100
AcDbSpline
210
0.0
220
0.0
230
1.0
 70
    24
 71
     3
 72
    23
 73
    19
 74
     0
 42
0.000000001
 43
0.00000001
 40
0.0
 40
0.0
 40
0.0
 40
0.0
 40
0.0219166839256558
 40
0.0882934339245789
 40
0.1565951141701516
 40
0.2229718641690739
 40
0.2912735444146457
 40
0.3576502944135472
 40
0.4259519746591403
 40
0.4923287246580621
 40
0.5606304049036335
 40
0.6270071549025562
 40
0.6953088351481281
 40
0.7616855851470511
 40
0.8299872653926231
 40
0.8963640153915446
 40
0.9646656956371158
 40
1.0
 40
1.0
 40
1.0
 40
1.0
 10
10.00000000000004
 20
-1.053125610411155
 30
0.0
 10
10.00000000000004
 20
-1.046598702382686
 30
0.0
 10
9.999999999999972
 20
-1.020304436119675
 30
0.0
 10
10.00000000000006
 20
-0.8693440003024859
 30
0.0
 10
9.999999999999986
 20
-0.5931395664162229
 30
0.0
 10
10.00000000000003
 20
-0.2079569153245375
 30
0.0
 10
10.00000000000002
 20
0.2600001590547295
 30
0.0
 10
10.00000000000007
 20
0.808155136414958
 30
0.0
 10
10.00000000000006
 20
1.410526168153444
 30
0.0
 10
10.00000000000003
 20
2.06106542090776
 30
0.0
 10
10.00000000000001
 20
2.729610178025114
 30
0.0
 10
10.00000000000004
 20
3.409272534959031
 30
0.0
 10
10.00000000000001
 20
4.068612391087833
 30
0.0
 10
10.00000000000004
 20
4.700709739886669
 30
0.0
 10
10.00000000000008
 20
5.276762712587934
 30
0.0
 10
9.999999999999986
 20
5.789089804461683
 30
0.0
 10
10.0
 20
6.153862850339521
 30
0.0
 10
10.00000000000001
 20
6.331499156859509
 30
0.0
 10
10.00000000000002
 20
6.392063596365627
 30
0.0
  0
SPLINE
  5
C4
330
1F
100
AcDbEntity
  8
0
  6
Continuous
 62
   131
370
    15
100
AcDbSpline
210
0.0
220
0.0
230
1.0
 70
     8
 71
     3
 72
     8
 73
     4
 74
     0
 42
0.000000001
 43
0.00000001
 40
0.0
 40
0.0
 40
0.0
 40
0.0
 40
1.0
 40
1.0
 40
1.0
 40
1.0
 10
10.00000000000001
 20
-1.069675678657495
 30
0.0
 10
9.668335817346446
 20
-0.7384306398063399
 30
0.0
 10
9.334173226162353
 20
-0.404835550651179
 30
0.0
 10
9.000001712982652
 20
-0.071376755732928
 30
0.0
  0
SPLINE
  5
C5
330
1F
100
AcDbEntity
  8
0
  6
Continuous
 62
   131
370
    15
100
AcDbSpline
210
0.0
220
0.0
230
1.0
 70
     8
 71
     3
 72
     8
 73
     4
 74
     0
 42
0.000000001
 43
0.00000001
 40
0.0
 40
0.0
 40
0.0
 40
0.0
 40
1.0
 40
1.0
 40
1.0
 40
1.0
 10
10.00000000000002
 20
6.392063596365619
 30
0.0
 10
9.668335817346446
 20
6.643459182322319
 30
0.0
 10
9.334173226162338
 20
6.884589457909832
 30
0.0
 10
9.000001712982638
 20
7.113567091468234
 30
0.0
  0
LINE
  5
C6
330
1F
100
AcDbEntity
  8
0
  6
Continuous
 62
   131
370
    15
100
AcDbLine
 10
9.00000171298263
 20
-10.15631752928449
 30
0.0
 11
9.00000171298263
 21
-9.737820459103574
 31
0.0
  0
SPLINE
  5
C7
330
1F
100
AcDbEntity
  8
0
  6
Continuous
 62
   131
370
    15
100
AcDbSpline
210
0.0
220
0.0
230
1.0
 70
     8
 71
     3
 72
     8
 73
     4
 74
     0
 42
0.000000001
 43
0.00000001
 40
0.0
 40
0.0
 40
0.0
 40
0.0
 40
1.0
 40
1.0
 40
1.0
 40
1.0
 10
10.00000000000002
 20
9.66302608560298
 30
0.0
 10
9.668335817346446
 20
9.600084197768378
 30
0.0
 10
9.334173226162338
 20
9.520646639329534
 30
0.0
 10
9.000001712982638
 20
9.425185400534605
 30
0.0
  0
LINE
  5
C8
330
1F
100
AcDbEntity
  8
0
  6
Continuous
 62
   131
370
    15
100
AcDbLine
 10
9.000001712982652
 20
8.546094473850001
 30
0.0
 11
9.00000171298263
 21
9.843682470715503
 31
0.0
  0
SPLINE
  5
C9
330
1F
100
AcDbEntity
  8
0
  6
Continuous
 62
   131
370
    15
100
AcDbSpline
210
0.0
220
0.0
230
1.0
 70
     8
 71
     3
 72
     8
 73
     4
 74
     0
 42
0.000000001
 43
0.00000001
 40
0.0
 40
0.0
 40
0.0
 40
0.0
 40
1.0
 40
1.0
 40
1.0
 40
1.0
 10
10.00000000000001
 20
8.011058861309287
 30
0.0
 10
9.668335817346446
 20
8.20299255390265
 30
0.0
 10
9.334173226162353
 20
8.38181811671517
 30
0.0
 10
9.000001712982652
 20
8.546094473850001
 30
0.0
  0
LINE
  5
CA
330
1F
100
AcDbEntity
  8
0
  6
Continuous
 62
   131
370
    15
100
AcDbLine
 10
9.000001712982652
 20
-0.0713767557329273
 30
0.0
 11
9.00000171298263
 21
7.113567091468234
 31
0.0
  0
SPLINE
  5
CB
330
1F
100
AcDbEntity
  8
0
  6
Continuous
 62
   131
370
    15
100
AcDbSpline
210
0.0
220
0.0
230
1.0
 70
     8
 71
     3
 72
     8
 73
     4
 74
     0
 42
0.000000001
 43
0.00000001
 40
0.0
 40
0.0
 40
0.0
 40
0.0
 40
1.0
 40
1.0
 40
1.0
 40
1.0
 10
10.00000000000002
 20
-3.427280018521878
 30
0.0
 10
9.668335817346446
 20
-3.112942544730581
 30
0.0
 10
9.334173226162338
 20
-2.792374710704224
 30
0.0
 10
9.000001712982638
 20
-2.467935838350894
 30
0.0
  0
LINE
  5
CC
330
1F
100
AcDbEntity
  8
0
  6
Continuous
 62
   131
370
    15
100
AcDbLine
 10
9.000001712982652
 20
-8.773788758867422
 30
0.0
 11
9.00000171298263
 21
-2.467935838350894
 31
0.0
  0
SPLINE
  5
CD
330
1F
100
AcDbEntity
  8
0
  6
Continuous
 62
   131
370
    15
100
AcDbSpline
210
0.0
220
0.0
230
1.0
 70
     8
 71
     3
 72
     8
 73
     4
 74
     0
 42
0.000000001
 43
0.00000001
 40
0.0
 40
0.0
 40
0.0
 40
0.0
 40
1.0
 40
1.0
 40
1.0
 40
1.0
 10
10.00000000000001
 20
-9.237052069251273
 30
0.0
 10
9.668335817346446
 20
-9.097740722993478
 30
0.0
 10
9.334173226162353
 20
-8.942971196650841
 30
0.0
 10
9.000001712982652
 20
-8.773788758867422
 30
0.0
  0
SPLINE
  5
CE
330
1F
100
AcDbEntity
  8
0
  6
Continuous
 62
   131
370
    15
100
AcDbSpline
210
0.0
220
0.0
230
1.0
 70
     8
 71
     3
 72
     8
 73
     4
 74
     0
 42
0.000000001
 43
0.00000001
 40
0.0
 40
0.0
 40
0.0
 40
0.0
 40
1.0
 40
1.0
 40
1.0
 40
1.0
 10
10.00000000000002
 20
-9.975661144171951
 30
0.0
 10
9.668335817346446
 20
-9.91271925633735
 30
0.0
 10
9.334173226162338
 20
-9.833281697898503
 30
0.0
 10
9.000001712982638
 20
-9.737820459103574
 30
0.0
  0
LINE
  5
CF
330
1F
100
AcDbEntity
  8
0
  6
Continuous
 62
   131
370
    15
100
AcDbLine
 10
-42.99999999999998
 20
-0.1563175292844943
 30
0.0
 11
-42.99999999999998
 21
9.843682470715503
 31
0.0
  0
LINE
  5
D0
330
1F
100
AcDbEntity
  8
0
  6
Continuous
 62
   131
370
    15
100
AcDbLine
 10
-42.99999999999998
 20
-10.15631752928449
 30
0.0
 11
-42.99999999999998
 21
-0.1563175292844943
 31
0.0
  0
LINE
  5
D1
330
1F
100
AcDbEntity
  8
0
  6
Continuous
 62
   131
370
    15
100
AcDbLine
 10
-44.99999999999998
 20
-0.1563175292844943
 30
0.0
 11
-44.99999999999998
 21
7.84368247071551
 31
0.0
  0
LINE
  5
D2
330
1F
100
AcDbEntity
  8
0
  6
Continuous
 62
   131
370
    15
100
AcDbLine
 10
-44.99999999999998
 20
-8.156317529284497
 30
0.0
 11
-44.99999999999998
 21
-0.1563175292844943
 31
0.0
  0
SPLINE
  5
D3
330
1F
100
AcDbEntity
  8
0
  6
Continuous
 62
   131
370
    15
100
AcDbSpline
210
0.0
220
0.0
230
1.0
 70
    24
 71
     3
 72
    17
 73
    13
 74
     0
 42
0.000000001
 43
0.00000001
 40
0.0
 40
0.0
 40
0.0
 40
0.0
 40
0.0882998406031275
 40
0.1765996812062546
 40
0.2796938628268555
 40
0.3827880444474565
 40
0.4858822260680561
 40
0.5889764076886559
 40
0.692070589309256
 40
0.795164770929856
 40
0.8982589525504553
 40
1.0
 40
1.0
 40
1.0
 40
1.0
 10
10.00000000000002
 20
-9.23705206925127
 30
0.0
 10
10.00000000000002
 20
-9.077021093719292
 30
0.0
 10
10.00000000000003
 20
-8.75695914265534
 30
0.0
 10
10.00000000000004
 20
-8.19517393188642
 30
0.0
 10
10.00000000000001
 20
-7.572758645204134
 30
0.0
 10
9.999999999999986
 20
-6.898359135241565
 30
0.0
 10
10.00000000000002
 20
-6.223389568694786
 30
0.0
 10
10.00000000000005
 20
-5.566430356337223
 30
0.0
 10
10.00000000000004
 20
-4.946717825472647
 30
0.0
 10
10.00000000000007
 20
-4.382386022770149
 30
0.0
 10
10.00000000000004
 20
-3.885058990496855
 30
0.0
 10
10.00000000000003
 20
-3.626617672359821
 30
0.0
 10
10.00000000000002
 20
-3.498250640326973
 30
0.0
  0
SPLINE
  5
D4
330
1F
100
AcDbEntity
  8
0
  6
Continuous
 62
   131
370
    15
100
AcDbSpline
210
0.0
220
0.0
230
1.0
 70
    24
 71
     3
 72
    10
 73
     6
 74
     0
 42
0.000000001
 43
0.00000001
 40
0.0
 40
0.0
 40
0.0
 40
0.0
 40
0.3605996490142385
 40
0.781998823122846
 40
0.9999999999999999
 40
0.9999999999999999
 40
0.9999999999999999
 40
0.9999999999999999
 10
10.00000000000005
 20
8.08201948311439
 30
0.0
 10
10.00000000000004
 20
8.264545151939814
 30
0.0
 10
9.999999999999986
 20
8.660371544454009
 30
0.0
 10
9.999999999999979
 20
9.19953451059811
 30
0.0
 10
10.00000000000001
 20
9.545179655966272
 30
0.0
 10
10.00000000000003
 20
9.663026085602983
 30
0.0
  0
LINE
  5
D5
330
1F
100
AcDbEntity
  8
중심선
 62
     1
100
AcDbLine
 10
-47.99999999999998
 20
-0.1563175292845005
 30
0.0
 11
58.00000000000002
 21
-0.1563175292843974
 31
0.0
  0
CIRCLE
  5
D6
330
1F
100
AcDbEntity
  8
외형선
100
AcDbCircle
 10
0.0
 20
0.0
 30
0.0
 40
2.999999999999994
  0
INSERT
  5
D7
330
1F
100
AcDbEntity
  8
0
  6
Continuous
 62
     7
100
AcDbBlockReference
 66
     1
  2
블럭10
 10
-22.93944368806589
 20
-52.04609937292004
 30
0.0
  0
ATTRIB
  5
D8
330
D7
100
AcDbEntity
  8
FORMAT
 62
     2
100
AcDbText
 10
-35.89938288292366
 20
-49.97073246008785
 30
0.0
 40
4.233333333333333
  1
SEME75200E [ 6 FLUTE ]
 41
0.75
  7
SLDTEXTSTYLE0
 11
-35.89938288292366
 21
-52.08739912675452
 31
0.0
100
AcDbAttribute
  2
AUTOATTR0
 70
     0
 74
     1
  0
SEQEND
  5
D9
330
D7
100
AcDbEntity
  8
0
  6
Continuous
 62
     7
  0
HATCH
  5
DA
330
1F
100
AcDbEntity
  8
중심선
100
AcDbHatch
 10
0.0
 20
0.0
 30
0.0
210
0.0
220
0.0
230
1.0
  2
SOLID
 70
     1
 71
     0
 91
        1
 92
        0
 93
        4
 72
     1
 10
-17.22453438368504
 20
-35.7989250712761
 11
-20.67080962752232
 21
-35.7989250712761
 72
     1
 10
-20.67080962752232
 20
-35.7989250712761
 11
-22.79903948672635
 21
-38.3352506518487
 72
     1
 10
-22.79903948672635
 20
-38.3352506518487
 11
-19.35273115777591
 21
-38.33521122254621
 72
     1
 10
-19.35273115777591
 20
-38.33521122254621
 11
-17.22453438368504
 21
-35.7989250712761
 97
        0
 75
     0
 76
     1
 98
        1
 10
0.0
 20
0.0
  0
HATCH
  5
DB
330
1F
100
AcDbEntity
  8
중심선
100
AcDbHatch
 10
0.0
 20
0.0
 30
0.0
210
0.0
220
0.0
230
1.0
  2
SOLID
 70
     1
 71
     0
 91
        1
 92
        0
 93
        4
 72
     1
 10
-12.21177039264909
 20
-35.7989250712761
 11
-15.65804563648637
 21
-35.7989250712761
 72
     1
 10
-15.65804563648637
 20
-35.7989250712761
 11
-20.18918364484376
 21
-41.19892507127612
 72
     1
 10
-20.18918364484376
 20
-41.19892507127612
 11
-16.74290840100648
 21
-41.19892507127612
 72
     1
 10
-16.74290840100648
 20
-41.19892507127612
 11
-12.21177039264909
 21
-35.7989250712761
 97
        0
 75
     0
 76
     1
 98
        1
 10
0.0
 20
0.0
  0
HATCH
  5
DC
330
1F
100
AcDbEntity
  8
중심선
100
AcDbHatch
 10
0.0
 20
0.0
 30
0.0
210
0.0
220
0.0
230
1.0
  2
SOLID
 70
     1
 71
     0
 91
        1
 92
        0
 93
        4
 72
     1
 10
-7.199006401613195
 20
-35.79892507127613
 11
-10.64528164545031
 21
-35.7989250712761
 72
     1
 10
-10.64528164545031
 20
-35.7989250712761
 11
-17.69371854733956
 21
-44.19892507127612
 72
     1
 10
-17.69371854733956
 20
-44.19892507127612
 11
-14.24744330350228
 21
-44.19892507127612
 72
     1
 10
-14.24744330350228
 20
-44.19892507127612
 11
-7.199006401613195
 21
-35.79892507127613
 97
        0
 75
     0
 76
     1
 98
        1
 10
0.0
 20
0.0
  0
HATCH
  5
DD
330
1F
100
AcDbEntity
  8
중심선
100
AcDbHatch
 10
0.0
 20
0.0
 30
0.0
210
0.0
220
0.0
230
1.0
  2
SOLID
 70
     1
 71
     0
 91
        1
 92
        0
 93
        6
 72
     3
 10
-2.399115970600996
 20
-39.99892507132738
 11
3.960054785062284
 21
1.540850780301639E-10
 40
0.3939339440162633
 50
17.09539180608433
 51
320.0019657685079
 73
     0
 72
     1
 10
-0.7161163149004002
 20
-38.58681907591441
 11
1.589185558800638
 21
-36.65249236586649
 72
     3
 10
-2.399115970653842
 20
-39.99892507127625
 11
6.600054785286829
 21
-1.249000902703301E-13
 40
0.6363583540795982
 50
39.99873849337408
 51
368.4976242363725
 73
     1
 72
     1
 10
4.026216521246767
 20
-39.03892507120613
 11
-3.71904866381792
 21
-39.0389250712061
 72
     1
 10
-3.71904866381792
 20
-39.0389250712061
 11
-3.719073708263854
 21
-40.95892507120602
 72
     1
 10
-3.719073708263854
 20
-40.95892507120602
 11
0.7223060612081831
 21
-40.95892507120599
 97
        0
 75
     0
 76
     1
 98
        1
 10
0.0
 20
0.0
  0
DIMENSION
  5
DE
330
1F
100
AcDbEntity
  8
치수문자_일반주서
100
AcDbDimension
  2
_D
 10
-61.62890613132338
 20
-10.15631752928458
 30
0.0
 11
-61.62890613132342
 21
-0.156317529284485
 31
0.0
 70
   160
  1
%%c<>
 71
     2
 42
20.00000000000002
 52
-270.0
  3
SLDDIMSTYLE0
100
AcDbAlignedDimension
 13
-42.99999999999998
 23
9.843682470715514
 33
0.0
 14
-42.99999999999998
 24
-10.1563175292845
 34
0.0
 50
90.0000000000002
100
AcDbRotatedDimension
  0
DIMENSION
  5
EC
330
1F
100
AcDbEntity
  8
치수문자_일반주서
100
AcDbDimension
  2
_D_1
 10
65.00000000000006
 20
-10.15631752928446
 30
0.0
 11
65.00000000000001
 21
1.162543970907491
 31
0.0
 70
   160
  1
%%c<>
 71
     2
 42
20.0
 52
-270.0
  3
SLDDIMSTYLE0
100
AcDbAlignedDimension
 13
55.00000000000003
 23
9.843682470715507
 33
0.0
 14
55.00000000000003
 24
-10.1563175292845
 34
0.0
 50
90.0000000000002
100
AcDbRotatedDimension
  0
DIMENSION
  5
F9
330
1F
100
AcDbEntity
  8
치수문자_일반주서
100
AcDbDimension
  2
_D_2
 10
55.00000000000003
 20
53.15786670424478
 30
0.0
 11
32.50000000000003
 21
53.15786670424478
 31
0.0
 70
   160
  1
<>
 71
     2
 42
45.00000000000001
  3
SLDDIMSTYLE1
100
AcDbAlignedDimension
 13
10.00000000000002
 23
9.663026085602983
 33
0.0
 14
55.00000000000003
 24
9.770707979758885
 34
0.0
100
AcDbRotatedDimension
  0
DIMENSION
  5
104
330
1F
100
AcDbEntity
  8
치수문자_일반주서
100
AcDbDimension
  2
_D_3
 10
-44.99999999999999
 20
80.71539064062851
 30
0.0
 11
8.098163198427201
 21
80.71539064062851
 31
0.0
 70
   160
  1
<>
 71
     2
 42
100.0
  3
SLDDIMSTYLE1
100
AcDbAlignedDimension
 13
55.00000000000003
 23
9.770707979758885
 33
0.0
 14
-44.99999999999998
 24
7.84368247071551
 34
0.0
100
AcDbRotatedDimension
  0
INSERT
  5
114
330
1F
100
AcDbEntity
  8
외형선
100
AcDbBlockReference
  2
SW_DOWELSYMBOL_0
 10
0.0
 20
0.0
 30
0.0
  0
ENDSEC
  0
SECTION
  2
OBJECTS
  0
DICTIONARY
  5
C
330
0
100
AcDbDictionary
281
     1
  3
ACAD_GROUP
350
D
  3
ACAD_IMAGE_VARS
350
138
  3
ACAD_LAYOUT
350
1A
  3
ACAD_MLINESTYLE
350
17
  3
ACAD_PLOTSETTINGS
350
19
  3
ACAD_PLOTSTYLENAME
350
E
  3
ACAD_SCALELIST
350
47
  3
APPDATA
350
136
  3
DWGPROPS
350
141
  0
DICTIONARY
  5
D
102
{ACAD_REACTORS
330
C
102
}
330
C
100
AcDbDictionary
281
     1
  0
RASTERVARIABLES
  5
138
102
{ACAD_REACTORS
330
C
102
}
330
C
100
AcDbRasterVariables
 90
        0
 70
     1
 71
     1
 72
     1
  0
DICTIONARY
  5
1A
102
{ACAD_REACTORS
330
C
102
}
330
C
100
AcDbDictionary
281
     1
  3
Layout1
350
1E
  3
Layout2
350
26
  3
Model
350
22
  0
DICTIONARY
  5
17
102
{ACAD_REACTORS
330
C
102
}
330
C
100
AcDbDictionary
281
     1
  3
Standard
350
18
  0
DICTIONARY
  5
19
102
{ACAD_REACTORS
330
C
102
}
330
C
100
AcDbDictionary
281
     1
  0
ACDBDICTIONARYWDFLT
  5
E
102
{ACAD_REACTORS
330
C
102
}
330
C
100
AcDbDictionary
281
     1
  3
Normal
350
F
100
AcDbDictionaryWithDefault
340
F
  0
DICTIONARY
  5
47
102
{ACAD_REACTORS
330
C
102
}
330
C
100
AcDbDictionary
281
     1
  3
A0
350
48
  3
A1
350
49
  3
A2
350
4A
  3
A3
350
4B
  3
A4
350
4C
  3
A5
350
4D
  3
A6
350
4E
  3
A7
350
4F
  3
A8
350
50
  3
A9
350
51
  3
B0
350
52
  3
B1
350
53
  3
B2
350
54
  3
B3
350
55
  3
B4
350
56
  3
B5
350
57
  3
B6
350
58
  3
B7
350
59
  3
B8
350
5A
  3
B9
350
5B
  3
C0
350
5C
  3
C1
350
5D
  3
C2
350
5E
  3
C3
350
5F
  3
C4
350
60
  3
C5
350
61
  3
C6
350
62
  3
C7
350
63
  3
C8
350
64
  3
C9
350
65
  3
D0
350
66
  3
D1
350
67
  3
D2
350
68
  0
DICTIONARY
  5
136
102
{ACAD_REACTORS
330
C
102
}
330
C
100
AcDbDictionary
281
     1
  0
XRECORD
  5
141
102
{ACAD_REACTORS
330
C
102
}
330
C
100
AcDbXrecord
280
     1
  1
DWGPROPS COOKIE
  2

  3

  4

  6

  7

  8
12016016
  9

300
=
301
=
302
=
303
=
304
=
305
=
306
=
307
=
308
=
309
=
 40
0.0
 41
2458268.399716956
 42
2458269.977349294
  1

 90
        0
  0
LAYOUT
  5
1E
102
{ACAD_REACTORS
330
1A
102
}
330
1A
100
AcDbPlotSettings
  1

  2
none_device
  4

  6

 40
0.0
 41
0.0
 42
0.0
 43
0.0
 44
0.0
 45
0.0
 46
0.0
 47
0.0
 48
0.0
 49
0.0
140
0.0
141
0.0
142
1.0
143
1.0
 70
   688
 72
     1
 73
     0
 74
     5
  7

 75
    16
147
1.0
148
0.0
149
0.0
100
AcDbLayout
  1
Layout1
 70
     1
 71
     1
 10
0.0
 20
0.0
 11
420.0
 21
297.0
 12
0.0
 22
0.0
 32
0.0
 14
1.000000000000000E+20
 24
1.000000000000000E+20
 34
1.000000000000000E+20
 15
-1.000000000000000E+20
 25
-1.000000000000000E+20
 35
-1.000000000000000E+20
146
0.0
 13
0.0
 23
0.0
 33
0.0
 16
1.0
 26
0.0
 36
0.0
 17
0.0
 27
1.0
 37
0.0
 76
     0
330
1B
  0
LAYOUT
  5
26
102
{ACAD_REACTORS
330
1A
102
}
330
1A
100
AcDbPlotSettings
  1

  2
none_device
  4

  6

 40
0.0
 41
0.0
 42
0.0
 43
0.0
 44
0.0
 45
0.0
 46
0.0
 47
0.0
 48
0.0
 49
0.0
140
0.0
141
0.0
142
1.0
143
1.0
 70
   688
 72
     1
 73
     0
 74
     5
  7

 75
    16
147
1.0
148
0.0
149
0.0
100
AcDbLayout
  1
Layout2
 70
     1
 71
     2
 10
0.0
 20
0.0
 11
0.0
 21
0.0
 12
0.0
 22
0.0
 32
0.0
 14
0.0
 24
0.0
 34
0.0
 15
0.0
 25
0.0
 35
0.0
146
0.0
 13
0.0
 23
0.0
 33
0.0
 16
1.0
 26
0.0
 36
0.0
 17
0.0
 27
1.0
 37
0.0
 76
     0
330
23
  0
LAYOUT
  5
22
102
{ACAD_REACTORS
330
1A
102
}
330
1A
100
AcDbPlotSettings
  1

  2
none_device
  4
ANSI_A_(11.00_x_8.50_Inches)
  6

 40
6.35
 41
19.05
 42
6.35000508
 43
19.05000254
 44
279.4
 45
215.9
 46
131.9298367556635
 47
61.67588061230472
 48
0.0
 49
0.0
140
0.0
141
0.0
142
0.0618298922697917
143
1.0
 70
  1696
 72
     0
 73
     0
 74
     0
  7

 75
     0
147
0.0235690232323232
148
0.0
149
0.0
100
AcDbLayout
  1
Model
 70
     1
 71
     0
 10
0.0
 20
0.0
 11
420.0
 21
297.0
 12
0.0
 22
0.0
 32
0.0
 14
-66.00390613132342
 24
-49.97073246008785
 34
0.0
 15
65.55033333333337
 25
85.09039064062851
 35
0.0
146
0.0
 13
0.0
 23
0.0
 33
0.0
 16
1.0
 26
0.0
 36
0.0
 17
0.0
 27
1.0
 37
0.0
 76
     0
330
1F
331
29
  0
MLINESTYLE
  5
18
102
{ACAD_REACTORS
330
17
102
}
330
17
100
AcDbMlineStyle
  2
Standard
 70
     0
  3

 62
   256
 51
90.0
 52
90.0
 71
     2
 49
0.5
 62
   256
  6
BYLAYER
 49
-0.5
 62
   256
  6
BYLAYER
  0
ACDBPLACEHOLDER
  5
F
102
{ACAD_REACTORS
330
E
102
}
330
E
  0
SCALE
  5
48
102
{ACAD_REACTORS
330
47
102
}
330
47
100
AcDbScale
 70
     0
300
1:1
140
1.0
141
1.0
290
     1
  0
SCALE
  5
49
102
{ACAD_REACTORS
330
47
102
}
330
47
100
AcDbScale
 70
     0
300
1:2
140
1.0
141
2.0
290
     0
  0
SCALE
  5
4A
102
{ACAD_REACTORS
330
47
102
}
330
47
100
AcDbScale
 70
     0
300
1:4
140
1.0
141
4.0
290
     0
  0
SCALE
  5
4B
102
{ACAD_REACTORS
330
47
102
}
330
47
100
AcDbScale
 70
     0
300
1:5
140
1.0
141
5.0
290
     0
  0
SCALE
  5
4C
102
{ACAD_REACTORS
330
47
102
}
330
47
100
AcDbScale
 70
     0
300
1:8
140
1.0
141
8.0
290
     0
  0
SCALE
  5
4D
102
{ACAD_REACTORS
330
47
102
}
330
47
100
AcDbScale
 70
     0
300
1:10
140
1.0
141
10.0
290
     0
  0
SCALE
  5
4E
102
{ACAD_REACTORS
330
47
102
}
330
47
100
AcDbScale
 70
     0
300
1:16
140
1.0
141
16.0
290
     0
  0
SCALE
  5
4F
102
{ACAD_REACTORS
330
47
102
}
330
47
100
AcDbScale
 70
     0
300
1:20
140
1.0
141
20.0
290
     0
  0
SCALE
  5
50
102
{ACAD_REACTORS
330
47
102
}
330
47
100
AcDbScale
 70
     0
300
1:30
140
1.0
141
30.0
290
     0
  0
SCALE
  5
51
102
{ACAD_REACTORS
330
47
102
}
330
47
100
AcDbScale
 70
     0
300
1:40
140
1.0
141
40.0
290
     0
  0
SCALE
  5
52
102
{ACAD_REACTORS
330
47
102
}
330
47
100
AcDbScale
 70
     0
300
1:50
140
1.0
141
50.0
290
     0
  0
SCALE
  5
53
102
{ACAD_REACTORS
330
47
102
}
330
47
100
AcDbScale
 70
     0
300
1:100
140
1.0
141
100.0
290
     0
  0
SCALE
  5
54
102
{ACAD_REACTORS
330
47
102
}
330
47
100
AcDbScale
 70
     0
300
2:1
140
2.0
141
1.0
290
     0
  0
SCALE
  5
55
102
{ACAD_REACTORS
330
47
102
}
330
47
100
AcDbScale
 70
     0
300
4:1
140
4.0
141
1.0
290
     0
  0
SCALE
  5
56
102
{ACAD_REACTORS
330
47
102
}
330
47
100
AcDbScale
 70
     0
300
8:1
140
8.0
141
1.0
290
     0
  0
SCALE
  5
57
102
{ACAD_REACTORS
330
47
102
}
330
47
100
AcDbScale
 70
     0
300
10:1
140
10.0
141
1.0
290
     0
  0
SCALE
  5
58
102
{ACAD_REACTORS
330
47
102
}
330
47
100
AcDbScale
 70
     0
300
100:1
140
100.0
141
1.0
290
     0
  0
SCALE
  5
59
102
{ACAD_REACTORS
330
47
102
}
330
47
100
AcDbScale
 70
     0
300
1/128" = 1'-0"
140
0.0078125
141
12.0
290
     0
  0
SCALE
  5
5A
102
{ACAD_REACTORS
330
47
102
}
330
47
100
AcDbScale
 70
     0
300
1/64" = 1'-0"
140
0.015625
141
12.0
290
     0
  0
SCALE
  5
5B
102
{ACAD_REACTORS
330
47
102
}
330
47
100
AcDbScale
 70
     0
300
1/32" = 1'-0"
140
0.03125
141
12.0
290
     0
  0
SCALE
  5
5C
102
{ACAD_REACTORS
330
47
102
}
330
47
100
AcDbScale
 70
     0
300
1/16" = 1'-0"
140
0.0625
141
12.0
290
     0
  0
SCALE
  5
5D
102
{ACAD_REACTORS
330
47
102
}
330
47
100
AcDbScale
 70
     0
300
3/32" = 1'-0"
140
0.09375
141
12.0
290
     0
  0
SCALE
  5
5E
102
{ACAD_REACTORS
330
47
102
}
330
47
100
AcDbScale
 70
     0
300
1/8" = 1'-0"
140
0.125
141
12.0
290
     0
  0
SCALE
  5
5F
102
{ACAD_REACTORS
330
47
102
}
330
47
100
AcDbScale
 70
     0
300
3/16" = 1'-0"
140
0.1875
141
12.0
290
     0
  0
SCALE
  5
60
102
{ACAD_REACTORS
330
47
102
}
330
47
100
AcDbScale
 70
     0
300
1/4" = 1'-0"
140
0.25
141
12.0
290
     0
  0
SCALE
  5
61
102
{ACAD_REACTORS
330
47
102
}
330
47
100
AcDbScale
 70
     0
300
3/8" = 1'-0"
140
0.375
141
12.0
290
     0
  0
SCALE
  5
62
102
{ACAD_REACTORS
330
47
102
}
330
47
100
AcDbScale
 70
     0
300
1/2" = 1'-0"
140
0.5
141
12.0
290
     0
  0
SCALE
  5
63
102
{ACAD_REACTORS
330
47
102
}
330
47
100
AcDbScale
 70
     0
300
3/4" = 1'-0"
140
0.75
141
12.0
290
     0
  0
SCALE
  5
64
102
{ACAD_REACTORS
330
47
102
}
330
47
100
AcDbScale
 70
     0
300
1" = 1'-0"
140
1.0
141
12.0
290
     0
  0
SCALE
  5
65
102
{ACAD_REACTORS
330
47
102
}
330
47
100
AcDbScale
 70
     0
300
1-1/2" = 1'-0"
140
1.5
141
12.0
290
     0
  0
SCALE
  5
66
102
{ACAD_REACTORS
330
47
102
}
330
47
100
AcDbScale
 70
     0
300
3" = 1'-0"
140
3.0
141
12.0
290
     0
  0
SCALE
  5
67
102
{ACAD_REACTORS
330
47
102
}
330
47
100
AcDbScale
 70
     0
300
6" = 1'-0"
140
6.0
141
12.0
290
     0
  0
SCALE
  5
68
102
{ACAD_REACTORS
330
47
102
}
330
47
100
AcDbScale
 70
     0
300
1'-0" = 1'-0"
140
12.0
141
12.0
290
     0
  0
ENDSEC
  0
EOF
